  0
SECTION
  2
HEADER
  9
$ACADVER
  1
AC1014
  9
$ACADMAINTVER
 70
     9
  9
$DWGCODEPAGE
  3
ANSI_932
  9
$INSBASE
 10
0.0
 20
0.0
 30
0.0
  9
$EXTMIN
 10
196.2742269912646
 20
79.03633270682928
 30
0.0
  9
$EXTMAX
 10
1121.706483745917
 20
1037.778579697873
 30
0.0
  9
$LIMMIN
 10
0.0
 20
0.0
  9
$LIMMAX
 10
1499.999994
 20
999.9999999999998
  9
$ORTHOMODE
 70
     0
  9
$REGENMODE
 70
     1
  9
$FILLMODE
 70
     1
  9
$QTEXTMODE
 70
     0
  9
$MIRRTEXT
 70
     0
  9
$DRAGMODE
 70
     2
  9
$LTSCALE
 40
5.0
  9
$OSMODE
 70
    37
  9
$ATTMODE
 70
     1
  9
$TEXTSIZE
 40
3.0
  9
$TRACEWID
 40
0.05
  9
$TEXTSTYLE
  7
K
  9
$CLAYER
  8
SUNPOU
  9
$CELTYPE
  6
BYLAYER
  9
$CECOLOR
 62
   256
  9
$CELTSCALE
 40
1.0
  9
$DELOBJ
 70
     1
  9
$DISPSILH
 70
     0
  9
$DIMSCALE
 40
5.0
  9
$DIMASZ
 40
3.0
  9
$DIMEXO
 40
1.0
  9
$DIMDLI
 40
6.0
  9
$DIMRND
 40
0.0
  9
$DIMDLE
 40
0.0
  9
$DIMEXE
 40
1.0
  9
$DIMTP
 40
0.01
  9
$DIMTM
 40
0.02
  9
$DIMTXT
 40
3.0
  9
$DIMCEN
 40
0.0
  9
$DIMTSZ
 40
0.0
  9
$DIMTOL
 70
     0
  9
$DIMLIM
 70
     0
  9
$DIMTIH
 70
     0
  9
$DIMTOH
 70
     0
  9
$DIMSE1
 70
     0
  9
$DIMSE2
 70
     0
  9
$DIMTAD
 70
     3
  9
$DIMZIN
 70
     8
  9
$DIMBLK
  1
ARROW
  9
$DIMASO
 70
     1
  9
$DIMSHO
 70
     0
  9
$DIMPOST
  1

  9
$DIMAPOST
  1

  9
$DIMALT
 70
     0
  9
$DIMALTD
 70
     2
  9
$DIMALTF
 40
25.4
  9
$DIMLFAC
 40
1.0
  9
$DIMTOFL
 70
     1
  9
$DIMTVP
 40
0.0
  9
$DIMTIX
 70
     1
  9
$DIMSOXD
 70
     0
  9
$DIMSAH
 70
     1
  9
$DIMBLK1
  1
ARROW
  9
$DIMBLK2
  1
ARROW
  9
$DIMSTYLE
  2
IMCADLT
  9
$DIMCLRD
 70
     0
  9
$DIMCLRE
 70
     0
  9
$DIMCLRT
 70
     0
  9
$DIMTFAC
 40
0.45
  9
$DIMGAP
 40
1.5
  9
$DIMJUST
 70
     0
  9
$DIMSD1
 70
     0
  9
$DIMSD2
 70
     0
  9
$DIMTOLJ
 70
     1
  9
$DIMTZIN
 70
     8
  9
$DIMALTZ
 70
     0
  9
$DIMALTTZ
 70
     0
  9
$DIMFIT
 70
     3
  9
$DIMUPT
 70
     1
  9
$DIMUNIT
 70
     2
  9
$DIMDEC
 70
     2
  9
$DIMTDEC
 70
     2
  9
$DIMALTU
 70
     2
  9
$DIMALTTD
 70
     2
  9
$DIMTXSTY
  7
STANDARD
  9
$DIMAUNIT
 70
     0
  9
$LUNITS
 70
     2
  9
$LUPREC
 70
     2
  9
$SKETCHINC
 40
0.1
  9
$FILLETRAD
 40
3.0
  9
$AUNITS
 70
     0
  9
$AUPREC
 70
     2
  9
$MENU
  1
STDR12J
  9
$ELEVATION
 40
0.0
  9
$PELEVATION
 40
0.0
  9
$THICKNESS
 40
0.0
  9
$LIMCHECK
 70
     0
  9
$BLIPMODE
 70
     0
  9
$CHAMFERA
 40
0.0
  9
$CHAMFERB
 40
0.0
  9
$CHAMFERC
 40
0.0
  9
$CHAMFERD
 40
0.0
  9
$SKPOLY
 70
     0
  9
$TDCREATE
 40
2452058.446635208
  9
$TDUPDATE
 40
2453133.700513923
  9
$TDINDWG
 40
0.2226800579
  9
$TDUSRTIMER
 40
0.2226800579
  9
$USRTIMER
 70
     1
  9
$ANGBASE
 50
0.0
  9
$ANGDIR
 70
     0
  9
$PDMODE
 70
     3
  9
$PDSIZE
 40
0.0
  9
$PLINEWID
 40
0.0
  9
$COORDS
 70
     1
  9
$SPLFRAME
 70
     0
  9
$SPLINETYPE
 70
     6
  9
$SPLINESEGS
 70
     8
  9
$ATTDIA
 70
     0
  9
$ATTREQ
 70
     1
  9
$HANDLING
 70
 10241
  9
$HANDSEED
  5
7EEE
  9
$SURFTAB1
 70
     6
  9
$SURFTAB2
 70
     6
  9
$SURFTYPE
 70
     6
  9
$SURFU
 70
     6
  9
$SURFV
 70
     6
  9
$UCSNAME
  2

  9
$UCSORG
 10
0.0
 20
0.0
 30
0.0
  9
$UCSXDIR
 10
1.0
 20
0.0
 30
0.0
  9
$UCSYDIR
 10
0.0
 20
1.0
 30
0.0
  9
$PUCSNAME
  2

  9
$PUCSORG
 10
0.0
 20
0.0
 30
0.0
  9
$PUCSXDIR
 10
1.0
 20
0.0
 30
0.0
  9
$PUCSYDIR
 10
0.0
 20
1.0
 30
0.0
  9
$USERI1
 70
     3
  9
$USERI2
 70
     1
  9
$USERI3
 70
     1
  9
$USERI4
 70
     1
  9
$USERI5
 70
     1
  9
$USERR1
 40
1.0
  9
$USERR2
 40
3.0
  9
$USERR3
 40
3.0
  9
$USERR4
 40
3.0
  9
$USERR5
 40
10.0
  9
$WORLDVIEW
 70
     1
  9
$SHADEDGE
 70
     3
  9
$SHADEDIF
 70
    70
  9
$TILEMODE
 70
     0
  9
$MAXACTVP
 70
    16
  9
$PINSBASE
 10
0.0
 20
0.0
 30
0.0
  9
$PLIMCHECK
 70
     0
  9
$PEXTMIN
 10
-0.0256335920262245
 20
-0.0181266115766903
 30
-0.0000000349181948
  9
$PEXTMAX
 10
420.0256358237003
 20
297.0181293776892
 30
0.0000000814935746
  9
$PLIMMIN
 10
-7.100895852582668
 20
-7.093406542872505
  9
$PLIMMAX
 10
433.1038778276677
 20
304.1561581044902
  9
$UNITMODE
 70
     0
  9
$VISRETAIN
 70
     0
  9
$PLINEGEN
 70
     0
  9
$PSLTSCALE
 70
     0
  9
$TREEDEPTH
 70
     0
  9
$PICKSTYLE
 70
     1
  9
$CMLSTYLE
  2
STANDARD
  9
$CMLJUST
 70
     0
  9
$CMLSCALE
 40
1.0
  9
$PROXYGRAPHICS
 70
     1
  9
$MEASUREMENT
 70
     1
  0
ENDSEC
  0
SECTION
  2
CLASSES
  0
CLASS
  1
LWPOLYLINE
  2
AcDbPolyline
  3
AutoCAD 2000
 90
        0
280
     0
281
     1
  0
CLASS
  1
HATCH
  2
AcDbHatch
  3
AutoCAD 2000
 90
        0
280
     0
281
     1
  0
CLASS
  1
DICTIONARYVAR
  2
AcDbDictionaryVar
  3
AutoCAD 2000
 90
        0
280
     0
281
     0
  0
CLASS
  1
ACDBDICTIONARYWDFLT
  2
AcDbDictionaryWithDefault
  3
AutoCAD 2000
 90
        0
280
     0
281
     0
  0
CLASS
  1
ACDBPLACEHOLDER
  2
AcDbPlaceHolder
  3
AutoCAD 2000
 90
        0
280
     0
281
     0
  0
CLASS
  1
LAYOUT
  2
AcDbLayout
  3
AutoCAD 2000
 90
        0
280
     0
281
     0
  0
CLASS
  1
LONG_TRANSACTION
  2
AcDbLongTransaction
  3
AutoCAD 2000
 90
        0
280
     0
281
     0
  0
CLASS
  1
LWPOLYLINE
  2
AcDbPolyline
  3
AutoCAD 2000
 90
        0
280
     0
281
     1
  0
CLASS
  1
HATCH
  2
AcDbHatch
  3
AutoCAD 2000
 90
        0
280
     0
281
     1
  0
CLASS
  1
XRECORD
  2
AcDbXrecord
  3
AutoCAD 2000
 90
        0
280
     0
281
     0
  0
ENDSEC
  0
SECTION
  2
TABLES
  0
TABLE
  2
VPORT
  5
CF
330
0
100
AcDbSymbolTable
 70
     9
  0
VPORT
  5
F5
330
CF
100
AcDbSymbolTableRecord
100
AcDbViewportTableRecord
  2
2
 70
     0
 10
0.5
 20
0.0
 11
1.0
 21
1.0
 12
0.9240312421264802
 22
1.052650975462766
 13
0.0
 23
0.0
 14
1.0
 24
1.0
 15
10.0
 25
10.0
 16
0.0
 26
0.0
 36
1.0
 17
0.0
 27
0.0
 37
0.0
 40
2.105301950925533
 41
0.8778135048231511
 42
50.0
 43
0.0
 44
0.0
 50
0.0
 51
0.0
 71
     0
 72
   500
 73
     1
 74
     1
 75
     0
 76
     0
 77
     0
 78
     0
  0
VPORT
  5
F6
330
CF
100
AcDbSymbolTableRecord
100
AcDbViewportTableRecord
  2
2
 70
     0
 10
0.0
 20
0.0
 11
0.5
 21
1.0
 12
0.9240312421264802
 22
1.052650975462766
 13
0.0
 23
0.0
 14
1.0
 24
1.0
 15
10.0
 25
10.0
 16
0.0
 26
0.0
 36
1.0
 17
0.0
 27
0.0
 37
0.0
 40
2.105301950925533
 41
0.8778135048231511
 42
50.0
 43
0.0
 44
0.0
 50
0.0
 51
0.0
 71
     0
 72
   500
 73
     1
 74
     1
 75
     0
 76
     0
 77
     0
 78
     0
  0
VPORT
  5
F7
330
CF
100
AcDbSymbolTableRecord
100
AcDbViewportTableRecord
  2
3
 70
     0
 10
0.0
 20
0.5
 11
1.0
 21
1.0
 12
2.832169994473273
 22
1.052650975462766
 13
0.0
 23
0.0
 14
1.0
 24
1.0
 15
10.0
 25
10.0
 16
0.0
 26
0.0
 36
1.0
 17
0.0
 27
0.0
 37
0.0
 40
2.105301950925533
 41
3.571428571428571
 42
50.0
 43
0.0
 44
0.0
 50
0.0
 51
0.0
 71
     0
 72
   500
 73
     1
 74
     1
 75
     0
 76
     0
 77
     0
 78
     0
  0
VPORT
  5
F8
330
CF
100
AcDbSymbolTableRecord
100
AcDbViewportTableRecord
  2
3
 70
     0
 10
0.0
 20
0.0
 11
1.0
 21
0.5
 12
2.856741679241311
 22
1.052650975462766
 13
0.0
 23
0.0
 14
1.0
 24
1.0
 15
10.0
 25
10.0
 16
0.0
 26
0.0
 36
1.0
 17
0.0
 27
0.0
 37
0.0
 40
2.105301950925533
 41
3.594771241830065
 42
50.0
 43
0.0
 44
0.0
 50
0.0
 51
0.0
 71
     0
 72
   500
 73
     1
 74
     1
 75
     0
 76
     0
 77
     0
 78
     0
  0
VPORT
  5
F9
330
CF
100
AcDbSymbolTableRecord
100
AcDbViewportTableRecord
  2
4
 70
     0
 10
0.5
 20
0.0
 11
1.0
 21
0.5
 12
2.886857516709719
 22
1.052650975462766
 13
0.0
 23
0.0
 14
1.0
 24
1.0
 15
10.0
 25
10.0
 16
0.0
 26
0.0
 36
1.0
 17
0.0
 27
0.0
 37
0.0
 40
4.27520703030907
 41
1.784313725490195
 42
50.0
 43
0.0
 44
0.0
 50
0.0
 51
0.0
 71
     0
 72
   500
 73
     1
 74
     1
 75
     0
 76
     0
 77
     0
 78
     0
  0
VPORT
  5
FA
330
CF
100
AcDbSymbolTableRecord
100
AcDbViewportTableRecord
  2
4
 70
     0
 10
0.5
 20
0.5
 11
1.0
 21
1.0
 12
2.862090274555523
 22
1.052650975462766
 13
0.0
 23
0.0
 14
1.0
 24
1.0
 15
10.0
 25
10.0
 16
0.0
 26
0.0
 36
1.0
 17
0.0
 27
0.0
 37
0.0
 40
4.27520703030907
 41
1.772727272727272
 42
50.0
 43
0.0
 44
0.0
 50
0.0
 51
0.0
 71
     0
 72
   500
 73
     1
 74
     1
 75
     0
 76
     0
 77
     0
 78
     0
  0
VPORT
  5
FB
330
CF
100
AcDbSymbolTableRecord
100
AcDbViewportTableRecord
  2
4
 70
     0
 10
0.0
 20
0.5
 11
0.5
 21
1.0
 12
2.862090274555523
 22
1.052650975462766
 13
0.0
 23
0.0
 14
1.0
 24
1.0
 15
10.0
 25
10.0
 16
0.0
 26
0.0
 36
1.0
 17
0.0
 27
0.0
 37
0.0
 40
4.27520703030907
 41
1.772727272727272
 42
50.0
 43
0.0
 44
0.0
 50
0.0
 51
0.0
 71
     0
 72
   500
 73
     1
 74
     1
 75
     0
 76
     0
 77
     0
 78
     0
  0
VPORT
  5
FC
330
CF
100
AcDbSymbolTableRecord
100
AcDbViewportTableRecord
  2
4
 70
     0
 10
0.0
 20
0.0
 11
0.5
 21
0.5
 12
2.886857516709719
 22
1.052650975462766
 13
0.0
 23
0.0
 14
1.0
 24
1.0
 15
10.0
 25
10.0
 16
0.0
 26
0.0
 36
1.0
 17
0.0
 27
0.0
 37
0.0
 40
4.27520703030907
 41
1.784313725490195
 42
50.0
 43
0.0
 44
0.0
 50
0.0
 51
0.0
 71
     0
 72
   500
 73
     1
 74
     1
 75
     0
 76
     0
 77
     0
 78
     0
  0
VPORT
  5
7EBC
330
CF
100
AcDbSymbolTableRecord
100
AcDbViewportTableRecord
  2
*ACTIVE
 70
     0
 10
0.0
 20
0.0
 11
1.0
 21
1.0
 12
749.999997
 22
518.9051263015294
 13
0.0
 23
0.0
 14
1.0
 24
1.0
 15
10.0
 25
10.0
 16
0.0
 26
0.0
 36
1.0
 17
0.0
 27
0.0
 37
0.0
 40
1045.250328310576
 41
1.516052318668252
 42
50.0
 43
0.0
 44
0.0
 50
0.0
 51
0.0
 71
     0
 72
   500
 73
     1
 74
     0
 75
     0
 76
     0
 77
     0
 78
     0
  0
ENDTAB
  0
TABLE
  2
LTYPE
  5
CC
330
0
100
AcDbSymbolTable
 70
     5
  0
LTYPE
  5
D9
330
CC
100
AcDbSymbolTableRecord
100
AcDbLinetypeTableRecord
  2
BYBLOCK
 70
     0
  3

 72
    65
 73
     0
 40
0.0
  0
LTYPE
  5
DA
330
CC
100
AcDbSymbolTableRecord
100
AcDbLinetypeTableRecord
  2
BYLAYER
 70
     0
  3

 72
    65
 73
     0
 40
0.0
  0
LTYPE
  5
DB
330
CC
100
AcDbSymbolTableRecord
100
AcDbLinetypeTableRecord
  2
CONTINUOUS
 70
     0
  3
実線
 72
    65
 73
     0
 40
0.0
  0
LTYPE
  5
F1
330
CC
100
AcDbSymbolTableRecord
100
AcDbLinetypeTableRecord
  2
DASHED
 70
     0
  3
__ __ __ __ __ __ __ __ __ __ __ __ __ __ __
 72
    65
 73
     2
 40
0.75
 49
0.5
 74
     0
 49
-0.25
 74
     0
  0
LTYPE
  5
F2
330
CC
100
AcDbSymbolTableRecord
100
AcDbLinetypeTableRecord
  2
CENTER
 70
     0
  3
____ _ ____ _ ____ _ ____ _ ____ _ ____ _ ____
 72
    65
 73
     4
 40
2.0
 49
1.25
 74
     0
 49
-0.25
 74
     0
 49
0.25
 74
     0
 49
-0.25
 74
     0
  0
LTYPE
  5
F3
330
CC
100
AcDbSymbolTableRecord
100
AcDbLinetypeTableRecord
  2
PHANTOM
 70
     0
  3
_____ _ _ _____ _ _ _____ _ _ _____ _ _ ____
 72
    65
 73
     6
 40
2.5
 49
1.25
 74
     0
 49
-0.25
 74
     0
 49
0.25
 74
     0
 49
-0.25
 74
     0
 49
0.25
 74
     0
 49
-0.25
 74
     0
  0
LTYPE
  5
F4
330
CC
100
AcDbSymbolTableRecord
100
AcDbLinetypeTableRecord
  2
HIDDEN
 70
     0
  3
_ _ _ _ _ _ _ _ _ _ _ _ _ _ _ _ _ _ _ _ _ _ _
 72
    65
 73
     2
 40
0.375
 49
0.25
 74
     0
 49
-0.125
 74
     0
  0
ENDTAB
  0
TABLE
  2
LAYER
  5
C9
330
0
100
AcDbSymbolTable
 70
    20
  0
LAYER
  5
D6
330
C9
100
AcDbSymbolTableRecord
100
AcDbLayerTableRecord
  2
0
 70
     0
 62
     7
  6
CONTINUOUS
  0
LAYER
  5
100
330
C9
100
AcDbSymbolTableRecord
100
AcDbLayerTableRecord
  2
HASEN
 70
     0
 62
     2
  6
DASHED
  0
LAYER
  5
101
330
C9
100
AcDbSymbolTableRecord
100
AcDbLayerTableRecord
  2
ITTEN
 70
     0
 62
     1
  6
CENTER
  0
LAYER
  5
102
330
C9
100
AcDbSymbolTableRecord
100
AcDbLayerTableRecord
  2
NITEN
 70
     0
 62
     2
  6
PHANTOM
  0
LAYER
  5
103
330
C9
100
AcDbSymbolTableRecord
100
AcDbLayerTableRecord
  2
HATCH
 70
     0
 62
     4
  6
CONTINUOUS
  0
LAYER
  5
104
330
C9
100
AcDbSymbolTableRecord
100
AcDbLayerTableRecord
  2
SUNPOU
 70
     0
 62
     3
  6
CONTINUOUS
  0
LAYER
  5
105
330
C9
100
AcDbSymbolTableRecord
100
AcDbLayerTableRecord
  2
TEXT
 70
     0
 62
     3
  6
CONTINUOUS
  0
LAYER
  5
106
330
C9
100
AcDbSymbolTableRecord
100
AcDbLayerTableRecord
  2
SAISEN
 70
     0
 62
     4
  6
CONTINUOUS
  0
LAYER
  5
107
330
C9
100
AcDbSymbolTableRecord
100
AcDbLayerTableRecord
  2
JISSEN
 70
     0
 62
     7
  6
CONTINUOUS
  0
LAYER
  5
108
330
C9
100
AcDbSymbolTableRecord
100
AcDbLayerTableRecord
  2
HOJO
 70
     0
 62
     6
  6
CONTINUOUS
  0
LAYER
  5
109
330
C9
100
AcDbSymbolTableRecord
100
AcDbLayerTableRecord
  2
TENSEN
 70
     0
 62
     2
  6
HIDDEN
  0
LAYER
  5
10A
330
C9
100
AcDbSymbolTableRecord
100
AcDbLayerTableRecord
  2
HOJOORG
 70
     0
 62
     1
  6
CONTINUOUS
  0
LAYER
  5
10B
330
C9
100
AcDbSymbolTableRecord
100
AcDbLayerTableRecord
  2
WAKU
 70
     0
 62
     5
  6
CONTINUOUS
  0
LAYER
  5
10C
330
C9
100
AcDbSymbolTableRecord
100
AcDbLayerTableRecord
  2
POINT
 70
     0
 62
     7
  6
CONTINUOUS
  0
LAYER
  5
6F31
330
C9
100
AcDbSymbolTableRecord
100
AcDbLayerTableRecord
  2
WINDOW
 70
     0
 62
     7
  6
CONTINUOUS
  0
LAYER
  5
6F58
330
C9
100
AcDbSymbolTableRecord
100
AcDbLayerTableRecord
  2
DEFPOINTS
 70
     0
 62
     7
  6
CONTINUOUS
  0
LAYER
  5
6F7C
330
C9
100
AcDbSymbolTableRecord
100
AcDbLayerTableRecord
  2
BODY
 70
     0
 62
   131
  6
CONTINUOUS
  0
LAYER
  5
72AB
330
C9
100
AcDbSymbolTableRecord
100
AcDbLayerTableRecord
  2
SUNPOU2
 70
     0
 62
     3
  6
CONTINUOUS
  0
LAYER
  5
73A5
330
C9
100
AcDbSymbolTableRecord
100
AcDbLayerTableRecord
  2
HIDDEN_L
 70
     0
 62
     7
  6
CONTINUOUS
  0
LAYER
  5
7B81
330
C9
100
AcDbSymbolTableRecord
100
AcDbLayerTableRecord
  2
OBJECT
 70
     0
 62
     7
  6
CONTINUOUS
  0
ENDTAB
  0
TABLE
  2
STYLE
  5
CA
330
0
100
AcDbSymbolTable
 70
     3
  0
STYLE
  5
D7
330
CA
100
AcDbSymbolTableRecord
100
AcDbTextStyleTableRecord
  2
STANDARD
 70
     0
 40
0.0
 41
1.0
 50
0.0
 71
     0
 42
0.2
  3
ROMANS
  4
EXTFONT
  0
STYLE
  5
F0
330
CA
100
AcDbSymbolTableRecord
100
AcDbTextStyleTableRecord
  2
K
 70
     0
 40
0.0
 41
1.0
 50
0.0
 71
     0
 42
3.0
  3
ROMANS
  4
EXTFONT
  0
STYLE
  5
7B82
330
CA
100
AcDbSymbolTableRecord
100
AcDbTextStyleTableRecord
  2
ADESK1
 70
     0
 40
0.0
 41
1.0
 50
0.0
 71
     0
 42
5.0
  3
romans
  4
bigfont
  0
ENDTAB
  0
TABLE
  2
VIEW
  5
CD
330
0
100
AcDbSymbolTable
 70
     0
  0
ENDTAB
  0
TABLE
  2
UCS
  5
CE
330
0
100
AcDbSymbolTable
 70
     0
  0
ENDTAB
  0
TABLE
  2
APPID
  5
D0
330
0
100
AcDbSymbolTable
 70
     3
  0
APPID
  5
D8
330
D0
100
AcDbSymbolTableRecord
100
AcDbRegAppTableRecord
  2
ACAD
 70
     0
  0
APPID
  5
50D6
330
D0
100
AcDbSymbolTableRecord
100
AcDbRegAppTableRecord
  2
CONTENTTABDATA
 70
     0
  0
APPID
  5
50D7
330
D0
100
AcDbSymbolTableRecord
100
AcDbRegAppTableRecord
  2
CONTENTCURRENTTAB
 70
     0
  0
ENDTAB
  0
TABLE
  2
DIMSTYLE
  5
D1
330
0
100
AcDbSymbolTable
 70
    13
  0
DIMSTYLE
105
FF
330
D1
100
AcDbSymbolTableRecord
100
AcDbDimStyleTableRecord
  2
IMAO
 70
     0
  3

  4

  5
ARROW
  6
OPEN
  7
OPEN
 40
1.0
 41
1.5
 42
1.0
 43
6.0
 44
1.0
 45
0.0
 46
0.0
 47
495.0
 48
0.0
140
3.0
141
0.0
142
0.0
143
25.4
144
1.0
145
0.0
146
1.0
147
1.5
 71
     0
 72
     0
 73
     0
 74
     0
 75
     0
 76
     0
 77
     1
 78
     8
170
     0
171
     2
172
     1
173
     0
174
     1
175
     0
176
     0
177
     0
178
     0
270
     2
271
     2
272
     2
273
     2
274
     2
340
F0
275
     0
280
     0
281
     0
282
     0
283
     1
284
     8
285
     8
286
     8
287
     3
288
     1
  0
DIMSTYLE
105
401
330
D1
100
AcDbSymbolTableRecord
100
AcDbDimStyleTableRecord
  2
STANDARD
 70
     0
  3

  4

  5

  6
ARROW
  7
ARROW
 40
0.0
 41
6.0
 42
1.0
 43
6.0
 44
1.0
 45
0.0
 46
0.0
 47
0.5
 48
0.5
140
3.0
141
0.0
142
0.0
143
25.4
144
1.0
145
0.0
146
0.5
147
1.5
 71
     1
 72
     0
 73
     0
 74
     0
 75
     0
 76
     0
 77
     1
 78
     8
170
     0
171
     2
172
     1
173
     1
174
     1
175
     0
176
     0
177
     0
178
     0
270
     2
271
     0
272
     0
273
     2
274
     2
340
D7
275
     0
280
     0
281
     0
282
     0
283
     1
284
     0
285
     0
286
     0
287
     3
288
     1
  0
DIMSTYLE
105
402
102
{ACAD_REACTORS
330
7E0A
330
7E31
330
7E3E
330
7E4B
330
7EAB
102
}
330
D1
100
AcDbSymbolTableRecord
100
AcDbDimStyleTableRecord
  2
IMCADLT
 70
     0
  3

  4

  5
ARROW
  6
ARROW
  7
ARROW
 40
5.0
 41
3.0
 42
1.0
 43
6.0
 44
1.0
 45
0.0
 46
0.0
 47
0.01
 48
0.02
140
3.0
141
0.0
142
0.0
143
25.4
144
1.0
145
0.0
146
0.45
147
1.5
 71
     0
 72
     0
 73
     0
 74
     0
 75
     0
 76
     0
 77
     3
 78
     8
170
     0
171
     2
172
     1
173
     1
174
     1
175
     0
176
     0
177
     0
178
     0
270
     2
271
     2
272
     2
273
     2
274
     2
340
D7
275
     0
280
     0
281
     0
282
     0
283
     1
284
     8
285
     0
286
     0
287
     3
288
     1
  0
DIMSTYLE
105
F97
330
D1
100
AcDbSymbolTableRecord
100
AcDbDimStyleTableRecord
  2
IMAO_1
 70
     0
  3

  4

  5
ARROW
  6
ARROW
  7
ARROW
 40
0.0
 41
1.5
 42
1.0
 43
6.0
 44
1.0
 45
0.0
 46
0.0
 47
1.0
 48
0.0
140
3.0
141
0.0
142
0.0
143
25.4
144
1.0
145
0.0
146
0.5
147
1.5
 71
     1
 72
     0
 73
     0
 74
     0
 75
     0
 76
     0
 77
     1
 78
     8
170
     0
171
     2
172
     1
173
     1
174
     1
175
     0
176
     0
177
     0
178
     0
270
     2
271
     0
272
     0
273
     2
274
     2
340
D7
275
     0
280
     0
281
     0
282
     0
283
     1
284
     0
285
     0
286
     0
287
     3
288
     1
  0
DIMSTYLE
105
F98
330
D1
100
AcDbSymbolTableRecord
100
AcDbDimStyleTableRecord
  2
IMAO_05
 70
     0
  3

  4

  5
ARROW
  6
ARROW
  7
ARROW
 40
0.0
 41
1.5
 42
1.0
 43
6.0
 44
1.0
 45
0.0
 46
0.0
 47
0.5
 48
0.5
140
3.0
141
0.0
142
0.0
143
25.4
144
1.0
145
0.0
146
1.0
147
1.5
 71
     1
 72
     0
 73
     0
 74
     0
 75
     0
 76
     0
 77
     1
 78
     8
170
     0
171
     2
172
     1
173
     1
174
     1
175
     0
176
     0
177
     0
178
     0
270
     2
271
     1
272
     1
273
     2
274
     2
340
D7
275
     0
280
     0
281
     0
282
     0
283
     1
284
     0
285
     0
286
     0
287
     3
288
     1
  0
DIMSTYLE
105
F99
330
D1
100
AcDbSymbolTableRecord
100
AcDbDimStyleTableRecord
  2
IMAO_NOMAL
 70
     0
  3

  4

  5
ARROW
  6
ARROW
  7
ARROW
 40
0.0
 41
1.5
 42
1.0
 43
6.0
 44
1.0
 45
0.0
 46
0.0
 47
1.0
 48
0.0
140
3.0
141
0.0
142
0.0
143
25.4
144
1.0
145
0.0
146
0.5
147
1.5
 71
     0
 72
     0
 73
     0
 74
     0
 75
     0
 76
     0
 77
     1
 78
     8
170
     0
171
     2
172
     1
173
     1
174
     1
175
     0
176
     0
177
     0
178
     0
270
     2
271
     1
272
     1
273
     2
274
     2
340
D7
275
     0
280
     0
281
     0
282
     0
283
     1
284
     0
285
     0
286
     0
287
     3
288
     1
  0
DIMSTYLE
105
12F0
330
D1
100
AcDbSymbolTableRecord
100
AcDbDimStyleTableRecord
  2
IMAO_07
 70
     0
  3

  4

  5
ARROW
  6
ARROW
  7
ARROW
 40
0.0
 41
1.5
 42
1.0
 43
6.0
 44
1.0
 45
0.0
 46
0.0
 47
0.7
 48
0.7
140
3.0
141
0.0
142
0.0
143
25.4
144
1.0
145
0.0
146
1.0
147
1.5
 71
     1
 72
     0
 73
     0
 74
     0
 75
     0
 76
     0
 77
     1
 78
     8
170
     0
171
     2
172
     1
173
     1
174
     1
175
     0
176
     0
177
     0
178
     0
270
     2
271
     1
272
     1
273
     2
274
     2
340
D7
275
     0
280
     0
281
     0
282
     0
283
     1
284
     8
285
     8
286
     8
287
     5
288
     0
  0
DIMSTYLE
105
136D
330
D1
100
AcDbSymbolTableRecord
100
AcDbDimStyleTableRecord
  2
IMAO_M1
 70
     0
  3

  4

  5
ARROW
  6
ARROW
  7
ARROW
 40
0.0
 41
1.5
 42
1.0
 43
6.0
 44
1.0
 45
0.0
 46
0.0
 47
0.0
 48
1.0
140
3.0
141
0.0
142
0.0
143
25.4
144
1.0
145
0.0
146
0.5
147
1.5
 71
     1
 72
     0
 73
     0
 74
     0
 75
     0
 76
     0
 77
     1
 78
     8
170
     0
171
     2
172
     1
173
     1
174
     1
175
     0
176
     0
177
     0
178
     0
270
     2
271
     1
272
     1
273
     2
274
     2
340
D7
275
     0
280
     0
281
     0
282
     0
283
     1
284
     8
285
     8
286
     8
287
     3
288
     0
  0
DIMSTYLE
105
13E1
330
D1
100
AcDbSymbolTableRecord
100
AcDbDimStyleTableRecord
  2
IMAO_NOMAL_W
 70
     0
  3

  4

  5
ARROW
  6
ARROW
  7
ARROW
 40
0.0
 41
3.0
 42
1.0
 43
6.0
 44
1.0
 45
0.0
 46
0.0
 47
1.0
 48
0.0
140
6.0
141
0.0
142
0.0
143
25.4
144
1.0
145
0.0
146
0.5
147
3.0
 71
     0
 72
     0
 73
     0
 74
     0
 75
     0
 76
     0
 77
     1
 78
     8
170
     0
171
     2
172
     1
173
     1
174
     1
175
     0
176
     0
177
     0
178
     0
270
     2
271
     1
272
     1
273
     2
274
     2
340
D7
275
     0
280
     0
281
     0
282
     0
283
     1
284
     0
285
     0
286
     0
287
     3
288
     1
  0
DIMSTYLE
105
140E
330
D1
100
AcDbSymbolTableRecord
100
AcDbDimStyleTableRecord
  2
IMAO_05_W
 70
     0
  3

  4

  5
ARROW
  6
ARROW
  7
ARROW
 40
0.0
 41
3.0
 42
1.0
 43
6.0
 44
1.0
 45
0.0
 46
0.0
 47
0.5
 48
0.5
140
6.0
141
0.0
142
0.0
143
25.4
144
1.0
145
0.0
146
1.0
147
3.0
 71
     1
 72
     0
 73
     0
 74
     0
 75
     0
 76
     0
 77
     1
 78
     8
170
     0
171
     2
172
     1
173
     1
174
     1
175
     0
176
     0
177
     0
178
     0
270
     2
271
     1
272
     1
273
     2
274
     2
340
D7
275
     0
280
     0
281
     0
282
     0
283
     1
284
     0
285
     0
286
     0
287
     3
288
     1
  0
DIMSTYLE
105
140F
330
D1
100
AcDbSymbolTableRecord
100
AcDbDimStyleTableRecord
  2
IMAO_1_W
 70
     0
  3

  4

  5
ARROW
  6
ARROW
  7
ARROW
 40
0.0
 41
3.0
 42
1.0
 43
6.0
 44
1.0
 45
0.0
 46
0.0
 47
1.0
 48
0.0
140
6.0
141
0.0
142
0.0
143
25.4
144
1.0
145
0.0
146
0.5
147
3.0
 71
     1
 72
     0
 73
     0
 74
     0
 75
     0
 76
     0
 77
     1
 78
     8
170
     0
171
     2
172
     1
173
     1
174
     1
175
     0
176
     0
177
     0
178
     0
270
     2
271
     0
272
     0
273
     2
274
     2
340
D7
275
     0
280
     0
281
     0
282
     0
283
     1
284
     0
285
     0
286
     0
287
     3
288
     1
  0
DIMSTYLE
105
79AF
330
D1
100
AcDbSymbolTableRecord
100
AcDbDimStyleTableRecord
  2
ITM
 70
     0
  3

  4

  5

  6

  7

 40
1.0
 41
1.5
 42
1.0
 43
6.0
 44
1.0
 45
0.0
 46
0.0
 47
495.0
 48
0.0
140
3.0
141
0.0
142
0.0
143
25.4
144
1.0
145
0.0
146
1.0
147
0.5
 71
     0
 72
     0
 73
     0
 74
     0
 75
     0
 76
     0
 77
     3
 78
     8
170
     0
171
     2
172
     1
173
     1
174
     1
175
     0
176
     0
177
     0
178
     0
270
     2
271
     4
272
     4
273
     2
274
     2
340
F0
275
     0
280
     0
281
     0
282
     0
283
     1
284
     0
285
     0
286
     0
287
     3
288
     0
  0
DIMSTYLE
105
7B83
330
D1
100
AcDbSymbolTableRecord
100
AcDbDimStyleTableRecord
  2
JIS
 70
     0
  3

  4

  5

  6

  7

 40
1.0
 41
2.5
 42
1.0
 43
7.0
 44
1.0
 45
0.0
 46
0.0
 47
0.0
 48
0.0
140
2.5
141
0.0
142
0.0
143
0.0394
144
1.0
145
0.0
146
1.0
147
0.0
 71
     0
 72
     0
 73
     0
 74
     0
 75
     0
 76
     0
 77
     1
 78
     8
170
     0
171
     2
172
     1
173
     0
174
     1
175
     1
176
     0
177
     0
178
     0
270
     2
271
     4
272
     4
273
     2
274
     2
340
D7
275
     0
280
     0
281
     0
282
     0
283
     1
284
     0
285
     0
286
     0
287
     3
288
     0
  0
ENDTAB
  0
TABLE
  2
BLOCK_RECORD
  5
C8
330
0
100
AcDbSymbolTable
 70
    12
  0
BLOCK_RECORD
  5
DF
102
{ACAD_XDICTIONARY
360
7EEC
102
}
330
C8
100
AcDbSymbolTableRecord
100
AcDbBlockTableRecord
  2
*MODEL_SPACE
  0
BLOCK_RECORD
  5
DC
102
{ACAD_XDICTIONARY
360
7EEA
102
}
330
C8
100
AcDbSymbolTableRecord
100
AcDbBlockTableRecord
  2
*PAPER_SPACE
  0
BLOCK_RECORD
  5
E3
330
C8
100
AcDbSymbolTableRecord
100
AcDbBlockTableRecord
  2
ARROW
  0
BLOCK_RECORD
  5
145
330
C8
100
AcDbSymbolTableRecord
100
AcDbBlockTableRecord
  2
_OPEN
  0
BLOCK_RECORD
  5
7B84
330
C8
100
AcDbSymbolTableRecord
100
AcDbBlockTableRecord
  2
JIS_A3
  0
BLOCK_RECORD
  5
7C19
330
C8
100
AcDbSymbolTableRecord
100
AcDbBlockTableRecord
  2
S3
  0
BLOCK_RECORD
  5
7CE8
330
C8
100
AcDbSymbolTableRecord
100
AcDbBlockTableRecord
  2
S6
  0
BLOCK_RECORD
  5
7DFE
330
C8
100
AcDbSymbolTableRecord
100
AcDbBlockTableRecord
  2
*D5
  0
BLOCK_RECORD
  5
7E25
330
C8
100
AcDbSymbolTableRecord
100
AcDbBlockTableRecord
  2
*D7
  0
BLOCK_RECORD
  5
7E32
330
C8
100
AcDbSymbolTableRecord
100
AcDbBlockTableRecord
  2
*D8
  0
BLOCK_RECORD
  5
7E3F
330
C8
100
AcDbSymbolTableRecord
100
AcDbBlockTableRecord
  2
*D9
  0
BLOCK_RECORD
  5
7E63
330
C8
100
AcDbSymbolTableRecord
100
AcDbBlockTableRecord
  2
BATU2
  0
BLOCK_RECORD
  5
7E9D
330
C8
100
AcDbSymbolTableRecord
100
AcDbBlockTableRecord
  2
*D11
  0
ENDTAB
  0
ENDSEC
  0
SECTION
  2
BLOCKS
  0
BLOCK
  5
10F
330
DF
100
AcDbEntity
  8
0
100
AcDbBlockBegin
  2
*MODEL_SPACE
 70
     0
 10
0.0
 20
0.0
 30
0.0
  3
*MODEL_SPACE
  1

  0
ENDBLK
  5
110
330
DF
100
AcDbEntity
  8
0
100
AcDbBlockEnd
  0
BLOCK
  5
10D
330
DC
100
AcDbEntity
 67
     1
  8
0
100
AcDbBlockBegin
  2
*PAPER_SPACE
 70
     0
 10
0.0
 20
0.0
 30
0.0
  3
*PAPER_SPACE
  1

  0
ENDBLK
  5
10E
330
DC
100
AcDbEntity
 67
     1
  8
0
100
AcDbBlockEnd
  0
BLOCK
  5
1
330
E3
100
AcDbEntity
  8
0
100
AcDbBlockBegin
  2
ARROW
 70
     0
 10
1.0
 20
0.5
 30
0.0
  3
ARROW
  1

  0
LINE
  5
2
330
E3
100
AcDbEntity
  8
0
100
AcDbLine
 10
1.0
 20
0.5
 30
0.0
 11
-0.5000000000000214
 21
0.0980762113533018
 31
0.0
  0
LINE
  5
3
330
E3
100
AcDbEntity
  8
0
100
AcDbLine
 10
0.0
 20
0.5
 30
0.0
 11
1.0
 21
0.5
 31
0.0
  0
LINE
  5
4
330
E3
100
AcDbEntity
  8
0
100
AcDbLine
 10
1.0
 20
0.5
 30
0.0
 11
-0.4999999999999574
 21
0.9019237886467408
 31
0.0
  0
ENDBLK
  5
5
330
E3
100
AcDbEntity
  8
0
100
AcDbBlockEnd
  0
BLOCK
  5
149
330
145
100
AcDbEntity
  8
0
100
AcDbBlockBegin
  2
_OPEN
 70
     0
 10
0.0
 20
0.0
 30
0.0
  3
_OPEN
  1

  0
LINE
  5
146
330
145
100
AcDbEntity
  8
0
  6
BYBLOCK
 62
     0
100
AcDbLine
 10
-1.0
 20
0.1666666666666666
 30
0.0
 11
0.0
 21
0.0
 31
0.0
  0
LINE
  5
147
330
145
100
AcDbEntity
  8
0
  6
BYBLOCK
 62
     0
100
AcDbLine
 10
0.0
 20
0.0
 30
0.0
 11
-1.0
 21
-0.1666666666666666
 31
0.0
  0
LINE
  5
148
330
145
100
AcDbEntity
  8
0
  6
BYBLOCK
 62
     0
100
AcDbLine
 10
0.0
 20
0.0
 30
0.0
 11
-1.0
 21
0.0
 31
0.0
  0
ENDBLK
  5
14A
330
145
100
AcDbEntity
  8
0
100
AcDbBlockEnd
  0
BLOCK
  5
7C11
330
7B84
100
AcDbEntity
  8
0
100
AcDbBlockBegin
  2
JIS_A3
 70
     2
 10
0.0
 20
0.0
 30
0.0
  3
JIS_A3
  1

  0
LINE
  5
7B85
330
7B84
100
AcDbEntity
  8
0
100
AcDbLine
 10
0.0
 20
0.0
 30
0.0
 11
0.0
 21
10.0
 31
0.0
  0
LINE
  5
7B86
330
7B84
100
AcDbEntity
  8
0
100
AcDbLine
 10
0.0
 20
297.0
 30
0.0
 11
25.0
 21
297.0
 31
0.0
  0
LINE
  5
7B87
330
7B84
100
AcDbEntity
  8
0
100
AcDbLine
 10
420.0
 20
297.0
 30
0.0
 11
420.0
 21
287.0
 31
0.0
  0
LINE
  5
7B88
330
7B84
100
AcDbEntity
  8
0
100
AcDbLine
 10
420.0
 20
0.0
 30
0.0
 11
410.0
 21
0.0
 31
0.0
  0
LINE
  5
7B89
330
7B84
100
AcDbEntity
  8
0
100
AcDbLine
 10
25.0
 20
10.0
 30
0.0
 11
25.0
 21
287.0
 31
0.0
  0
LINE
  5
7B8A
330
7B84
100
AcDbEntity
  8
0
100
AcDbLine
 10
410.0
 20
10.0
 30
0.0
 11
25.0
 21
10.0
 31
0.0
  0
LINE
  5
7B8B
330
7B84
100
AcDbEntity
  8
0
100
AcDbLine
 10
410.0
 20
287.0
 30
0.0
 11
410.0
 21
10.0
 31
0.0
  0
LINE
  5
7B8C
330
7B84
100
AcDbEntity
  8
0
100
AcDbLine
 10
25.0
 20
287.0
 30
0.0
 11
410.0
 21
287.0
 31
0.0
  0
LINE
  5
7B8D
330
7B84
100
AcDbEntity
  8
0
100
AcDbLine
 10
0.0
 20
287.0
 30
0.0
 11
0.0
 21
297.0
 31
0.0
  0
LINE
  5
7B8E
330
7B84
100
AcDbEntity
  8
0
100
AcDbLine
 10
25.0
 20
0.0
 30
0.0
 11
0.0
 21
0.0
 31
0.0
  0
LINE
  5
7B8F
330
7B84
100
AcDbEntity
  8
0
100
AcDbLine
 10
420.0
 20
10.0
 30
0.0
 11
420.0
 21
0.0
 31
0.0
  0
LINE
  5
7B90
330
7B84
100
AcDbEntity
  8
0
100
AcDbLine
 10
410.0
 20
297.0
 30
0.0
 11
420.0
 21
297.0
 31
0.0
  0
ATTDEF
  5
7B91
330
7B84
100
AcDbEntity
  8
0
 62
     0
100
AcDbText
 10
19.0
 20
10.0
 30
0.0
 40
3.0
  1

 50
90.0
  7
ADESK1
100
AcDbAttributeDefinition
  3

  2
USER
 70
     8
  0
ATTDEF
  5
7B92
330
7B84
100
AcDbEntity
  8
0
 62
     0
100
AcDbText
 10
19.0
 20
70.0
 30
0.0
 40
3.0
  1

 50
90.0
  7
ADESK1
100
AcDbAttributeDefinition
  3

  2
REVDATE
 70
     8
  0
ATTDEF
  5
7B93
330
7B84
100
AcDbEntity
  8
0
 62
     0
100
AcDbText
 10
19.0
 20
118.0
 30
0.0
 40
3.0
  1

 50
90.0
  7
ADESK1
100
AcDbAttributeDefinition
  3

  2
FNAME
 70
     8
  0
LINE
  5
7B94
330
7B84
100
AcDbEntity
  8
OBJECT
100
AcDbLine
 10
130.0
 20
16.0
 30
0.0
 11
25.0
 21
16.0
 31
0.0
  0
LINE
  5
7B95
330
7B84
100
AcDbEntity
  8
OBJECT
100
AcDbLine
 10
130.0
 20
22.0
 30
0.0
 11
25.0
 21
22.0
 31
0.0
  0
LINE
  5
7B96
330
7B84
100
AcDbEntity
  8
OBJECT
100
AcDbLine
 10
130.0
 20
28.0
 30
0.0
 11
25.0
 21
28.0
 31
0.0
  0
LINE
  5
7B97
330
7B84
100
AcDbEntity
  8
OBJECT
100
AcDbLine
 10
130.0
 20
34.0
 30
0.0
 11
25.0
 21
34.0
 31
0.0
  0
LINE
  5
7B98
330
7B84
100
AcDbEntity
  8
OBJECT
100
AcDbLine
 10
130.0
 20
40.0
 30
0.0
 11
25.0
 21
40.0
 31
0.0
  0
LINE
  5
7B99
330
7B84
100
AcDbEntity
  8
OBJECT
100
AcDbLine
 10
28.0
 20
11.53589799999999
 30
0.0
 11
30.0
 21
15.0
 31
0.0
  0
LINE
  5
7B9A
330
7B84
100
AcDbEntity
  8
OBJECT
100
AcDbLine
 10
32.0
 20
11.53589799999999
 30
0.0
 11
30.0
 21
15.0
 31
0.0
  0
LINE
  5
7B9B
330
7B84
100
AcDbEntity
  8
OBJECT
100
AcDbLine
 10
35.0
 20
10.0
 30
0.0
 11
35.0
 21
40.0
 31
0.0
  0
LINE
  5
7B9C
330
7B84
100
AcDbEntity
  8
OBJECT
100
AcDbLine
 10
50.0
 20
10.0
 30
0.0
 11
50.0
 21
40.0
 31
0.0
  0
LINE
  5
7B9D
330
7B84
100
AcDbEntity
  8
OBJECT
100
AcDbLine
 10
80.0
 20
10.0
 30
0.0
 11
80.0
 21
40.0
 31
0.0
  0
LINE
  5
7B9E
330
7B84
100
AcDbEntity
  8
OBJECT
100
AcDbLine
 10
28.0
 20
11.53589799999999
 30
0.0
 11
32.0
 21
11.53589799999999
 31
0.0
  0
LINE
  5
7B9F
330
7B84
100
AcDbEntity
  8
OBJECT
100
AcDbLine
 10
39.5
 20
13.0
 30
0.0
 11
40.49999999999999
 21
13.0
 31
0.0
  0
LINE
  5
7BA0
330
7B84
100
AcDbEntity
  8
OBJECT
100
AcDbLine
 10
44.5
 20
13.0
 30
0.0
 11
45.49999999999999
 21
13.0
 31
0.0
  0
LINE
  5
7BA1
330
7B84
100
AcDbEntity
  8
OBJECT
100
AcDbLine
 10
32.0
 20
17.535898
 30
0.0
 11
30.0
 21
20.99999999999999
 31
0.0
  0
LINE
  5
7BA2
330
7B84
100
AcDbEntity
  8
OBJECT
100
AcDbLine
 10
28.0
 20
17.535898
 30
0.0
 11
32.0
 21
17.535898
 31
0.0
  0
LINE
  5
7BA3
330
7B84
100
AcDbEntity
  8
OBJECT
100
AcDbLine
 10
28.0
 20
17.535898
 30
0.0
 11
30.0
 21
20.99999999999999
 31
0.0
  0
LINE
  5
7BA4
330
7B84
100
AcDbEntity
  8
OBJECT
100
AcDbLine
 10
32.0
 20
23.53589799999999
 30
0.0
 11
30.0
 21
26.99999999999999
 31
0.0
  0
LINE
  5
7BA5
330
7B84
100
AcDbEntity
  8
OBJECT
100
AcDbLine
 10
28.0
 20
23.53589799999999
 30
0.0
 11
32.0
 21
23.53589799999999
 31
0.0
  0
LINE
  5
7BA6
330
7B84
100
AcDbEntity
  8
OBJECT
100
AcDbLine
 10
28.0
 20
23.53589799999999
 30
0.0
 11
30.0
 21
26.99999999999999
 31
0.0
  0
LINE
  5
7BA7
330
7B84
100
AcDbEntity
  8
OBJECT
100
AcDbLine
 10
28.0
 20
35.53589799999999
 30
0.0
 11
30.0
 21
39.0
 31
0.0
  0
LINE
  5
7BA8
330
7B84
100
AcDbEntity
  8
OBJECT
100
AcDbLine
 10
32.0
 20
35.53589799999999
 30
0.0
 11
30.0
 21
39.0
 31
0.0
  0
LINE
  5
7BA9
330
7B84
100
AcDbEntity
  8
OBJECT
100
AcDbLine
 10
28.0
 20
35.53589799999999
 30
0.0
 11
32.0
 21
35.53589799999999
 31
0.0
  0
LINE
  5
7BAA
330
7B84
100
AcDbEntity
  8
OBJECT
100
AcDbLine
 10
32.0
 20
29.535898
 30
0.0
 11
30.0
 21
33.0
 31
0.0
  0
LINE
  5
7BAB
330
7B84
100
AcDbEntity
  8
OBJECT
100
AcDbLine
 10
28.0
 20
29.535898
 30
0.0
 11
32.0
 21
29.535898
 31
0.0
  0
LINE
  5
7BAC
330
7B84
100
AcDbEntity
  8
OBJECT
100
AcDbLine
 10
28.0
 20
29.535898
 30
0.0
 11
30.0
 21
33.0
 31
0.0
  0
LINE
  5
7BAD
330
7B84
100
AcDbEntity
  8
OBJECT
100
AcDbLine
 10
39.5
 20
19.0
 30
0.0
 11
40.49999999999999
 21
19.0
 31
0.0
  0
LINE
  5
7BAE
330
7B84
100
AcDbEntity
  8
OBJECT
100
AcDbLine
 10
44.5
 20
19.0
 30
0.0
 11
45.49999999999999
 21
19.0
 31
0.0
  0
LINE
  5
7BAF
330
7B84
100
AcDbEntity
  8
OBJECT
100
AcDbLine
 10
39.5
 20
25.0
 30
0.0
 11
40.49999999999999
 21
25.0
 31
0.0
  0
LINE
  5
7BB0
330
7B84
100
AcDbEntity
  8
OBJECT
100
AcDbLine
 10
44.5
 20
25.0
 30
0.0
 11
45.49999999999999
 21
25.0
 31
0.0
  0
LINE
  5
7BB1
330
7B84
100
AcDbEntity
  8
OBJECT
100
AcDbLine
 10
39.5
 20
31.0
 30
0.0
 11
40.49999999999999
 21
31.0
 31
0.0
  0
LINE
  5
7BB2
330
7B84
100
AcDbEntity
  8
OBJECT
100
AcDbLine
 10
39.5
 20
37.0
 30
0.0
 11
40.49999999999999
 21
37.0
 31
0.0
  0
LINE
  5
7BB3
330
7B84
100
AcDbEntity
  8
OBJECT
100
AcDbLine
 10
44.5
 20
31.0
 30
0.0
 11
45.49999999999999
 21
31.0
 31
0.0
  0
LINE
  5
7BB4
330
7B84
100
AcDbEntity
  8
OBJECT
100
AcDbLine
 10
44.5
 20
37.0
 30
0.0
 11
45.49999999999999
 21
37.0
 31
0.0
  0
LINE
  5
7BB5
330
7B84
100
AcDbEntity
  8
OBJECT
100
AcDbLine
 10
120.0
 20
10.0
 30
0.0
 11
120.0
 21
40.0
 31
0.0
  0
LINE
  5
7BB6
330
7B84
100
AcDbEntity
  8
OBJECT
100
AcDbLine
 10
130.0
 20
40.0
 30
0.0
 11
130.0
 21
10.0
 31
0.0
  0
LINE
  5
7BB7
330
7B84
100
AcDbEntity
  8
0
100
AcDbLine
 10
217.5
 20
10.0
 30
0.0
 11
217.5
 21
0.0
 31
0.0
  0
LINE
  5
7BB8
330
7B84
100
AcDbEntity
  8
0
100
AcDbLine
 10
217.5
 20
287.0
 30
0.0
 11
217.5
 21
297.0
 31
0.0
  0
LINE
  5
7BB9
330
7B84
100
AcDbEntity
  8
0
100
AcDbLine
 10
410.0
 20
148.5
 30
0.0
 11
420.0
 21
148.5
 31
0.0
  0
LINE
  5
7BBA
330
7B84
100
AcDbEntity
  8
0
100
AcDbLine
 10
25.0
 20
148.5
 30
0.0
 11
0.0
 21
148.5
 31
0.0
  0
TEXT
  5
7BBB
330
7B84
100
AcDbEntity
  8
0
100
AcDbText
 10
1.0
 20
1.0
 30
0.0
 40
3.0
  1
この図枠はサンプルです。社内の規格やプロッタの出力範囲に合わせて適当に変更してご利用ください。
  7
ADESK1
100
AcDbText
  0
LINE
  5
7BBC
330
7B84
100
AcDbEntity
  8
0
100
AcDbLine
 10
25.0
 20
240.8333333333333
 30
0.0
 11
20.0
 21
240.8333333333333
 31
0.0
  0
LINE
  5
7BBD
330
7B84
100
AcDbEntity
  8
0
100
AcDbLine
 10
25.0
 20
194.6666666666666
 30
0.0
 11
20.0
 21
194.6666666666666
 31
0.0
  0
LINE
  5
7BBE
330
7B84
100
AcDbEntity
  8
0
100
AcDbLine
 10
25.0
 20
148.5
 30
0.0
 11
20.0
 21
148.5
 31
0.0
  0
LINE
  5
7BBF
330
7B84
100
AcDbEntity
  8
0
100
AcDbLine
 10
25.0
 20
102.3333333333333
 30
0.0
 11
20.0
 21
102.3333333333333
 31
0.0
  0
LINE
  5
7BC0
330
7B84
100
AcDbEntity
  8
0
100
AcDbLine
 10
25.0
 20
56.16666666666667
 30
0.0
 11
20.0
 21
56.16666666666667
 31
0.0
  0
LINE
  5
7BC1
330
7B84
100
AcDbEntity
  8
0
100
AcDbLine
 10
410.0
 20
56.16666666666668
 30
0.0
 11
415.0
 21
56.16666666666668
 31
0.0
  0
LINE
  5
7BC2
330
7B84
100
AcDbEntity
  8
0
100
AcDbLine
 10
410.0
 20
102.3333333333333
 30
0.0
 11
415.0
 21
102.3333333333333
 31
0.0
  0
LINE
  5
7BC3
330
7B84
100
AcDbEntity
  8
0
100
AcDbLine
 10
410.0
 20
148.5
 30
0.0
 11
415.0
 21
148.5
 31
0.0
  0
LINE
  5
7BC4
330
7B84
100
AcDbEntity
  8
0
100
AcDbLine
 10
410.0
 20
194.6666666666667
 30
0.0
 11
415.0
 21
194.6666666666667
 31
0.0
  0
LINE
  5
7BC5
330
7B84
100
AcDbEntity
  8
0
100
AcDbLine
 10
410.0
 20
240.8333333333333
 30
0.0
 11
415.0
 21
240.8333333333333
 31
0.0
  0
LINE
  5
7BC6
330
7B84
100
AcDbEntity
  8
0
100
AcDbLine
 10
73.125
 20
10.0
 30
0.0
 11
73.125
 21
5.0
 31
0.0
  0
LINE
  5
7BC7
330
7B84
100
AcDbEntity
  8
0
100
AcDbLine
 10
121.25
 20
10.0
 30
0.0
 11
121.25
 21
5.0
 31
0.0
  0
LINE
  5
7BC8
330
7B84
100
AcDbEntity
  8
0
100
AcDbLine
 10
169.375
 20
10.0
 30
0.0
 11
169.375
 21
5.0
 31
0.0
  0
LINE
  5
7BC9
330
7B84
100
AcDbEntity
  8
0
100
AcDbLine
 10
217.5
 20
10.0
 30
0.0
 11
217.5
 21
5.0
 31
0.0
  0
LINE
  5
7BCA
330
7B84
100
AcDbEntity
  8
0
100
AcDbLine
 10
265.625
 20
10.0
 30
0.0
 11
265.625
 21
5.0
 31
0.0
  0
LINE
  5
7BCB
330
7B84
100
AcDbEntity
  8
0
100
AcDbLine
 10
313.75
 20
10.0
 30
0.0
 11
313.75
 21
5.0
 31
0.0
  0
LINE
  5
7BCC
330
7B84
100
AcDbEntity
  8
0
100
AcDbLine
 10
361.8749999999999
 20
10.0
 30
0.0
 11
361.8749999999999
 21
5.0
 31
0.0
  0
LINE
  5
7BCD
330
7B84
100
AcDbEntity
  8
0
100
AcDbLine
 10
361.8749999999999
 20
287.0
 30
0.0
 11
361.8749999999999
 21
292.0
 31
0.0
  0
LINE
  5
7BCE
330
7B84
100
AcDbEntity
  8
0
100
AcDbLine
 10
313.75
 20
287.0
 30
0.0
 11
313.75
 21
292.0
 31
0.0
  0
LINE
  5
7BCF
330
7B84
100
AcDbEntity
  8
0
100
AcDbLine
 10
265.625
 20
287.0
 30
0.0
 11
265.625
 21
292.0
 31
0.0
  0
LINE
  5
7BD0
330
7B84
100
AcDbEntity
  8
0
100
AcDbLine
 10
217.5
 20
287.0
 30
0.0
 11
217.5
 21
292.0
 31
0.0
  0
LINE
  5
7BD1
330
7B84
100
AcDbEntity
  8
0
100
AcDbLine
 10
169.375
 20
287.0
 30
0.0
 11
169.375
 21
292.0
 31
0.0
  0
LINE
  5
7BD2
330
7B84
100
AcDbEntity
  8
0
100
AcDbLine
 10
121.25
 20
287.0
 30
0.0
 11
121.25
 21
292.0
 31
0.0
  0
LINE
  5
7BD3
330
7B84
100
AcDbEntity
  8
0
100
AcDbLine
 10
73.125
 20
287.0
 30
0.0
 11
73.125
 21
292.0
 31
0.0
  0
TEXT
  5
7BD4
330
7B84
100
AcDbEntity
  8
0
100
AcDbText
 10
47.84821428571429
 20
288.0
 30
0.0
 40
3.0
  1
1
  7
ADESK1
 72
     1
 11
49.0625
 21
288.0
 31
0.0
100
AcDbText
  0
TEXT
  5
7BD5
330
7B84
100
AcDbEntity
  8
0
100
AcDbText
 10
21.32144707381961
 20
263.9166666666666
 30
0.0
 40
3.0
  1
A
  7
ADESK1
 72
     1
 11
22.60716135953389
 21
263.9166666666666
 31
0.0
100
AcDbText
  0
TEXT
  5
7BD6
330
7B84
100
AcDbEntity
  8
0
100
AcDbText
 10
95.75892857142857
 20
288.0
 30
0.0
 40
3.0
  1
2
  7
ADESK1
 72
     1
 11
97.1875
 21
288.0
 31
0.0
100
AcDbText
  0
TEXT
  5
7BD7
330
7B84
100
AcDbEntity
  8
0
100
AcDbText
 10
143.8839285714285
 20
288.0
 30
0.0
 40
3.0
  1
3
  7
ADESK1
 72
     1
 11
145.3125
 21
288.0
 31
0.0
100
AcDbText
  0
TEXT
  5
7BD8
330
7B84
100
AcDbEntity
  8
0
100
AcDbText
 10
191.9375
 20
288.0
 30
0.0
 40
3.0
  1
4
  7
ADESK1
 72
     1
 11
193.4375
 21
288.0
 31
0.0
100
AcDbText
  0
TEXT
  5
7BD9
330
7B84
100
AcDbEntity
  8
0
100
AcDbText
 10
240.1339285714285
 20
288.0
 30
0.0
 40
3.0
  1
5
  7
ADESK1
 72
     1
 11
241.5624999999999
 21
288.0
 31
0.0
100
AcDbText
  0
TEXT
  5
7BDA
330
7B84
100
AcDbEntity
  8
0
100
AcDbText
 10
288.1874999999999
 20
288.0
 30
0.0
 40
3.0
  1
6
  7
ADESK1
 72
     1
 11
289.6875
 21
288.0
 31
0.0
100
AcDbText
  0
TEXT
  5
7BDB
330
7B84
100
AcDbEntity
  8
0
100
AcDbText
 10
336.3839285714285
 20
288.0
 30
0.0
 40
3.0
  1
7
  7
ADESK1
 72
     1
 11
337.8125
 21
288.0
 31
0.0
100
AcDbText
  0
TEXT
  5
7BDC
330
7B84
100
AcDbEntity
  8
0
100
AcDbText
 10
384.5089285714285
 20
288.0
 30
0.0
 40
3.0
  1
8
  7
ADESK1
 72
     1
 11
385.9375
 21
288.0
 31
0.0
100
AcDbText
  0
TEXT
  5
7BDD
330
7B84
100
AcDbEntity
  8
0
100
AcDbText
 10
21.03573278810532
 20
217.7499999999999
 30
0.0
 40
3.0
  1
B
  7
ADESK1
 72
     1
 11
22.60716135953389
 21
217.7499999999999
 31
0.0
100
AcDbText
  0
TEXT
  5
7BDE
330
7B84
100
AcDbEntity
  8
0
100
AcDbText
 10
21.10716135953389
 20
171.5833333333333
 30
0.0
 40
3.0
  1
C
  7
ADESK1
 72
     1
 11
22.60716135953389
 21
171.5833333333333
 31
0.0
100
AcDbText
  0
TEXT
  5
7BDF
330
7B84
100
AcDbEntity
  8
0
100
AcDbText
 10
21.03573278810532
 20
125.4166666666666
 30
0.0
 40
3.0
  1
D
  7
ADESK1
 72
     1
 11
22.60716135953389
 21
125.4166666666666
 31
0.0
100
AcDbText
  0
TEXT
  5
7BE0
330
7B84
100
AcDbEntity
  8
0
100
AcDbText
 10
21.10716135953389
 20
79.25
 30
0.0
 40
3.0
  1
E
  7
ADESK1
 72
     1
 11
22.60716135953389
 21
79.25
 31
0.0
100
AcDbText
  0
TEXT
  5
7BE1
330
7B84
100
AcDbEntity
  8
0
100
AcDbText
 10
21.10716135953389
 20
33.08333333333334
 30
0.0
 40
3.0
  1
F
  7
ADESK1
 72
     1
 11
22.60716135953389
 21
33.08333333333334
 31
0.0
100
AcDbText
  0
TEXT
  5
7BE2
330
7B84
100
AcDbEntity
  8
0
100
AcDbText
 10
47.84821428571429
 20
6.019997240728748
 30
0.0
 40
3.0
  1
1
  7
ADESK1
 72
     1
 11
49.0625
 21
6.019997240728748
 31
0.0
100
AcDbText
  0
TEXT
  5
7BE3
330
7B84
100
AcDbEntity
  8
0
100
AcDbText
 10
95.75892857142857
 20
6.019997240728748
 30
0.0
 40
3.0
  1
2
  7
ADESK1
 72
     1
 11
97.1875
 21
6.019997240728748
 31
0.0
100
AcDbText
  0
TEXT
  5
7BE4
330
7B84
100
AcDbEntity
  8
0
100
AcDbText
 10
143.8839285714285
 20
6.019997240728748
 30
0.0
 40
3.0
  1
3
  7
ADESK1
 72
     1
 11
145.3125
 21
6.019997240728748
 31
0.0
100
AcDbText
  0
TEXT
  5
7BE5
330
7B84
100
AcDbEntity
  8
0
100
AcDbText
 10
191.9375
 20
6.019997240728748
 30
0.0
 40
3.0
  1
4
  7
ADESK1
 72
     1
 11
193.4375
 21
6.019997240728748
 31
0.0
100
AcDbText
  0
TEXT
  5
7BE6
330
7B84
100
AcDbEntity
  8
0
100
AcDbText
 10
240.1339285714285
 20
6.019997240728748
 30
0.0
 40
3.0
  1
5
  7
ADESK1
 72
     1
 11
241.5624999999999
 21
6.019997240728748
 31
0.0
100
AcDbText
  0
TEXT
  5
7BE7
330
7B84
100
AcDbEntity
  8
0
100
AcDbText
 10
288.1874999999999
 20
6.019997240728748
 30
0.0
 40
3.0
  1
6
  7
ADESK1
 72
     1
 11
289.6875
 21
6.019997240728748
 31
0.0
100
AcDbText
  0
TEXT
  5
7BE8
330
7B84
100
AcDbEntity
  8
0
100
AcDbText
 10
336.3839285714285
 20
6.019997240728748
 30
0.0
 40
3.0
  1
7
  7
ADESK1
 72
     1
 11
337.8125
 21
6.019997240728748
 31
0.0
100
AcDbText
  0
TEXT
  5
7BE9
330
7B84
100
AcDbEntity
  8
0
100
AcDbText
 10
384.5089285714285
 20
6.019997240728748
 30
0.0
 40
3.0
  1
8
  7
ADESK1
 72
     1
 11
385.9375
 21
6.019997240728748
 31
0.0
100
AcDbText
  0
TEXT
  5
7BEA
330
7B84
100
AcDbEntity
  8
0
100
AcDbText
 10
411.5851108826324
 20
263.9166666666666
 30
0.0
 40
3.0
  1
A
  7
ADESK1
 72
     1
 11
412.8708251683468
 21
263.9166666666666
 31
0.0
100
AcDbText
  0
TEXT
  5
7BEB
330
7B84
100
AcDbEntity
  8
0
100
AcDbText
 10
411.2993965969182
 20
217.7499999999999
 30
0.0
 40
3.0
  1
B
  7
ADESK1
 72
     1
 11
412.8708251683468
 21
217.7499999999999
 31
0.0
100
AcDbText
  0
TEXT
  5
7BEC
330
7B84
100
AcDbEntity
  8
0
100
AcDbText
 10
411.3708251683467
 20
171.5833333333333
 30
0.0
 40
3.0
  1
C
  7
ADESK1
 72
     1
 11
412.8708251683468
 21
171.5833333333333
 31
0.0
100
AcDbText
  0
TEXT
  5
7BED
330
7B84
100
AcDbEntity
  8
0
100
AcDbText
 10
411.2993965969182
 20
125.4166666666666
 30
0.0
 40
3.0
  1
D
  7
ADESK1
 72
     1
 11
412.8708251683468
 21
125.4166666666666
 31
0.0
100
AcDbText
  0
TEXT
  5
7BEE
330
7B84
100
AcDbEntity
  8
0
100
AcDbText
 10
411.3708251683467
 20
79.25
 30
0.0
 40
3.0
  1
E
  7
ADESK1
 72
     1
 11
412.8708251683468
 21
79.25
 31
0.0
100
AcDbText
  0
TEXT
  5
7BEF
330
7B84
100
AcDbEntity
  8
0
100
AcDbText
 10
411.3708251683467
 20
33.08333333333334
 30
0.0
 40
3.0
  1
F
  7
ADESK1
 72
     1
 11
412.8708251683468
 21
33.08333333333334
 31
0.0
100
AcDbText
  0
LINE
  5
7BF0
330
7B84
100
AcDbEntity
  8
0
 62
     0
100
AcDbLine
 10
280.2978723404241
 20
49.00000000000036
 30
0.0
 11
410.0
 21
49.00000000000036
 31
0.0
  0
LINE
  5
7BF1
330
7B84
100
AcDbEntity
  8
0
 62
     0
100
AcDbLine
 10
280.2978723404241
 20
13.00000000000004
 30
0.0
 11
410.0
 21
13.00000000000004
 31
0.0
  0
LINE
  5
7BF2
330
7B84
100
AcDbEntity
  8
0
 62
     0
100
AcDbLine
 10
280.2978723404241
 20
37.00000000000024
 30
0.0
 11
410.0
 21
37.00000000000024
 31
0.0
  0
LINE
  5
7BF3
330
7B84
100
AcDbEntity
  8
0
 62
     0
100
AcDbLine
 10
318.1276595744673
 20
22.00000000000012
 30
0.0
 11
410.0
 21
22.00000000000012
 31
0.0
  0
LINE
  5
7BF4
330
7B84
100
AcDbEntity
  8
0
 62
     0
100
AcDbLine
 10
280.2978723404241
 20
10.0
 30
0.0
 11
410.0
 21
10.0
 31
0.0
  0
LINE
  5
7BF5
330
7B84
100
AcDbEntity
  8
0
 62
     0
100
AcDbLine
 10
410.0
 20
49.00000000000036
 30
0.0
 11
280.2978723404241
 21
49.00000000000036
 31
0.0
  0
LINE
  5
7BF6
330
7B84
100
AcDbEntity
  8
0
 62
     0
100
AcDbLine
 10
303.7163120567365
 20
37.00000000000024
 30
0.0
 11
303.7163120567365
 21
10.0
 31
0.0
  0
LINE
  5
7BF7
330
7B84
100
AcDbEntity
  8
0
 62
     0
100
AcDbLine
 10
285.702127659573
 20
37.00000000000024
 30
0.0
 11
285.702127659573
 21
10.0
 31
0.0
  0
LINE
  5
7BF8
330
7B84
100
AcDbEntity
  8
0
 62
     0
100
AcDbLine
 10
312.7234042553184
 20
37.00000000000024
 30
0.0
 11
312.7234042553184
 21
10.0
 31
0.0
  0
LINE
  5
7BF9
330
7B84
100
AcDbEntity
  8
0
 62
     0
100
AcDbLine
 10
318.1276595744673
 20
25.00000000000012
 30
0.0
 11
318.1276595744673
 21
10.0
 31
0.0
  0
LINE
  5
7BFA
330
7B84
100
AcDbEntity
  8
0
 62
     0
100
AcDbLine
 10
280.2978723404241
 20
49.00000000000036
 30
0.0
 11
280.2978723404241
 21
10.0
 31
0.0
  0
LINE
  5
7BFB
330
7B84
100
AcDbEntity
  8
0
 62
     0
100
AcDbLine
 10
348.7517730496447
 20
49.00000000000036
 30
0.0
 11
348.7517730496447
 21
10.0
 31
0.0
  0
LINE
  5
7BFC
330
7B84
100
AcDbEntity
  8
0
 62
     0
100
AcDbLine
 10
328.7659574468077
 20
22.00000000000007
 30
0.0
 11
328.7659574468077
 21
10.0
 31
0.0
  0
LINE
  5
7BFD
330
7B84
100
AcDbEntity
  8
0
 62
     0
100
AcDbLine
 10
339.4042553191484
 20
22.00000000000007
 30
0.0
 11
339.4042553191484
 21
10.0
 31
0.0
  0
LINE
  5
7BFE
330
7B84
100
AcDbEntity
  8
0
 62
     0
100
AcDbLine
 10
280.2978723404241
 20
16.00000000000008
 30
0.0
 11
318.1276595744673
 21
16.00000000000008
 31
0.0
  0
LINE
  5
7BFF
330
7B84
100
AcDbEntity
  8
0
 62
     0
100
AcDbLine
 10
280.2978723404241
 20
10.0
 30
0.0
 11
280.2978723404241
 21
13.00000000000004
 31
0.0
  0
TEXT
  5
7C00
330
7B84
100
AcDbEntity
  8
0
 62
     0
100
AcDbText
 10
321.7174935280942
 20
10.48329012996929
 30
0.0
 40
1.791674070777747
  1
製図
  7
ADESK1
 72
     1
 11
323.5688900678979
 21
10.48329012996929
 31
0.0
100
AcDbText
  0
TEXT
  5
7C01
330
7B84
100
AcDbEntity
  8
0
 62
     0
100
AcDbText
 10
332.2960689314087
 20
10.48329012996929
 30
0.0
 40
1.791674070777747
  1
設計
  7
ADESK1
 72
     1
 11
334.2071879402383
 21
10.48329012996929
 31
0.0
100
AcDbText
  0
TEXT
  5
7C02
330
7B84
100
AcDbEntity
  8
0
 62
     0
100
AcDbText
 10
342.2447163844405
 20
10.55220101068186
 30
0.0
 40
1.791674070777747
  1
照査
  7
ADESK1
 72
     1
 11
344.1558353932701
 21
10.55220101068186
 31
0.0
100
AcDbText
  0
LINE
  5
7C03
330
7B84
100
AcDbEntity
  8
0
 62
     0
100
AcDbLine
 10
280.2978723404241
 20
25.00000000000012
 30
0.0
 11
318.1276595744673
 21
25.00000000000012
 31
0.0
  0
LINE
  5
7C04
330
7B84
100
AcDbEntity
  8
0
 62
     0
100
AcDbLine
 10
280.2978723404241
 20
22.00000000000007
 30
0.0
 11
318.1276595744673
 21
22.00000000000012
 31
0.0
  0
LINE
  5
7C05
330
7B84
100
AcDbEntity
  8
0
 62
     0
100
AcDbLine
 10
280.2978723404241
 20
19.00000000000007
 30
0.0
 11
318.1276595744673
 21
19.00000000000012
 31
0.0
  0
LINE
  5
7C06
330
7B84
100
AcDbEntity
  8
0
 62
     0
100
AcDbLine
 10
280.2978723404241
 20
34.00000000000024
 30
0.0
 11
348.7517730496447
 21
34.00000000000024
 31
0.0
  0
LINE
  5
7C07
330
7B84
100
AcDbEntity
  8
0
 62
     0
100
AcDbLine
 10
280.2978723404241
 20
31.0000000000002
 30
0.0
 11
348.7517730496447
 21
31.0000000000002
 31
0.0
  0
LINE
  5
7C08
330
7B84
100
AcDbEntity
  8
0
 62
     0
100
AcDbLine
 10
280.2978723404241
 20
28.00000000000015
 30
0.0
 11
348.7517730496447
 21
28.00000000000015
 31
0.0
  0
LINE
  5
7C09
330
7B84
100
AcDbEntity
  8
0
 62
     0
100
AcDbLine
 10
318.1276595744673
 20
25.00000000000012
 30
0.0
 11
348.7517730496447
 21
25.00000000000012
 31
0.0
  0
LINE
  5
7C0A
330
7B84
100
AcDbEntity
  8
0
 62
     0
100
AcDbLine
 10
318.1276595744673
 20
49.00000000000036
 30
0.0
 11
318.1276595744673
 21
25.00000000000012
 31
0.0
  0
LINE
  5
7C0B
330
7B84
100
AcDbEntity
  8
0
 62
     0
100
AcDbLine
 10
325.3333333333325
 20
37.00000000000024
 30
0.0
 11
325.3333333333325
 21
25.00000000000012
 31
0.0
  0
LINE
  5
7C0C
330
7B84
100
AcDbEntity
  8
0
 62
     0
100
AcDbLine
 10
336.1418439716306
 20
49.00000000000036
 30
0.0
 11
336.1418439716306
 21
22.00000000000012
 31
0.0
  0
LINE
  5
7C0D
330
7B84
100
AcDbEntity
  8
0
 62
     0
100
AcDbLine
 10
402.7943262411347
 20
22.00000000000012
 30
0.0
 11
402.7943262411347
 21
10.0
 31
0.0
  0
LINE
  5
7C0E
330
7B84
100
AcDbEntity
  8
0
 62
     0
100
AcDbLine
 10
410.0
 20
49.00000000000036
 30
0.0
 11
410.0
 21
10.0
 31
0.0
  0
LINE
  5
7C0F
330
7B84
100
AcDbEntity
  8
0
 62
     0
100
AcDbLine
 10
410.0
 20
10.0
 30
0.0
 11
410.0
 21
49.00000000000036
 31
0.0
  0
LINE
  5
7C10
330
7B84
100
AcDbEntity
  8
0
 62
     0
100
AcDbLine
 10
402.7943262411347
 20
16.00000000000008
 30
0.0
 11
410.0
 21
16.00000000000008
 31
0.0
  0
ENDBLK
  5
7C12
330
7B84
100
AcDbEntity
  8
0
100
AcDbBlockEnd
  0
BLOCK
  5
7CE5
330
7C19
100
AcDbEntity
  8
0
100
AcDbBlockBegin
  2
S3
 70
     0
 10
0.0
 20
0.0
 30
0.0
  3
S3
  1

  0
LINE
  5
7C1A
330
7C19
100
AcDbEntity
  8
WAKU
100
AcDbLine
 10
3.0
 20
269.0
 30
0.0
 11
384.0
 21
269.0
 31
0.0
  0
LINE
  5
7C1B
330
7C19
100
AcDbEntity
  8
WAKU
100
AcDbLine
 10
384.0
 20
6.0
 30
0.0
 11
3.0
 21
6.0
 31
0.0
  0
LINE
  5
7C1C
330
7C19
100
AcDbEntity
  8
WAKU
100
AcDbLine
 10
3.0
 20
6.0
 30
0.0
 11
3.0
 21
269.0
 31
0.0
  0
TEXT
  5
7C1D
330
7C19
100
AcDbEntity
  8
TEXT
100
AcDbText
 10
72.09999999999999
 20
7.5
 30
0.0
 40
3.0
  1
 年 月 日
  7
K
 72
     4
 11
80.5
 21
9.0
 31
0.0
100
AcDbText
  0
LINE
  5
7C1E
330
7C19
100
AcDbEntity
  8
SUNPOU
100
AcDbLine
 10
106.0
 20
12.0
 30
0.0
 11
13.0
 21
12.0
 31
0.0
  0
LINE
  5
7C1F
330
7C19
100
AcDbEntity
  8
SUNPOU
100
AcDbLine
 10
13.0
 20
18.0
 30
0.0
 11
106.0
 21
18.0
 31
0.0
  0
LINE
  5
7C20
330
7C19
100
AcDbEntity
  8
SUNPOU
100
AcDbLine
 10
106.0
 20
24.0
 30
0.0
 11
13.0
 21
24.0
 31
0.0
  0
LINE
  5
7C21
330
7C19
100
AcDbEntity
  8
SUNPOU
100
AcDbLine
 10
13.0
 20
12.0
 30
0.0
 11
106.0
 21
12.0
 31
0.0
  0
LINE
  5
7C22
330
7C19
100
AcDbEntity
  8
SUNPOU
100
AcDbLine
 10
106.0
 20
18.0
 30
0.0
 11
13.0
 21
18.0
 31
0.0
  0
LINE
  5
7C23
330
7C19
100
AcDbEntity
  8
SUNPOU
100
AcDbLine
 10
13.0
 20
24.0
 30
0.0
 11
106.0
 21
24.0
 31
0.0
  0
LINE
  5
7C24
330
7C19
100
AcDbEntity
  8
SUNPOU
100
AcDbLine
 10
106.0
 20
30.0
 30
0.0
 11
3.0
 21
30.0
 31
0.0
  0
TEXT
  5
7C25
330
7C19
100
AcDbEntity
  8
TEXT
100
AcDbText
 10
4.299999999999999
 20
7.5
 30
0.0
 40
3.0
  1
記号
  7
K
 72
     4
 11
7.5
 21
9.0
 31
0.0
100
AcDbText
  0
LINE
  5
7C26
330
7C19
100
AcDbEntity
  8
SUNPOU
100
AcDbLine
 10
13.0
 20
6.0
 30
0.0
 11
13.0
 21
30.0
 31
0.0
  0
LINE
  5
7C27
330
7C19
100
AcDbEntity
  8
SUNPOU
100
AcDbLine
 10
12.0
 20
30.0
 30
0.0
 11
12.0
 21
6.0
 31
0.0
  0
LINE
  5
7C28
330
7C19
100
AcDbEntity
  8
SUNPOU
100
AcDbLine
 10
12.0
 20
6.0
 30
0.0
 11
12.0
 21
30.0
 31
0.0
  0
LINE
  5
7C29
330
7C19
100
AcDbEntity
  8
SUNPOU
100
AcDbLine
 10
13.0
 20
30.0
 30
0.0
 11
13.0
 21
6.0
 31
0.0
  0
LINE
  5
7C2A
330
7C19
100
AcDbEntity
  8
SUNPOU
100
AcDbLine
 10
7.5
 20
24.0
 30
0.0
 11
3.0
 21
18.0
 31
0.0
  0
LINE
  5
7C2B
330
7C19
100
AcDbEntity
  8
SUNPOU
100
AcDbLine
 10
7.5
 20
24.0
 30
0.0
 11
12.0
 21
18.0
 31
0.0
  0
LINE
  5
7C2C
330
7C19
100
AcDbEntity
  8
SUNPOU
100
AcDbLine
 10
7.5
 20
18.0
 30
0.0
 11
3.0
 21
12.0
 31
0.0
  0
LINE
  5
7C2D
330
7C19
100
AcDbEntity
  8
SUNPOU
100
AcDbLine
 10
3.0
 20
18.0
 30
0.0
 11
12.0
 21
18.0
 31
0.0
  0
LINE
  5
7C2E
330
7C19
100
AcDbEntity
  8
SUNPOU
100
AcDbLine
 10
12.0
 20
12.0
 30
0.0
 11
3.0
 21
12.0
 31
0.0
  0
LINE
  5
7C2F
330
7C19
100
AcDbEntity
  8
SUNPOU
100
AcDbLine
 10
12.0
 20
12.0
 30
0.0
 11
3.0
 21
12.0
 31
0.0
  0
LINE
  5
7C30
330
7C19
100
AcDbEntity
  8
SUNPOU
100
AcDbLine
 10
12.0
 20
18.0
 30
0.0
 11
3.0
 21
18.0
 31
0.0
  0
LINE
  5
7C31
330
7C19
100
AcDbEntity
  8
SUNPOU
100
AcDbLine
 10
7.5
 20
18.0
 30
0.0
 11
12.0
 21
12.0
 31
0.0
  0
LINE
  5
7C32
330
7C19
100
AcDbEntity
  8
SUNPOU
100
AcDbLine
 10
7.5
 20
30.0
 30
0.0
 11
3.0
 21
24.0
 31
0.0
  0
LINE
  5
7C33
330
7C19
100
AcDbEntity
  8
SUNPOU
100
AcDbLine
 10
12.0
 20
24.0
 30
0.0
 11
3.0
 21
24.0
 31
0.0
  0
LINE
  5
7C34
330
7C19
100
AcDbEntity
  8
SUNPOU
100
AcDbLine
 10
12.0
 20
24.0
 30
0.0
 11
3.0
 21
24.0
 31
0.0
  0
LINE
  5
7C35
330
7C19
100
AcDbEntity
  8
SUNPOU
100
AcDbLine
 10
12.0
 20
24.0
 30
0.0
 11
7.5
 21
30.0
 31
0.0
  0
TEXT
  5
7C36
330
7C19
100
AcDbEntity
  8
TEXT
100
AcDbText
 10
56.2
 20
7.5
 30
0.0
 40
3.0
  1
設変番号
  7
K
 72
     4
 11
63.0
 21
9.0
 31
0.0
100
AcDbText
  0
TEXT
  5
7C37
330
7C19
100
AcDbEntity
  8
TEXT
100
AcDbText
 10
20.9
 20
7.5
 30
0.0
 40
3.0
  1
変更内容・理由
  7
K
 72
     4
 11
33.0
 21
9.0
 31
0.0
100
AcDbText
  0
LINE
  5
7C38
330
7C19
100
AcDbEntity
  8
SUNPOU
100
AcDbLine
 10
73.0
 20
6.0
 30
0.0
 11
73.0
 21
30.0
 31
0.0
  0
LINE
  5
7C39
330
7C19
100
AcDbEntity
  8
SUNPOU
100
AcDbLine
 10
53.0
 20
30.0
 30
0.0
 11
53.0
 21
6.0
 31
0.0
  0
LINE
  5
7C3A
330
7C19
100
AcDbEntity
  8
WAKU
100
AcDbLine
 10
3.0
 20
139.0
 30
0.0
 11
0.0
 21
139.0
 31
0.0
  0
TEXT
  5
7C3B
330
7C19
100
AcDbEntity
  8
TEXT
100
AcDbText
 10
98.40000000000001
 20
7.5
 30
0.0
 40
3.0
  1
検図
  7
K
 72
     4
 11
101.5
 21
9.0
 31
0.0
100
AcDbText
  0
TEXT
  5
7C3C
330
7C19
100
AcDbEntity
  8
TEXT
100
AcDbText
 10
89.36428571428571
 20
7.5
 30
0.0
 40
3.0
  1
担当
  7
K
 72
     4
 11
92.5
 21
9.0
 31
0.0
100
AcDbText
  0
LINE
  5
7C3D
330
7C19
100
AcDbEntity
  8
SUNPOU
100
AcDbLine
 10
106.0
 20
30.0
 30
0.0
 11
106.0
 21
6.0
 31
0.0
  0
LINE
  5
7C3E
330
7C19
100
AcDbEntity
  8
SUNPOU
100
AcDbLine
 10
97.0
 20
6.0
 30
0.0
 11
97.0
 21
30.0
 31
0.0
  0
LINE
  5
7C3F
330
7C19
100
AcDbEntity
  8
SUNPOU
100
AcDbLine
 10
88.0
 20
30.0
 30
0.0
 11
88.0
 21
6.0
 31
0.0
  0
LINE
  5
7C40
330
7C19
100
AcDbEntity
  8
WAKU
100
AcDbLine
 10
63.0
 20
279.0
 30
0.0
 11
3.0
 21
279.0
 31
0.0
  0
LINE
  5
7C41
330
7C19
100
AcDbEntity
  8
WAKU
100
AcDbLine
 10
3.0
 20
269.0
 30
0.0
 11
3.0
 21
279.0
 31
0.0
  0
LINE
  5
7C42
330
7C19
100
AcDbEntity
  8
SUNPOU
100
AcDbLine
 10
51.0
 20
269.0
 30
0.0
 11
51.0
 21
279.0
 31
0.0
  0
TEXT
  5
7C43
330
7C19
100
AcDbEntity
  8
TEXT
100
AcDbText
 10
60.1842957707867
 20
275.4965050308843
 30
0.0
 40
3.0
  1
図番
 50
180.0
  7
K
 72
     4
 11
56.88429577078671
 21
273.9965050308843
 31
0.0
100
AcDbText
  0
LINE
  5
7C44
330
7C19
100
AcDbEntity
  8
WAKU
100
AcDbLine
 10
63.0
 20
279.0
 30
0.0
 11
63.0
 21
269.0
 31
0.0
  0
LINE
  5
7C45
330
7C19
100
AcDbEntity
  8
WAKU
100
AcDbLine
 10
384.0
 20
269.0
 30
0.0
 11
384.0
 21
6.0
 31
0.0
  0
TEXT
  5
7C46
330
7C19
100
AcDbEntity
  8
TEXT
100
AcDbText
 10
385.1333333333333
 20
144.6013421640234
 30
0.0
 40
4.0
  1
本
  7
K
 72
     1
 11
387.0
 21
146.6013421640234
 31
0.0
100
AcDbText
 73
     2
  0
TEXT
  5
7C47
330
7C19
100
AcDbEntity
  8
TEXT
100
AcDbText
 10
329.1072754745071
 20
34.0
 30
0.0
 40
3.0
  1
三 角 法
  7
K
100
AcDbText
  0
LINE
  5
7C48
330
7C19
100
AcDbEntity
  8
WAKU
100
AcDbLine
 10
324.0
 20
19.0
 30
0.0
 11
384.0
 21
19.0
 31
0.0
  0
LINE
  5
7C49
330
7C19
100
AcDbEntity
  8
WAKU
100
AcDbLine
 10
384.0
 20
32.0
 30
0.0
 11
324.0
 21
32.0
 31
0.0
  0
LINE
  5
7C4A
330
7C19
100
AcDbEntity
  8
WAKU
100
AcDbLine
 10
324.0
 20
39.0
 30
0.0
 11
384.0
 21
39.0
 31
0.0
  0
TEXT
  5
7C4B
330
7C19
100
AcDbEntity
  8
TEXT
100
AcDbText
 10
338.4611183004224
 20
10.0
 30
0.0
 40
3.5
  1
中部コーポレーション
  7
K
100
AcDbText
  0
TEXT
  5
7C4C
330
7C19
100
AcDbEntity
  8
TEXT
100
AcDbText
 10
326.5466508537902
 20
57.23202258979018
 30
0.0
 40
3.0
  1
備                    考
  7
K
 72
     1
 11
347.7466508537902
 21
58.73202258979017
 31
0.0
100
AcDbText
 73
     2
  0
LINE
  5
7C4D
330
7C19
100
AcDbEntity
  8
WAKU
100
AcDbLine
 10
287.0
 20
55.0
 30
0.0
 11
349.0
 21
55.0
 31
0.0
  0
LINE
  5
7C4E
330
7C19
100
AcDbEntity
  8
TEXT
100
AcDbLine
 10
211.0
 20
83.0
 30
0.0
 11
384.0
 21
83.0
 31
0.0
  0
LINE
  5
7C4F
330
7C19
100
AcDbEntity
  8
SUNPOU
100
AcDbLine
 10
384.0
 20
69.0
 30
0.0
 11
211.0
 21
69.0
 31
0.0
  0
LINE
  5
7C50
330
7C19
100
AcDbEntity
  8
SUNPOU
100
AcDbLine
 10
211.0
 20
62.0
 30
0.0
 11
384.0
 21
62.0
 31
0.0
  0
LINE
  5
7C51
330
7C19
100
AcDbEntity
  8
TEXT
100
AcDbLine
 10
211.0
 20
76.00315013427092
 30
0.0
 11
384.0
 21
76.00315013427092
 31
0.0
  0
LINE
  5
7C52
330
7C19
100
AcDbEntity
  8
SUNPOU
100
AcDbLine
 10
308.0
 20
83.0
 30
0.0
 11
308.0
 21
55.0
 31
0.0
  0
LINE
  5
7C53
330
7C19
100
AcDbEntity
  8
SUNPOU
100
AcDbLine
 10
263.0
 20
83.0
 30
0.0
 11
263.0
 21
55.0
 31
0.0
  0
LINE
  5
7C54
330
7C19
100
AcDbEntity
  8
SUNPOU
100
AcDbLine
 10
218.0
 20
83.0
 30
0.0
 11
218.0
 21
55.0
 31
0.0
  0
LINE
  5
7C55
330
7C19
100
AcDbEntity
  8
SUNPOU
100
AcDbLine
 10
211.0
 20
83.0
 30
0.0
 11
211.0
 21
55.0
 31
0.0
  0
LINE
  5
7C56
330
7C19
100
AcDbEntity
  8
WAKU
100
AcDbLine
 10
287.0
 20
55.0
 30
0.0
 11
211.0
 21
55.0
 31
0.0
  0
TEXT
  5
7C57
330
7C19
100
AcDbEntity
  8
TEXT
100
AcDbText
 10
220.8767108238105
 20
3.0
 30
0.0
 40
2.6
  1
複写図面配布先： 購買  →発注先 フード生産技術 フード品質保証 開発部
  7
K
100
AcDbText
  0
TEXT
  5
7C58
330
7C19
100
AcDbEntity
  8
TEXT
100
AcDbText
 10
274.5
 20
30.16944230720361
 30
0.0
 40
2.0
  1
0.1
 41
0.8
  7
K
 11
274.5
 21
31.16944230720361
 31
0.0
100
AcDbText
 73
     2
  0
TEXT
  5
7C59
330
7C19
100
AcDbEntity
  8
TEXT
100
AcDbText
 10
274.5
 20
26.29722041378767
 30
0.0
 40
2.0
  1
0.1
 41
0.8
  7
K
 11
274.5
 21
27.29722041378767
 31
0.0
100
AcDbText
 73
     2
  0
TEXT
  5
7C5A
330
7C19
100
AcDbEntity
  8
TEXT
100
AcDbText
 10
274.5
 20
22.42499852037173
 30
0.0
 40
2.0
  1
0.2
 41
0.8
  7
K
 11
274.5
 21
23.42499852037172
 31
0.0
100
AcDbText
 73
     2
  0
TEXT
  5
7C5B
330
7C19
100
AcDbEntity
  8
TEXT
100
AcDbText
 10
274.5
 20
18.55277662695579
 30
0.0
 40
2.0
  1
0.3
 41
0.8
  7
K
 11
274.5
 21
19.55277662695579
 31
0.0
100
AcDbText
 73
     2
  0
TEXT
  5
7C5C
330
7C19
100
AcDbEntity
  8
TEXT
100
AcDbText
 10
274.5
 20
14.68055473353985
 30
0.0
 40
2.0
  1
0.5
 41
0.8
  7
K
 11
274.5
 21
15.68055473353985
 31
0.0
100
AcDbText
 73
     2
  0
TEXT
  5
7C5D
330
7C19
100
AcDbEntity
  8
TEXT
100
AcDbText
 10
274.5
 20
10.80833284012391
 30
0.0
 40
2.0
  1
0.8
 41
0.8
  7
K
 11
274.5
 21
11.8083328401239
 31
0.0
100
AcDbText
 73
     2
  0
TEXT
  5
7C5E
330
7C19
100
AcDbEntity
  8
TEXT
100
AcDbText
 10
275.0857142857142
 20
33.50555325391157
 30
0.0
 40
2.7
  1
K
  7
K
 72
     1
 11
276.5
 21
34.85555325391158
 31
0.0
100
AcDbText
 73
     2
  0
TEXT
  5
7C5F
330
7C19
100
AcDbEntity
  8
TEXT
100
AcDbText
 10
274.5
 20
6.93611094670797
 30
0.0
 40
2.0
  1
1.2
 41
0.8
  7
K
 11
274.5
 21
7.93611094670797
 31
0.0
100
AcDbText
 73
     2
  0
LINE
  5
7C60
330
7C19
100
AcDbEntity
  8
TEXT
100
AcDbLine
 10
245.0
 20
33.10555325391158
 30
0.0
 11
287.0
 21
33.10555325391158
 31
0.0
  0
LINE
  5
7C61
330
7C19
100
AcDbEntity
  8
TEXT
100
AcDbLine
 10
245.0
 20
29.23333136049564
 30
0.0
 11
287.0
 21
29.23333136049564
 31
0.0
  0
LINE
  5
7C62
330
7C19
100
AcDbEntity
  8
TEXT
100
AcDbLine
 10
287.0
 20
25.3611094670797
 30
0.0
 11
245.0
 21
25.3611094670797
 31
0.0
  0
LINE
  5
7C63
330
7C19
100
AcDbEntity
  8
TEXT
100
AcDbLine
 10
245.0
 20
21.48888757366376
 30
0.0
 11
287.0
 21
21.48888757366376
 31
0.0
  0
LINE
  5
7C64
330
7C19
100
AcDbEntity
  8
TEXT
100
AcDbLine
 10
287.0
 20
17.61666568024782
 30
0.0
 11
245.0
 21
17.61666568024782
 31
0.0
  0
LINE
  5
7C65
330
7C19
100
AcDbEntity
  8
TEXT
100
AcDbLine
 10
245.0
 20
13.74444378683188
 30
0.0
 11
287.0
 21
13.74444378683188
 31
0.0
  0
LINE
  5
7C66
330
7C19
100
AcDbEntity
  8
TEXT
100
AcDbLine
 10
287.0
 20
9.87222189341594
 30
0.0
 11
245.0
 21
9.87222189341594
 31
0.0
  0
LINE
  5
7C67
330
7C19
100
AcDbEntity
  8
WAKU
100
AcDbLine
 10
287.0
 20
36.60555325391158
 30
0.0
 11
211.0
 21
36.60555325391158
 31
0.0
  0
LINE
  5
7C68
330
7C19
100
AcDbEntity
  8
TEXT
100
AcDbLine
 10
211.0
 20
48.8685177513039
 30
0.0
 11
287.0
 21
48.8685177513039
 31
0.0
  0
LINE
  5
7C69
330
7C19
100
AcDbEntity
  8
TEXT
100
AcDbLine
 10
287.0
 20
42.73703550260768
 30
0.0
 11
211.0
 21
42.73703550260768
 31
0.0
  0
LINE
  5
7C6A
330
7C19
100
AcDbEntity
  8
TEXT
100
AcDbLine
 10
273.0
 20
6.0
 30
0.0
 11
273.0
 21
36.60555325391158
 31
0.0
  0
LINE
  5
7C6B
330
7C19
100
AcDbEntity
  8
SUNPOU
100
AcDbLine
 10
238.0
 20
30.75
 30
0.0
 11
238.0
 21
6.0
 31
0.0
  0
LINE
  5
7C6C
330
7C19
100
AcDbEntity
  8
TEXT
100
AcDbLine
 10
245.0
 20
36.60555325391158
 30
0.0
 11
245.0
 21
6.0
 31
0.0
  0
LINE
  5
7C6D
330
7C19
100
AcDbEntity
  8
TEXT
100
AcDbLine
 10
266.0
 20
36.60555325391158
 30
0.0
 11
266.0
 21
6.0
 31
0.0
  0
TEXT
  5
7C6E
330
7C19
100
AcDbEntity
  8
TEXT
100
AcDbText
 10
220.8767108238105
 20
0.1999999999999886
 30
0.0
 40
2.399999999999999
  1
（必要に応じて追加・抹消）
  7
K
100
AcDbText
  0
TEXT
  5
7C6F
330
7C19
100
AcDbEntity
  8
TEXT
100
AcDbText
 10
212.5
 20
6.887403254739353
 30
0.0
 40
2.0
  1
～
  7
K
 11
212.5
 21
7.887403254739353
 31
0.0
100
AcDbText
 73
     2
  0
TEXT
  5
7C70
330
7C19
100
AcDbEntity
  8
TEXT
100
AcDbText
 10
255.5587236705651
 20
6.93611094670797
 30
0.0
 40
2.0
  1
2000以下
 41
0.8
  7
K
 72
     2
 11
265.0672950991365
 21
7.93611094670797
 31
0.0
100
AcDbText
 73
     2
  0
TEXT
  5
7C71
330
7C19
100
AcDbEntity
  8
TEXT
100
AcDbText
 10
245.7760645443253
 20
6.93611094670797
 30
0.0
 40
2.0
  1
1000ｦｺｴ
 41
0.8
  7
K
 72
     2
 11
254.4313026395634
 21
7.93611094670797
 31
0.0
100
AcDbText
 73
     2
  0
TEXT
  5
7C72
330
7C19
100
AcDbEntity
  8
TEXT
100
AcDbText
 10
267.5
 20
6.93611094670797
 30
0.0
 40
2.0
  1
0.5
 41
0.8
  7
K
 11
267.5
 21
7.93611094670797
 31
0.0
100
AcDbText
 73
     2
  0
TEXT
  5
7C73
330
7C19
100
AcDbEntity
  8
TEXT
100
AcDbText
 10
239.3571428571428
 20
10.24345914221055
 30
0.0
 40
1.5
  1
mm
  7
K
 72
     1
 11
241.5
 21
10.24345914221055
 31
0.0
100
AcDbText
  0
TEXT
  5
7C74
330
7C19
100
AcDbEntity
  8
TEXT
100
AcDbText
 10
212.5
 20
32.14425883203125
 30
0.0
 40
3.0
  1
標準加工アラサ
  7
K
 72
     4
 11
224.5
 21
33.64425883203125
 31
0.0
100
AcDbText
  0
LINE
  5
7C75
330
7C19
100
AcDbEntity
  8
SUNPOU
100
AcDbLine
 10
238.0
 20
55.0
 30
0.0
 11
238.0
 21
30.75
 31
0.0
  0
LINE
  5
7C76
330
7C19
100
AcDbEntity
  8
TEXT
100
AcDbLine
 10
211.0
 20
30.68296441015093
 30
0.0
 11
238.0
 21
30.68296441015093
 31
0.0
  0
LINE
  5
7C77
330
7C19
100
AcDbEntity
  8
TEXT
100
AcDbLine
 10
211.0
 20
24.87403254739342
 30
0.0
 11
238.0
 21
24.87403254739342
 31
0.0
  0
TEXT
  5
7C78
330
7C19
100
AcDbEntity
  8
TEXT
100
AcDbText
 10
212.82
 20
26.52630198798243
 30
0.0
 40
3.0
  1
(標準外ﾊ指定ﾉｺﾄ)
 41
0.8
  7
K
 72
     4
 11
224.5
 21
27.81201627369671
 31
0.0
100
AcDbText
  0
TEXT
  5
7C79
330
7C19
100
AcDbEntity
  8
TEXT
100
AcDbText
 10
212.5
 20
18.21182278317542
 30
0.0
 40
2.0
  1
▽▽▽
  7
K
 11
212.5
 21
19.21182278317542
 31
0.0
100
AcDbText
 73
     2
  0
TEXT
  5
7C7A
330
7C19
100
AcDbEntity
  8
TEXT
100
AcDbText
 10
212.5
 20
14.43701627369671
 30
0.0
 40
2.0
  1
▽▽
  7
K
 11
212.5
 21
15.43701627369671
 31
0.0
100
AcDbText
 73
     2
  0
TEXT
  5
7C7B
330
7C19
100
AcDbEntity
  8
TEXT
100
AcDbText
 10
212.5
 20
10.662209764218
 30
0.0
 40
2.0
  1
▽
  7
K
 11
212.5
 21
11.662209764218
 31
0.0
100
AcDbText
 73
     2
  0
TEXT
  5
7C7C
330
7C19
100
AcDbEntity
  8
TEXT
100
AcDbText
 10
212.5
 20
21.98662929265407
 30
0.0
 40
2.0
  1
▽▽▽▽
  7
K
 11
212.5
 21
22.98662929265407
 31
0.0
100
AcDbText
 73
     2
  0
TEXT
  5
7C7D
330
7C19
100
AcDbEntity
  8
TEXT
100
AcDbText
 10
240.24
 20
18.90873700804877
 30
0.0
 40
2.7
  1
法
  7
K
 72
     1
 11
241.5
 21
18.90873700804877
 31
0.0
100
AcDbText
  0
TEXT
  5
7C7E
330
7C19
100
AcDbEntity
  8
TEXT
100
AcDbText
 10
229.1666666666666
 20
10.662209764218
 30
0.0
 40
2.0
  1
100Z
  7
K
 72
     2
 11
236.5
 21
11.662209764218
 31
0.0
100
AcDbText
 73
     2
  0
TEXT
  5
7C7F
330
7C19
100
AcDbEntity
  8
TEXT
100
AcDbText
 10
231.0714285714285
 20
14.43701627369671
 30
0.0
 40
2.0
  1
25Z
  7
K
 72
     2
 11
236.5
 21
15.43701627369671
 31
0.0
100
AcDbText
 73
     2
  0
TEXT
  5
7C80
330
7C19
100
AcDbEntity
  8
TEXT
100
AcDbText
 10
230.1190476190476
 20
18.21182278317542
 30
0.0
 40
2.0
  1
6.3Z
  7
K
 72
     2
 11
236.5
 21
19.21182278317542
 31
0.0
100
AcDbText
 73
     2
  0
TEXT
  5
7C81
330
7C19
100
AcDbEntity
  8
TEXT
100
AcDbText
 10
237.9523809523809
 20
11.16190406596939
 30
0.0
 40
2.0
  1
(
  7
K
 72
     2
 11
239.0
 21
12.16190406596939
 31
0.0
100
AcDbText
 73
     2
  0
TEXT
  5
7C82
330
7C19
100
AcDbEntity
  8
TEXT
100
AcDbText
 10
240.5666666666666
 20
12.16190406596939
 30
0.0
 40
2.0
  1
±
  7
K
 72
     1
 11
241.5
 21
12.16190406596939
 31
0.0
100
AcDbText
  0
TEXT
  5
7C83
330
7C19
100
AcDbEntity
  8
TEXT
100
AcDbText
 10
240.24
 20
15.80873700804875
 30
0.0
 40
2.7
  1
差
  7
K
 72
     1
 11
241.5
 21
15.80873700804875
 31
0.0
100
AcDbText
  0
TEXT
  5
7C84
330
7C19
100
AcDbEntity
  8
TEXT
100
AcDbText
 10
230.1190476190476
 20
21.98662929265407
 30
0.0
 40
2.0
  1
0.8Z
  7
K
 72
     2
 11
236.5
 21
22.98662929265407
 31
0.0
100
AcDbText
 73
     2
  0
TEXT
  5
7C85
330
7C19
100
AcDbEntity
  8
TEXT
100
AcDbText
 10
240.24
 20
25.10873700804876
 30
0.0
 40
2.7
  1
通
  7
K
 72
     1
 11
241.5
 21
25.10873700804876
 31
0.0
100
AcDbText
  0
TEXT
  5
7C86
330
7C19
100
AcDbEntity
  8
TEXT
100
AcDbText
 10
240.24
 20
22.00873700804874
 30
0.0
 40
2.7
  1
寸
  7
K
 72
     1
 11
241.5
 21
22.00873700804874
 31
0.0
100
AcDbText
  0
TEXT
  5
7C87
330
7C19
100
AcDbEntity
  8
TEXT
100
AcDbText
 10
240.24
 20
28.20873700804872
 30
0.0
 40
2.7
  1
普
  7
K
 72
     1
 11
241.5
 21
28.20873700804872
 31
0.0
100
AcDbText
  0
TEXT
  5
7C88
330
7C19
100
AcDbEntity
  8
TEXT
100
AcDbText
 10
214.0657864606291
 20
50.43425887565195
 30
0.0
 40
3.0
  1
表面処理
  7
K
 11
214.0657864606291
 21
51.93425887565195
 31
0.0
100
AcDbText
 73
     2
  0
TEXT
  5
7C89
330
7C19
100
AcDbEntity
  8
TEXT
100
AcDbText
 10
214.0657864606291
 20
38.17129437825963
 30
0.0
 40
3.0
  1
適用規格など
  7
K
 11
214.0657864606291
 21
39.67129437825963
 31
0.0
100
AcDbText
 73
     2
  0
TEXT
  5
7C8A
330
7C19
100
AcDbEntity
  8
TEXT
100
AcDbText
 10
214.0657864606291
 20
44.30277662695579
 30
0.0
 40
3.0
  1
色調
  7
K
 11
214.0657864606291
 21
45.80277662695579
 31
0.0
100
AcDbText
 73
     2
  0
TEXT
  5
7C8B
330
7C19
100
AcDbEntity
  8
TEXT
100
AcDbText
 10
258.6063427181841
 20
22.42499852037173
 30
0.0
 40
2.0
  1
30以下
 41
0.8
  7
K
 72
     2
 11
265.0672950991365
 21
23.42499852037172
 31
0.0
100
AcDbText
 73
     2
  0
TEXT
  5
7C8C
330
7C19
100
AcDbEntity
  8
TEXT
100
AcDbText
 10
257.0825331943746
 20
18.55277662695579
 30
0.0
 40
2.0
  1
120以下
 41
0.8
  7
K
 72
     2
 11
265.0672950991365
 21
19.55277662695579
 31
0.0
100
AcDbText
 73
     2
  0
TEXT
  5
7C8D
330
7C19
100
AcDbEntity
  8
TEXT
100
AcDbText
 10
255.5587236705651
 20
10.80833284012391
 30
0.0
 40
2.0
  1
1000以下
 41
0.8
  7
K
 72
     2
 11
265.0672950991365
 21
11.8083328401239
 31
0.0
100
AcDbText
 73
     2
  0
TEXT
  5
7C8E
330
7C19
100
AcDbEntity
  8
TEXT
100
AcDbText
 10
257.0825331943746
 20
14.68055473353985
 30
0.0
 40
2.0
  1
315以下
 41
0.8
  7
K
 72
     2
 11
265.0672950991365
 21
15.68055473353985
 31
0.0
100
AcDbText
 73
     2
  0
TEXT
  5
7C8F
330
7C19
100
AcDbEntity
  8
TEXT
100
AcDbText
 10
247.2998740681349
 20
10.80833284012391
 30
0.0
 40
2.0
  1
315ｦｺｴ
 41
0.8
  7
K
 72
     2
 11
254.4313026395634
 21
11.8083328401239
 31
0.0
100
AcDbText
 73
     2
  0
TEXT
  5
7C90
330
7C19
100
AcDbEntity
  8
TEXT
100
AcDbText
 10
247.2998740681349
 20
14.68055473353985
 30
0.0
 40
2.0
  1
120ｦｺｴ
 41
0.8
  7
K
 72
     2
 11
254.4313026395634
 21
15.68055473353985
 31
0.0
100
AcDbText
 73
     2
  0
TEXT
  5
7C91
330
7C19
100
AcDbEntity
  8
TEXT
100
AcDbText
 10
248.8236835919444
 20
18.55277662695579
 30
0.0
 40
2.0
  1
30ｦｺｴ
 41
0.8
  7
K
 72
     2
 11
254.4313026395634
 21
19.55277662695579
 31
0.0
100
AcDbText
 73
     2
  0
TEXT
  5
7C92
330
7C19
100
AcDbEntity
  8
TEXT
100
AcDbText
 10
243.6235286514975
 20
11.16190406596939
 30
0.0
 40
2.0
  1
)
  7
K
 11
243.6235286514975
 21
12.16190406596939
 31
0.0
100
AcDbText
 73
     2
  0
TEXT
  5
7C93
330
7C19
100
AcDbEntity
  8
TEXT
100
AcDbText
 10
250.3474931157539
 20
22.42499852037173
 30
0.0
 40
2.0
  1
6ｦｺｴ
 41
0.8
  7
K
 72
     2
 11
254.4313026395634
 21
23.42499852037172
 31
0.0
100
AcDbText
 73
     2
  0
TEXT
  5
7C94
330
7C19
100
AcDbEntity
  8
TEXT
100
AcDbText
 10
250.3474931157539
 20
26.29722041378767
 30
0.0
 40
2.0
  1
3ｦｺｴ
 41
0.8
  7
K
 72
     2
 11
254.4313026395634
 21
27.29722041378767
 31
0.0
100
AcDbText
 73
     2
  0
TEXT
  5
7C95
330
7C19
100
AcDbEntity
  8
TEXT
100
AcDbText
 10
247.2084454967063
 20
30.16944230720361
 30
0.0
 40
2.0
  1
0.5以上
 41
0.8
  7
K
 72
     2
 11
254.4313026395634
 21
31.16944230720361
 31
0.0
100
AcDbText
 73
     2
  0
TEXT
  5
7C96
330
7C19
100
AcDbEntity
  8
TEXT
100
AcDbText
 10
267.5
 20
14.68055473353985
 30
0.0
 40
2.0
  1
0.2
 41
0.8
  7
K
 11
267.5
 21
15.68055473353985
 31
0.0
100
AcDbText
 73
     2
  0
TEXT
  5
7C97
330
7C19
100
AcDbEntity
  8
TEXT
100
AcDbText
 10
267.5
 20
10.80833284012391
 30
0.0
 40
2.0
  1
0.3
 41
0.8
  7
K
 11
267.5
 21
11.8083328401239
 31
0.0
100
AcDbText
 73
     2
  0
TEXT
  5
7C98
330
7C19
100
AcDbEntity
  8
TEXT
100
AcDbText
 10
267.5
 20
18.55277662695579
 30
0.0
 40
2.0
  1
0.15
 41
0.8
  7
K
 11
267.5
 21
19.55277662695579
 31
0.0
100
AcDbText
 73
     2
  0
TEXT
  5
7C99
330
7C19
100
AcDbEntity
  8
TEXT
100
AcDbText
 10
260.1301522419936
 20
26.29722041378767
 30
0.0
 40
2.0
  1
6以下
 41
0.8
  7
K
 72
     2
 11
265.0672950991365
 21
27.29722041378767
 31
0.0
100
AcDbText
 73
     2
  0
TEXT
  5
7C9A
330
7C19
100
AcDbEntity
  8
TEXT
100
AcDbText
 10
260.1301522419936
 20
30.16944230720361
 30
0.0
 40
2.0
  1
3以下
 41
0.8
  7
K
 72
     2
 11
265.0672950991365
 21
31.16944230720361
 31
0.0
100
AcDbText
 73
     2
  0
TEXT
  5
7C9B
330
7C19
100
AcDbEntity
  8
TEXT
100
AcDbText
 10
267.5
 20
26.29722041378767
 30
0.0
 40
2.0
  1
0.05
 41
0.8
  7
K
 11
267.5
 21
27.29722041378767
 31
0.0
100
AcDbText
 73
     2
  0
TEXT
  5
7C9C
330
7C19
100
AcDbEntity
  8
TEXT
100
AcDbText
 10
267.5
 20
22.42499852037173
 30
0.0
 40
2.0
  1
0.1
 41
0.8
  7
K
 11
267.5
 21
23.42499852037172
 31
0.0
100
AcDbText
 73
     2
  0
TEXT
  5
7C9D
330
7C19
100
AcDbEntity
  8
TEXT
100
AcDbText
 10
267.5
 20
30.16944230720361
 30
0.0
 40
2.0
  1
0.05
 41
0.8
  7
K
 11
267.5
 21
31.16944230720361
 31
0.0
100
AcDbText
 73
     2
  0
TEXT
  5
7C9E
330
7C19
100
AcDbEntity
  8
TEXT
100
AcDbText
 10
246.95
 20
33.50555325391157
 30
0.0
 40
2.7
  1
呼 ビ 寸 法
  7
K
 72
     1
 11
255.5
 21
34.85555325391158
 31
0.0
100
AcDbText
 73
     2
  0
TEXT
  5
7C9F
330
7C19
100
AcDbEntity
  8
TEXT
100
AcDbText
 10
268.6
 20
33.50555325391157
 30
0.0
 40
2.7
  1
J
  7
K
 72
     1
 11
269.4999999999999
 21
34.85555325391158
 31
0.0
100
AcDbText
 73
     2
  0
TEXT
  5
7CA0
330
7C19
100
AcDbEntity
  8
TEXT
100
AcDbText
 10
288.0
 20
8.0
 30
0.0
 40
3.0
  1
承認
  7
K
100
AcDbText
  0
LINE
  5
7CA1
330
7C19
100
AcDbEntity
  8
WAKU
100
AcDbLine
 10
324.0
 20
6.0
 30
0.0
 11
324.0
 21
19.0
 31
0.0
  0
LINE
  5
7CA2
330
7C19
100
AcDbEntity
  8
SUNPOU
100
AcDbLine
 10
308.0
 20
39.0
 30
0.0
 11
308.0
 21
6.0
 31
0.0
  0
LINE
  5
7CA3
330
7C19
100
AcDbEntity
  8
WAKU
100
AcDbLine
 10
287.0
 20
6.0
 30
0.0
 11
287.0
 21
39.0
 31
0.0
  0
LINE
  5
7CA4
330
7C19
100
AcDbEntity
  8
SUNPOU
100
AcDbLine
 10
296.0
 20
39.0
 30
0.0
 11
296.0
 21
6.0
 31
0.0
  0
LINE
  5
7CA5
330
7C19
100
AcDbEntity
  8
TEXT
100
AcDbLine
 10
280.0
 20
36.60555325391158
 30
0.0
 11
280.0
 21
6.0
 31
0.0
  0
TEXT
  5
7CA6
330
7C19
100
AcDbEntity
  8
TEXT
100
AcDbText
 10
281.4999999999999
 20
6.93611094670797
 30
0.0
 40
2.0
  1
3
 41
0.8
  7
K
 11
281.4999999999999
 21
7.93611094670797
 31
0.0
100
AcDbText
 73
     2
  0
CIRCLE
  5
7CA7
330
7C19
100
AcDbEntity
  8
JISSEN
100
AcDbCircle
 10
313.3333333333332
 20
7.0
 30
0.0
 40
0.2
  0
CIRCLE
  5
7CA8
330
7C19
100
AcDbEntity
  8
JISSEN
100
AcDbCircle
 10
318.6666666666667
 20
7.0
 30
0.0
 40
0.2
  0
LINE
  5
7CA9
330
7C19
100
AcDbEntity
  8
WAKU
100
AcDbLine
 10
287.0
 20
39.0
 30
0.0
 11
324.0
 21
39.0
 31
0.0
  0
LINE
  5
7CAA
330
7C19
100
AcDbEntity
  8
SUNPOU
100
AcDbLine
 10
287.0
 20
22.5
 30
0.0
 11
324.0
 21
22.5
 31
0.0
  0
LINE
  5
7CAB
330
7C19
100
AcDbEntity
  8
SUNPOU
100
AcDbLine
 10
324.0
 20
14.25
 30
0.0
 11
287.0
 21
14.25
 31
0.0
  0
LINE
  5
7CAC
330
7C19
100
AcDbEntity
  8
SUNPOU
100
AcDbLine
 10
324.0
 20
30.75
 30
0.0
 11
287.0
 21
30.75
 31
0.0
  0
TEXT
  5
7CAD
330
7C19
100
AcDbEntity
  8
TEXT
100
AcDbText
 10
288.0
 20
16.25
 30
0.0
 40
3.0
  1
検図
  7
K
100
AcDbText
  0
TEXT
  5
7CAE
330
7C19
100
AcDbEntity
  8
TEXT
100
AcDbText
 10
288.0
 20
24.5
 30
0.0
 40
3.0
  1
製図
  7
K
100
AcDbText
  0
TEXT
  5
7CAF
330
7C19
100
AcDbEntity
  8
TEXT
100
AcDbText
 10
281.4999999999999
 20
14.68055473353985
 30
0.0
 40
2.0
  1
1.2
 41
0.8
  7
K
 11
281.4999999999999
 21
15.68055473353985
 31
0.0
100
AcDbText
 73
     2
  0
TEXT
  5
7CB0
330
7C19
100
AcDbEntity
  8
TEXT
100
AcDbText
 10
281.4999999999999
 20
18.55277662695579
 30
0.0
 40
2.0
  1
0.8
 41
0.8
  7
K
 11
281.4999999999999
 21
19.55277662695579
 31
0.0
100
AcDbText
 73
     2
  0
TEXT
  5
7CB1
330
7C19
100
AcDbEntity
  8
TEXT
100
AcDbText
 10
281.4999999999999
 20
10.80833284012391
 30
0.0
 40
2.0
  1
2
 41
0.8
  7
K
 11
281.4999999999999
 21
11.8083328401239
 31
0.0
100
AcDbText
 73
     2
  0
LINE
  5
7CB2
330
7C19
100
AcDbEntity
  8
TEXT
100
AcDbLine
 10
281.4999999999999
 20
31.16944230720361
 30
0.0
 11
285.1060332593608
 21
31.16944230720361
 31
0.0
  0
TEXT
  5
7CB3
330
7C19
100
AcDbEntity
  8
TEXT
100
AcDbText
 10
281.4999999999999
 20
26.29722041378767
 30
0.0
 40
2.0
  1
0.2
 41
0.8
  7
K
 11
281.4999999999999
 21
27.29722041378767
 31
0.0
100
AcDbText
 73
     2
  0
TEXT
  5
7CB4
330
7C19
100
AcDbEntity
  8
TEXT
100
AcDbText
 10
281.4999999999999
 20
22.42499852037173
 30
0.0
 40
2.0
  1
0.5
 41
0.8
  7
K
 11
281.4999999999999
 21
23.42499852037172
 31
0.0
100
AcDbText
 73
     2
  0
TEXT
  5
7CB5
330
7C19
100
AcDbEntity
  8
TEXT
100
AcDbText
 10
288.0
 20
45.0
 30
0.0
 40
3.0
  1
品名
  7
K
100
AcDbText
  0
TEXT
  5
7CB6
330
7C19
100
AcDbEntity
  8
TEXT
100
AcDbText
 10
288.0
 20
32.75
 30
0.0
 40
3.0
  1
設計
  7
K
100
AcDbText
  0
LINE
  5
7CB7
330
7C19
100
AcDbEntity
  8
WAKU
100
AcDbLine
 10
287.0
 20
39.0
 30
0.0
 11
287.0
 21
55.0
 31
0.0
  0
TEXT
  5
7CB8
330
7C19
100
AcDbEntity
  8
TEXT
100
AcDbText
 10
282.2142857142857
 20
33.50555325391157
 30
0.0
 40
2.7
  1
L
  7
K
 72
     1
 11
283.4999999999999
 21
34.85555325391158
 31
0.0
100
AcDbText
 73
     2
  0
LINE
  5
7CB9
330
7C19
100
AcDbEntity
  8
SUNPOU
100
AcDbLine
 10
296.0
 20
55.0
 30
0.0
 11
296.0
 21
39.0
 31
0.0
  0
LINE
  5
7CBA
330
7C19
100
AcDbEntity
  8
WAKU
100
AcDbLine
 10
324.0
 20
32.0
 30
0.0
 11
324.0
 21
39.0
 31
0.0
  0
LINE
  5
7CBB
330
7C19
100
AcDbEntity
  8
WAKU
100
AcDbLine
 10
324.0
 20
19.0
 30
0.0
 11
324.0
 21
32.0
 31
0.0
  0
CIRCLE
  5
7CBC
330
7C19
100
AcDbEntity
  8
JISSEN
100
AcDbCircle
 10
313.3333333333332
 20
15.25
 30
0.0
 40
0.2
  0
CIRCLE
  5
7CBD
330
7C19
100
AcDbEntity
  8
JISSEN
100
AcDbCircle
 10
318.6666666666667
 20
15.25
 30
0.0
 40
0.2
  0
CIRCLE
  5
7CBE
330
7C19
100
AcDbEntity
  8
JISSEN
100
AcDbCircle
 10
313.3333333333332
 20
23.5
 30
0.0
 40
0.2
  0
CIRCLE
  5
7CBF
330
7C19
100
AcDbEntity
  8
JISSEN
100
AcDbCircle
 10
313.3333333333332
 20
31.75
 30
0.0
 40
0.2
  0
CIRCLE
  5
7CC0
330
7C19
100
AcDbEntity
  8
JISSEN
100
AcDbCircle
 10
318.6666666666667
 20
23.5
 30
0.0
 40
0.2
  0
CIRCLE
  5
7CC1
330
7C19
100
AcDbEntity
  8
JISSEN
100
AcDbCircle
 10
318.6666666666667
 20
31.75
 30
0.0
 40
0.2
  0
LINE
  5
7CC2
330
7C19
100
AcDbEntity
  8
SUNPOU
100
AcDbLine
 10
336.0
 20
32.0
 30
0.0
 11
336.0
 21
19.0
 31
0.0
  0
TEXT
  5
7CC3
330
7C19
100
AcDbEntity
  8
TEXT
100
AcDbText
 10
328.485167223504
 20
10.0
 30
0.0
 40
2.0
  1
株式会社
  7
K
100
AcDbText
  0
TEXT
  5
7CC4
330
7C19
100
AcDbEntity
  8
TEXT
100
AcDbText
 10
326.6999999999999
 20
24.0
 30
0.0
 40
3.0
  1
図番
  7
K
 72
     4
 11
330.0
 21
25.5
 31
0.0
100
AcDbText
  0
TEXT
  5
7CC5
330
7C19
100
AcDbEntity
  8
TEXT
100
AcDbText
 10
274.3
 20
57.23202258979018
 30
0.0
 40
3.0
  1
品         名
  7
K
 72
     1
 11
285.5
 21
58.73202258979017
 31
0.0
100
AcDbText
 73
     2
  0
TEXT
  5
7CC6
330
7C19
100
AcDbEntity
  8
TEXT
100
AcDbText
 10
229.0999999999999
 20
57.23202258979018
 30
0.0
 40
3.0
  1
図         番
  7
K
 72
     1
 11
240.5
 21
58.73202258979017
 31
0.0
100
AcDbText
 73
     2
  0
TEXT
  5
7CC7
330
7C19
100
AcDbEntity
  8
TEXT
100
AcDbText
 10
212.0714285714285
 20
57.73202258979018
 30
0.0
 40
2.0
  1
No.
  7
K
 72
     1
 11
214.5
 21
58.73202258979017
 31
0.0
100
AcDbText
 73
     2
  0
LINE
  5
7CC8
330
7C19
100
AcDbEntity
  8
WAKU
100
AcDbLine
 10
384.0
 20
55.0
 30
0.0
 11
349.0
 21
55.0
 31
0.0
  0
TEXT
  5
7CC9
330
7C19
100
AcDbEntity
  8
TEXT
100
AcDbText
 10
367.0633115578711
 20
33.41726061251677
 30
0.0
 40
2.5
  1
(単位mm)
  7
K
100
AcDbText
  0
LINE
  5
7CCA
330
7C19
100
AcDbEntity
  8
SUNPOU
100
AcDbLine
 10
349.0
 20
47.0
 30
0.0
 11
384.0
 21
47.0
 31
0.0
  0
LINE
  5
7CCB
330
7C19
100
AcDbEntity
  8
SUNPOU
100
AcDbLine
 10
356.0
 20
32.0
 30
0.0
 11
356.0
 21
39.0
 31
0.0
  0
LINE
  5
7CCC
330
7C19
100
AcDbEntity
  8
SUNPOU
100
AcDbLine
 10
347.0
 20
39.0
 30
0.0
 11
347.0
 21
32.0
 31
0.0
  0
TEXT
  5
7CCD
330
7C19
100
AcDbEntity
  8
TEXT
100
AcDbText
 10
350.0
 20
49.0
 30
0.0
 40
3.0
  1
材 質
  7
K
100
AcDbText
  0
TEXT
  5
7CCE
330
7C19
100
AcDbEntity
  8
TEXT
100
AcDbText
 10
350.0
 20
41.0
 30
0.0
 40
3.0
  1
板 厚
  7
K
100
AcDbText
  0
LINE
  5
7CCF
330
7C19
100
AcDbEntity
  8
WAKU
100
AcDbLine
 10
349.0
 20
55.0
 30
0.0
 11
349.0
 21
39.0
 31
0.0
  0
TEXT
  5
7CD0
330
7C19
100
AcDbEntity
  8
TEXT
100
AcDbText
 10
348.0
 20
34.0
 30
0.0
 40
3.0
  1
尺度
  7
K
100
AcDbText
  0
LINE
  5
7CD1
330
7C19
100
AcDbEntity
  8
SUNPOU
100
AcDbLine
 10
360.0
 20
55.0
 30
0.0
 11
360.0
 21
39.0
 31
0.0
  0
TEXT
  5
7CD2
330
7C19
100
AcDbEntity
  8
TEXT
100
AcDbText
 10
385.1333333333333
 20
99.60134216402344
 30
0.0
 40
4.0
  1
ず
  7
K
 72
     1
 11
387.0
 21
101.6013421640234
 31
0.0
100
AcDbText
 73
     2
  0
TEXT
  5
7CD3
330
7C19
100
AcDbEntity
  8
TEXT
100
AcDbText
 10
385.0346249501075
 20
64.86078937622085
 30
0.0
 40
4.0
  1
の
  7
K
 72
     4
 11
386.9012916167741
 21
66.86078937622085
 31
0.0
100
AcDbText
  0
TEXT
  5
7CD4
330
7C19
100
AcDbEntity
  8
TEXT
100
AcDbText
 10
385.1333333333333
 20
60.60134216402343
 30
0.0
 40
4.0
  1
こ
  7
K
 72
     1
 11
387.0
 21
62.60134216402343
 31
0.0
100
AcDbText
 73
     2
  0
TEXT
  5
7CD5
330
7C19
100
AcDbEntity
  8
TEXT
100
AcDbText
 10
385.1333333333333
 20
55.60134216402343
 30
0.0
 40
4.0
  1
と
  7
K
 72
     1
 11
387.0
 21
57.60134216402343
 31
0.0
100
AcDbText
 73
     2
  0
TEXT
  5
7CD6
330
7C19
100
AcDbEntity
  8
TEXT
100
AcDbText
 10
385.1333333333333
 20
69.60134216402344
 30
0.0
 40
4.0
  1
却
  7
K
 72
     1
 11
387.0
 21
71.60134216402344
 31
0.0
100
AcDbText
 73
     2
  0
TEXT
  5
7CD7
330
7C19
100
AcDbEntity
  8
TEXT
100
AcDbText
 10
385.1333333333333
 20
74.60134216402344
 30
0.0
 40
4.0
  1
返
  7
K
 72
     1
 11
387.0
 21
76.60134216402344
 31
0.0
100
AcDbText
 73
     2
  0
TEXT
  5
7CD8
330
7C19
100
AcDbEntity
  8
TEXT
100
AcDbText
 10
385.1333333333333
 20
89.60134216402343
 30
0.0
 40
4.0
  1
行
  7
K
 72
     1
 11
387.0
 21
91.60134216402344
 31
0.0
100
AcDbText
 73
     2
  0
TEXT
  5
7CD9
330
7C19
100
AcDbEntity
  8
TEXT
100
AcDbText
 10
385.1333333333333
 20
84.60134216402343
 30
0.0
 40
4.0
  1
元
  7
K
 72
     1
 11
387.0
 21
86.60134216402344
 31
0.0
100
AcDbText
 73
     2
  0
TEXT
  5
7CDA
330
7C19
100
AcDbEntity
  8
TEXT
100
AcDbText
 10
385.2666666666666
 20
79.60134216402344
 30
0.0
 40
4.0
  1
へ
  7
K
 72
     1
 11
387.0
 21
81.60134216402344
 31
0.0
100
AcDbText
 73
     2
  0
TEXT
  5
7CDB
330
7C19
100
AcDbEntity
  8
TEXT
100
AcDbText
 10
385.1333333333333
 20
94.60134216402343
 30
0.0
 40
4.0
  1
発
  7
K
 72
     1
 11
387.0
 21
96.60134216402344
 31
0.0
100
AcDbText
 73
     2
  0
TEXT
  5
7CDC
330
7C19
100
AcDbEntity
  8
TEXT
100
AcDbText
 10
385.1333333333333
 20
124.6013421640234
 30
0.0
 40
4.0
  1
済
  7
K
 72
     1
 11
387.0
 21
126.6013421640234
 31
0.0
100
AcDbText
 73
     2
  0
TEXT
  5
7CDD
330
7C19
100
AcDbEntity
  8
TEXT
100
AcDbText
 10
385.1333333333333
 20
104.6013421640234
 30
0.0
 40
4.0
  1
必
  7
K
 72
     1
 11
387.0
 21
106.6013421640234
 31
0.0
100
AcDbText
 73
     2
  0
TEXT
  5
7CDE
330
7C19
100
AcDbEntity
  8
TEXT
100
AcDbText
 10
387.9256954922052
 20
111.2049702787619
 30
0.0
 40
4.0
  1
、
  7
K
 72
     1
 11
388.4590288255385
 21
113.2049702787619
 31
0.0
100
AcDbText
 73
     2
  0
TEXT
  5
7CDF
330
7C19
100
AcDbEntity
  8
TEXT
100
AcDbText
 10
385.1333333333333
 20
114.6013421640234
 30
0.0
 40
4.0
  1
後
  7
K
 72
     1
 11
387.0
 21
116.6013421640234
 31
0.0
100
AcDbText
 73
     2
  0
TEXT
  5
7CE0
330
7C19
100
AcDbEntity
  8
TEXT
100
AcDbText
 10
385.2666666666666
 20
119.6013421640234
 30
0.0
 40
4.0
  1
み
  7
K
 72
     1
 11
387.0
 21
121.6013421640234
 31
0.0
100
AcDbText
 73
     2
  0
TEXT
  5
7CE1
330
7C19
100
AcDbEntity
  8
TEXT
100
AcDbText
 10
385.1333333333333
 20
134.6013421640234
 30
0.0
 40
4.0
  1
は
  7
K
 72
     1
 11
387.0
 21
136.6013421640234
 31
0.0
100
AcDbText
 73
     2
  0
TEXT
  5
7CE2
330
7C19
100
AcDbEntity
  8
TEXT
100
AcDbText
 10
385.2666666666666
 20
129.6013421640234
 30
0.0
 40
4.0
  1
用
  7
K
 72
     1
 11
387.0
 21
131.6013421640234
 31
0.0
100
AcDbText
 73
     2
  0
TEXT
  5
7CE3
330
7C19
100
AcDbEntity
  8
TEXT
100
AcDbText
 10
385.1333333333333
 20
139.6013421640234
 30
0.0
 40
4.0
  1
図
  7
K
 72
     1
 11
387.0
 21
141.6013421640234
 31
0.0
100
AcDbText
 73
     2
  0
LINE
  5
7CE4
330
7C19
100
AcDbEntity
  8
WAKU
100
AcDbLine
 10
211.0
 20
55.0
 30
0.0
 11
211.0
 21
6.0
 31
0.0
  0
ENDBLK
  5
7CE6
330
7C19
100
AcDbEntity
  8
0
100
AcDbBlockEnd
  0
BLOCK
  5
7DF5
330
7CE8
100
AcDbEntity
  8
0
100
AcDbBlockBegin
  2
S6
 70
     0
 10
0.0
 20
0.0
 30
0.0
  3
S6
  1

  0
LINE
  5
7CE9
330
7CE8
100
AcDbEntity
  8
WAKU
100
AcDbLine
 10
3.0
 20
392.0
 30
0.0
 11
558.0
 21
392.0
 31
0.0
  0
LINE
  5
7CEA
330
7CE8
100
AcDbEntity
  8
WAKU
100
AcDbLine
 10
558.0
 20
6.0
 30
0.0
 11
3.0
 21
6.0
 31
0.0
  0
LINE
  5
7CEB
330
7CE8
100
AcDbEntity
  8
WAKU
100
AcDbLine
 10
3.0
 20
6.0
 30
0.0
 11
3.0
 21
392.0
 31
0.0
  0
LINE
  5
7CEC
330
7CE8
100
AcDbEntity
  8
SUNPOU
100
AcDbLine
 10
13.0
 20
24.0
 30
0.0
 11
106.0
 21
24.0
 31
0.0
  0
LINE
  5
7CED
330
7CE8
100
AcDbEntity
  8
SUNPOU
100
AcDbLine
 10
106.0
 20
18.0
 30
0.0
 11
13.0
 21
18.0
 31
0.0
  0
LINE
  5
7CEE
330
7CE8
100
AcDbEntity
  8
SUNPOU
100
AcDbLine
 10
13.0
 20
12.0
 30
0.0
 11
106.0
 21
12.0
 31
0.0
  0
LINE
  5
7CEF
330
7CE8
100
AcDbEntity
  8
SUNPOU
100
AcDbLine
 10
106.0
 20
24.0
 30
0.0
 11
13.0
 21
24.0
 31
0.0
  0
LINE
  5
7CF0
330
7CE8
100
AcDbEntity
  8
SUNPOU
100
AcDbLine
 10
13.0
 20
18.0
 30
0.0
 11
106.0
 21
18.0
 31
0.0
  0
LINE
  5
7CF1
330
7CE8
100
AcDbEntity
  8
SUNPOU
100
AcDbLine
 10
106.0
 20
12.0
 30
0.0
 11
13.0
 21
12.0
 31
0.0
  0
LINE
  5
7CF2
330
7CE8
100
AcDbEntity
  8
SUNPOU
100
AcDbLine
 10
106.0
 20
30.0
 30
0.0
 11
3.0
 21
30.0
 31
0.0
  0
LINE
  5
7CF3
330
7CE8
100
AcDbEntity
  8
SUNPOU
100
AcDbLine
 10
7.5
 20
18.0
 30
0.0
 11
12.0
 21
12.0
 31
0.0
  0
LINE
  5
7CF4
330
7CE8
100
AcDbEntity
  8
SUNPOU
100
AcDbLine
 10
7.5
 20
18.0
 30
0.0
 11
3.0
 21
12.0
 31
0.0
  0
LINE
  5
7CF5
330
7CE8
100
AcDbEntity
  8
SUNPOU
100
AcDbLine
 10
13.0
 20
30.0
 30
0.0
 11
13.0
 21
6.0
 31
0.0
  0
LINE
  5
7CF6
330
7CE8
100
AcDbEntity
  8
SUNPOU
100
AcDbLine
 10
12.0
 20
6.0
 30
0.0
 11
12.0
 21
30.0
 31
0.0
  0
LINE
  5
7CF7
330
7CE8
100
AcDbEntity
  8
SUNPOU
100
AcDbLine
 10
12.0
 20
30.0
 30
0.0
 11
12.0
 21
6.0
 31
0.0
  0
LINE
  5
7CF8
330
7CE8
100
AcDbEntity
  8
SUNPOU
100
AcDbLine
 10
13.0
 20
6.0
 30
0.0
 11
13.0
 21
30.0
 31
0.0
  0
TEXT
  5
7CF9
330
7CE8
100
AcDbEntity
  8
TEXT
100
AcDbText
 10
4.299999999999999
 20
7.5
 30
0.0
 40
3.0
  1
記号
  7
K
 72
     4
 11
7.5
 21
9.0
 31
0.0
100
AcDbText
  0
LINE
  5
7CFA
330
7CE8
100
AcDbEntity
  8
SUNPOU
100
AcDbLine
 10
12.0
 20
12.0
 30
0.0
 11
3.0
 21
12.0
 31
0.0
  0
LINE
  5
7CFB
330
7CE8
100
AcDbEntity
  8
SUNPOU
100
AcDbLine
 10
12.0
 20
12.0
 30
0.0
 11
3.0
 21
12.0
 31
0.0
  0
LINE
  5
7CFC
330
7CE8
100
AcDbEntity
  8
SUNPOU
100
AcDbLine
 10
12.0
 20
24.0
 30
0.0
 11
7.5
 21
30.0
 31
0.0
  0
LINE
  5
7CFD
330
7CE8
100
AcDbEntity
  8
SUNPOU
100
AcDbLine
 10
7.5
 20
30.0
 30
0.0
 11
3.0
 21
24.0
 31
0.0
  0
LINE
  5
7CFE
330
7CE8
100
AcDbEntity
  8
SUNPOU
100
AcDbLine
 10
12.0
 20
24.0
 30
0.0
 11
3.0
 21
24.0
 31
0.0
  0
LINE
  5
7CFF
330
7CE8
100
AcDbEntity
  8
SUNPOU
100
AcDbLine
 10
12.0
 20
18.0
 30
0.0
 11
3.0
 21
18.0
 31
0.0
  0
LINE
  5
7D00
330
7CE8
100
AcDbEntity
  8
SUNPOU
100
AcDbLine
 10
3.0
 20
18.0
 30
0.0
 11
12.0
 21
18.0
 31
0.0
  0
LINE
  5
7D01
330
7CE8
100
AcDbEntity
  8
SUNPOU
100
AcDbLine
 10
12.0
 20
24.0
 30
0.0
 11
3.0
 21
24.0
 31
0.0
  0
LINE
  5
7D02
330
7CE8
100
AcDbEntity
  8
SUNPOU
100
AcDbLine
 10
7.5
 20
24.0
 30
0.0
 11
3.0
 21
18.0
 31
0.0
  0
LINE
  5
7D03
330
7CE8
100
AcDbEntity
  8
SUNPOU
100
AcDbLine
 10
7.5
 20
24.0
 30
0.0
 11
12.0
 21
18.0
 31
0.0
  0
LINE
  5
7D04
330
7CE8
100
AcDbEntity
  8
SUNPOU
100
AcDbLine
 10
53.0
 20
30.0
 30
0.0
 11
53.0
 21
6.0
 31
0.0
  0
LINE
  5
7D05
330
7CE8
100
AcDbEntity
  8
SUNPOU
100
AcDbLine
 10
73.0
 20
6.0
 30
0.0
 11
73.0
 21
30.0
 31
0.0
  0
LINE
  5
7D06
330
7CE8
100
AcDbEntity
  8
SUNPOU
100
AcDbLine
 10
88.0
 20
30.0
 30
0.0
 11
88.0
 21
6.0
 31
0.0
  0
LINE
  5
7D07
330
7CE8
100
AcDbEntity
  8
SUNPOU
100
AcDbLine
 10
97.0
 20
6.0
 30
0.0
 11
97.0
 21
30.0
 31
0.0
  0
LINE
  5
7D08
330
7CE8
100
AcDbEntity
  8
SUNPOU
100
AcDbLine
 10
106.0
 20
30.0
 30
0.0
 11
106.0
 21
6.0
 31
0.0
  0
TEXT
  5
7D09
330
7CE8
100
AcDbEntity
  8
TEXT
100
AcDbText
 10
56.2
 20
7.5
 30
0.0
 40
3.0
  1
設変番号
  7
K
 72
     4
 11
63.0
 21
9.0
 31
0.0
100
AcDbText
  0
TEXT
  5
7D0A
330
7CE8
100
AcDbEntity
  8
TEXT
100
AcDbText
 10
20.9
 20
7.5
 30
0.0
 40
3.0
  1
変更内容・理由
  7
K
 72
     4
 11
33.0
 21
9.0
 31
0.0
100
AcDbText
  0
TEXT
  5
7D0B
330
7CE8
100
AcDbEntity
  8
TEXT
100
AcDbText
 10
72.09999999999999
 20
7.5
 30
0.0
 40
3.0
  1
 年 月 日
  7
K
 72
     4
 11
80.5
 21
9.0
 31
0.0
100
AcDbText
  0
TEXT
  5
7D0C
330
7CE8
100
AcDbEntity
  8
TEXT
100
AcDbText
 10
98.40000000000001
 20
7.5
 30
0.0
 40
3.0
  1
検図
  7
K
 72
     4
 11
101.5
 21
9.0
 31
0.0
100
AcDbText
  0
TEXT
  5
7D0D
330
7CE8
100
AcDbEntity
  8
TEXT
100
AcDbText
 10
89.36428571428571
 20
7.5
 30
0.0
 40
3.0
  1
担当
  7
K
 72
     4
 11
92.5
 21
9.0
 31
0.0
100
AcDbText
  0
LINE
  5
7D0E
330
7CE8
100
AcDbEntity
  8
WAKU
100
AcDbLine
 10
3.0
 20
139.0
 30
0.0
 11
0.0
 21
139.0
 31
0.0
  0
SOLID
  5
7D0F
330
7CE8
100
AcDbEntity
  8
WAKU
 62
     5
100
AcDbTrace
 10
185.0
 20
6.0
 30
0.0
 11
183.875
 21
3.0
 31
0.0
 12
186.125
 22
3.0
 32
0.0
 13
186.125
 23
3.0
 33
0.0
  0
SOLID
  5
7D10
330
7CE8
100
AcDbEntity
  8
WAKU
 62
     5
100
AcDbTrace
 10
3.0
 20
285.0
 30
0.0
 11
0.0
 21
286.125
 31
0.0
 12
0.0
 22
283.875
 32
0.0
 13
0.0
 23
283.875
 33
0.0
  0
LINE
  5
7D11
330
7CE8
100
AcDbEntity
  8
WAKU
100
AcDbLine
 10
63.0
 20
402.0
 30
0.0
 11
3.0
 21
402.0
 31
0.0
  0
LINE
  5
7D12
330
7CE8
100
AcDbEntity
  8
WAKU
100
AcDbLine
 10
3.0
 20
392.0
 30
0.0
 11
3.0
 21
402.0
 31
0.0
  0
LINE
  5
7D13
330
7CE8
100
AcDbEntity
  8
SUNPOU
100
AcDbLine
 10
51.0
 20
392.0
 30
0.0
 11
51.0
 21
402.0
 31
0.0
  0
LINE
  5
7D14
330
7CE8
100
AcDbEntity
  8
WAKU
100
AcDbLine
 10
63.0
 20
402.0
 30
0.0
 11
63.0
 21
392.0
 31
0.0
  0
TEXT
  5
7D15
330
7CE8
100
AcDbEntity
  8
TEXT
100
AcDbText
 10
60.3
 20
398.2952101871326
 30
0.0
 40
3.0
  1
図番
 50
180.0
  7
K
 72
     4
 11
57.0
 21
396.7952101871326
 31
0.0
100
AcDbText
  0
LINE
  5
7D16
330
7CE8
100
AcDbEntity
  8
WAKU
100
AcDbLine
 10
558.0
 20
392.0
 30
0.0
 11
558.0
 21
6.0
 31
0.0
  0
TEXT
  5
7D17
330
7CE8
100
AcDbEntity
  8
TEXT
100
AcDbText
 10
394.8767108238105
 20
3.0
 30
0.0
 40
2.6
  1
複写図面配布先： 購買  →発注先 フード生産技術 フード品質保証 開発部
  7
K
100
AcDbText
  0
LINE
  5
7D18
330
7CE8
100
AcDbEntity
  8
TEXT
100
AcDbLine
 10
392.0
 20
167.0000000000001
 30
0.0
 11
558.0
 21
167.0000000000001
 31
0.0
  0
LINE
  5
7D19
330
7CE8
100
AcDbEntity
  8
TEXT
100
AcDbLine
 10
392.0
 20
173.9968498657292
 30
0.0
 11
558.0
 21
173.9968498657292
 31
0.0
  0
LINE
  5
7D1A
330
7CE8
100
AcDbEntity
  8
SUNPOU
100
AcDbLine
 10
558.0
 20
159.9968498657292
 30
0.0
 11
392.0
 21
159.9968498657291
 31
0.0
  0
LINE
  5
7D1B
330
7CE8
100
AcDbEntity
  8
TEXT
100
AcDbLine
 10
392.0
 20
152.9968498657291
 30
0.0
 11
558.0
 21
152.9968498657291
 31
0.0
  0
LINE
  5
7D1C
330
7CE8
100
AcDbEntity
  8
TEXT
100
AcDbLine
 10
392.0
 20
118.0031501342709
 30
0.0
 11
558.0
 21
118.0031501342709
 31
0.0
  0
LINE
  5
7D1D
330
7CE8
100
AcDbEntity
  8
SUNPOU
100
AcDbLine
 10
558.0
 20
111.0
 30
0.0
 11
392.0
 21
111.0
 31
0.0
  0
LINE
  5
7D1E
330
7CE8
100
AcDbEntity
  8
TEXT
100
AcDbLine
 10
392.0
 20
125.0
 30
0.0
 11
558.0
 21
125.0
 31
0.0
  0
LINE
  5
7D1F
330
7CE8
100
AcDbEntity
  8
TEXT
100
AcDbLine
 10
392.0
 20
146.0
 30
0.0
 11
558.0
 21
146.0
 31
0.0
  0
LINE
  5
7D20
330
7CE8
100
AcDbEntity
  8
SUNPOU
100
AcDbLine
 10
558.0
 20
132.0
 30
0.0
 11
392.0
 21
132.0
 31
0.0
  0
LINE
  5
7D21
330
7CE8
100
AcDbEntity
  8
TEXT
100
AcDbLine
 10
392.0
 20
139.0031501342709
 30
0.0
 11
558.0
 21
139.003150134271
 31
0.0
  0
LINE
  5
7D22
330
7CE8
100
AcDbEntity
  8
TEXT
100
AcDbLine
 10
392.0
 20
97.00315013427093
 30
0.0
 11
558.0
 21
97.00315013427095
 31
0.0
  0
LINE
  5
7D23
330
7CE8
100
AcDbEntity
  8
SUNPOU
100
AcDbLine
 10
558.0
 20
90.00000000000003
 30
0.0
 11
392.0
 21
90.0
 31
0.0
  0
LINE
  5
7D24
330
7CE8
100
AcDbEntity
  8
TEXT
100
AcDbLine
 10
392.0
 20
104.0
 30
0.0
 11
558.0
 21
104.0
 31
0.0
  0
LINE
  5
7D25
330
7CE8
100
AcDbEntity
  8
TEXT
100
AcDbLine
 10
392.0
 20
83.0
 30
0.0
 11
558.0
 21
83.0
 31
0.0
  0
LINE
  5
7D26
330
7CE8
100
AcDbEntity
  8
SUNPOU
100
AcDbLine
 10
558.0
 20
69.0
 30
0.0
 11
392.0
 21
68.99999999999997
 31
0.0
  0
LINE
  5
7D27
330
7CE8
100
AcDbEntity
  8
SUNPOU
100
AcDbLine
 10
392.0
 20
61.99999999999997
 30
0.0
 11
558.0
 21
62.0
 31
0.0
  0
LINE
  5
7D28
330
7CE8
100
AcDbEntity
  8
TEXT
100
AcDbLine
 10
392.0
 20
76.00315013427089
 30
0.0
 11
558.0
 21
76.00315013427092
 31
0.0
  0
LINE
  5
7D29
330
7CE8
100
AcDbEntity
  8
SUNPOU
100
AcDbLine
 10
498.0
 20
14.25
 30
0.0
 11
461.0
 21
14.25
 31
0.0
  0
LINE
  5
7D2A
330
7CE8
100
AcDbEntity
  8
WAKU
100
AcDbLine
 10
461.0
 20
55.0
 30
0.0
 11
523.0
 21
55.0
 31
0.0
  0
LINE
  5
7D2B
330
7CE8
100
AcDbEntity
  8
SUNPOU
100
AcDbLine
 10
498.0
 20
30.75
 30
0.0
 11
461.0
 21
30.75
 31
0.0
  0
LINE
  5
7D2C
330
7CE8
100
AcDbEntity
  8
SUNPOU
100
AcDbLine
 10
461.0
 20
22.5
 30
0.0
 11
498.0
 21
22.5
 31
0.0
  0
LINE
  5
7D2D
330
7CE8
100
AcDbEntity
  8
WAKU
100
AcDbLine
 10
461.0
 20
39.0
 30
0.0
 11
498.0
 21
39.0
 31
0.0
  0
TEXT
  5
7D2E
330
7CE8
100
AcDbEntity
  8
TEXT
100
AcDbText
 10
386.1190476190476
 20
78.25157506713543
 30
0.0
 40
2.5
  1
03
  7
K
 72
     4
 11
388.5
 21
79.50157506713543
 31
0.0
100
AcDbText
  0
LINE
  5
7D2F
330
7CE8
100
AcDbEntity
  8
SUNPOU
100
AcDbLine
 10
437.0
 20
173.9968498657292
 30
0.0
 11
437.0
 21
55.0
 31
0.0
  0
LINE
  5
7D30
330
7CE8
100
AcDbEntity
  8
SUNPOU
100
AcDbLine
 10
364.0
 20
174.0
 30
0.0
 11
364.0
 21
54.99999999999997
 31
0.0
  0
LINE
  5
7D31
330
7CE8
100
AcDbEntity
  8
TEXT
100
AcDbLine
 10
371.0
 20
59.09373397353019
 30
0.0
 11
371.0
 21
82.99999999999997
 31
0.0
  0
LINE
  5
7D32
330
7CE8
100
AcDbEntity
  8
TEXT
100
AcDbLine
 10
385.0
 20
82.99999999999997
 30
0.0
 11
385.0
 21
54.99999999999997
 31
0.0
  0
LINE
  5
7D33
330
7CE8
100
AcDbEntity
  8
SUNPOU
100
AcDbLine
 10
392.0
 20
82.99999999999997
 30
0.0
 11
392.0
 21
54.99999999999997
 31
0.0
  0
LINE
  5
7D34
330
7CE8
100
AcDbEntity
  8
TEXT
100
AcDbLine
 10
378.0
 20
82.99999999999997
 30
0.0
 11
378.0
 21
59.09373397353019
 31
0.0
  0
LINE
  5
7D35
330
7CE8
100
AcDbEntity
  8
SUNPOU
100
AcDbLine
 10
482.0
 20
173.9968498657292
 30
0.0
 11
482.0
 21
55.0
 31
0.0
  0
LINE
  5
7D36
330
7CE8
100
AcDbEntity
  8
TEXT
100
AcDbLine
 10
461.0
 20
42.73703550260768
 30
0.0
 11
385.0
 21
42.73703550260768
 31
0.0
  0
LINE
  5
7D37
330
7CE8
100
AcDbEntity
  8
TEXT
100
AcDbLine
 10
385.0
 20
48.8685177513039
 30
0.0
 11
461.0
 21
48.8685177513039
 31
0.0
  0
LINE
  5
7D38
330
7CE8
100
AcDbEntity
  8
WAKU
100
AcDbLine
 10
461.0
 20
36.60555325391158
 30
0.0
 11
385.0
 21
36.60555325391158
 31
0.0
  0
LINE
  5
7D39
330
7CE8
100
AcDbEntity
  8
WAKU
100
AcDbLine
 10
461.0
 20
55.0
 30
0.0
 11
385.0
 21
55.0
 31
0.0
  0
TEXT
  5
7D3A
330
7CE8
100
AcDbEntity
  8
TEXT
100
AcDbText
 10
386.5
 20
18.21182278317542
 30
0.0
 40
2.0
  1
▽▽▽
  7
K
 11
386.5
 21
19.21182278317542
 31
0.0
100
AcDbText
 73
     2
  0
TEXT
  5
7D3B
330
7CE8
100
AcDbEntity
  8
TEXT
100
AcDbText
 10
386.5
 20
14.43701627369671
 30
0.0
 40
2.0
  1
▽▽
  7
K
 11
386.5
 21
15.43701627369671
 31
0.0
100
AcDbText
 73
     2
  0
TEXT
  5
7D3C
330
7CE8
100
AcDbEntity
  8
TEXT
100
AcDbText
 10
386.4761904761905
 20
64.24999999999997
 30
0.0
 40
2.5
  1
01
  7
K
 72
     4
 11
388.5
 21
65.49999999999997
 31
0.0
100
AcDbText
  0
TEXT
  5
7D3D
330
7CE8
100
AcDbEntity
  8
TEXT
100
AcDbText
 10
388.0657864606291
 20
38.17129437825963
 30
0.0
 40
3.0
  1
適用規格など
  7
K
 11
388.0657864606291
 21
39.67129437825963
 31
0.0
100
AcDbText
 73
     2
  0
TEXT
  5
7D3E
330
7CE8
100
AcDbEntity
  8
TEXT
100
AcDbText
 10
386.8199999999999
 20
26.52630198798243
 30
0.0
 40
3.0
  1
(標準外ﾊ指定ﾉｺﾄ)
 41
0.8
  7
K
 72
     4
 11
398.4999999999999
 21
27.81201627369671
 31
0.0
100
AcDbText
  0
TEXT
  5
7D3F
330
7CE8
100
AcDbEntity
  8
TEXT
100
AcDbText
 10
386.5
 20
32.14425883203125
 30
0.0
 40
3.0
  1
標準加工アラサ
  7
K
 72
     4
 11
398.4999999999999
 21
33.64425883203125
 31
0.0
100
AcDbText
  0
LINE
  5
7D40
330
7CE8
100
AcDbEntity
  8
TEXT
100
AcDbLine
 10
385.0
 20
24.87403254739342
 30
0.0
 11
412.0
 21
24.87403254739342
 31
0.0
  0
LINE
  5
7D41
330
7CE8
100
AcDbEntity
  8
TEXT
100
AcDbLine
 10
385.0
 20
30.68296441015093
 30
0.0
 11
412.0
 21
30.68296441015093
 31
0.0
  0
TEXT
  5
7D42
330
7CE8
100
AcDbEntity
  8
TEXT
100
AcDbText
 10
386.5
 20
21.98662929265407
 30
0.0
 40
2.0
  1
▽▽▽▽
  7
K
 11
386.5
 21
22.98662929265407
 31
0.0
100
AcDbText
 73
     2
  0
TEXT
  5
7D43
330
7CE8
100
AcDbEntity
  8
TEXT
100
AcDbText
 10
386.0714285714285
 20
57.73202258979015
 30
0.0
 40
2.0
  1
No.
  7
K
 72
     1
 11
388.5
 21
58.73202258979015
 31
0.0
100
AcDbText
 73
     2
  0
TEXT
  5
7D44
330
7CE8
100
AcDbEntity
  8
TEXT
100
AcDbText
 10
388.0657864606291
 20
50.43425887565195
 30
0.0
 40
3.0
  1
表面処理
  7
K
 11
388.0657864606291
 21
51.93425887565195
 31
0.0
100
AcDbText
 73
     2
  0
TEXT
  5
7D45
330
7CE8
100
AcDbEntity
  8
TEXT
100
AcDbText
 10
388.0657864606291
 20
44.30277662695579
 30
0.0
 40
3.0
  1
色調
  7
K
 11
388.0657864606291
 21
45.80277662695579
 31
0.0
100
AcDbText
 73
     2
  0
LINE
  5
7D46
330
7CE8
100
AcDbEntity
  8
SUNPOU
100
AcDbLine
 10
385.0
 20
61.99999999999997
 30
0.0
 11
392.0
 21
61.99999999999997
 31
0.0
  0
TEXT
  5
7D47
330
7CE8
100
AcDbEntity
  8
TEXT
100
AcDbText
 10
386.1190476190476
 20
71.25157506713543
 30
0.0
 40
2.5
  1
02
  7
K
 72
     4
 11
388.5
 21
72.50157506713543
 31
0.0
100
AcDbText
  0
LINE
  5
7D48
330
7CE8
100
AcDbEntity
  8
SUNPOU
100
AcDbLine
 10
392.0
 20
68.99999999999997
 30
0.0
 11
385.0
 21
68.99999999999997
 31
0.0
  0
LINE
  5
7D49
330
7CE8
100
AcDbEntity
  8
TEXT
100
AcDbLine
 10
385.0
 20
76.00315013427089
 30
0.0
 11
392.0
 21
76.00315013427089
 31
0.0
  0
LINE
  5
7D4A
330
7CE8
100
AcDbEntity
  8
WAKU
100
AcDbLine
 10
385.0
 20
55.0
 30
0.0
 11
385.0
 21
6.0
 31
0.0
  0
TEXT
  5
7D4B
330
7CE8
100
AcDbEntity
  8
TEXT
100
AcDbText
 10
386.5
 20
6.887403254739353
 30
0.0
 40
2.0
  1
～
  7
K
 11
386.5
 21
7.887403254739353
 31
0.0
100
AcDbText
 73
     2
  0
TEXT
  5
7D4C
330
7CE8
100
AcDbEntity
  8
TEXT
100
AcDbText
 10
386.5
 20
10.662209764218
 30
0.0
 40
2.0
  1
▽
  7
K
 11
386.5
 21
11.662209764218
 31
0.0
100
AcDbText
 73
     2
  0
LINE
  5
7D4D
330
7CE8
100
AcDbEntity
  8
SUNPOU
100
AcDbLine
 10
385.0
 20
54.99999999999997
 30
0.0
 11
364.0
 21
54.99999999999997
 31
0.0
  0
LINE
  5
7D4E
330
7CE8
100
AcDbEntity
  8
TEXT
100
AcDbLine
 10
364.0
 20
68.99999999999997
 30
0.0
 11
385.0
 21
68.99999999999997
 31
0.0
  0
LINE
  5
7D4F
330
7CE8
100
AcDbEntity
  8
TEXT
100
AcDbLine
 10
385.0
 20
76.00315013427089
 30
0.0
 11
364.0
 21
76.00315013427089
 31
0.0
  0
LINE
  5
7D50
330
7CE8
100
AcDbEntity
  8
TEXT
100
AcDbLine
 10
385.0
 20
59.09373397353019
 30
0.0
 11
364.0
 21
59.09373397353019
 31
0.0
  0
LINE
  5
7D51
330
7CE8
100
AcDbEntity
  8
TEXT
100
AcDbLine
 10
364.0
 20
61.99999999999997
 30
0.0
 11
385.0
 21
61.99999999999997
 31
0.0
  0
TEXT
  5
7D52
330
7CE8
100
AcDbEntity
  8
TEXT
100
AcDbText
 10
365.4738095238095
 20
59.39686698676508
 30
0.0
 40
2.299999999999999
  1
AC
  7
K
 72
     4
 11
367.5
 21
60.54686698676508
 31
0.0
100
AcDbText
  0
TEXT
  5
7D53
330
7CE8
100
AcDbEntity
  8
TEXT
100
AcDbText
 10
367.7
 20
55.54686698676508
 30
0.0
 40
3.0
  1
構    成
  7
K
 72
     4
 11
374.5
 21
57.04686698676508
 31
0.0
100
AcDbText
  0
TEXT
  5
7D54
330
7CE8
100
AcDbEntity
  8
TEXT
100
AcDbText
 10
372.4738095238095
 20
59.39686698676508
 30
0.0
 40
2.299999999999999
  1
AB
  7
K
 72
     4
 11
374.5
 21
60.54686698676508
 31
0.0
100
AcDbText
  0
TEXT
  5
7D55
330
7CE8
100
AcDbEntity
  8
TEXT
100
AcDbText
 10
379.5285714285714
 20
59.39686698676508
 30
0.0
 40
2.299999999999999
  1
AA
  7
K
 72
     4
 11
381.4999999999999
 21
60.54686698676508
 31
0.0
100
AcDbText
  0
TEXT
  5
7D56
330
7CE8
100
AcDbEntity
  8
TEXT
100
AcDbText
 10
414.5666666666667
 20
12.16190406596939
 30
0.0
 40
2.0
  1
±
  7
K
 72
     1
 11
415.5
 21
12.16190406596939
 31
0.0
100
AcDbText
  0
LINE
  5
7D57
330
7CE8
100
AcDbEntity
  8
TEXT
100
AcDbLine
 10
419.0
 20
36.60555325391158
 30
0.0
 11
419.0
 21
6.0
 31
0.0
  0
LINE
  5
7D58
330
7CE8
100
AcDbEntity
  8
SUNPOU
100
AcDbLine
 10
412.0
 20
30.75
 30
0.0
 11
412.0
 21
6.0
 31
0.0
  0
TEXT
  5
7D59
330
7CE8
100
AcDbEntity
  8
TEXT
100
AcDbText
 10
411.9523809523809
 20
11.16190406596939
 30
0.0
 40
2.0
  1
(
  7
K
 72
     2
 11
413.0
 21
12.16190406596939
 31
0.0
100
AcDbText
 73
     2
  0
TEXT
  5
7D5A
330
7CE8
100
AcDbEntity
  8
TEXT
100
AcDbText
 10
417.6235286514975
 20
11.16190406596939
 30
0.0
 40
2.0
  1
)
  7
K
 11
417.6235286514975
 21
12.16190406596939
 31
0.0
100
AcDbText
 73
     2
  0
LINE
  5
7D5B
330
7CE8
100
AcDbEntity
  8
TEXT
100
AcDbLine
 10
454.0
 20
36.60555325391158
 30
0.0
 11
454.0
 21
6.0
 31
0.0
  0
LINE
  5
7D5C
330
7CE8
100
AcDbEntity
  8
TEXT
100
AcDbLine
 10
447.0
 20
6.0
 30
0.0
 11
447.0
 21
36.60555325391158
 31
0.0
  0
LINE
  5
7D5D
330
7CE8
100
AcDbEntity
  8
TEXT
100
AcDbLine
 10
440.0
 20
36.60555325391158
 30
0.0
 11
440.0
 21
6.0
 31
0.0
  0
LINE
  5
7D5E
330
7CE8
100
AcDbEntity
  8
SUNPOU
100
AcDbLine
 10
470.0
 20
39.0
 30
0.0
 11
470.0
 21
6.0
 31
0.0
  0
LINE
  5
7D5F
330
7CE8
100
AcDbEntity
  8
WAKU
100
AcDbLine
 10
461.0
 20
6.0
 30
0.0
 11
461.0
 21
39.0
 31
0.0
  0
LINE
  5
7D60
330
7CE8
100
AcDbEntity
  8
SUNPOU
100
AcDbLine
 10
482.0
 20
39.0
 30
0.0
 11
482.0
 21
6.0
 31
0.0
  0
LINE
  5
7D61
330
7CE8
100
AcDbEntity
  8
TEXT
100
AcDbLine
 10
461.0
 20
9.87222189341594
 30
0.0
 11
419.0
 21
9.87222189341594
 31
0.0
  0
TEXT
  5
7D62
330
7CE8
100
AcDbEntity
  8
TEXT
100
AcDbText
 10
429.5587236705651
 20
6.93611094670797
 30
0.0
 40
2.0
  1
2000以下
 41
0.8
  7
K
 72
     2
 11
439.0672950991366
 21
7.93611094670797
 31
0.0
100
AcDbText
 73
     2
  0
TEXT
  5
7D63
330
7CE8
100
AcDbEntity
  8
TEXT
100
AcDbText
 10
429.5587236705651
 20
10.80833284012391
 30
0.0
 40
2.0
  1
1000以下
 41
0.8
  7
K
 72
     2
 11
439.0672950991366
 21
11.8083328401239
 31
0.0
100
AcDbText
 73
     2
  0
TEXT
  5
7D64
330
7CE8
100
AcDbEntity
  8
TEXT
100
AcDbText
 10
394.8767108238105
 20
0.1999999999999886
 30
0.0
 40
2.399999999999999
  1
（必要に応じて追加・抹消）
  7
K
100
AcDbText
  0
TEXT
  5
7D65
330
7CE8
100
AcDbEntity
  8
TEXT
100
AcDbText
 10
403.1666666666667
 20
10.662209764218
 30
0.0
 40
2.0
  1
100Z
  7
K
 72
     2
 11
410.5
 21
11.662209764218
 31
0.0
100
AcDbText
 73
     2
  0
TEXT
  5
7D66
330
7CE8
100
AcDbEntity
  8
TEXT
100
AcDbText
 10
419.7760645443254
 20
6.93611094670797
 30
0.0
 40
2.0
  1
1000ｦｺｴ
 41
0.8
  7
K
 72
     2
 11
428.4313026395635
 21
7.93611094670797
 31
0.0
100
AcDbText
 73
     2
  0
TEXT
  5
7D67
330
7CE8
100
AcDbEntity
  8
TEXT
100
AcDbText
 10
421.2998740681348
 20
10.80833284012391
 30
0.0
 40
2.0
  1
315ｦｺｴ
 41
0.8
  7
K
 72
     2
 11
428.4313026395635
 21
11.8083328401239
 31
0.0
100
AcDbText
 73
     2
  0
TEXT
  5
7D68
330
7CE8
100
AcDbEntity
  8
TEXT
100
AcDbText
 10
413.3571428571428
 20
10.24345914221055
 30
0.0
 40
1.5
  1
mm
  7
K
 72
     1
 11
415.5
 21
10.24345914221055
 31
0.0
100
AcDbText
  0
TEXT
  5
7D69
330
7CE8
100
AcDbEntity
  8
TEXT
100
AcDbText
 10
441.5
 20
6.93611094670797
 30
0.0
 40
2.0
  1
0.5
 41
0.8
  7
K
 11
441.5
 21
7.93611094670797
 31
0.0
100
AcDbText
 73
     2
  0
TEXT
  5
7D6A
330
7CE8
100
AcDbEntity
  8
TEXT
100
AcDbText
 10
441.5
 20
10.80833284012391
 30
0.0
 40
2.0
  1
0.3
 41
0.8
  7
K
 11
441.5
 21
11.8083328401239
 31
0.0
100
AcDbText
 73
     2
  0
TEXT
  5
7D6B
330
7CE8
100
AcDbEntity
  8
TEXT
100
AcDbText
 10
448.5
 20
6.93611094670797
 30
0.0
 40
2.0
  1
1.2
 41
0.8
  7
K
 11
448.5
 21
7.93611094670797
 31
0.0
100
AcDbText
 73
     2
  0
TEXT
  5
7D6C
330
7CE8
100
AcDbEntity
  8
TEXT
100
AcDbText
 10
448.5
 20
10.80833284012391
 30
0.0
 40
2.0
  1
0.8
 41
0.8
  7
K
 11
448.5
 21
11.8083328401239
 31
0.0
100
AcDbText
 73
     2
  0
TEXT
  5
7D6D
330
7CE8
100
AcDbEntity
  8
TEXT
100
AcDbText
 10
455.4999999999999
 20
6.93611094670797
 30
0.0
 40
2.0
  1
3
 41
0.8
  7
K
 11
455.4999999999999
 21
7.93611094670797
 31
0.0
100
AcDbText
 73
     2
  0
TEXT
  5
7D6E
330
7CE8
100
AcDbEntity
  8
TEXT
100
AcDbText
 10
455.4999999999999
 20
10.80833284012391
 30
0.0
 40
2.0
  1
2
 41
0.8
  7
K
 11
455.4999999999999
 21
11.8083328401239
 31
0.0
100
AcDbText
 73
     2
  0
TEXT
  5
7D6F
330
7CE8
100
AcDbEntity
  8
TEXT
100
AcDbText
 10
462.0
 20
8.0
 30
0.0
 40
3.0
  1
承認
  7
K
100
AcDbText
  0
LINE
  5
7D70
330
7CE8
100
AcDbEntity
  8
TEXT
100
AcDbLine
 10
419.0
 20
13.74444378683188
 30
0.0
 11
461.0
 21
13.74444378683188
 31
0.0
  0
LINE
  5
7D71
330
7CE8
100
AcDbEntity
  8
TEXT
100
AcDbLine
 10
461.0
 20
17.61666568024782
 30
0.0
 11
419.0
 21
17.61666568024782
 31
0.0
  0
LINE
  5
7D72
330
7CE8
100
AcDbEntity
  8
TEXT
100
AcDbLine
 10
419.0
 20
21.48888757366376
 30
0.0
 11
461.0
 21
21.48888757366376
 31
0.0
  0
LINE
  5
7D73
330
7CE8
100
AcDbEntity
  8
TEXT
100
AcDbLine
 10
461.0
 20
25.3611094670797
 30
0.0
 11
419.0
 21
25.3611094670797
 31
0.0
  0
LINE
  5
7D74
330
7CE8
100
AcDbEntity
  8
TEXT
100
AcDbLine
 10
419.0
 20
29.23333136049564
 30
0.0
 11
461.0
 21
29.23333136049564
 31
0.0
  0
LINE
  5
7D75
330
7CE8
100
AcDbEntity
  8
TEXT
100
AcDbLine
 10
419.0
 20
33.10555325391158
 30
0.0
 11
461.0
 21
33.10555325391158
 31
0.0
  0
TEXT
  5
7D76
330
7CE8
100
AcDbEntity
  8
TEXT
100
AcDbText
 10
431.0825331943746
 20
18.55277662695579
 30
0.0
 40
2.0
  1
120以下
 41
0.8
  7
K
 72
     2
 11
439.0672950991366
 21
19.55277662695579
 31
0.0
100
AcDbText
 73
     2
  0
TEXT
  5
7D77
330
7CE8
100
AcDbEntity
  8
TEXT
100
AcDbText
 10
431.0825331943746
 20
14.68055473353985
 30
0.0
 40
2.0
  1
315以下
 41
0.8
  7
K
 72
     2
 11
439.0672950991366
 21
15.68055473353985
 31
0.0
100
AcDbText
 73
     2
  0
TEXT
  5
7D78
330
7CE8
100
AcDbEntity
  8
TEXT
100
AcDbText
 10
420.95
 20
33.50555325391157
 30
0.0
 40
2.7
  1
呼 ビ 寸 法
  7
K
 72
     1
 11
429.4999999999999
 21
34.85555325391158
 31
0.0
100
AcDbText
 73
     2
  0
TEXT
  5
7D79
330
7CE8
100
AcDbEntity
  8
TEXT
100
AcDbText
 10
432.6063427181842
 20
22.42499852037173
 30
0.0
 40
2.0
  1
30以下
 41
0.8
  7
K
 72
     2
 11
439.0672950991366
 21
23.42499852037172
 31
0.0
100
AcDbText
 73
     2
  0
TEXT
  5
7D7A
330
7CE8
100
AcDbEntity
  8
TEXT
100
AcDbText
 10
434.1301522419937
 20
26.29722041378767
 30
0.0
 40
2.0
  1
6以下
 41
0.8
  7
K
 72
     2
 11
439.0672950991366
 21
27.29722041378767
 31
0.0
100
AcDbText
 73
     2
  0
TEXT
  5
7D7B
330
7CE8
100
AcDbEntity
  8
TEXT
100
AcDbText
 10
434.1301522419937
 20
30.16944230720361
 30
0.0
 40
2.0
  1
3以下
 41
0.8
  7
K
 72
     2
 11
439.0672950991366
 21
31.16944230720361
 31
0.0
100
AcDbText
 73
     2
  0
LINE
  5
7D7C
330
7CE8
100
AcDbEntity
  8
SUNPOU
100
AcDbLine
 10
412.0
 20
55.0
 30
0.0
 11
412.0
 21
30.75
 31
0.0
  0
TEXT
  5
7D7D
330
7CE8
100
AcDbEntity
  8
TEXT
100
AcDbText
 10
405.0714285714285
 20
14.43701627369671
 30
0.0
 40
2.0
  1
25Z
  7
K
 72
     2
 11
410.5
 21
15.43701627369671
 31
0.0
100
AcDbText
 73
     2
  0
TEXT
  5
7D7E
330
7CE8
100
AcDbEntity
  8
TEXT
100
AcDbText
 10
404.1190476190475
 20
18.21182278317542
 30
0.0
 40
2.0
  1
6.3Z
  7
K
 72
     2
 11
410.5
 21
19.21182278317542
 31
0.0
100
AcDbText
 73
     2
  0
TEXT
  5
7D7F
330
7CE8
100
AcDbEntity
  8
TEXT
100
AcDbText
 10
404.1190476190475
 20
21.98662929265407
 30
0.0
 40
2.0
  1
0.8Z
  7
K
 72
     2
 11
410.5
 21
22.98662929265407
 31
0.0
100
AcDbText
 73
     2
  0
TEXT
  5
7D80
330
7CE8
100
AcDbEntity
  8
TEXT
100
AcDbText
 10
414.24
 20
28.20873700804872
 30
0.0
 40
2.7
  1
普
  7
K
 72
     1
 11
415.5
 21
28.20873700804872
 31
0.0
100
AcDbText
  0
TEXT
  5
7D81
330
7CE8
100
AcDbEntity
  8
TEXT
100
AcDbText
 10
422.8236835919444
 20
18.55277662695579
 30
0.0
 40
2.0
  1
30ｦｺｴ
 41
0.8
  7
K
 72
     2
 11
428.4313026395635
 21
19.55277662695579
 31
0.0
100
AcDbText
 73
     2
  0
TEXT
  5
7D82
330
7CE8
100
AcDbEntity
  8
TEXT
100
AcDbText
 10
421.2998740681348
 20
14.68055473353985
 30
0.0
 40
2.0
  1
120ｦｺｴ
 41
0.8
  7
K
 72
     2
 11
428.4313026395635
 21
15.68055473353985
 31
0.0
100
AcDbText
 73
     2
  0
TEXT
  5
7D83
330
7CE8
100
AcDbEntity
  8
TEXT
100
AcDbText
 10
424.3474931157539
 20
26.29722041378767
 30
0.0
 40
2.0
  1
3ｦｺｴ
 41
0.8
  7
K
 72
     2
 11
428.4313026395635
 21
27.29722041378767
 31
0.0
100
AcDbText
 73
     2
  0
TEXT
  5
7D84
330
7CE8
100
AcDbEntity
  8
TEXT
100
AcDbText
 10
414.24
 20
18.90873700804877
 30
0.0
 40
2.7
  1
法
  7
K
 72
     1
 11
415.5
 21
18.90873700804877
 31
0.0
100
AcDbText
  0
TEXT
  5
7D85
330
7CE8
100
AcDbEntity
  8
TEXT
100
AcDbText
 10
414.24
 20
15.80873700804875
 30
0.0
 40
2.7
  1
差
  7
K
 72
     1
 11
415.5
 21
15.80873700804875
 31
0.0
100
AcDbText
  0
TEXT
  5
7D86
330
7CE8
100
AcDbEntity
  8
TEXT
100
AcDbText
 10
414.24
 20
25.10873700804876
 30
0.0
 40
2.7
  1
通
  7
K
 72
     1
 11
415.5
 21
25.10873700804876
 31
0.0
100
AcDbText
  0
TEXT
  5
7D87
330
7CE8
100
AcDbEntity
  8
TEXT
100
AcDbText
 10
414.24
 20
22.00873700804874
 30
0.0
 40
2.7
  1
寸
  7
K
 72
     1
 11
415.5
 21
22.00873700804874
 31
0.0
100
AcDbText
  0
TEXT
  5
7D88
330
7CE8
100
AcDbEntity
  8
TEXT
100
AcDbText
 10
424.3474931157539
 20
22.42499852037173
 30
0.0
 40
2.0
  1
6ｦｺｴ
 41
0.8
  7
K
 72
     2
 11
428.4313026395635
 21
23.42499852037172
 31
0.0
100
AcDbText
 73
     2
  0
TEXT
  5
7D89
330
7CE8
100
AcDbEntity
  8
TEXT
100
AcDbText
 10
421.2084454967063
 20
30.16944230720361
 30
0.0
 40
2.0
  1
0.5以上
 41
0.8
  7
K
 72
     2
 11
428.4313026395635
 21
31.16944230720361
 31
0.0
100
AcDbText
 73
     2
  0
TEXT
  5
7D8A
330
7CE8
100
AcDbEntity
  8
TEXT
100
AcDbText
 10
403.1
 20
57.23202258979018
 30
0.0
 40
3.0
  1
図         番
  7
K
 72
     1
 11
414.5
 21
58.73202258979017
 31
0.0
100
AcDbText
 73
     2
  0
TEXT
  5
7D8B
330
7CE8
100
AcDbEntity
  8
TEXT
100
AcDbText
 10
462.0
 20
45.0
 30
0.0
 40
3.0
  1
品名
  7
K
100
AcDbText
  0
LINE
  5
7D8C
330
7CE8
100
AcDbEntity
  8
SUNPOU
100
AcDbLine
 10
470.0
 20
55.0
 30
0.0
 11
470.0
 21
39.0
 31
0.0
  0
LINE
  5
7D8D
330
7CE8
100
AcDbEntity
  8
WAKU
100
AcDbLine
 10
461.0
 20
39.0
 30
0.0
 11
461.0
 21
55.0
 31
0.0
  0
TEXT
  5
7D8E
330
7CE8
100
AcDbEntity
  8
TEXT
100
AcDbText
 10
441.5
 20
14.68055473353985
 30
0.0
 40
2.0
  1
0.2
 41
0.8
  7
K
 11
441.5
 21
15.68055473353985
 31
0.0
100
AcDbText
 73
     2
  0
TEXT
  5
7D8F
330
7CE8
100
AcDbEntity
  8
TEXT
100
AcDbText
 10
441.5
 20
18.55277662695579
 30
0.0
 40
2.0
  1
0.15
 41
0.8
  7
K
 11
441.5
 21
19.55277662695579
 31
0.0
100
AcDbText
 73
     2
  0
TEXT
  5
7D90
330
7CE8
100
AcDbEntity
  8
TEXT
100
AcDbText
 10
441.5
 20
22.42499852037173
 30
0.0
 40
2.0
  1
0.1
 41
0.8
  7
K
 11
441.5
 21
23.42499852037172
 31
0.0
100
AcDbText
 73
     2
  0
TEXT
  5
7D91
330
7CE8
100
AcDbEntity
  8
TEXT
100
AcDbText
 10
441.5
 20
26.29722041378767
 30
0.0
 40
2.0
  1
0.05
 41
0.8
  7
K
 11
441.5
 21
27.29722041378767
 31
0.0
100
AcDbText
 73
     2
  0
TEXT
  5
7D92
330
7CE8
100
AcDbEntity
  8
TEXT
100
AcDbText
 10
448.5
 20
14.68055473353985
 30
0.0
 40
2.0
  1
0.5
 41
0.8
  7
K
 11
448.5
 21
15.68055473353985
 31
0.0
100
AcDbText
 73
     2
  0
TEXT
  5
7D93
330
7CE8
100
AcDbEntity
  8
TEXT
100
AcDbText
 10
448.5
 20
18.55277662695579
 30
0.0
 40
2.0
  1
0.3
 41
0.8
  7
K
 11
448.5
 21
19.55277662695579
 31
0.0
100
AcDbText
 73
     2
  0
TEXT
  5
7D94
330
7CE8
100
AcDbEntity
  8
TEXT
100
AcDbText
 10
455.4999999999999
 20
14.68055473353985
 30
0.0
 40
2.0
  1
1.2
 41
0.8
  7
K
 11
455.4999999999999
 21
15.68055473353985
 31
0.0
100
AcDbText
 73
     2
  0
TEXT
  5
7D95
330
7CE8
100
AcDbEntity
  8
TEXT
100
AcDbText
 10
455.4999999999999
 20
18.55277662695579
 30
0.0
 40
2.0
  1
0.8
 41
0.8
  7
K
 11
455.4999999999999
 21
19.55277662695579
 31
0.0
100
AcDbText
 73
     2
  0
TEXT
  5
7D96
330
7CE8
100
AcDbEntity
  8
TEXT
100
AcDbText
 10
448.5
 20
22.42499852037173
 30
0.0
 40
2.0
  1
0.2
 41
0.8
  7
K
 11
448.5
 21
23.42499852037172
 31
0.0
100
AcDbText
 73
     2
  0
TEXT
  5
7D97
330
7CE8
100
AcDbEntity
  8
TEXT
100
AcDbText
 10
448.5
 20
26.29722041378767
 30
0.0
 40
2.0
  1
0.1
 41
0.8
  7
K
 11
448.5
 21
27.29722041378767
 31
0.0
100
AcDbText
 73
     2
  0
TEXT
  5
7D98
330
7CE8
100
AcDbEntity
  8
TEXT
100
AcDbText
 10
455.4999999999999
 20
22.42499852037173
 30
0.0
 40
2.0
  1
0.5
 41
0.8
  7
K
 11
455.4999999999999
 21
23.42499852037172
 31
0.0
100
AcDbText
 73
     2
  0
TEXT
  5
7D99
330
7CE8
100
AcDbEntity
  8
TEXT
100
AcDbText
 10
455.4999999999999
 20
26.29722041378767
 30
0.0
 40
2.0
  1
0.2
 41
0.8
  7
K
 11
455.4999999999999
 21
27.29722041378767
 31
0.0
100
AcDbText
 73
     2
  0
TEXT
  5
7D9A
330
7CE8
100
AcDbEntity
  8
TEXT
100
AcDbText
 10
441.5
 20
30.16944230720361
 30
0.0
 40
2.0
  1
0.05
 41
0.8
  7
K
 11
441.5
 21
31.16944230720361
 31
0.0
100
AcDbText
 73
     2
  0
TEXT
  5
7D9B
330
7CE8
100
AcDbEntity
  8
TEXT
100
AcDbText
 10
442.6
 20
33.50555325391157
 30
0.0
 40
2.7
  1
J
  7
K
 72
     1
 11
443.5
 21
34.85555325391158
 31
0.0
100
AcDbText
 73
     2
  0
TEXT
  5
7D9C
330
7CE8
100
AcDbEntity
  8
TEXT
100
AcDbText
 10
449.0857142857143
 20
33.50555325391157
 30
0.0
 40
2.7
  1
K
  7
K
 72
     1
 11
450.4999999999999
 21
34.85555325391158
 31
0.0
100
AcDbText
 73
     2
  0
TEXT
  5
7D9D
330
7CE8
100
AcDbEntity
  8
TEXT
100
AcDbText
 10
448.5
 20
30.16944230720361
 30
0.0
 40
2.0
  1
0.1
 41
0.8
  7
K
 11
448.5
 21
31.16944230720361
 31
0.0
100
AcDbText
 73
     2
  0
LINE
  5
7D9E
330
7CE8
100
AcDbEntity
  8
TEXT
100
AcDbLine
 10
455.4999999999999
 20
31.16944230720361
 30
0.0
 11
459.1060332593608
 21
31.16944230720361
 31
0.0
  0
TEXT
  5
7D9F
330
7CE8
100
AcDbEntity
  8
TEXT
100
AcDbText
 10
456.2142857142857
 20
33.50555325391157
 30
0.0
 40
2.7
  1
L
  7
K
 72
     1
 11
457.5
 21
34.85555325391158
 31
0.0
100
AcDbText
 73
     2
  0
TEXT
  5
7DA0
330
7CE8
100
AcDbEntity
  8
TEXT
100
AcDbText
 10
462.0
 20
16.25
 30
0.0
 40
3.0
  1
検図
  7
K
100
AcDbText
  0
TEXT
  5
7DA1
330
7CE8
100
AcDbEntity
  8
TEXT
100
AcDbText
 10
462.0
 20
24.5
 30
0.0
 40
3.0
  1
製図
  7
K
100
AcDbText
  0
TEXT
  5
7DA2
330
7CE8
100
AcDbEntity
  8
TEXT
100
AcDbText
 10
462.0
 20
32.75
 30
0.0
 40
3.0
  1
設計
  7
K
100
AcDbText
  0
TEXT
  5
7DA3
330
7CE8
100
AcDbEntity
  8
TEXT
100
AcDbText
 10
448.3
 20
57.23202258979018
 30
0.0
 40
3.0
  1
品         名
  7
K
 72
     1
 11
459.4999999999999
 21
58.73202258979017
 31
0.0
100
AcDbText
 73
     2
  0
LINE
  5
7DA4
330
7CE8
100
AcDbEntity
  8
TEXT
100
AcDbLine
 10
364.0
 20
110.9999999999999
 30
0.0
 11
392.0
 21
110.9999999999999
 31
0.0
  0
LINE
  5
7DA5
330
7CE8
100
AcDbEntity
  8
TEXT
100
AcDbLine
 10
392.0
 20
103.9999999999999
 30
0.0
 11
364.0
 21
103.9999999999999
 31
0.0
  0
LINE
  5
7DA6
330
7CE8
100
AcDbEntity
  8
TEXT
100
AcDbLine
 10
364.0
 20
96.99999999999997
 30
0.0
 11
392.0
 21
96.99999999999997
 31
0.0
  0
LINE
  5
7DA7
330
7CE8
100
AcDbEntity
  8
TEXT
100
AcDbLine
 10
392.0
 20
89.99999999999998
 30
0.0
 11
364.0
 21
89.99999999999998
 31
0.0
  0
TEXT
  5
7DA8
330
7CE8
100
AcDbEntity
  8
TEXT
100
AcDbText
 10
386.0595238095238
 20
85.25157506713544
 30
0.0
 40
2.5
  1
04
  7
K
 72
     4
 11
388.5
 21
86.50157506713544
 31
0.0
100
AcDbText
  0
LINE
  5
7DA9
330
7CE8
100
AcDbEntity
  8
TEXT
100
AcDbLine
 10
385.0
 20
82.99999999999997
 30
0.0
 11
392.0
 21
82.99999999999997
 31
0.0
  0
TEXT
  5
7DAA
330
7CE8
100
AcDbEntity
  8
TEXT
100
AcDbText
 10
386.1190476190476
 20
106.2515750671354
 30
0.0
 40
2.5
  1
07
  7
K
 72
     4
 11
388.5
 21
107.5015750671354
 31
0.0
100
AcDbText
  0
TEXT
  5
7DAB
330
7CE8
100
AcDbEntity
  8
TEXT
100
AcDbText
 10
386.1190476190476
 20
92.25157506713543
 30
0.0
 40
2.5
  1
05
  7
K
 72
     4
 11
388.5
 21
93.50157506713543
 31
0.0
100
AcDbText
  0
TEXT
  5
7DAC
330
7CE8
100
AcDbEntity
  8
TEXT
100
AcDbText
 10
386.1190476190476
 20
99.25157506713544
 30
0.0
 40
2.5
  1
06
  7
K
 72
     4
 11
388.5
 21
100.5015750671354
 31
0.0
100
AcDbText
  0
LINE
  5
7DAD
330
7CE8
100
AcDbEntity
  8
TEXT
100
AcDbLine
 10
364.0
 20
138.9999999999999
 30
0.0
 11
392.0
 21
138.9999999999999
 31
0.0
  0
LINE
  5
7DAE
330
7CE8
100
AcDbEntity
  8
TEXT
100
AcDbLine
 10
392.0
 20
131.9999999999999
 30
0.0
 11
364.0
 21
131.9999999999999
 31
0.0
  0
LINE
  5
7DAF
330
7CE8
100
AcDbEntity
  8
TEXT
100
AcDbLine
 10
364.0
 20
124.9999999999999
 30
0.0
 11
392.0
 21
124.9999999999999
 31
0.0
  0
LINE
  5
7DB0
330
7CE8
100
AcDbEntity
  8
TEXT
100
AcDbLine
 10
392.0
 20
117.9999999999999
 30
0.0
 11
364.0
 21
117.9999999999999
 31
0.0
  0
LINE
  5
7DB1
330
7CE8
100
AcDbEntity
  8
TEXT
100
AcDbLine
 10
392.0
 20
145.9999999999999
 30
0.0
 11
364.0
 21
145.9999999999999
 31
0.0
  0
LINE
  5
7DB2
330
7CE8
100
AcDbEntity
  8
TEXT
100
AcDbLine
 10
392.0
 20
166.9999999999999
 30
0.0
 11
364.0
 21
166.9999999999999
 31
0.0
  0
LINE
  5
7DB3
330
7CE8
100
AcDbEntity
  8
TEXT
100
AcDbLine
 10
364.0
 20
174.0
 30
0.0
 11
392.0
 21
174.0
 31
0.0
  0
LINE
  5
7DB4
330
7CE8
100
AcDbEntity
  8
TEXT
100
AcDbLine
 10
392.0
 20
159.9999999999999
 30
0.0
 11
364.0
 21
159.9999999999999
 31
0.0
  0
LINE
  5
7DB5
330
7CE8
100
AcDbEntity
  8
TEXT
100
AcDbLine
 10
364.0
 20
152.9999999999999
 30
0.0
 11
392.0
 21
152.9999999999999
 31
0.0
  0
TEXT
  5
7DB6
330
7CE8
100
AcDbEntity
  8
TEXT
100
AcDbText
 10
386.297619047619
 20
134.2515750671354
 30
0.0
 40
2.5
  1
11
  7
K
 72
     4
 11
388.5
 21
135.5015750671354
 31
0.0
100
AcDbText
  0
TEXT
  5
7DB7
330
7CE8
100
AcDbEntity
  8
TEXT
100
AcDbText
 10
385.9404761904762
 20
127.2515750671354
 30
0.0
 40
2.5
  1
10
  7
K
 72
     4
 11
388.5
 21
128.5015750671354
 31
0.0
100
AcDbText
  0
TEXT
  5
7DB8
330
7CE8
100
AcDbEntity
  8
TEXT
100
AcDbText
 10
386.1190476190476
 20
113.2515750671354
 30
0.0
 40
2.5
  1
08
  7
K
 72
     4
 11
388.5
 21
114.5015750671354
 31
0.0
100
AcDbText
  0
TEXT
  5
7DB9
330
7CE8
100
AcDbEntity
  8
TEXT
100
AcDbText
 10
386.1785714285714
 20
120.2515750671354
 30
0.0
 40
2.5
  1
09
  7
K
 72
     4
 11
388.5
 21
121.5015750671354
 31
0.0
100
AcDbText
  0
TEXT
  5
7DBA
330
7CE8
100
AcDbEntity
  8
TEXT
100
AcDbText
 10
385.8809523809524
 20
155.2515750671354
 30
0.0
 40
2.5
  1
14
  7
K
 72
     4
 11
388.5
 21
156.5015750671354
 31
0.0
100
AcDbText
  0
TEXT
  5
7DBB
330
7CE8
100
AcDbEntity
  8
TEXT
100
AcDbText
 10
385.9404761904762
 20
148.2515750671354
 30
0.0
 40
2.5
  1
13
  7
K
 72
     4
 11
388.5
 21
149.5015750671354
 31
0.0
100
AcDbText
  0
TEXT
  5
7DBC
330
7CE8
100
AcDbEntity
  8
TEXT
100
AcDbText
 10
385.9404761904762
 20
141.2515750671354
 30
0.0
 40
2.5
  1
12
  7
K
 72
     4
 11
388.5
 21
142.5015750671354
 31
0.0
100
AcDbText
  0
TEXT
  5
7DBD
330
7CE8
100
AcDbEntity
  8
TEXT
100
AcDbText
 10
385.9404761904762
 20
162.2515750671354
 30
0.0
 40
2.5
  1
15
  7
K
 72
     4
 11
388.5
 21
163.5015750671354
 31
0.0
100
AcDbText
  0
TEXT
  5
7DBE
330
7CE8
100
AcDbEntity
  8
TEXT
100
AcDbText
 10
385.9404761904762
 20
169.2515750671354
 30
0.0
 40
2.5
  1
16
  7
K
 72
     4
 11
388.5
 21
170.5015750671354
 31
0.0
100
AcDbText
  0
LINE
  5
7DBF
330
7CE8
100
AcDbEntity
  8
TEXT
100
AcDbLine
 10
371.0
 20
174.0
 30
0.0
 11
371.0
 21
82.99999999999997
 31
0.0
  0
LINE
  5
7DC0
330
7CE8
100
AcDbEntity
  8
TEXT
100
AcDbLine
 10
378.0
 20
82.99999999999997
 30
0.0
 11
378.0
 21
174.0
 31
0.0
  0
LINE
  5
7DC1
330
7CE8
100
AcDbEntity
  8
TEXT
100
AcDbLine
 10
385.0
 20
82.99999999999997
 30
0.0
 11
385.0
 21
174.0
 31
0.0
  0
LINE
  5
7DC2
330
7CE8
100
AcDbEntity
  8
TEXT
100
AcDbLine
 10
385.0
 20
82.99999999999997
 30
0.0
 11
364.0
 21
82.99999999999997
 31
0.0
  0
LINE
  5
7DC3
330
7CE8
100
AcDbEntity
  8
TEXT
100
AcDbLine
 10
392.0
 20
174.0
 30
0.0
 11
392.0
 21
82.99999999999997
 31
0.0
  0
LINE
  5
7DC4
330
7CE8
100
AcDbEntity
  8
WAKU
100
AcDbLine
 10
498.0
 20
6.0
 30
0.0
 11
498.0
 21
19.0
 31
0.0
  0
TEXT
  5
7DC5
330
7CE8
100
AcDbEntity
  8
TEXT
100
AcDbText
 10
512.4611183004224
 20
10.0
 30
0.0
 40
3.5
  1
中部コーポレーション
  7
K
100
AcDbText
  0
TEXT
  5
7DC6
330
7CE8
100
AcDbEntity
  8
TEXT
100
AcDbText
 10
502.485167223504
 20
10.0
 30
0.0
 40
2.0
  1
株式会社
  7
K
100
AcDbText
  0
CIRCLE
  5
7DC7
330
7CE8
100
AcDbEntity
  8
JISSEN
100
AcDbCircle
 10
487.3333333333333
 20
7.0
 30
0.0
 40
0.2
  0
CIRCLE
  5
7DC8
330
7CE8
100
AcDbEntity
  8
JISSEN
100
AcDbCircle
 10
492.6666666666667
 20
7.0
 30
0.0
 40
0.2
  0
TEXT
  5
7DC9
330
7CE8
100
AcDbEntity
  8
TEXT
100
AcDbText
 10
500.5466508537902
 20
57.23202258979018
 30
0.0
 40
3.0
  1
備                    考
  7
K
 72
     1
 11
521.7466508537902
 21
58.73202258979017
 31
0.0
100
AcDbText
 73
     2
  0
LINE
  5
7DCA
330
7CE8
100
AcDbEntity
  8
WAKU
100
AcDbLine
 10
498.0
 20
39.0
 30
0.0
 11
558.0
 21
39.0
 31
0.0
  0
LINE
  5
7DCB
330
7CE8
100
AcDbEntity
  8
WAKU
100
AcDbLine
 10
558.0
 20
32.0
 30
0.0
 11
498.0
 21
32.0
 31
0.0
  0
LINE
  5
7DCC
330
7CE8
100
AcDbEntity
  8
WAKU
100
AcDbLine
 10
498.0
 20
19.0
 30
0.0
 11
558.0
 21
19.0
 31
0.0
  0
LINE
  5
7DCD
330
7CE8
100
AcDbEntity
  8
SUNPOU
100
AcDbLine
 10
523.0
 20
47.0
 30
0.0
 11
558.0
 21
47.0
 31
0.0
  0
LINE
  5
7DCE
330
7CE8
100
AcDbEntity
  8
WAKU
100
AcDbLine
 10
558.0
 20
55.0
 30
0.0
 11
523.0
 21
55.0
 31
0.0
  0
TEXT
  5
7DCF
330
7CE8
100
AcDbEntity
  8
TEXT
100
AcDbText
 10
524.0
 20
41.0
 30
0.0
 40
3.0
  1
板 厚
  7
K
100
AcDbText
  0
TEXT
  5
7DD0
330
7CE8
100
AcDbEntity
  8
TEXT
100
AcDbText
 10
524.0
 20
49.0
 30
0.0
 40
3.0
  1
材 質
  7
K
100
AcDbText
  0
LINE
  5
7DD1
330
7CE8
100
AcDbEntity
  8
WAKU
100
AcDbLine
 10
523.0
 20
55.0
 30
0.0
 11
523.0
 21
39.0
 31
0.0
  0
TEXT
  5
7DD2
330
7CE8
100
AcDbEntity
  8
TEXT
100
AcDbText
 10
500.6999999999999
 20
24.0
 30
0.0
 40
3.0
  1
図番
  7
K
 72
     4
 11
504.0
 21
25.5
 31
0.0
100
AcDbText
  0
TEXT
  5
7DD3
330
7CE8
100
AcDbEntity
  8
TEXT
100
AcDbText
 10
503.107275474507
 20
34.0
 30
0.0
 40
3.0
  1
三 角 法
  7
K
100
AcDbText
  0
LINE
  5
7DD4
330
7CE8
100
AcDbEntity
  8
WAKU
100
AcDbLine
 10
498.0
 20
19.0
 30
0.0
 11
498.0
 21
32.0
 31
0.0
  0
CIRCLE
  5
7DD5
330
7CE8
100
AcDbEntity
  8
JISSEN
100
AcDbCircle
 10
487.3333333333333
 20
15.25
 30
0.0
 40
0.2
  0
CIRCLE
  5
7DD6
330
7CE8
100
AcDbEntity
  8
JISSEN
100
AcDbCircle
 10
492.6666666666667
 20
15.25
 30
0.0
 40
0.2
  0
CIRCLE
  5
7DD7
330
7CE8
100
AcDbEntity
  8
JISSEN
100
AcDbCircle
 10
487.3333333333333
 20
23.5
 30
0.0
 40
0.2
  0
CIRCLE
  5
7DD8
330
7CE8
100
AcDbEntity
  8
JISSEN
100
AcDbCircle
 10
492.6666666666667
 20
23.5
 30
0.0
 40
0.2
  0
CIRCLE
  5
7DD9
330
7CE8
100
AcDbEntity
  8
JISSEN
100
AcDbCircle
 10
487.3333333333333
 20
31.75
 30
0.0
 40
0.2
  0
CIRCLE
  5
7DDA
330
7CE8
100
AcDbEntity
  8
JISSEN
100
AcDbCircle
 10
492.6666666666667
 20
31.75
 30
0.0
 40
0.2
  0
LINE
  5
7DDB
330
7CE8
100
AcDbEntity
  8
WAKU
100
AcDbLine
 10
498.0
 20
32.0
 30
0.0
 11
498.0
 21
39.0
 31
0.0
  0
LINE
  5
7DDC
330
7CE8
100
AcDbEntity
  8
SUNPOU
100
AcDbLine
 10
510.0
 20
32.0
 30
0.0
 11
510.0
 21
19.0
 31
0.0
  0
LINE
  5
7DDD
330
7CE8
100
AcDbEntity
  8
SUNPOU
100
AcDbLine
 10
521.0
 20
39.0
 30
0.0
 11
521.0
 21
32.0
 31
0.0
  0
TEXT
  5
7DDE
330
7CE8
100
AcDbEntity
  8
TEXT
100
AcDbText
 10
522.0
 20
34.0
 30
0.0
 40
3.0
  1
尺度
  7
K
100
AcDbText
  0
LINE
  5
7DDF
330
7CE8
100
AcDbEntity
  8
SUNPOU
100
AcDbLine
 10
534.0
 20
55.0
 30
0.0
 11
534.0
 21
39.0
 31
0.0
  0
TEXT
  5
7DE0
330
7CE8
100
AcDbEntity
  8
TEXT
100
AcDbText
 10
541.0633115578711
 20
33.41726061251677
 30
0.0
 40
2.5
  1
(単位mm)
  7
K
100
AcDbText
  0
LINE
  5
7DE1
330
7CE8
100
AcDbEntity
  8
SUNPOU
100
AcDbLine
 10
530.0
 20
32.0
 30
0.0
 11
530.0
 21
39.0
 31
0.0
  0
TEXT
  5
7DE2
330
7CE8
100
AcDbEntity
  8
TEXT
100
AcDbText
 10
559.1333333333333
 20
60.60134216402343
 30
0.0
 40
4.0
  1
こ
  7
K
 72
     1
 11
561.0
 21
62.60134216402343
 31
0.0
100
AcDbText
 73
     2
  0
TEXT
  5
7DE3
330
7CE8
100
AcDbEntity
  8
TEXT
100
AcDbText
 10
559.1333333333333
 20
55.60134216402343
 30
0.0
 40
4.0
  1
と
  7
K
 72
     1
 11
561.0
 21
57.60134216402343
 31
0.0
100
AcDbText
 73
     2
  0
TEXT
  5
7DE4
330
7CE8
100
AcDbEntity
  8
TEXT
100
AcDbText
 10
559.1333333333333
 20
69.60134216402344
 30
0.0
 40
4.0
  1
却
  7
K
 72
     1
 11
561.0
 21
71.60134216402344
 31
0.0
100
AcDbText
 73
     2
  0
TEXT
  5
7DE5
330
7CE8
100
AcDbEntity
  8
TEXT
100
AcDbText
 10
559.0346249501075
 20
64.86078937622085
 30
0.0
 40
4.0
  1
の
  7
K
 72
     4
 11
560.9012916167741
 21
66.86078937622085
 31
0.0
100
AcDbText
  0
TEXT
  5
7DE6
330
7CE8
100
AcDbEntity
  8
TEXT
100
AcDbText
 10
559.1333333333333
 20
74.60134216402344
 30
0.0
 40
4.0
  1
返
  7
K
 72
     1
 11
561.0
 21
76.60134216402344
 31
0.0
100
AcDbText
 73
     2
  0
TEXT
  5
7DE7
330
7CE8
100
AcDbEntity
  8
TEXT
100
AcDbText
 10
561.9256954922052
 20
111.2049702787619
 30
0.0
 40
4.0
  1
、
  7
K
 72
     1
 11
562.4590288255385
 21
113.2049702787619
 31
0.0
100
AcDbText
 73
     2
  0
TEXT
  5
7DE8
330
7CE8
100
AcDbEntity
  8
TEXT
100
AcDbText
 10
559.1333333333333
 20
94.60134216402343
 30
0.0
 40
4.0
  1
発
  7
K
 72
     1
 11
561.0
 21
96.60134216402344
 31
0.0
100
AcDbText
 73
     2
  0
TEXT
  5
7DE9
330
7CE8
100
AcDbEntity
  8
TEXT
100
AcDbText
 10
559.1333333333333
 20
84.60134216402343
 30
0.0
 40
4.0
  1
元
  7
K
 72
     1
 11
561.0
 21
86.60134216402344
 31
0.0
100
AcDbText
 73
     2
  0
TEXT
  5
7DEA
330
7CE8
100
AcDbEntity
  8
TEXT
100
AcDbText
 10
559.2666666666666
 20
79.60134216402344
 30
0.0
 40
4.0
  1
へ
  7
K
 72
     1
 11
561.0
 21
81.60134216402344
 31
0.0
100
AcDbText
 73
     2
  0
TEXT
  5
7DEB
330
7CE8
100
AcDbEntity
  8
TEXT
100
AcDbText
 10
559.1333333333333
 20
89.60134216402343
 30
0.0
 40
4.0
  1
行
  7
K
 72
     1
 11
561.0
 21
91.60134216402344
 31
0.0
100
AcDbText
 73
     2
  0
TEXT
  5
7DEC
330
7CE8
100
AcDbEntity
  8
TEXT
100
AcDbText
 10
559.1333333333333
 20
99.60134216402344
 30
0.0
 40
4.0
  1
ず
  7
K
 72
     1
 11
561.0
 21
101.6013421640234
 31
0.0
100
AcDbText
 73
     2
  0
TEXT
  5
7DED
330
7CE8
100
AcDbEntity
  8
TEXT
100
AcDbText
 10
559.1333333333333
 20
104.6013421640234
 30
0.0
 40
4.0
  1
必
  7
K
 72
     1
 11
561.0
 21
106.6013421640234
 31
0.0
100
AcDbText
 73
     2
  0
TEXT
  5
7DEE
330
7CE8
100
AcDbEntity
  8
TEXT
100
AcDbText
 10
559.1333333333333
 20
124.6013421640234
 30
0.0
 40
4.0
  1
済
  7
K
 72
     1
 11
561.0
 21
126.6013421640234
 31
0.0
100
AcDbText
 73
     2
  0
TEXT
  5
7DEF
330
7CE8
100
AcDbEntity
  8
TEXT
100
AcDbText
 10
559.1333333333333
 20
114.6013421640234
 30
0.0
 40
4.0
  1
後
  7
K
 72
     1
 11
561.0
 21
116.6013421640234
 31
0.0
100
AcDbText
 73
     2
  0
TEXT
  5
7DF0
330
7CE8
100
AcDbEntity
  8
TEXT
100
AcDbText
 10
559.2666666666666
 20
119.6013421640234
 30
0.0
 40
4.0
  1
み
  7
K
 72
     1
 11
561.0
 21
121.6013421640234
 31
0.0
100
AcDbText
 73
     2
  0
TEXT
  5
7DF1
330
7CE8
100
AcDbEntity
  8
TEXT
100
AcDbText
 10
559.1333333333333
 20
134.6013421640234
 30
0.0
 40
4.0
  1
は
  7
K
 72
     1
 11
561.0
 21
136.6013421640234
 31
0.0
100
AcDbText
 73
     2
  0
TEXT
  5
7DF2
330
7CE8
100
AcDbEntity
  8
TEXT
100
AcDbText
 10
559.2666666666666
 20
129.6013421640234
 30
0.0
 40
4.0
  1
用
  7
K
 72
     1
 11
561.0
 21
131.6013421640234
 31
0.0
100
AcDbText
 73
     2
  0
TEXT
  5
7DF3
330
7CE8
100
AcDbEntity
  8
TEXT
100
AcDbText
 10
559.1333333333333
 20
139.6013421640234
 30
0.0
 40
4.0
  1
図
  7
K
 72
     1
 11
561.0
 21
141.6013421640234
 31
0.0
100
AcDbText
 73
     2
  0
TEXT
  5
7DF4
330
7CE8
100
AcDbEntity
  8
TEXT
100
AcDbText
 10
559.1333333333333
 20
144.6013421640234
 30
0.0
 40
4.0
  1
本
  7
K
 72
     1
 11
561.0
 21
146.6013421640234
 31
0.0
100
AcDbText
 73
     2
  0
ENDBLK
  5
7DF6
330
7CE8
100
AcDbEntity
  8
0
100
AcDbBlockEnd
  0
BLOCK
  5
7E0B
330
7DFE
100
AcDbEntity
  8
0
100
AcDbBlockBegin
  2
*D5
 70
     1
 10
0.0
 20
0.0
 30
0.0
  3
*D5
  1

  0
LINE
  5
7E0C
330
7DFE
100
AcDbEntity
  8
0
  6
BYBLOCK
 62
     0
100
AcDbLine
 10
505.58337316
 20
522.6788058054198
 30
0.0
 11
609.4691264790794
 21
522.6788058054198
 31
0.0
  0
LINE
  5
7E0D
330
7DFE
100
AcDbEntity
  8
0
  6
BYBLOCK
 62
     0
100
AcDbLine
 10
505.58337316
 20
170.6788058084209
 30
0.0
 11
609.4691264790794
 21
170.6788058084209
 31
0.0
  0
LINE
  5
7E0E
330
7DFE
100
AcDbEntity
  8
0
  6
BYBLOCK
 62
     0
100
AcDbLine
 10
604.4691264790794
 20
507.6788058054198
 30
0.0
 11
604.4691264790794
 21
185.6788058084209
 31
0.0
  0
INSERT
  5
7E0F
330
7DFE
100
AcDbEntity
  8
0
  6
BYBLOCK
 62
     0
100
AcDbBlockReference
  2
ARROW
 10
604.4691264790794
 20
522.6788058054198
 30
0.0
 41
15.0
 42
15.0
 43
15.0
 50
90.0
  0
INSERT
  5
7E10
330
7DFE
100
AcDbEntity
  8
0
  6
BYBLOCK
 62
     0
100
AcDbBlockReference
  2
ARROW
 10
604.4691264790794
 20
170.6788058084209
 30
0.0
 41
15.0
 42
15.0
 43
15.0
 50
270.0
  0
MTEXT
  5
7E11
330
7DFE
100
AcDbEntity
  8
0
  6
BYBLOCK
 62
     0
100
AcDbMText
 10
589.4691264790794
 20
348.8015258666387
 30
0.0
 40
15.0
 41
0.0
 71
     5
 72
     1
  1
\A1;352
 11
0.0000000000000001
 21
1.0
 31
0.0
1001
ACAD
1000
MTEXTBEGIN
1070
    73
1070
     1
1070
    44
1040
1.0
1070
    74
1070
     0
1000
MTEXTEND
  0
POINT
  5
7E12
330
7DFE
100
AcDbEntity
  8
DEFPOINTS
  6
BYBLOCK
 62
     0
100
AcDbPoint
 10
500.5833731600001
 20
522.6788058054198
 30
0.0
  0
POINT
  5
7E13
330
7DFE
100
AcDbEntity
  8
DEFPOINTS
  6
BYBLOCK
 62
     0
100
AcDbPoint
 10
500.5833731600001
 20
170.6788058084209
 30
0.0
  0
POINT
  5
7E14
330
7DFE
100
AcDbEntity
  8
DEFPOINTS
  6
BYBLOCK
 62
     0
100
AcDbPoint
 10
604.4691264790794
 20
170.6788058084209
 30
0.0
  0
ENDBLK
  5
7E15
330
7DFE
100
AcDbEntity
  8
0
100
AcDbBlockEnd
  0
BLOCK
  5
7E26
330
7E25
100
AcDbEntity
  8
0
100
AcDbBlockBegin
  2
*D7
 70
     1
 10
0.0
 20
0.0
 30
0.0
  3
*D7
  1

  0
LINE
  5
7E27
330
7E25
100
AcDbEntity
  8
0
  6
BYBLOCK
 62
     0
100
AcDbLine
 10
505.58337316
 20
170.6788058084209
 30
0.0
 11
639.4691264790794
 21
170.6788058084209
 31
0.0
  0
LINE
  5
7E28
330
7E25
100
AcDbEntity
  8
0
  6
BYBLOCK
 62
     0
100
AcDbLine
 10
490.58337316
 20
549.6788058084209
 30
0.0
 11
639.4691264790794
 21
549.6788058084209
 31
0.0
  0
LINE
  5
7E29
330
7E25
100
AcDbEntity
  8
0
  6
BYBLOCK
 62
     0
100
AcDbLine
 10
634.4691264790794
 20
185.6788058084209
 30
0.0
 11
634.4691264790794
 21
534.6788058084208
 31
0.0
  0
INSERT
  5
7E2A
330
7E25
100
AcDbEntity
  8
0
  6
BYBLOCK
 62
     0
100
AcDbBlockReference
  2
ARROW
 10
634.4691264790794
 20
170.6788058084209
 30
0.0
 41
15.0
 42
15.0
 43
15.0
 50
270.0
  0
INSERT
  5
7E2B
330
7E25
100
AcDbEntity
  8
0
  6
BYBLOCK
 62
     0
100
AcDbBlockReference
  2
ARROW
 10
634.4691264790794
 20
549.6788058084209
 30
0.0
 41
15.0
 42
15.0
 43
15.0
 50
90.0
  0
MTEXT
  5
7E2C
330
7E25
100
AcDbEntity
  8
0
  6
BYBLOCK
 62
     0
100
AcDbMText
 10
619.4691264790795
 20
360.1788058084208
 30
0.0
 40
15.0
 41
0.0
 71
     5
 72
     1
  1
\A1;379
 11
0.0000000000000001
 21
1.0
 31
0.0
1001
ACAD
1000
MTEXTBEGIN
1070
    73
1070
     1
1070
    44
1040
1.0
1070
    74
1070
     0
1000
MTEXTEND
  0
POINT
  5
7E2D
330
7E25
100
AcDbEntity
  8
DEFPOINTS
  6
BYBLOCK
 62
     0
100
AcDbPoint
 10
500.5833731600001
 20
170.6788058084209
 30
0.0
  0
POINT
  5
7E2E
330
7E25
100
AcDbEntity
  8
DEFPOINTS
  6
BYBLOCK
 62
     0
100
AcDbPoint
 10
485.58337316
 20
549.6788058084209
 30
0.0
  0
POINT
  5
7E2F
330
7E25
100
AcDbEntity
  8
DEFPOINTS
  6
BYBLOCK
 62
     0
100
AcDbPoint
 10
634.4691264790794
 20
549.6788058084209
 30
0.0
  0
ENDBLK
  5
7E30
330
7E25
100
AcDbEntity
  8
0
100
AcDbBlockEnd
  0
BLOCK
  5
7E33
330
7E32
100
AcDbEntity
  8
0
100
AcDbBlockBegin
  2
*D8
 70
     1
 10
0.0
 20
0.0
 30
0.0
  3
*D8
  1

  0
LINE
  5
7E34
330
7E32
100
AcDbEntity
  8
0
  6
BYBLOCK
 62
     0
100
AcDbLine
 10
251.58337316
 20
173.6788058084209
 30
0.0
 11
251.58337316
 21
87.09359353736454
 31
0.0
  0
LINE
  5
7E35
330
7E32
100
AcDbEntity
  8
0
  6
BYBLOCK
 62
     0
100
AcDbLine
 10
505.58337316
 20
173.6788058084209
 30
0.0
 11
505.58337316
 21
87.09359353736454
 31
0.0
  0
LINE
  5
7E36
330
7E32
100
AcDbEntity
  8
0
  6
BYBLOCK
 62
     0
100
AcDbLine
 10
266.58337316
 20
92.09359353736454
 30
0.0
 11
490.58337316
 21
92.09359353736454
 31
0.0
  0
INSERT
  5
7E37
330
7E32
100
AcDbEntity
  8
0
  6
BYBLOCK
 62
     0
100
AcDbBlockReference
  2
ARROW
 10
251.58337316
 20
92.09359353736454
 30
0.0
 41
15.0
 42
15.0
 43
15.0
 50
180.0
  0
INSERT
  5
7E38
330
7E32
100
AcDbEntity
  8
0
  6
BYBLOCK
 62
     0
100
AcDbBlockReference
  2
ARROW
 10
505.58337316
 20
92.09359353736454
 30
0.0
 41
15.0
 42
15.0
 43
15.0
  0
MTEXT
  5
7E39
330
7E32
100
AcDbEntity
  8
0
  6
BYBLOCK
 62
     0
100
AcDbMText
 10
383.6915349403125
 20
107.0935935373645
 30
0.0
 40
15.0
 41
0.0
 71
     5
 72
     1
  1
\A1;254
1001
ACAD
1000
MTEXTBEGIN
1070
    73
1070
     1
1070
    44
1040
1.0
1070
    74
1070
     0
1000
MTEXTEND
  0
POINT
  5
7E3A
330
7E32
100
AcDbEntity
  8
DEFPOINTS
  6
BYBLOCK
 62
     0
100
AcDbPoint
 10
251.58337316
 20
178.6788058084209
 30
0.0
  0
POINT
  5
7E3B
330
7E32
100
AcDbEntity
  8
DEFPOINTS
  6
BYBLOCK
 62
     0
100
AcDbPoint
 10
505.58337316
 20
178.6788058084209
 30
0.0
  0
POINT
  5
7E3C
330
7E32
100
AcDbEntity
  8
DEFPOINTS
  6
BYBLOCK
 62
     0
100
AcDbPoint
 10
505.58337316
 20
92.09359353736454
 30
0.0
  0
ENDBLK
  5
7E3D
330
7E32
100
AcDbEntity
  8
0
100
AcDbBlockEnd
  0
BLOCK
  5
7E40
330
7E3F
100
AcDbEntity
  8
0
100
AcDbBlockBegin
  2
*D9
 70
     1
 10
0.0
 20
0.0
 30
0.0
  3
*D9
  1

  0
LINE
  5
7E41
330
7E3F
100
AcDbEntity
  8
0
  6
BYBLOCK
 62
     0
100
AcDbLine
 10
806.6709498399847
 20
173.6788058084209
 30
0.0
 11
806.6709498399847
 21
80.0651895365304
 31
0.0
  0
LINE
  5
7E42
330
7E3F
100
AcDbEntity
  8
0
  6
BYBLOCK
 62
     0
100
AcDbLine
 10
1120.670949839984
 20
173.6788058084209
 30
0.0
 11
1120.670949839984
 21
80.0651895365304
 31
0.0
  0
LINE
  5
7E43
330
7E3F
100
AcDbEntity
  8
0
  6
BYBLOCK
 62
     0
100
AcDbLine
 10
821.6709498399847
 20
85.0651895365304
 30
0.0
 11
1105.670949839985
 21
85.0651895365304
 31
0.0
  0
INSERT
  5
7E44
330
7E3F
100
AcDbEntity
  8
0
  6
BYBLOCK
 62
     0
100
AcDbBlockReference
  2
ARROW
 10
806.6709498399847
 20
85.0651895365304
 30
0.0
 41
15.0
 42
15.0
 43
15.0
 50
180.0
  0
INSERT
  5
7E45
330
7E3F
100
AcDbEntity
  8
0
  6
BYBLOCK
 62
     0
100
AcDbBlockReference
  2
ARROW
 10
1120.670949839984
 20
85.0651895365304
 30
0.0
 41
15.0
 42
15.0
 43
15.0
  0
MTEXT
  5
7E46
330
7E3F
100
AcDbEntity
  8
0
  6
BYBLOCK
 62
     0
100
AcDbMText
 10
964.0752580166804
 20
100.0651895365304
 30
0.0
 40
15.0
 41
0.0
 71
     5
 72
     1
  1
\A1;314
1001
ACAD
1000
MTEXTBEGIN
1070
    73
1070
     1
1070
    44
1040
1.0
1070
    74
1070
     0
1000
MTEXTEND
  0
POINT
  5
7E47
330
7E3F
100
AcDbEntity
  8
DEFPOINTS
  6
BYBLOCK
 62
     0
100
AcDbPoint
 10
806.6709498399847
 20
178.6788058084209
 30
0.0
  0
POINT
  5
7E48
330
7E3F
100
AcDbEntity
  8
DEFPOINTS
  6
BYBLOCK
 62
     0
100
AcDbPoint
 10
1120.670949839984
 20
178.6788058084209
 30
0.0
  0
POINT
  5
7E49
330
7E3F
100
AcDbEntity
  8
DEFPOINTS
  6
BYBLOCK
 62
     0
100
AcDbPoint
 10
1120.670949839984
 20
85.0651895365304
 30
0.0
  0
ENDBLK
  5
7E4A
330
7E3F
100
AcDbEntity
  8
0
100
AcDbBlockEnd
  0
BLOCK
  5
7E66
330
7E63
100
AcDbEntity
  8
0
100
AcDbBlockBegin
  2
BATU2
 70
     0
 10
0.0
 20
0.0
 30
0.0
  3
BATU2
  1

  0
LINE
  5
7E64
330
7E63
100
AcDbEntity
  8
ITTEN
100
AcDbLine
 10
1.0
 20
0.0
 30
0.0
 11
-1.0
 21
0.0
 31
0.0
  0
LINE
  5
7E65
330
7E63
100
AcDbEntity
  8
ITTEN
100
AcDbLine
 10
0.0
 20
1.0
 30
0.0
 11
0.0
 21
-1.0
 31
0.0
  0
ENDBLK
  5
7E67
330
7E63
100
AcDbEntity
  8
0
100
AcDbBlockEnd
  0
BLOCK
  5
7E9E
330
7E9D
100
AcDbEntity
  8
0
100
AcDbBlockBegin
  2
*D11
 70
     1
 10
0.0
 20
0.0
 30
0.0
  3
*D11
  1

  0
LINE
  5
7E9F
330
7E9D
100
AcDbEntity
  8
0
  6
BYBLOCK
 62
     0
100
AcDbLine
 10
505.5833731600001
 20
954.7760054654199
 30
0.0
 11
505.5833731600001
 21
1020.147869749071
 31
0.0
  0
LINE
  5
7EA0
330
7E9D
100
AcDbEntity
  8
0
  6
BYBLOCK
 62
     0
100
AcDbLine
 10
465.5833731600001
 20
959.77600546542
 30
0.0
 11
465.5833731600001
 21
1020.147869749071
 31
0.0
  0
LINE
  5
7EA1
330
7E9D
100
AcDbEntity
  8
0
  6
BYBLOCK
 62
     0
100
AcDbLine
 10
520.5833731600002
 20
1015.147869749071
 30
0.0
 11
535.5833731600001
 21
1015.147869749071
 31
0.0
  0
LINE
  5
7EA2
330
7E9D
100
AcDbEntity
  8
0
  6
BYBLOCK
 62
     0
100
AcDbLine
 10
450.5833731600001
 20
1015.147869749071
 30
0.0
 11
435.5833731600001
 21
1015.147869749071
 31
0.0
  0
LINE
  5
7EA3
330
7E9D
100
AcDbEntity
  8
0
  6
BYBLOCK
 62
     0
100
AcDbLine
 10
505.5833731600001
 20
1015.147869749071
 30
0.0
 11
465.5833731600001
 21
1015.147869749071
 31
0.0
  0
INSERT
  5
7EA4
330
7E9D
100
AcDbEntity
  8
0
  6
BYBLOCK
 62
     0
100
AcDbBlockReference
  2
ARROW
 10
505.5833731600001
 20
1015.147869749071
 30
0.0
 41
15.0
 42
15.0
 43
15.0
 50
180.0
  0
INSERT
  5
7EA5
330
7E9D
100
AcDbEntity
  8
0
  6
BYBLOCK
 62
     0
100
AcDbBlockReference
  2
ARROW
 10
465.5833731600001
 20
1015.147869749071
 30
0.0
 41
15.0
 42
15.0
 43
15.0
  0
MTEXT
  5
7EA6
330
7E9D
100
AcDbEntity
  8
0
  6
BYBLOCK
 62
     0
100
AcDbMText
 10
485.5833731600001
 20
1030.147869749071
 30
0.0
 40
15.0
 41
0.0
 71
     5
 72
     1
  1
\A1;40
1001
ACAD
1000
MTEXTBEGIN
1070
    73
1070
     1
1070
    44
1040
1.0
1070
    74
1070
     0
1000
MTEXTEND
  0
POINT
  5
7EA7
330
7E9D
100
AcDbEntity
  8
DEFPOINTS
  6
BYBLOCK
 62
     0
100
AcDbPoint
 10
505.5833731600001
 20
949.7760054654198
 30
0.0
  0
POINT
  5
7EA8
330
7E9D
100
AcDbEntity
  8
DEFPOINTS
  6
BYBLOCK
 62
     0
100
AcDbPoint
 10
465.5833731600001
 20
954.7760054654199
 30
0.0
  0
POINT
  5
7EA9
330
7E9D
100
AcDbEntity
  8
DEFPOINTS
  6
BYBLOCK
 62
     0
100
AcDbPoint
 10
465.5833731600001
 20
1015.147869749071
 30
0.0
  0
ENDBLK
  5
7EAA
330
7E9D
100
AcDbEntity
  8
0
100
AcDbBlockEnd
  0
ENDSEC
  0
SECTION
  2
ENTITIES
  0
MTEXT
  5
67D
330
DF
100
AcDbEntity
  8
SUNPOU
100
AcDbMText
 10
5227.136216033687
 20
-13932.05408441242
 30
0.0
 40
6.0
 41
0.0
 71
     6
 72
     1
  1
\A1;
1001
ACAD
1000
MTEXTBEGIN
1070
    73
1070
     1
1070
    44
1040
1.0
1070
    74
1070
     0
1000
MTEXTEND
  0
LINE
  5
7AD1
330
DF
100
AcDbEntity
  8
JISSEN
100
AcDbLine
 10
258.58337316
 20
522.6788058054197
 30
0.0
 11
498.58337316
 21
522.6788058054198
 31
0.0
  0
LINE
  5
7AD2
330
DF
100
AcDbEntity
  8
JISSEN
100
AcDbLine
 10
811.6709498399847
 20
522.6788058054197
 30
0.0
 11
1115.670949839984
 21
522.6788058054197
 31
0.0
  0
LINE
  5
7AD7
330
DF
100
AcDbEntity
  8
JISSEN
100
AcDbLine
 10
256.58337316
 20
175.6788058084209
 30
0.0
 11
256.58337316
 21
170.6788058084209
 31
0.0
  0
LINE
  5
7AD8
330
DF
100
AcDbEntity
  8
JISSEN
100
AcDbLine
 10
256.58337316
 20
170.6788058084209
 30
0.0
 11
276.58337316
 21
170.6788058084209
 31
0.0
  0
LINE
  5
7AD9
330
DF
100
AcDbEntity
  8
JISSEN
100
AcDbLine
 10
276.58337316
 20
170.6788058084209
 30
0.0
 11
276.58337316
 21
175.6788058084209
 31
0.0
  0
LINE
  5
7ADA
330
DF
100
AcDbEntity
  8
JISSEN
100
AcDbLine
 10
480.58337316
 20
170.6788058084209
 30
0.0
 11
480.58337316
 21
175.6788058084209
 31
0.0
  0
LINE
  5
7ADB
330
DF
100
AcDbEntity
  8
JISSEN
100
AcDbLine
 10
500.5833731600001
 20
170.6788058084209
 30
0.0
 11
480.58337316
 21
170.6788058084209
 31
0.0
  0
LINE
  5
7ADC
330
DF
100
AcDbEntity
  8
JISSEN
100
AcDbLine
 10
500.5833731600001
 20
175.6788058084209
 30
0.0
 11
500.5833731600001
 21
170.6788058084209
 31
0.0
  0
CIRCLE
  5
7AE3
330
DF
100
AcDbEntity
  8
JISSEN
100
AcDbCircle
 10
443.5833731599999
 20
408.1788058054197
 30
0.0
 40
9.0
  0
LINE
  5
7AE9
330
DF
100
AcDbEntity
  8
JISSEN
100
AcDbLine
 10
427.58337316
 20
351.6788058054198
 30
0.0
 11
427.58337316
 21
364.6788058054198
 31
0.0
  0
LINE
  5
7AEA
330
DF
100
AcDbEntity
  8
JISSEN
100
AcDbLine
 10
443.5833731599999
 20
380.6788058054198
 30
0.0
 11
443.58337316
 21
380.6788058054198
 31
0.0
  0
LINE
  5
7AEB
330
DF
100
AcDbEntity
  8
JISSEN
100
AcDbLine
 10
459.58337316
 20
364.6788058054198
 30
0.0
 11
459.58337316
 21
351.6788058054197
 31
0.0
  0
LINE
  5
7AEC
330
DF
100
AcDbEntity
  8
JISSEN
100
AcDbLine
 10
443.58337316
 20
335.6788058054197
 30
0.0
 11
443.58337316
 21
335.6788058054198
 31
0.0
  0
CIRCLE
  5
7AEE
330
DF
100
AcDbEntity
  8
JISSEN
100
AcDbCircle
 10
443.5833731599999
 20
358.1788058054197
 30
0.0
 40
7.5
  0
ARC
  5
7AEF
330
DF
100
AcDbEntity
  8
JISSEN
100
AcDbCircle
 10
443.58337316
 20
364.6788058054198
 30
0.0
 40
16.0
100
AcDbArc
 50
0.0
 51
90.0
  0
ARC
  5
7AF0
330
DF
100
AcDbEntity
  8
JISSEN
100
AcDbCircle
 10
443.58337316
 20
351.6788058054197
 30
0.0
 40
16.0
100
AcDbArc
 50
270.0
 51
0.0
  0
ARC
  5
7AF1
330
DF
100
AcDbEntity
  8
JISSEN
100
AcDbCircle
 10
443.58337316
 20
351.6788058054198
 30
0.0
 40
16.0
100
AcDbArc
 50
180.0
 51
270.0
  0
ARC
  5
7AF2
330
DF
100
AcDbEntity
  8
JISSEN
100
AcDbCircle
 10
443.58337316
 20
364.6788058054198
 30
0.0
 40
16.0
100
AcDbArc
 50
90.00000000000019
 51
180.0
  0
CIRCLE
  5
7AF6
330
DF
100
AcDbEntity
  8
JISSEN
100
AcDbCircle
 10
368.58337316
 20
335.6788058054197
 30
0.0
 40
18.75
  0
LINE
  5
7AFA
330
DF
100
AcDbEntity
  8
JISSEN
100
AcDbLine
 10
343.58337316
 20
335.6788058054197
 30
0.0
 11
343.5833731599999
 21
335.6788058054197
 31
0.0
  0
LINE
  5
7AFB
330
DF
100
AcDbEntity
  8
JISSEN
100
AcDbLine
 10
368.5833731599999
 20
360.6788058054197
 30
0.0
 11
368.58337316
 21
360.6788058054196
 31
0.0
  0
LINE
  5
7AFC
330
DF
100
AcDbEntity
  8
JISSEN
100
AcDbLine
 10
393.58337316
 20
335.6788058054197
 30
0.0
 11
393.58337316
 21
335.6788058054197
 31
0.0
  0
ARC
  5
7AFD
330
DF
100
AcDbEntity
  8
JISSEN
100
AcDbCircle
 10
368.5833731599999
 20
335.6788058054197
 30
0.0
 40
25.0
100
AcDbArc
 50
90.0
 51
180.0
  0
ARC
  5
7AFE
330
DF
100
AcDbEntity
  8
JISSEN
100
AcDbCircle
 10
368.58337316
 20
335.6788058054196
 30
0.0
 40
25.0
100
AcDbArc
 50
0.0000000000001018
 51
90.0
  0
LINE
  5
7B02
330
DF
100
AcDbEntity
  8
JISSEN
100
AcDbLine
 10
393.58337316
 20
335.6788058054197
 30
0.0
 11
393.5833731599998
 21
320.6788058054197
 31
0.0
  0
LINE
  5
7B03
330
DF
100
AcDbEntity
  8
JISSEN
100
AcDbLine
 10
343.5833731599999
 20
335.6788058054197
 30
0.0
 11
343.58337316
 21
320.6788058054197
 31
0.0
  0
LINE
  5
7B08
330
DF
100
AcDbEntity
  8
JISSEN
100
AcDbLine
 10
282.58337316
 20
195.6788058084209
 30
0.0
 11
282.58337316
 21
308.6788058099999
 31
0.0
  0
LINE
  5
7B09
330
DF
100
AcDbEntity
  8
JISSEN
100
AcDbLine
 10
289.58337316
 20
315.6788058054195
 30
0.0
 11
467.58337316
 21
315.6788058054198
 31
0.0
  0
LINE
  5
7B0A
330
DF
100
AcDbEntity
  8
JISSEN
100
AcDbLine
 10
474.58337316
 20
308.6788058099999
 30
0.0
 11
474.58337316
 21
195.6788058084209
 31
0.0
  0
ARC
  5
7B0B
330
DF
100
AcDbEntity
  8
JISSEN
100
AcDbCircle
 10
289.58337316
 20
308.6788058054197
 30
0.0
 40
7.0
100
AcDbArc
 50
90.0
 51
180.0
  0
ARC
  5
7B0C
330
DF
100
AcDbEntity
  8
JISSEN
100
AcDbCircle
 10
467.58337316
 20
308.6788058054197
 30
0.0
 40
7.0
100
AcDbArc
 50
0.0
 51
90.0
  0
LINE
  5
7B19
330
DF
100
AcDbEntity
  8
JISSEN
100
AcDbLine
 10
256.58337316
 20
640.7760054654197
 30
0.0
 11
500.5833731600002
 21
640.7760054654199
 31
0.0
  0
LINE
  5
7B1A
330
DF
100
AcDbEntity
  8
JISSEN
100
AcDbLine
 10
505.5833731600002
 20
645.7760054654198
 30
0.0
 11
505.5833731600001
 21
949.7760054654198
 31
0.0
  0
LINE
  5
7B1B
330
DF
100
AcDbEntity
  8
JISSEN
100
AcDbLine
 10
500.5833731600001
 20
954.7760054654199
 30
0.0
 11
256.58337316
 21
954.7760054654199
 31
0.0
  0
LINE
  5
7B1C
330
DF
100
AcDbEntity
  8
JISSEN
100
AcDbLine
 10
251.58337316
 20
949.7760054654198
 30
0.0
 11
251.58337316
 21
645.7760054654198
 31
0.0
  0
LINE
  5
7B1D
330
DF
100
AcDbEntity
  8
JISSEN
100
AcDbLine
 10
254.58337316
 20
175.6788058084209
 30
0.0
 11
502.58337316
 21
175.6788058084209
 31
0.0
  0
ARC
  5
7B1E
330
DF
100
AcDbEntity
  8
JISSEN
100
AcDbCircle
 10
502.58337316
 20
178.6788058084209
 30
0.0
 40
3.0
100
AcDbArc
 50
270.0
 51
0.0
  0
LINE
  5
7B1F
330
DF
100
AcDbEntity
  8
JISSEN
100
AcDbLine
 10
505.58337316
 20
500.6788058054199
 30
0.0
 11
505.58337316
 21
510.6788058054198
 31
0.0
  0
LINE
  5
7B20
330
DF
100
AcDbEntity
  8
JISSEN
100
AcDbLine
 10
485.58337316
 20
549.6788058084209
 30
0.0
 11
271.58337316
 21
549.6788058084209
 31
0.0
  0
LINE
  5
7B21
330
DF
100
AcDbEntity
  8
JISSEN
100
AcDbLine
 10
251.58337316
 20
510.6788058054197
 30
0.0
 11
251.58337316
 21
500.6788058054197
 31
0.0
  0
LINE
  5
7B24
330
DF
100
AcDbEntity
  8
JISSEN
100
AcDbLine
 10
1120.670949839984
 20
178.6788058084209
 30
0.0
 11
1120.670949839984
 21
517.6788058054198
 31
0.0
  0
LINE
  5
7B25
330
DF
100
AcDbEntity
  8
JISSEN
100
AcDbLine
 10
1100.670949839984
 20
549.6788058084209
 30
0.0
 11
826.6709498399846
 21
549.6788058084209
 31
0.0
  0
LINE
  5
7B26
330
DF
100
AcDbEntity
  8
JISSEN
100
AcDbLine
 10
806.6709498399847
 20
517.6788058054198
 30
0.0
 11
806.6709498399847
 21
320.6788058099999
 31
0.0
  0
LINE
  5
7B2E
330
DF
100
AcDbEntity
  8
JISSEN
100
AcDbLine
 10
490.58337316
 20
544.6788058084208
 30
0.0
 11
490.58337316
 21
522.6788058054197
 31
0.0
  0
LINE
  5
7B2F
330
DF
100
AcDbEntity
  8
JISSEN
100
AcDbLine
 10
266.58337316
 20
544.6788058084208
 30
0.0
 11
266.58337316
 21
522.6788058054197
 31
0.0
  0
CIRCLE
  5
7B38
330
DF
100
AcDbEntity
  8
JISSEN
100
AcDbCircle
 10
378.58337316
 20
797.7760054654197
 30
0.0
 40
50.0
  0
LINE
  5
7B3B
330
DF
100
AcDbEntity
  8
JISSEN
100
AcDbLine
 10
413.2243893113775
 20
807.7760054654197
 30
0.0
 11
343.9423570086223
 21
807.7760054654197
 31
0.0
  0
LINE
  5
7B3C
330
DF
100
AcDbEntity
  8
JISSEN
100
AcDbLine
 10
343.9423570086225
 20
787.7760054654197
 30
0.0
 11
413.2243893113776
 21
787.7760054654197
 31
0.0
  0
ARC
  5
7B3D
330
DF
100
AcDbEntity
  8
JISSEN
100
AcDbCircle
 10
413.2243893113775
 20
817.7760054654198
 30
0.0
 40
10.0
100
AcDbArc
 50
270.0
 51
30.00000000000005
  0
ARC
  5
7B3E
330
DF
100
AcDbEntity
  8
JISSEN
100
AcDbCircle
 10
343.9423570086225
 20
817.7760054654196
 30
0.0
 40
10.0
100
AcDbArc
 50
150.0000000000001
 51
269.9999999999997
  0
ARC
  5
7B3F
330
DF
100
AcDbEntity
  8
JISSEN
100
AcDbCircle
 10
343.9423570086225
 20
777.7760054654197
 30
0.0
 40
10.0
100
AcDbArc
 50
90.0
 51
210.0
  0
ARC
  5
7B40
330
DF
100
AcDbEntity
  8
JISSEN
100
AcDbCircle
 10
413.2243893113776
 20
777.7760054654199
 30
0.0
 40
10.0
100
AcDbArc
 50
330.0000000000001
 51
90.0
  0
LINE
  5
7B41
330
DF
100
AcDbEntity
  8
JISSEN
100
AcDbLine
 10
485.5833731600003
 20
939.7760054654199
 30
0.0
 11
271.58337316
 21
939.7760054654199
 31
0.0
  0
LINE
  5
7B42
330
DF
100
AcDbEntity
  8
JISSEN
100
AcDbLine
 10
490.5833731600002
 20
660.7760054654197
 30
0.0
 11
490.5833731600003
 21
934.77600546542
 31
0.0
  0
LINE
  5
7B43
330
DF
100
AcDbEntity
  8
JISSEN
100
AcDbLine
 10
266.58337316
 20
934.7760054654198
 30
0.0
 11
266.58337316
 21
660.7760054654197
 31
0.0
  0
LINE
  5
7B44
330
DF
100
AcDbEntity
  8
JISSEN
100
AcDbLine
 10
271.58337316
 20
655.7760054654197
 30
0.0
 11
485.5833731600001
 21
655.7760054654197
 31
0.0
  0
ARC
  5
7B45
330
DF
100
AcDbEntity
  8
JISSEN
100
AcDbCircle
 10
256.58337316
 20
949.7760054654198
 30
0.0
 40
5.0
100
AcDbArc
 50
90.0
 51
180.0
  0
ARC
  5
7B46
330
DF
100
AcDbEntity
  8
JISSEN
100
AcDbCircle
 10
271.58337316
 20
934.7760054654198
 30
0.0
 40
5.0
100
AcDbArc
 50
90.0
 51
180.0
  0
ARC
  5
7B47
330
DF
100
AcDbEntity
  8
JISSEN
100
AcDbCircle
 10
485.5833731600003
 20
934.77600546542
 30
0.0
 40
5.0
100
AcDbArc
 50
0.0
 51
89.99999999999998
  0
ARC
  5
7B48
330
DF
100
AcDbEntity
  8
JISSEN
100
AcDbCircle
 10
500.5833731600001
 20
949.7760054654198
 30
0.0
 40
5.0
100
AcDbArc
 50
0.0
 51
89.99999999999998
  0
ARC
  5
7B49
330
DF
100
AcDbEntity
  8
JISSEN
100
AcDbCircle
 10
485.5833731600001
 20
660.7760054654197
 30
0.0
 40
5.0
100
AcDbArc
 50
270.0
 51
0.0
  0
ARC
  5
7B4A
330
DF
100
AcDbEntity
  8
JISSEN
100
AcDbCircle
 10
500.5833731600002
 20
645.7760054654198
 30
0.0
 40
5.0
100
AcDbArc
 50
270.0
 51
0.0
  0
ARC
  5
7B4B
330
DF
100
AcDbEntity
  8
JISSEN
100
AcDbCircle
 10
256.58337316
 20
645.7760054654198
 30
0.0
 40
5.0
100
AcDbArc
 50
180.0
 51
270.0
  0
ARC
  5
7B4C
330
DF
100
AcDbEntity
  8
JISSEN
100
AcDbCircle
 10
271.58337316
 20
660.7760054654197
 30
0.0
 40
5.0
100
AcDbArc
 50
180.0
 51
270.0
  0
ARC
  5
7B4D
330
DF
100
AcDbEntity
  8
JISSEN
100
AcDbCircle
 10
485.58337316
 20
544.6788058084208
 30
0.0
 40
5.0
100
AcDbArc
 50
0.0
 51
90.0
  0
ARC
  5
7B4E
330
DF
100
AcDbEntity
  8
JISSEN
100
AcDbCircle
 10
271.58337316
 20
544.6788058084208
 30
0.0
 40
5.0
100
AcDbArc
 50
89.99999999999998
 51
180.0
  0
LINE
  5
7B52
330
DF
100
AcDbEntity
  8
JISSEN
100
AcDbLine
 10
806.6709498399847
 20
510.6788058054197
 30
0.0
 11
1120.670949839984
 21
510.6788058054197
 31
0.0
  0
LINE
  5
7B53
330
DF
100
AcDbEntity
  8
JISSEN
100
AcDbLine
 10
251.58337316
 20
510.6788058054197
 30
0.0
 11
505.5833731600002
 21
510.6788058054198
 31
0.0
  0
LINE
  5
7B54
330
DF
100
AcDbEntity
  8
JISSEN
100
AcDbLine
 10
1105.670949839984
 20
522.6788058054197
 30
0.0
 11
1105.670949839984
 21
544.6788058084208
 31
0.0
  0
LINE
  5
7B55
330
DF
100
AcDbEntity
  8
JISSEN
100
AcDbLine
 10
821.6709498399847
 20
544.678805808421
 30
0.0
 11
821.6709498399847
 21
522.6788058054197
 31
0.0
  0
ARC
  5
7B56
330
DF
100
AcDbEntity
  8
JISSEN
100
AcDbCircle
 10
826.6709498399846
 20
544.678805808421
 30
0.0
 40
5.0
100
AcDbArc
 50
90.0
 51
180.0
  0
ARC
  5
7B57
330
DF
100
AcDbEntity
  8
JISSEN
100
AcDbCircle
 10
1100.670949839984
 20
544.6788058084208
 30
0.0
 40
5.0
100
AcDbArc
 50
0.0
 51
90.0
  0
ARC
  5
7B58
330
DF
100
AcDbEntity
  8
JISSEN
100
AcDbCircle
 10
1115.670949839984
 20
517.6788058054198
 30
0.0
 40
5.0
100
AcDbArc
 50
0.0
 51
90.0
  0
ARC
  5
7B59
330
DF
100
AcDbEntity
  8
JISSEN
100
AcDbCircle
 10
811.6709498399847
 20
517.6788058054198
 30
0.0
 40
5.0
100
AcDbArc
 50
90.0
 51
180.0
  0
LINE
  5
7B5B
330
DF
100
AcDbEntity
  8
JISSEN
100
AcDbLine
 10
251.58337316
 20
500.6788058054197
 30
0.0
 11
505.5833731600002
 21
500.6788058054199
 31
0.0
  0
LINE
  5
7B5F
330
DF
100
AcDbEntity
  8
JISSEN
100
AcDbLine
 10
502.58337316
 20
195.6788058084209
 30
0.0
 11
254.58337316
 21
195.678805808421
 31
0.0
  0
LINE
  5
7B60
330
DF
100
AcDbEntity
  8
JISSEN
100
AcDbLine
 10
806.6709498399847
 20
195.6788058084209
 30
0.0
 11
1120.670949839984
 21
195.6788058084209
 31
0.0
  0
LINE
  5
7B61
330
DF
100
AcDbEntity
  8
JISSEN
100
AcDbLine
 10
1117.670949839984
 20
175.6788058084209
 30
0.0
 11
809.6709498399846
 21
175.6788058084209
 31
0.0
  0
LINE
  5
7B62
330
DF
100
AcDbEntity
  8
JISSEN
100
AcDbLine
 10
806.6709498399847
 20
500.6788058054196
 30
0.0
 11
1120.670949839984
 21
500.6788058054197
 31
0.0
  0
LINE
  5
7B63
330
DF
100
AcDbEntity
  8
JISSEN
100
AcDbLine
 10
831.6709498399845
 20
170.6788058084209
 30
0.0
 11
831.6709498399845
 21
175.6788058084209
 31
0.0
  0
LINE
  5
7B64
330
DF
100
AcDbEntity
  8
JISSEN
100
AcDbLine
 10
811.6709498399846
 20
170.6788058084209
 30
0.0
 11
831.6709498399845
 21
170.6788058084209
 31
0.0
  0
LINE
  5
7B65
330
DF
100
AcDbEntity
  8
JISSEN
100
AcDbLine
 10
811.6709498399846
 20
175.6788058084209
 30
0.0
 11
811.6709498399846
 21
170.6788058084209
 31
0.0
  0
LINE
  5
7B66
330
DF
100
AcDbEntity
  8
JISSEN
100
AcDbLine
 10
1115.670949839984
 20
175.6788058084209
 30
0.0
 11
1115.670949839984
 21
170.6788058084209
 31
0.0
  0
LINE
  5
7B67
330
DF
100
AcDbEntity
  8
JISSEN
100
AcDbLine
 10
1115.670949839984
 20
170.6788058084209
 30
0.0
 11
1095.670949839984
 21
170.6788058084209
 31
0.0
  0
LINE
  5
7B68
330
DF
100
AcDbEntity
  8
JISSEN
100
AcDbLine
 10
1095.670949839984
 20
170.6788058084209
 30
0.0
 11
1095.670949839984
 21
175.6788058084209
 31
0.0
  0
ARC
  5
7B69
330
DF
100
AcDbEntity
  8
JISSEN
100
AcDbCircle
 10
1117.670949839984
 20
178.6788058084209
 30
0.0
 40
3.0
100
AcDbArc
 50
270.0
 51
0.0
  0
ARC
  5
7B6A
330
DF
100
AcDbEntity
  8
JISSEN
100
AcDbCircle
 10
809.6709498399846
 20
178.6788058084209
 30
0.0
 40
3.0
100
AcDbArc
 50
180.0
 51
270.0
  0
LINE
  5
7B78
330
DF
100
AcDbEntity
  8
JISSEN
100
AcDbLine
 10
498.58337316
 20
213.678805808421
 30
0.0
 11
479.5833731600001
 21
213.678805808421
 31
0.0
  0
LINE
  5
7B79
330
DF
100
AcDbEntity
  8
JISSEN
100
AcDbLine
 10
277.58337316
 20
213.678805808421
 30
0.0
 11
258.58337316
 21
213.678805808421
 31
0.0
  0
LINE
  5
7B7A
330
DF
100
AcDbEntity
  8
JISSEN
100
AcDbLine
 10
811.6709498399847
 20
213.678805808421
 30
0.0
 11
826.67094984
 21
213.678805808421
 31
0.0
  0
DIMENSION
  5
7E0A
330
DF
100
AcDbEntity
  8
SUNPOU
100
AcDbDimension
  2
*D5
 10
604.4691264790794
 20
170.6788058084209
 30
0.0
 11
604.4691264790794
 21
348.8015258666387
 31
0.0
 70
   160
  3
IMCADLT
100
AcDbAlignedDimension
 13
500.5833731600001
 23
522.6788058054198
 33
0.0
 14
500.5833731600001
 24
170.6788058084209
 34
0.0
 50
90.0
100
AcDbRotatedDimension
  0
DIMENSION
  5
7E31
330
DF
100
AcDbEntity
  8
SUNPOU
100
AcDbDimension
  2
*D7
 10
634.4691264790794
 20
549.6788058084209
 30
0.0
 11
619.4691264790795
 21
360.1788058084208
 31
0.0
 70
    32
  3
IMCADLT
100
AcDbAlignedDimension
 13
500.5833731600001
 23
170.6788058084209
 33
0.0
 14
485.58337316
 24
549.6788058084209
 34
0.0
 50
90.0
100
AcDbRotatedDimension
  0
DIMENSION
  5
7E3E
330
DF
100
AcDbEntity
  8
SUNPOU
100
AcDbDimension
  2
*D8
 10
505.58337316
 20
92.09359353736454
 30
0.0
 11
383.6915349403125
 21
92.09359353736454
 31
0.0
 70
   160
  3
IMCADLT
100
AcDbAlignedDimension
 13
251.58337316
 23
178.6788058084209
 33
0.0
 14
505.58337316
 24
178.6788058084209
 34
0.0
100
AcDbRotatedDimension
  0
DIMENSION
  5
7E4B
330
DF
100
AcDbEntity
  8
SUNPOU
100
AcDbDimension
  2
*D9
 10
1120.670949839984
 20
85.0651895365304
 30
0.0
 11
964.0752580166804
 21
85.0651895365304
 31
0.0
 70
   160
  3
IMCADLT
100
AcDbAlignedDimension
 13
806.6709498399847
 23
178.6788058084209
 33
0.0
 14
1120.670949839984
 24
178.6788058084209
 34
0.0
100
AcDbRotatedDimension
  0
LINE
  5
7E50
330
DF
100
AcDbEntity
  8
JISSEN
100
AcDbLine
 10
811.6709498399847
 20
315.6788058099999
 30
0.0
 11
826.67094984
 21
315.6788058099999
 31
0.0
  0
LINE
  5
7E51
330
DF
100
AcDbEntity
  8
JISSEN
100
AcDbLine
 10
831.6709498399999
 20
310.6788058099999
 30
0.0
 11
831.6709498399999
 21
218.678805808421
 31
0.0
  0
LINE
  5
7E52
330
DF
100
AcDbEntity
  8
JISSEN
100
AcDbLine
 10
846.6709498400001
 20
500.6788058054197
 30
0.0
 11
846.67094984
 21
195.6788058084209
 31
0.0
  0
LINE
  5
7E53
330
DF
100
AcDbEntity
  8
JISSEN
100
AcDbLine
 10
806.6709498399847
 20
208.678805808421
 30
0.0
 11
806.6709498399847
 21
178.6788058084209
 31
0.0
  0
ARC
  5
7E54
330
DF
100
AcDbEntity
  8
JISSEN
100
AcDbCircle
 10
811.6709498399847
 20
320.6788058099999
 30
0.0
 40
5.0
100
AcDbArc
 50
180.0
 51
270.0
  0
ARC
  5
7E55
330
DF
100
AcDbEntity
  8
JISSEN
100
AcDbCircle
 10
826.67094984
 20
310.6788058099999
 30
0.0
 40
5.0
100
AcDbArc
 50
0.0
 51
90.0
  0
ARC
  5
7E56
330
DF
100
AcDbEntity
  8
JISSEN
100
AcDbCircle
 10
826.67094984
 20
218.678805808421
 30
0.0
 40
5.0
100
AcDbArc
 50
270.0
 51
0.0
  0
ARC
  5
7E57
330
DF
100
AcDbEntity
  8
JISSEN
100
AcDbCircle
 10
811.6709498399847
 20
208.678805808421
 30
0.0
 40
5.0
100
AcDbArc
 50
90.00000000000007
 51
180.0
  0
ARC
  5
7E58
330
DF
100
AcDbEntity
  8
JISSEN
100
AcDbCircle
 10
398.5833731599999
 20
320.6788058054196
 30
0.0
 40
5.0
100
AcDbArc
 50
179.9999999999996
 51
270.0
  0
ARC
  5
7E5A
330
DF
100
AcDbEntity
  8
JISSEN
100
AcDbCircle
 10
338.58337316
 20
320.6788058054196
 30
0.0
 40
5.0
100
AcDbArc
 50
270.0
 51
0.0000000000003181
  0
ARC
  5
7E5D
330
DF
100
AcDbEntity
  8
JISSEN
100
AcDbCircle
 10
479.5833731600001
 20
208.6788058084209
 30
0.0
 40
5.0
100
AcDbArc
 50
90.0
 51
180.0
  0
ARC
  5
7E5E
330
DF
100
AcDbEntity
  8
JISSEN
100
AcDbCircle
 10
498.58337316
 20
208.678805808421
 30
0.0
 40
5.0
100
AcDbArc
 50
0.0
 51
90.0
  0
ARC
  5
7E5F
330
DF
100
AcDbEntity
  8
JISSEN
100
AcDbCircle
 10
277.58337316
 20
208.6788058084209
 30
0.0
 40
5.0
100
AcDbArc
 50
0.0
 51
90.0
  0
ARC
  5
7E60
330
DF
100
AcDbEntity
  8
JISSEN
100
AcDbCircle
 10
258.58337316
 20
208.6788058084209
 30
0.0
 40
5.0
100
AcDbArc
 50
90.0
 51
180.0
  0
INSERT
  5
7E68
330
DF
100
AcDbEntity
  8
ITTEN
100
AcDbBlockReference
  2
BATU2
 10
443.5833731599999
 20
408.1788058054197
 30
0.0
 41
14.6295046956485
 42
-14.43962888560679
 43
14.6295046956485
  0
INSERT
  5
7E69
330
DF
100
AcDbEntity
  8
ITTEN
100
AcDbBlockReference
  2
BATU2
 10
443.5833731599999
 20
358.1788058054197
 30
0.0
 41
25.51747735869787
 42
-29.4689561560516
 43
25.51747735869787
  0
INSERT
  5
7E6A
330
DF
100
AcDbEntity
  8
ITTEN
100
AcDbBlockReference
  2
BATU2
 10
368.58337316
 20
335.6788058054197
 30
0.0
 41
32.46765652410158
 42
33.57234036041302
 43
32.46765652410158
  0
INSERT
  5
7E6B
330
DF
100
AcDbEntity
  8
ITTEN
100
AcDbBlockReference
  2
BATU2
 10
378.58337316
 20
797.7760054654197
 30
0.0
 41
182.3091461687354
 42
204.3744187313534
 43
182.3091461687354
  0
LINE
  5
7E7E
330
DF
100
AcDbEntity
  8
JISSEN
100
AcDbLine
 10
471.08337316
 20
300.6788058099999
 30
0.0
 11
471.0833731599999
 21
300.6788058099999
 31
0.0
  0
LINE
  5
7E7F
330
DF
100
AcDbEntity
  8
JISSEN
100
AcDbLine
 10
466.0833731599999
 20
305.6788058099999
 30
0.0
 11
291.08337316
 21
305.6788058099999
 31
0.0
  0
LINE
  5
7E80
330
DF
100
AcDbEntity
  8
JISSEN
100
AcDbLine
 10
286.08337316
 20
300.6788058099999
 30
0.0
 11
286.08337316
 21
300.6788058099999
 31
0.0
  0
LINE
  5
7E81
330
DF
100
AcDbEntity
  8
JISSEN
100
AcDbLine
 10
286.08337316
 20
300.6788058099999
 30
0.0
 11
291.08337316
 21
300.6788058099999
 31
0.0
  0
LINE
  5
7E82
330
DF
100
AcDbEntity
  8
JISSEN
100
AcDbLine
 10
291.08337316
 20
300.6788058099999
 30
0.0
 11
298.2516756778574
 21
200.3225705584867
 31
0.0
  0
LINE
  5
7E83
330
DF
100
AcDbEntity
  8
JISSEN
100
AcDbLine
 10
471.08337316
 20
300.6788058099999
 30
0.0
 11
466.08337316
 21
300.6788058099999
 31
0.0
  0
LINE
  5
7E84
330
DF
100
AcDbEntity
  8
JISSEN
100
AcDbLine
 10
466.08337316
 20
300.6788058099999
 30
0.0
 11
458.9150706421427
 21
200.3225705584867
 31
0.0
  0
LINE
  5
7E85
330
DF
100
AcDbEntity
  8
JISSEN
100
AcDbLine
 10
466.08337316
 20
300.6788058099999
 30
0.0
 11
291.08337316
 21
300.6788058099999
 31
0.0
  0
LINE
  5
7E89
330
DF
100
AcDbEntity
  8
JISSEN
100
AcDbLine
 10
831.6709498399999
 20
300.6788058099999
 30
0.0
 11
811.67094984
 21
300.6788058099999
 31
0.0
  0
LINE
  5
7E8A
330
DF
100
AcDbEntity
  8
JISSEN
100
AcDbLine
 10
811.67094984
 20
300.6788058099999
 30
0.0
 11
817.885235554305
 21
213.678805808421
 31
0.0
  0
LINE
  5
7E8B
330
DF
100
AcDbEntity
  8
JISSEN
100
AcDbLine
 10
806.6709498399999
 20
300.6788058099999
 30
0.0
 11
811.67094984
 21
300.6788058099999
 31
0.0
  0
LINE
  5
7E8C
330
DF
100
AcDbEntity
  8
JISSEN
100
AcDbLine
 10
806.6709498399999
 20
300.6788058099999
 30
0.0
 11
806.6709498399999
 21
300.6788058099999
 31
0.0
  0
LINE
  5
7E8D
330
DF
100
AcDbEntity
  8
JISSEN
100
AcDbLine
 10
831.6709498399999
 20
305.6788058099999
 30
0.0
 11
811.67094984
 21
305.6788058099999
 31
0.0
  0
ARC
  5
7E8E
330
DF
100
AcDbEntity
  8
JISSEN
100
AcDbCircle
 10
811.67094984
 20
300.6788058099999
 30
0.0
 40
5.0
100
AcDbArc
 50
90.0
 51
180.0
  0
ARC
  5
7E8F
330
DF
100
AcDbEntity
  8
JISSEN
100
AcDbCircle
 10
466.0833731599999
 20
300.6788058099999
 30
0.0
 40
5.0
100
AcDbArc
 50
0.0
 51
90.0
  0
ARC
  5
7E90
330
DF
100
AcDbEntity
  8
JISSEN
100
AcDbCircle
 10
291.08337316
 20
300.6788058099999
 30
0.0
 40
5.0
100
AcDbArc
 50
90.0
 51
180.0
  0
ARC
  5
7E91
330
DF
100
AcDbEntity
  8
JISSEN
100
AcDbCircle
 10
303.2389691770114
 20
200.6788058084209
 30
0.0
 40
5.0
100
AcDbArc
 50
184.0856167799136
 51
270.0
  0
ARC
  5
7E92
330
DF
100
AcDbEntity
  8
JISSEN
100
AcDbCircle
 10
453.9277771429886
 20
200.6788058084209
 30
0.0
 40
5.0
100
AcDbArc
 50
270.0
 51
355.9143832200863
  0
INSERT
  5
7E95
330
DF
100
AcDbEntity
  8
SUNPOU
100
AcDbBlockReference
  2
ARROW
 10
465.5833731600001
 20
954.7760054654199
 30
0.0
 41
15.0
 42
15.0
 43
15.0
 50
212.1206546471159
  0
LINE
  5
7E96
330
DF
100
AcDbEntity
  8
SUNPOU
100
AcDbLine
 10
478.2873276842949
 20
962.7515643451882
 30
0.0
 11
561.9555476043046
 21
1015.278579697872
 31
0.0
  0
LINE
  5
7E97
330
DF
100
AcDbEntity
  8
SUNPOU
100
AcDbLine
 10
561.9555476043046
 20
1015.278579697872
 30
0.0
 11
576.9555476043047
 21
1015.278579697872
 31
0.0
  0
LINE
  5
7E98
330
DF
100
AcDbEntity
  8
SUNPOU
100
AcDbLine
 10
576.9555476043047
 20
1015.278579697872
 30
0.0
 11
825.5984047471617
 21
1015.278579697872
 31
0.0
  0
MTEXT
  5
7E99
330
DF
100
AcDbEntity
  8
SUNPOU
100
AcDbMText
 10
584.4555476043047
 20
1030.278579697872
 30
0.0
 40
15.0
 41
0.0
 71
     4
 72
     1
  1
\A1;電源コード長さ約2150mm
1001
ACAD
1000
MTEXTBEGIN
1070
    73
1070
     1
1070
    44
1040
1.0
1070
    74
1070
     0
1000
MTEXTEND
  0
TEXT
  5
7E9A
330
DF
100
AcDbEntity
  8
SUNPOU
100
AcDbText
 10
588.4678173810825
 20
990.2411661234909
 30
0.0
 40
15.0
  1
立ち上がり40
  7
K
100
AcDbText
  0
DIMENSION
  5
7EAB
330
DF
100
AcDbEntity
  8
SUNPOU
100
AcDbDimension
  2
*D11
 10
465.5833731600001
 20
1015.147869749071
 30
0.0
 11
485.5833731600001
 21
1015.147869749071
 31
0.0
 70
   160
  3
IMCADLT
100
AcDbAlignedDimension
 13
505.5833731600001
 23
949.7760054654198
 33
0.0
 14
465.5833731600001
 24
954.7760054654199
 34
0.0
100
AcDbRotatedDimension
  0
LINE
  5
7EAF
330
DF
100
AcDbEntity
  8
JISSEN
100
AcDbLine
 10
503.58337316
 20
195.6788058084209
 30
0.0
 11
503.58337316
 21
500.6788058054199
 31
0.0
  0
LINE
  5
7EB0
330
DF
100
AcDbEntity
  8
JISSEN
100
AcDbLine
 10
253.58337316
 20
517.6788058054198
 30
0.0
 11
253.58337316
 21
510.6788058054197
 31
0.0
  0
ARC
  5
7EB1
330
DF
100
AcDbEntity
  8
JISSEN
100
AcDbCircle
 10
498.58337316
 20
517.6788058054198
 30
0.0
 40
5.0
100
AcDbArc
 50
0.0
 51
90.0
  0
ARC
  5
7EB2
330
DF
100
AcDbEntity
  8
JISSEN
100
AcDbCircle
 10
258.58337316
 20
517.6788058054198
 30
0.0
 40
5.0
100
AcDbArc
 50
90.00000000000003
 51
180.0
  0
LINE
  5
7EB3
330
DF
100
AcDbEntity
  8
JISSEN
100
AcDbLine
 10
253.58337316
 20
500.6788058054197
 30
0.0
 11
253.58337316
 21
195.6788058084209
 31
0.0
  0
LINE
  5
7EB4
330
DF
100
AcDbEntity
  8
JISSEN
100
AcDbLine
 10
503.58337316
 20
510.6788058054198
 30
0.0
 11
503.58337316
 21
517.6788058054198
 31
0.0
  0
LINE
  5
7EB6
330
DF
100
AcDbEntity
  8
JISSEN
100
AcDbLine
 10
505.5833731599999
 20
192.6788058084209
 30
0.0
 11
505.58337316
 21
178.6788058084209
 31
0.0
  0
LINE
  5
7EB7
330
DF
100
AcDbEntity
  8
JISSEN
100
AcDbLine
 10
251.58337316
 20
192.6788058084209
 30
0.0
 11
251.58337316
 21
178.6788058084209
 31
0.0
  0
ARC
  5
7EB8
330
DF
100
AcDbEntity
  8
JISSEN
100
AcDbCircle
 10
254.58337316
 20
192.6788058084209
 30
0.0
 40
3.0
100
AcDbArc
 50
90.0
 51
180.0
  0
ARC
  5
7EB9
330
DF
100
AcDbEntity
  8
JISSEN
100
AcDbCircle
 10
502.58337316
 20
192.6788058084209
 30
0.0
 40
3.0
100
AcDbArc
 50
0.0
 51
90.0
  0
ARC
  5
7EBA
330
DF
100
AcDbEntity
  8
JISSEN
100
AcDbCircle
 10
254.58337316
 20
178.6788058084209
 30
0.0
 40
3.0
100
AcDbArc
 50
180.0000000000001
 51
270.0
  0
VIEWPORT
  5
4AEA
330
DC
100
AcDbEntity
 67
     1
  8
0
100
AcDbViewport
 10
213.0014909875425
 20
148.5313757808089
 30
0.0
 40
582.5025415545262
 41
314.8828280479156
 68
     1
 69
     1
1001
ACAD
1000
MVIEW
1002
{
1070
    16
1010
0.0
1020
0.0
1030
0.0
1010
0.0
1020
0.0
1030
1.0
1040
0.0
1040
314.8828280479156
1040
213.0014909875425
1040
148.5313757808089
1040
50.0
1040
0.0
1040
0.0
1070
     0
1070
   500
1070
     1
1070
     1
1070
     0
1070
     0
1070
     0
1070
     0
1040
0.0
1040
0.0
1040
0.0
1040
1.0
1040
1.0
1040
10.0
1040
10.0
1070
     0
1002
{
1003
HIDDEN_L
1002
}
1002
}
  0
VIEWPORT
  5
7344
330
DC
100
AcDbEntity
 67
     1
  8
HIDDEN_L
100
AcDbViewport
 10
209.9999991599999
 20
148.4999999999999
 30
0.0
 40
419.9999983199999
 41
296.9999999999999
 68
     2
 69
     2
1001
ACAD
1000
MVIEW
1002
{
1070
    16
1010
0.0
1020
0.0
1030
0.0
1010
0.0
1020
0.0
1030
1.0
1040
0.0
1040
1484.999999593354
1040
1196.781617950719
1040
470.3461993511461
1040
50.0
1040
0.0
1040
0.0
1070
     0
1070
   500
1070
     1
1070
     0
1070
     0
1070
     0
1070
     0
1070
     0
1040
0.0
1040
0.0
1040
0.0
1040
1.0
1040
1.0
1040
10.0
1040
10.0
1070
     0
1002
{
1003
SUNPOU2
1002
}
1002
}
  0
INSERT
  5
7DF8
330
DC
100
AcDbEntity
 67
     1
  8
WAKU
100
AcDbBlockReference
  2
S3
 10
0.0
 20
0.0
 30
0.0
  0
MTEXT
  5
7DFC
330
DC
100
AcDbEntity
 67
     1
  8
SUNPOU
100
AcDbMText
 10
279.9472991986801
 20
249.2969342514939
 30
0.0
 40
3.0
 41
0.0
 71
     1
 72
     1
  3
\fＭＳ 明朝|b0|i0|c128|p17;\L　仕様　\P\l外形寸法：254×314×379mm\P重量：16kg\P回転数：93/117rpm\P電源：単相100V　50/60Hz\P定格消費電力　115/125W\Pモーター：コンデンサー誘導電動機　100W\P電源スイッチ：トグル式（防水ゴム付き）\Pプロテクター：モーター
  1
内蔵\P定格時間：連続\P氷削能力：最小粗さ1.3kg/min　最大粗さ4kg/min
1001
ACAD
1000
MTEXTBEGIN
1070
    73
1070
     1
1070
    44
1040
1.0
1070
    74
1070
     0
1000
MTEXTEND
  0
TEXT
  5
7E6E
330
DC
100
AcDbEntity
 67
     1
  8
SUNPOU
100
AcDbText
 10
299.5766635610369
 20
44.36302372617592
 30
0.0
 40
3.0
  1
キューブアイスクラッシャー
  7
K
100
AcDbText
  0
TEXT
  5
7E6F
330
DC
100
AcDbEntity
 67
     1
  8
SUNPOU
100
AcDbText
 10
338.0786880517472
 20
23.95353543139845
 30
0.0
 40
3.0
  1
HS-17
  7
K
100
AcDbText
  0
LINE
  5
7E70
330
DC
100
AcDbEntity
 67
     1
  8
SUNPOU
100
AcDbLine
 10
364.2230270499698
 20
50.47162607343875
 30
0.0
 11
380.1146837154359
 21
50.47162607343875
 31
0.0
  0
LINE
  5
7E71
330
DC
100
AcDbEntity
 67
     1
  8
SUNPOU
100
AcDbLine
 10
364.3511853415526
 20
42.40090280427534
 30
0.0
 11
380.1714360005711
 21
42.40090280427534
 31
0.0
  0
ENDSEC
  0
SECTION
  2
OBJECTS
  0
DICTIONARY
  5
D3
330
0
100
AcDbDictionary
  3
ACAD_GROUP
350
D4
  3
ACAD_MLINESTYLE
350
D5
  3
ACDBVARIABLEDICTIONARY
350
59C7
  3
CONTENTDICTIONARY
350
50D5
  3
ACAD_PLOTSTYLENAME
350
7EBE
  3
ACAD_LAYOUT
350
7EC0
  3
ACAD_PLOTSETTINGS
350
7EC1
  3
ACDBHEADERROUNDTRIPXREC
350
7EC9
  0
DICTIONARY
  5
7EEC
330
DF
100
AcDbDictionary
280
     1
  3
ACAD_LAYOUTSELFREF
360
7EED
  0
DICTIONARY
  5
7EEA
330
DC
100
AcDbDictionary
280
     1
  3
ACAD_LAYOUTSELFREF
360
7EEB
  0
DICTIONARY
  5
D4
102
{ACAD_REACTORS
330
D3
102
}
330
D3
100
AcDbDictionary
  0
DICTIONARY
  5
D5
102
{ACAD_REACTORS
330
D3
102
}
330
D3
100
AcDbDictionary
  3
STANDARD
350
E2
  0
DICTIONARY
  5
59C7
102
{ACAD_REACTORS
330
D3
102
}
330
D3
100
AcDbDictionary
  3
SORTENTS
350
59C8
  0
DICTIONARY
  5
50D5
102
{ACAD_REACTORS
330
D3
102
}
330
D3
100
AcDbDictionary
  0
ACDBDICTIONARYWDFLT
  5
7EBE
102
{ACAD_REACTORS
330
D3
102
}
330
D3
100
AcDbDictionary
281
     1
  3
Normal
350
7EBF
100
AcDbDictionaryWithDefault
340
7EBF
  0
DICTIONARY
  5
7EC0
102
{ACAD_REACTORS
330
D3
102
}
330
D3
100
AcDbDictionary
  0
DICTIONARY
  5
7EC1
102
{ACAD_REACTORS
330
D3
102
}
330
D3
100
AcDbDictionary
  0
DICTIONARY
  5
7EC9
102
{ACAD_REACTORS
330
D3
102
}
330
D3
100
AcDbDictionary
  3
TSTACKALIGN
350
7ECA
  3
TSTACKSIZE
350
7ECB
  3
HYPERLINKBASE
350
7ECC
  3
STYLESHEET
350
7ECD
  3
LAYOUTDICT
350
7ECE
  3
PLOTSETDICT
350
7ECF
  3
PLOTSTYLNAMDICT
350
7ED0
  3
LWETCUNION
350
7ED1
  3
INSUNITS
350
7ED2
  3
CEPSNTYPE
350
7ED3
  3
FINGERPRINTGUID
350
7ED4
  3
VERSIONGUID
350
7ED5
  3
PSVPSCALE
350
7ED6
  3
DIMSTYLEDATA
350
7ED7
  3
PUCSORTHOREF
350
7ED8
  3
PUCSORTHOVIEW
350
7ED9
  3
PUCSBASE
350
7EDA
  3
PUCSORGTOP
350
7EDB
  3
PUCSORGBOTTOM
350
7EDC
  3
PUCSORGLEFT
350
7EDD
  3
PUCSORGRIGHT
350
7EDE
  3
PUCSORGFRONT
350
7EDF
  3
PUCSORGBACK
350
7EE0
  3
UCSORTHOREF
350
7EE1
  3
UCSORTHOVIEW
350
7EE2
  3
UCSBASE
350
7EE3
  3
UCSORGTOP
350
7EE4
  3
UCSORGBOTTOM
350
7EE5
  3
UCSORGLEFT
350
7EE6
  3
UCSORGRIGHT
350
7EE7
  3
UCSORGFRONT
350
7EE8
  3
UCSORGBACK
350
7EE9
  0
XRECORD
  5
7EED
102
{ACAD_REACTORS
330
7EEC
102
}
330
7EEC
100
AcDbXrecord
340
DF
  0
XRECORD
  5
7EEB
102
{ACAD_REACTORS
330
7EEA
102
}
330
7EEA
100
AcDbXrecord
340
DC
  0
MLINESTYLE
  5
E2
102
{ACAD_REACTORS
330
D5
102
}
330
D5
100
AcDbMlineStyle
  2
STANDARD
 70
     0
  3

 62
     0
 51
90.0
 52
90.0
 71
     2
 49
0.5
 62
   256
  6
BYLAYER
 49
-0.5
 62
   256
  6
BYLAYER
  0
DICTIONARYVAR
  5
59C8
102
{ACAD_REACTORS
330
59C7
102
}
330
59C7
100
DictionaryVariables
280
     0
  1
96
  0
ACDBPLACEHOLDER
  5
7EBF
102
{ACAD_REACTORS
330
7EBE
102
}
330
7EBE
100
AcDbPlaceHolder
280
     0
  0
XRECORD
  5
7ECA
102
{ACAD_REACTORS
330
7EC9
102
}
330
7EC9
100
AcDbXrecord
 90
        1
  0
XRECORD
  5
7ECB
102
{ACAD_REACTORS
330
7EC9
102
}
330
7EC9
100
AcDbXrecord
 90
       70
  0
XRECORD
  5
7ECC
102
{ACAD_REACTORS
330
7EC9
102
}
330
7EC9
100
AcDbXrecord
  1

  0
XRECORD
  5
7ECD
102
{ACAD_REACTORS
330
7EC9
102
}
330
7EC9
100
AcDbXrecord
  1

  0
XRECORD
  5
7ECE
102
{ACAD_REACTORS
330
7EC9
102
}
330
7EC9
100
AcDbXrecord
340
7EC0
  0
XRECORD
  5
7ECF
102
{ACAD_REACTORS
330
7EC9
102
}
330
7EC9
100
AcDbXrecord
340
7EC1
  0
XRECORD
  5
7ED0
102
{ACAD_REACTORS
330
7EC9
102
}
330
7EC9
100
AcDbXrecord
340
7EBE
  0
XRECORD
  5
7ED1
102
{ACAD_REACTORS
330
7EC9
102
}
330
7EC9
100
AcDbXrecord
 90
    14877
  0
XRECORD
  5
7ED2
102
{ACAD_REACTORS
330
7EC9
102
}
330
7EC9
100
AcDbXrecord
 90
        0
  0
XRECORD
  5
7ED3
102
{ACAD_REACTORS
330
7EC9
102
}
330
7EC9
100
AcDbXrecord
 90
        0
  0
XRECORD
  5
7ED4
102
{ACAD_REACTORS
330
7EC9
102
}
330
7EC9
100
AcDbXrecord
  1
{5AE83319-EBBF-4CE9-ACF4-415E3EFD2E5C}
  0
XRECORD
  5
7ED5
102
{ACAD_REACTORS
330
7EC9
102
}
330
7EC9
100
AcDbXrecord
  1
{400C5744-DC2C-4E1D-BE9B-F10680E7E244}
  0
XRECORD
  5
7ED6
102
{ACAD_REACTORS
330
7EC9
102
}
330
7EC9
100
AcDbXrecord
 40
0.0
  0
XRECORD
  5
7ED7
102
{ACAD_REACTORS
330
7EC9
102
}
330
7EC9
100
AcDbXrecord
1000
DSTYLE
1002
{
1070
   341
340
E3
1070
   342
340
E3
1070
   343
340
E3
1070
   344
340
E3
1002
}
  0
XRECORD
  5
7ED8
102
{ACAD_REACTORS
330
7EC9
102
}
330
7EC9
100
AcDbXrecord
340
0
  0
XRECORD
  5
7ED9
102
{ACAD_REACTORS
330
7EC9
102
}
330
7EC9
100
AcDbXrecord
 70
     0
  0
XRECORD
  5
7EDA
102
{ACAD_REACTORS
330
7EC9
102
}
330
7EC9
100
AcDbXrecord
340
0
  0
XRECORD
  5
7EDB
102
{ACAD_REACTORS
330
7EC9
102
}
330
7EC9
100
AcDbXrecord
 10
0.0
 20
0.0
 30
0.0
  0
XRECORD
  5
7EDC
102
{ACAD_REACTORS
330
7EC9
102
}
330
7EC9
100
AcDbXrecord
 10
0.0
 20
0.0
 30
0.0
  0
XRECORD
  5
7EDD
102
{ACAD_REACTORS
330
7EC9
102
}
330
7EC9
100
AcDbXrecord
 10
0.0
 20
0.0
 30
0.0
  0
XRECORD
  5
7EDE
102
{ACAD_REACTORS
330
7EC9
102
}
330
7EC9
100
AcDbXrecord
 10
0.0
 20
0.0
 30
0.0
  0
XRECORD
  5
7EDF
102
{ACAD_REACTORS
330
7EC9
102
}
330
7EC9
100
AcDbXrecord
 10
0.0
 20
0.0
 30
0.0
  0
XRECORD
  5
7EE0
102
{ACAD_REACTORS
330
7EC9
102
}
330
7EC9
100
AcDbXrecord
 10
0.0
 20
0.0
 30
0.0
  0
XRECORD
  5
7EE1
102
{ACAD_REACTORS
330
7EC9
102
}
330
7EC9
100
AcDbXrecord
340
0
  0
XRECORD
  5
7EE2
102
{ACAD_REACTORS
330
7EC9
102
}
330
7EC9
100
AcDbXrecord
 70
     0
  0
XRECORD
  5
7EE3
102
{ACAD_REACTORS
330
7EC9
102
}
330
7EC9
100
AcDbXrecord
340
0
  0
XRECORD
  5
7EE4
102
{ACAD_REACTORS
330
7EC9
102
}
330
7EC9
100
AcDbXrecord
 10
0.0
 20
0.0
 30
0.0
  0
XRECORD
  5
7EE5
102
{ACAD_REACTORS
330
7EC9
102
}
330
7EC9
100
AcDbXrecord
 10
0.0
 20
0.0
 30
0.0
  0
XRECORD
  5
7EE6
102
{ACAD_REACTORS
330
7EC9
102
}
330
7EC9
100
AcDbXrecord
 10
0.0
 20
0.0
 30
0.0
  0
XRECORD
  5
7EE7
102
{ACAD_REACTORS
330
7EC9
102
}
330
7EC9
100
AcDbXrecord
 10
0.0
 20
0.0
 30
0.0
  0
XRECORD
  5
7EE8
102
{ACAD_REACTORS
330
7EC9
102
}
330
7EC9
100
AcDbXrecord
 10
0.0
 20
0.0
 30
0.0
  0
XRECORD
  5
7EE9
102
{ACAD_REACTORS
330
7EC9
102
}
330
7EC9
100
AcDbXrecord
 10
0.0
 20
0.0
 30
0.0
  0
ENDSEC
  0
EOF
