  0
SECTION
  2
HEADER
  9
$ACADVER
  1
AC1014
  9
$ACADMAINTVER
 70
     9
  9
$DWGCODEPAGE
  3
ANSI_932
  9
$INSBASE
 10
0.0
 20
0.0
 30
0.0
  9
$EXTMIN
 10
-25.05249021886266
 20
-29.04620008827896
 30
-0.0015258207003583
  9
$EXTMAX
 10
1930.534361768802
 20
1375.081607401001
 30
0.0000000349246037
  9
$LIMMIN
 10
0.0
 20
0.0
  9
$LIMMAX
 10
2100.0
 20
1485.0
  9
$ORTHOMODE
 70
     0
  9
$REGENMODE
 70
     1
  9
$FILLMODE
 70
     1
  9
$QTEXTMODE
 70
     0
  9
$MIRRTEXT
 70
     0
  9
$DRAGMODE
 70
     2
  9
$LTSCALE
 40
25.0
  9
$OSMODE
 70
    37
  9
$ATTMODE
 70
     1
  9
$TEXTSIZE
 40
15.0
  9
$TRACEWID
 40
0.05
  9
$TEXTSTYLE
  7
K
  9
$CLAYER
  8
SUNPOU
  9
$CELTYPE
  6
BYLAYER
  9
$CECOLOR
 62
   256
  9
$CELTSCALE
 40
1.0
  9
$DELOBJ
 70
     1
  9
$DISPSILH
 70
     0
  9
$DIMSCALE
 40
5.0
  9
$DIMASZ
 40
1.5
  9
$DIMEXO
 40
1.0
  9
$DIMDLI
 40
6.0
  9
$DIMRND
 40
0.0
  9
$DIMDLE
 40
0.0
  9
$DIMEXE
 40
1.0
  9
$DIMTP
 40
495.0
  9
$DIMTM
 40
0.0
  9
$DIMTXT
 40
3.0
  9
$DIMCEN
 40
0.0
  9
$DIMTSZ
 40
0.0
  9
$DIMTOL
 70
     0
  9
$DIMLIM
 70
     0
  9
$DIMTIH
 70
     0
  9
$DIMTOH
 70
     0
  9
$DIMSE1
 70
     0
  9
$DIMSE2
 70
     0
  9
$DIMTAD
 70
     1
  9
$DIMZIN
 70
     8
  9
$DIMBLK
  1
ARROW
  9
$DIMASO
 70
     1
  9
$DIMSHO
 70
     0
  9
$DIMPOST
  1

  9
$DIMAPOST
  1

  9
$DIMALT
 70
     0
  9
$DIMALTD
 70
     2
  9
$DIMALTF
 40
25.4
  9
$DIMLFAC
 40
1.0
  9
$DIMTOFL
 70
     1
  9
$DIMTVP
 40
0.0
  9
$DIMTIX
 70
     1
  9
$DIMSOXD
 70
     0
  9
$DIMSAH
 70
     0
  9
$DIMBLK1
  1
ARROW
  9
$DIMBLK2
  1
ARROW
  9
$DIMSTYLE
  2
IMAO
  9
$DIMCLRD
 70
     0
  9
$DIMCLRE
 70
     0
  9
$DIMCLRT
 70
     0
  9
$DIMTFAC
 40
1.0
  9
$DIMGAP
 40
0.09
  9
$DIMJUST
 70
     0
  9
$DIMSD1
 70
     0
  9
$DIMSD2
 70
     0
  9
$DIMTOLJ
 70
     1
  9
$DIMTZIN
 70
     0
  9
$DIMALTZ
 70
     0
  9
$DIMALTTZ
 70
     0
  9
$DIMFIT
 70
     3
  9
$DIMUPT
 70
     0
  9
$DIMUNIT
 70
     2
  9
$DIMDEC
 70
     4
  9
$DIMTDEC
 70
     4
  9
$DIMALTU
 70
     2
  9
$DIMALTTD
 70
     2
  9
$DIMTXSTY
  7
STANDARD
  9
$DIMAUNIT
 70
     0
  9
$LUNITS
 70
     2
  9
$LUPREC
 70
     2
  9
$SKETCHINC
 40
0.1
  9
$FILLETRAD
 40
5.0
  9
$AUNITS
 70
     0
  9
$AUPREC
 70
     2
  9
$MENU
  1
STDR12J
  9
$ELEVATION
 40
0.0
  9
$PELEVATION
 40
0.0
  9
$THICKNESS
 40
0.0
  9
$LIMCHECK
 70
     0
  9
$BLIPMODE
 70
     0
  9
$CHAMFERA
 40
0.0
  9
$CHAMFERB
 40
0.0
  9
$CHAMFERC
 40
0.0
  9
$CHAMFERD
 40
0.0
  9
$SKPOLY
 70
     0
  9
$TDCREATE
 40
2452335.394430752
  9
$TDUPDATE
 40
2453133.701985011
  9
$TDINDWG
 40
0.1664105903
  9
$TDUSRTIMER
 40
0.1664105903
  9
$USRTIMER
 70
     1
  9
$ANGBASE
 50
0.0
  9
$ANGDIR
 70
     0
  9
$PDMODE
 70
     3
  9
$PDSIZE
 40
0.0
  9
$PLINEWID
 40
0.0
  9
$COORDS
 70
     1
  9
$SPLFRAME
 70
     0
  9
$SPLINETYPE
 70
     6
  9
$SPLINESEGS
 70
     8
  9
$ATTDIA
 70
     0
  9
$ATTREQ
 70
     1
  9
$HANDLING
 70
 10241
  9
$HANDSEED
  5
6E6
  9
$SURFTAB1
 70
     6
  9
$SURFTAB2
 70
     6
  9
$SURFTYPE
 70
     6
  9
$SURFU
 70
     6
  9
$SURFV
 70
     6
  9
$UCSNAME
  2

  9
$UCSORG
 10
0.0
 20
0.0
 30
0.0
  9
$UCSXDIR
 10
1.0
 20
0.0
 30
0.0
  9
$UCSYDIR
 10
0.0
 20
1.0
 30
0.0
  9
$PUCSNAME
  2

  9
$PUCSORG
 10
0.0
 20
0.0
 30
0.0
  9
$PUCSXDIR
 10
1.0
 20
0.0
 30
0.0
  9
$PUCSYDIR
 10
0.0
 20
1.0
 30
0.0
  9
$USERI1
 70
     3
  9
$USERI2
 70
     1
  9
$USERI3
 70
     5
  9
$USERI4
 70
     1
  9
$USERI5
 70
     1
  9
$USERR1
 40
5.0
  9
$USERR2
 40
3.0
  9
$USERR3
 40
3.0
  9
$USERR4
 40
1.5
  9
$USERR5
 40
10.0
  9
$WORLDVIEW
 70
     1
  9
$SHADEDGE
 70
     3
  9
$SHADEDIF
 70
    70
  9
$TILEMODE
 70
     1
  9
$MAXACTVP
 70
    16
  9
$PINSBASE
 10
0.0
 20
0.0
 30
0.0
  9
$PLIMCHECK
 70
     0
  9
$PEXTMIN
 10
1.000000000000000E+20
 20
1.000000000000000E+20
 30
1.000000000000000E+20
  9
$PEXTMAX
 10
-1.000000000000000E+20
 20
-1.000000000000000E+20
 30
-1.000000000000000E+20
  9
$PLIMMIN
 10
0.0
 20
0.0
  9
$PLIMMAX
 10
12.0
 20
9.0
  9
$UNITMODE
 70
     0
  9
$VISRETAIN
 70
     0
  9
$PLINEGEN
 70
     0
  9
$PSLTSCALE
 70
     0
  9
$TREEDEPTH
 70
     0
  9
$PICKSTYLE
 70
     1
  9
$CMLSTYLE
  2
STANDARD
  9
$CMLJUST
 70
     0
  9
$CMLSCALE
 40
1.0
  9
$PROXYGRAPHICS
 70
     1
  9
$MEASUREMENT
 70
     1
  0
ENDSEC
  0
SECTION
  2
CLASSES
  0
CLASS
  1
LWPOLYLINE
  2
AcDbPolyline
  3
AutoCAD 2000
 90
        0
280
     0
281
     1
  0
CLASS
  1
ACDBDICTIONARYWDFLT
  2
AcDbDictionaryWithDefault
  3
AutoCAD 2000
 90
        0
280
     0
281
     0
  0
CLASS
  1
ACDBPLACEHOLDER
  2
AcDbPlaceHolder
  3
AutoCAD 2000
 90
        0
280
     0
281
     0
  0
CLASS
  1
LAYOUT
  2
AcDbLayout
  3
AutoCAD 2000
 90
        0
280
     0
281
     0
  0
CLASS
  1
LONG_TRANSACTION
  2
AcDbLongTransaction
  3
AutoCAD 2000
 90
        0
280
     0
281
     0
  0
CLASS
  1
LWPOLYLINE
  2
AcDbPolyline
  3
AutoCAD 2000
 90
        0
280
     0
281
     1
  0
CLASS
  1
HATCH
  2
AcDbHatch
  3
AutoCAD 2000
 90
        0
280
     0
281
     1
  0
CLASS
  1
XRECORD
  2
AcDbXrecord
  3
AutoCAD 2000
 90
        0
280
     0
281
     0
  0
ENDSEC
  0
SECTION
  2
TABLES
  0
TABLE
  2
VPORT
  5
CF
330
0
100
AcDbSymbolTable
 70
    11
  0
VPORT
  5
F5
330
CF
100
AcDbSymbolTableRecord
100
AcDbViewportTableRecord
  2
2
 70
     0
 10
0.5
 20
0.0
 11
1.0
 21
1.0
 12
0.9240312421264802
 22
1.052650975462766
 13
0.0
 23
0.0
 14
1.0
 24
1.0
 15
10.0
 25
10.0
 16
0.0
 26
0.0
 36
1.0
 17
0.0
 27
0.0
 37
0.0
 40
2.105301950925533
 41
0.8778135048231511
 42
50.0
 43
0.0
 44
0.0
 50
0.0
 51
0.0
 71
     0
 72
   500
 73
     1
 74
     1
 75
     0
 76
     0
 77
     0
 78
     0
  0
VPORT
  5
F6
330
CF
100
AcDbSymbolTableRecord
100
AcDbViewportTableRecord
  2
2
 70
     0
 10
0.0
 20
0.0
 11
0.5
 21
1.0
 12
0.9240312421264802
 22
1.052650975462766
 13
0.0
 23
0.0
 14
1.0
 24
1.0
 15
10.0
 25
10.0
 16
0.0
 26
0.0
 36
1.0
 17
0.0
 27
0.0
 37
0.0
 40
2.105301950925533
 41
0.8778135048231511
 42
50.0
 43
0.0
 44
0.0
 50
0.0
 51
0.0
 71
     0
 72
   500
 73
     1
 74
     1
 75
     0
 76
     0
 77
     0
 78
     0
  0
VPORT
  5
F7
330
CF
100
AcDbSymbolTableRecord
100
AcDbViewportTableRecord
  2
3
 70
     0
 10
0.0
 20
0.5
 11
1.0
 21
1.0
 12
2.832169994473273
 22
1.052650975462766
 13
0.0
 23
0.0
 14
1.0
 24
1.0
 15
10.0
 25
10.0
 16
0.0
 26
0.0
 36
1.0
 17
0.0
 27
0.0
 37
0.0
 40
2.105301950925533
 41
3.571428571428571
 42
50.0
 43
0.0
 44
0.0
 50
0.0
 51
0.0
 71
     0
 72
   500
 73
     1
 74
     1
 75
     0
 76
     0
 77
     0
 78
     0
  0
VPORT
  5
F8
330
CF
100
AcDbSymbolTableRecord
100
AcDbViewportTableRecord
  2
3
 70
     0
 10
0.0
 20
0.0
 11
1.0
 21
0.5
 12
2.856741679241311
 22
1.052650975462766
 13
0.0
 23
0.0
 14
1.0
 24
1.0
 15
10.0
 25
10.0
 16
0.0
 26
0.0
 36
1.0
 17
0.0
 27
0.0
 37
0.0
 40
2.105301950925533
 41
3.594771241830065
 42
50.0
 43
0.0
 44
0.0
 50
0.0
 51
0.0
 71
     0
 72
   500
 73
     1
 74
     1
 75
     0
 76
     0
 77
     0
 78
     0
  0
VPORT
  5
F9
330
CF
100
AcDbSymbolTableRecord
100
AcDbViewportTableRecord
  2
4
 70
     0
 10
0.5
 20
0.0
 11
1.0
 21
0.5
 12
2.886857516709719
 22
1.052650975462766
 13
0.0
 23
0.0
 14
1.0
 24
1.0
 15
10.0
 25
10.0
 16
0.0
 26
0.0
 36
1.0
 17
0.0
 27
0.0
 37
0.0
 40
4.27520703030907
 41
1.784313725490195
 42
50.0
 43
0.0
 44
0.0
 50
0.0
 51
0.0
 71
     0
 72
   500
 73
     1
 74
     1
 75
     0
 76
     0
 77
     0
 78
     0
  0
VPORT
  5
FA
330
CF
100
AcDbSymbolTableRecord
100
AcDbViewportTableRecord
  2
4
 70
     0
 10
0.5
 20
0.5
 11
1.0
 21
1.0
 12
2.862090274555523
 22
1.052650975462766
 13
0.0
 23
0.0
 14
1.0
 24
1.0
 15
10.0
 25
10.0
 16
0.0
 26
0.0
 36
1.0
 17
0.0
 27
0.0
 37
0.0
 40
4.27520703030907
 41
1.772727272727272
 42
50.0
 43
0.0
 44
0.0
 50
0.0
 51
0.0
 71
     0
 72
   500
 73
     1
 74
     1
 75
     0
 76
     0
 77
     0
 78
     0
  0
VPORT
  5
FB
330
CF
100
AcDbSymbolTableRecord
100
AcDbViewportTableRecord
  2
4
 70
     0
 10
0.0
 20
0.5
 11
0.5
 21
1.0
 12
2.862090274555523
 22
1.052650975462766
 13
0.0
 23
0.0
 14
1.0
 24
1.0
 15
10.0
 25
10.0
 16
0.0
 26
0.0
 36
1.0
 17
0.0
 27
0.0
 37
0.0
 40
4.27520703030907
 41
1.772727272727272
 42
50.0
 43
0.0
 44
0.0
 50
0.0
 51
0.0
 71
     0
 72
   500
 73
     1
 74
     1
 75
     0
 76
     0
 77
     0
 78
     0
  0
VPORT
  5
FC
330
CF
100
AcDbSymbolTableRecord
100
AcDbViewportTableRecord
  2
4
 70
     0
 10
0.0
 20
0.0
 11
0.5
 21
0.5
 12
2.886857516709719
 22
1.052650975462766
 13
0.0
 23
0.0
 14
1.0
 24
1.0
 15
10.0
 25
10.0
 16
0.0
 26
0.0
 36
1.0
 17
0.0
 27
0.0
 37
0.0
 40
4.27520703030907
 41
1.784313725490195
 42
50.0
 43
0.0
 44
0.0
 50
0.0
 51
0.0
 71
     0
 72
   500
 73
     1
 74
     1
 75
     0
 76
     0
 77
     0
 78
     0
  0
VPORT
  5
678
330
CF
100
AcDbSymbolTableRecord
100
AcDbViewportTableRecord
  2
*ACTIVE
 70
     0
 10
0.0
 20
0.0
 11
1.0
 21
1.0
 12
1037.473754890568
 22
727.9768999558605
 13
0.0
 23
0.0
 14
1.0
 24
1.0
 15
10.0
 25
10.0
 16
0.0
 26
0.0
 36
1.0
 17
0.0
 27
0.0
 37
0.0
 40
1531.719891139893
 41
1.84990253411306
 42
50.0
 43
0.0
 44
0.0
 50
0.0
 51
0.0
 71
     0
 72
   500
 73
     1
 74
     0
 75
     0
 76
     0
 77
     0
 78
     0
  0
ENDTAB
  0
TABLE
  2
LTYPE
  5
CC
330
0
100
AcDbSymbolTable
 70
     5
  0
LTYPE
  5
D9
330
CC
100
AcDbSymbolTableRecord
100
AcDbLinetypeTableRecord
  2
BYBLOCK
 70
     0
  3

 72
    65
 73
     0
 40
0.0
  0
LTYPE
  5
DA
330
CC
100
AcDbSymbolTableRecord
100
AcDbLinetypeTableRecord
  2
BYLAYER
 70
     0
  3

 72
    65
 73
     0
 40
0.0
  0
LTYPE
  5
DB
330
CC
100
AcDbSymbolTableRecord
100
AcDbLinetypeTableRecord
  2
CONTINUOUS
 70
     0
  3
実線
 72
    65
 73
     0
 40
0.0
  0
LTYPE
  5
F1
330
CC
100
AcDbSymbolTableRecord
100
AcDbLinetypeTableRecord
  2
DASHED
 70
     0
  3
__ __ __ __ __ __ __ __ __ __ __ __ __ __ __
 72
    65
 73
     2
 40
0.75
 49
0.5
 74
     0
 49
-0.25
 74
     0
  0
LTYPE
  5
F2
330
CC
100
AcDbSymbolTableRecord
100
AcDbLinetypeTableRecord
  2
CENTER
 70
     0
  3
____ _ ____ _ ____ _ ____ _ ____ _ ____ _ ____
 72
    65
 73
     4
 40
2.0
 49
1.25
 74
     0
 49
-0.25
 74
     0
 49
0.25
 74
     0
 49
-0.25
 74
     0
  0
LTYPE
  5
F3
330
CC
100
AcDbSymbolTableRecord
100
AcDbLinetypeTableRecord
  2
PHANTOM
 70
     0
  3
_____ _ _ _____ _ _ _____ _ _ _____ _ _ ____
 72
    65
 73
     6
 40
2.5
 49
1.25
 74
     0
 49
-0.25
 74
     0
 49
0.25
 74
     0
 49
-0.25
 74
     0
 49
0.25
 74
     0
 49
-0.25
 74
     0
  0
LTYPE
  5
F4
330
CC
100
AcDbSymbolTableRecord
100
AcDbLinetypeTableRecord
  2
HIDDEN
 70
     0
  3
_ _ _ _ _ _ _ _ _ _ _ _ _ _ _ _ _ _ _ _ _ _ _
 72
    65
 73
     2
 40
0.375
 49
0.25
 74
     0
 49
-0.125
 74
     0
  0
ENDTAB
  0
TABLE
  2
LAYER
  5
C9
330
0
100
AcDbSymbolTable
 70
    15
  0
LAYER
  5
D6
330
C9
100
AcDbSymbolTableRecord
100
AcDbLayerTableRecord
  2
0
 70
     0
 62
     7
  6
CONTINUOUS
  0
LAYER
  5
100
330
C9
100
AcDbSymbolTableRecord
100
AcDbLayerTableRecord
  2
HASEN
 70
     0
 62
     2
  6
DASHED
  0
LAYER
  5
101
330
C9
100
AcDbSymbolTableRecord
100
AcDbLayerTableRecord
  2
ITTEN
 70
     0
 62
     1
  6
CENTER
  0
LAYER
  5
102
330
C9
100
AcDbSymbolTableRecord
100
AcDbLayerTableRecord
  2
NITEN
 70
     0
 62
     2
  6
PHANTOM
  0
LAYER
  5
103
330
C9
100
AcDbSymbolTableRecord
100
AcDbLayerTableRecord
  2
HATCH
 70
     0
 62
     4
  6
CONTINUOUS
  0
LAYER
  5
104
330
C9
100
AcDbSymbolTableRecord
100
AcDbLayerTableRecord
  2
SUNPOU
 70
     0
 62
     3
  6
CONTINUOUS
  0
LAYER
  5
105
330
C9
100
AcDbSymbolTableRecord
100
AcDbLayerTableRecord
  2
TEXT
 70
     0
 62
     3
  6
CONTINUOUS
  0
LAYER
  5
106
330
C9
100
AcDbSymbolTableRecord
100
AcDbLayerTableRecord
  2
SAISEN
 70
     0
 62
     4
  6
CONTINUOUS
  0
LAYER
  5
107
330
C9
100
AcDbSymbolTableRecord
100
AcDbLayerTableRecord
  2
JISSEN
 70
     0
 62
     7
  6
CONTINUOUS
  0
LAYER
  5
108
330
C9
100
AcDbSymbolTableRecord
100
AcDbLayerTableRecord
  2
HOJO
 70
     0
 62
     6
  6
CONTINUOUS
  0
LAYER
  5
109
330
C9
100
AcDbSymbolTableRecord
100
AcDbLayerTableRecord
  2
TENSEN
 70
     0
 62
     2
  6
HIDDEN
  0
LAYER
  5
10A
330
C9
100
AcDbSymbolTableRecord
100
AcDbLayerTableRecord
  2
HOJOORG
 70
     0
 62
     1
  6
CONTINUOUS
  0
LAYER
  5
10B
330
C9
100
AcDbSymbolTableRecord
100
AcDbLayerTableRecord
  2
WAKU
 70
     0
 62
     5
  6
CONTINUOUS
  0
LAYER
  5
10C
330
C9
100
AcDbSymbolTableRecord
100
AcDbLayerTableRecord
  2
POINT
 70
     0
 62
     7
  6
CONTINUOUS
  0
LAYER
  5
424
330
C9
100
AcDbSymbolTableRecord
100
AcDbLayerTableRecord
  2
DEFPOINTS
 70
     0
 62
     7
  6
CONTINUOUS
  0
ENDTAB
  0
TABLE
  2
STYLE
  5
CA
330
0
100
AcDbSymbolTable
 70
     2
  0
STYLE
  5
D7
330
CA
100
AcDbSymbolTableRecord
100
AcDbTextStyleTableRecord
  2
STANDARD
 70
     0
 40
0.0
 41
1.0
 50
0.0
 71
     0
 42
0.2
  3
ROMANS
  4
EXTFONT
  0
STYLE
  5
F0
330
CA
100
AcDbSymbolTableRecord
100
AcDbTextStyleTableRecord
  2
K
 70
     0
 40
0.0
 41
1.0
 50
0.0
 71
     0
 42
15.0
  3
ROMANS
  4
EXTFONT
  0
ENDTAB
  0
TABLE
  2
VIEW
  5
CD
330
0
100
AcDbSymbolTable
 70
     0
  0
ENDTAB
  0
TABLE
  2
UCS
  5
CE
330
0
100
AcDbSymbolTable
 70
     0
  0
ENDTAB
  0
TABLE
  2
APPID
  5
D0
330
0
100
AcDbSymbolTable
 70
     1
  0
APPID
  5
D8
330
D0
100
AcDbSymbolTableRecord
100
AcDbRegAppTableRecord
  2
ACAD
 70
     0
  0
ENDTAB
  0
TABLE
  2
DIMSTYLE
  5
D1
330
0
100
AcDbSymbolTable
 70
     2
  0
DIMSTYLE
105
FF
102
{ACAD_REACTORS
330
578
330
585
330
5C7
330
628
330
635
330
644
330
651
330
664
102
}
330
D1
100
AcDbSymbolTableRecord
100
AcDbDimStyleTableRecord
  2
IMAO
 70
     0
  3

  4

  5
ARROW
  6
ARROWANG
  7
ARROWANG
 40
1.0
 41
1.5
 42
1.0
 43
6.0
 44
1.0
 45
0.0
 46
0.0
 47
495.0
 48
0.0
140
3.0
141
0.0
142
0.0
143
25.4
144
1.0
145
0.0
146
1.0
147
0.09
 71
     0
 72
     0
 73
     0
 74
     0
 75
     0
 76
     0
 77
     1
 78
     8
170
     0
171
     2
172
     1
173
     0
174
     1
175
     0
176
     0
177
     0
178
     0
270
     2
271
     2
272
     2
273
     2
274
     2
340
F0
275
     0
280
     0
281
     0
282
     0
283
     1
284
     8
285
     8
286
     8
287
     5
288
     0
  0
DIMSTYLE
105
1FF
330
D1
100
AcDbSymbolTableRecord
100
AcDbDimStyleTableRecord
  2
ITM
 70
     0
  3

  4

  5
ARROWANG
  6
ARROWANG
  7
ARROWANG
 40
1.0
 41
1.5
 42
1.0
 43
6.0
 44
1.0
 45
0.0
 46
0.0
 47
495.0
 48
0.0
140
3.0
141
0.0
142
0.0
143
25.4
144
1.0
145
0.0
146
1.0
147
0.5
 71
     0
 72
     0
 73
     0
 74
     0
 75
     0
 76
     0
 77
     3
 78
     8
170
     0
171
     2
172
     1
173
     1
174
     1
175
     0
176
     0
177
     0
178
     0
270
     2
271
     4
272
     4
273
     2
274
     2
340
F0
275
     0
280
     0
281
     0
282
     0
283
     1
284
     0
285
     0
286
     0
287
     3
288
     0
  0
ENDTAB
  0
TABLE
  2
BLOCK_RECORD
  5
C8
330
0
100
AcDbSymbolTable
 70
    35
  0
BLOCK_RECORD
  5
DF
102
{ACAD_XDICTIONARY
360
69C
102
}
330
C8
100
AcDbSymbolTableRecord
100
AcDbBlockTableRecord
  2
*MODEL_SPACE
  0
BLOCK_RECORD
  5
DC
102
{ACAD_XDICTIONARY
360
69A
102
}
330
C8
100
AcDbSymbolTableRecord
100
AcDbBlockTableRecord
  2
*PAPER_SPACE
  0
BLOCK_RECORD
  5
E3
330
C8
100
AcDbSymbolTableRecord
100
AcDbBlockTableRecord
  2
ARROW
  0
BLOCK_RECORD
  5
E4
330
C8
100
AcDbSymbolTableRecord
100
AcDbBlockTableRecord
  2
HOJO
  0
BLOCK_RECORD
  5
E5
330
C8
100
AcDbSymbolTableRecord
100
AcDbBlockTableRecord
  2
HOJOANG
  0
BLOCK_RECORD
  5
E6
330
C8
100
AcDbSymbolTableRecord
100
AcDbBlockTableRecord
  2
HOJOORG
  0
BLOCK_RECORD
  5
E7
330
C8
100
AcDbSymbolTableRecord
100
AcDbBlockTableRecord
  2
WAKU
  0
BLOCK_RECORD
  5
E8
330
C8
100
AcDbSymbolTableRecord
100
AcDbBlockTableRecord
  2
DOT
  0
BLOCK_RECORD
  5
E9
330
C8
100
AcDbSymbolTableRecord
100
AcDbBlockTableRecord
  2
ARROWANG
  0
BLOCK_RECORD
  5
EA
330
C8
100
AcDbSymbolTableRecord
100
AcDbBlockTableRecord
  2
HOJOC
  0
BLOCK_RECORD
  5
EB
330
C8
100
AcDbSymbolTableRecord
100
AcDbBlockTableRecord
  2
HOJOORGC
  0
BLOCK_RECORD
  5
EC
330
C8
100
AcDbSymbolTableRecord
100
AcDbBlockTableRecord
  2
HOJOCR
  0
BLOCK_RECORD
  5
ED
330
C8
100
AcDbSymbolTableRecord
100
AcDbBlockTableRecord
  2
HOJOORGCR
  0
BLOCK_RECORD
  5
EE
330
C8
100
AcDbSymbolTableRecord
100
AcDbBlockTableRecord
  2
CENLINE
  0
BLOCK_RECORD
  5
EF
330
C8
100
AcDbSymbolTableRecord
100
AcDbBlockTableRecord
  2
CENCRS
  0
BLOCK_RECORD
  5
192
330
C8
100
AcDbSymbolTableRecord
100
AcDbBlockTableRecord
  2
A$C177A3D75
  0
BLOCK_RECORD
  5
1A3
330
C8
100
AcDbSymbolTableRecord
100
AcDbBlockTableRecord
  2
A$C7F7C75AF
  0
BLOCK_RECORD
  5
200
330
C8
100
AcDbSymbolTableRecord
100
AcDbBlockTableRecord
  2
A$C39A14254
  0
BLOCK_RECORD
  5
56C
330
C8
100
AcDbSymbolTableRecord
100
AcDbBlockTableRecord
  2
*D27
  0
BLOCK_RECORD
  5
579
330
C8
100
AcDbSymbolTableRecord
100
AcDbBlockTableRecord
  2
*D28
  0
BLOCK_RECORD
  5
5BB
330
C8
100
AcDbSymbolTableRecord
100
AcDbBlockTableRecord
  2
*D29
  0
BLOCK_RECORD
  5
61C
330
C8
100
AcDbSymbolTableRecord
100
AcDbBlockTableRecord
  2
*D30
  0
BLOCK_RECORD
  5
629
330
C8
100
AcDbSymbolTableRecord
100
AcDbBlockTableRecord
  2
*D31
  0
BLOCK_RECORD
  5
638
330
C8
100
AcDbSymbolTableRecord
100
AcDbBlockTableRecord
  2
*D32
  0
BLOCK_RECORD
  5
645
330
C8
100
AcDbSymbolTableRecord
100
AcDbBlockTableRecord
  2
*D33
  0
BLOCK_RECORD
  5
658
330
C8
100
AcDbSymbolTableRecord
100
AcDbBlockTableRecord
  2
*D34
  0
ENDTAB
  0
ENDSEC
  0
SECTION
  2
BLOCKS
  0
BLOCK
  5
10F
330
DF
100
AcDbEntity
  8
0
100
AcDbBlockBegin
  2
*MODEL_SPACE
 70
     0
 10
0.0
 20
0.0
 30
0.0
  3
*MODEL_SPACE
  1

  0
ENDBLK
  5
110
330
DF
100
AcDbEntity
  8
0
100
AcDbBlockEnd
  0
BLOCK
  5
10D
330
DC
100
AcDbEntity
 67
     1
  8
0
100
AcDbBlockBegin
  2
*PAPER_SPACE
 70
     0
 10
0.0
 20
0.0
 30
0.0
  3
*PAPER_SPACE
  1

  0
ENDBLK
  5
10E
330
DC
100
AcDbEntity
 67
     1
  8
0
100
AcDbBlockEnd
  0
BLOCK
  5
1
330
E3
100
AcDbEntity
  8
0
100
AcDbBlockBegin
  2
ARROW
 70
     0
 10
1.0
 20
0.5
 30
0.0
  3
ARROW
  1

  0
LINE
  5
2
330
E3
100
AcDbEntity
  8
0
100
AcDbLine
 10
1.0
 20
0.5
 30
0.0
 11
-0.5000000000000214
 21
0.0980762113533018
 31
0.0
  0
LINE
  5
3
330
E3
100
AcDbEntity
  8
0
100
AcDbLine
 10
0.0
 20
0.5
 30
0.0
 11
1.0
 21
0.5
 31
0.0
  0
LINE
  5
4
330
E3
100
AcDbEntity
  8
0
100
AcDbLine
 10
1.0
 20
0.5
 30
0.0
 11
-0.4999999999999574
 21
0.9019237886467408
 31
0.0
  0
ENDBLK
  5
5
330
E3
100
AcDbEntity
  8
0
100
AcDbBlockEnd
  0
BLOCK
  5
6
330
E4
100
AcDbEntity
  8
0
100
AcDbBlockBegin
  2
HOJO
 70
     0
 10
0.0
 20
0.0
 30
0.0
  3
HOJO
  1

  0
LINE
  5
7
330
E4
100
AcDbEntity
  8
HOJO
100
AcDbLine
 10
0.0
 20
0.0
 30
0.0
 11
2.0
 21
0.0
 31
0.0
  0
ENDBLK
  5
8
330
E4
100
AcDbEntity
  8
0
100
AcDbBlockEnd
  0
BLOCK
  5
9
330
E5
100
AcDbEntity
  8
0
100
AcDbBlockBegin
  2
HOJOANG
 70
     0
 10
1.0
 20
0.0
 30
0.0
  3
HOJOANG
  1

  0
LINE
  5
A
330
E5
100
AcDbEntity
  8
HOJO
100
AcDbLine
 10
0.0
 20
0.0
 30
0.0
 11
2.0
 21
0.0
 31
0.0
  0
ENDBLK
  5
B
330
E5
100
AcDbEntity
  8
0
100
AcDbBlockEnd
  0
BLOCK
  5
C
330
E6
100
AcDbEntity
  8
0
100
AcDbBlockBegin
  2
HOJOORG
 70
     0
 10
0.0
 20
0.0
 30
0.0
  3
HOJOORG
  1

  0
LINE
  5
D
330
E6
100
AcDbEntity
  8
HOJOORG
100
AcDbLine
 10
-1.0
 20
0.0
 30
0.0
 11
1.0
 21
0.0
 31
0.0
  0
ENDBLK
  5
E
330
E6
100
AcDbEntity
  8
0
100
AcDbBlockEnd
  0
BLOCK
  5
F
330
E7
100
AcDbEntity
  8
0
100
AcDbBlockBegin
  2
WAKU
 70
     0
 10
0.0
 20
0.0
 30
0.0
  3
WAKU
  1

  0
LINE
  5
10
330
E7
100
AcDbEntity
  8
WAKU
100
AcDbLine
 10
0.999999996
 20
0.0
 30
0.0
 11
0.999999996
 21
0.9999999999999998
 31
0.0
  0
LINE
  5
11
330
E7
100
AcDbEntity
  8
WAKU
100
AcDbLine
 10
0.0
 20
0.9999999999999998
 30
0.0
 11
0.999999996
 21
0.9999999999999998
 31
0.0
  0
LINE
  5
12
330
E7
100
AcDbEntity
  8
WAKU
100
AcDbLine
 10
0.999999996
 20
0.0
 30
0.0
 11
0.0
 21
0.0
 31
0.0
  0
LINE
  5
13
330
E7
100
AcDbEntity
  8
WAKU
100
AcDbLine
 10
0.0
 20
0.0
 30
0.0
 11
0.0
 21
0.9999999999999998
 31
0.0
  0
ENDBLK
  5
14
330
E7
100
AcDbEntity
  8
0
100
AcDbBlockEnd
  0
BLOCK
  5
15
330
E8
100
AcDbEntity
  8
0
100
AcDbBlockBegin
  2
DOT
 70
     0
 10
0.0
 20
0.0
 30
0.0
  3
DOT
  1

  0
LWPOLYLINE
  5
16
330
E8
100
AcDbEntity
  8
JISSEN
  6
BYBLOCK
 62
     0
100
AcDbPolyline
 90
        2
 70
     1
 43
0.5
 10
-0.25
 20
0.0
 42
1.0
 10
0.25
 20
0.0
 42
1.0
  0
LINE
  5
1A
330
E8
100
AcDbEntity
  8
JISSEN
  6
BYBLOCK
 62
     0
100
AcDbLine
 10
-0.5
 20
0.0
 30
0.0
 11
-1.0
 21
0.0
 31
0.0
  0
ENDBLK
  5
1B
330
E8
100
AcDbEntity
  8
0
100
AcDbBlockEnd
  0
BLOCK
  5
1D
330
E9
100
AcDbEntity
  8
0
100
AcDbBlockBegin
  2
ARROWANG
 70
     0
 10
0.0
 20
0.0
 30
0.0
  3
ARROWANG
  1

  0
LINE
  5
1E
330
E9
100
AcDbEntity
  8
SUNPOU
100
AcDbLine
 10
0.0
 20
0.0
 30
0.0
 11
-1.499999999999957
 21
0.4019237886467409
 31
0.0
  0
LINE
  5
1F
330
E9
100
AcDbEntity
  8
SUNPOU
100
AcDbLine
 10
0.0
 20
0.0
 30
0.0
 11
-1.500000000000028
 21
-0.4019237886467124
 31
0.0
  0
ENDBLK
  5
20
330
E9
100
AcDbEntity
  8
0
100
AcDbBlockEnd
  0
BLOCK
  5
27
330
EA
100
AcDbEntity
  8
0
100
AcDbBlockBegin
  2
HOJOC
 70
     0
 10
0.0
 20
0.0
 30
0.0
  3
HOJOC
  1

  0
CIRCLE
  5
7D
330
EA
100
AcDbEntity
  8
HOJO
100
AcDbCircle
 10
0.0
 20
0.0
 30
0.0
 40
1.0
  0
ENDBLK
  5
7F
330
EA
100
AcDbEntity
  8
0
100
AcDbBlockEnd
  0
BLOCK
  5
81
330
EB
100
AcDbEntity
  8
0
100
AcDbBlockBegin
  2
HOJOORGC
 70
     0
 10
0.0
 20
0.0
 30
0.0
  3
HOJOORGC
  1

  0
CIRCLE
  5
AA
330
EB
100
AcDbEntity
  8
HOJOORG
100
AcDbCircle
 10
0.0
 20
0.0
 30
0.0
 40
1.0
  0
ENDBLK
  5
AC
330
EB
100
AcDbEntity
  8
0
100
AcDbBlockEnd
  0
BLOCK
  5
B2
330
EC
100
AcDbEntity
  8
0
100
AcDbBlockBegin
  2
HOJOCR
 70
     0
 10
0.0
 20
0.0
 30
0.0
  3
HOJOCR
  1

  0
LINE
  5
B3
330
EC
100
AcDbEntity
  8
HOJO
100
AcDbLine
 10
-1.0
 20
0.0
 30
0.0
 11
1.0
 21
0.0
 31
0.0
  0
LINE
  5
B4
330
EC
100
AcDbEntity
  8
HOJO
100
AcDbLine
 10
0.0
 20
-1.0
 30
0.0
 11
0.0
 21
1.0
 31
0.0
  0
ENDBLK
  5
B5
330
EC
100
AcDbEntity
  8
0
100
AcDbBlockEnd
  0
BLOCK
  5
B8
330
ED
100
AcDbEntity
  8
0
100
AcDbBlockBegin
  2
HOJOORGCR
 70
     0
 10
0.0
 20
0.0
 30
0.0
  3
HOJOORGCR
  1

  0
INSERT
  5
B9
330
ED
100
AcDbEntity
  8
JISSEN
100
AcDbBlockReference
  2
HOJOORG
 10
0.0
 20
0.0
 30
0.0
 50
90.0
  0
INSERT
  5
BA
330
ED
100
AcDbEntity
  8
JISSEN
100
AcDbBlockReference
  2
HOJOORG
 10
0.0
 20
0.0
 30
0.0
  0
ENDBLK
  5
BB
330
ED
100
AcDbEntity
  8
0
100
AcDbBlockEnd
  0
BLOCK
  5
BD
330
EE
100
AcDbEntity
  8
0
100
AcDbBlockBegin
  2
CENLINE
 70
     0
 10
0.0
 20
0.0
 30
0.0
  3
CENLINE
  1

  0
LINE
  5
BE
330
EE
100
AcDbEntity
  8
ITTEN
100
AcDbLine
 10
0.0
 20
0.0
 30
0.0
 11
1.0
 21
0.0
 31
0.0
  0
ENDBLK
  5
BF
330
EE
100
AcDbEntity
  8
0
100
AcDbBlockEnd
  0
BLOCK
  5
C4
330
EF
100
AcDbEntity
  8
0
100
AcDbBlockBegin
  2
CENCRS
 70
     0
 10
0.0
 20
0.0
 30
0.0
  3
CENCRS
  1

  0
LINE
  5
C5
330
EF
100
AcDbEntity
  8
ITTEN
100
AcDbLine
 10
0.0
 20
0.5
 30
0.0
 11
0.0
 21
-0.5
 31
0.0
  0
LINE
  5
C6
330
EF
100
AcDbEntity
  8
ITTEN
100
AcDbLine
 10
-0.5
 20
0.0
 30
0.0
 11
0.5
 21
0.0
 31
0.0
  0
ENDBLK
  5
C7
330
EF
100
AcDbEntity
  8
0
100
AcDbBlockEnd
  0
BLOCK
  5
196
330
192
100
AcDbEntity
  8
0
100
AcDbBlockBegin
  2
A$C177A3D75
 70
     0
 10
0.0
 20
0.0
 30
0.0
  3
A$C177A3D75
  1

  0
ELLIPSE
  5
193
330
192
100
AcDbEntity
  8
JISSEN
100
AcDbEllipse
 10
139.9999985998383
 20
176.9999998089024
 30
0.0
 11
-333.9886521455913
 21
0.0000000000050412
 31
0.0
210
0.0
220
0.0
230
1.0
 40
0.5299581254121253
 41
1.165544440671902
 42
1.976048212917049
  0
ARC
  5
194
330
192
100
AcDbEntity
  8
JISSEN
100
AcDbCircle
 10
259.9999985998408
 20
30.57503618288023
 30
0.0
 40
20.0
100
AcDbArc
 50
305.7151272310024
 51
0.0
  0
ARC
  5
195
330
192
100
AcDbEntity
  8
JISSEN
100
AcDbCircle
 10
19.99999859980846
 20
30.57503618277337
 30
0.0
 40
20.0
100
AcDbArc
 50
180.0000000000509
 51
234.2848727681652
  0
ENDBLK
  5
197
330
192
100
AcDbEntity
  8
0
100
AcDbBlockEnd
  0
BLOCK
  5
1C4
330
1A3
100
AcDbEntity
  8
0
100
AcDbBlockBegin
  2
A$C7F7C75AF
 70
     0
 10
0.0
 20
0.0
 30
0.0
  3
A$C7F7C75AF
  1

  0
ARC
  5
1A4
330
1A3
100
AcDbEntity
  8
0
100
AcDbCircle
 10
134.999998599841
 20
5.000000334143919
 30
0.0
 40
5.0
100
AcDbArc
 50
180.0
 51
269.9999999999997
  0
ARC
  5
1A5
330
1A3
100
AcDbEntity
  8
0
100
AcDbCircle
 10
184.9999985998409
 20
5.000000334143578
 30
0.0
 40
5.0
100
AcDbArc
 50
269.9999999999998
 51
359.9999999999998
  0
ARC
  5
1A6
330
1A3
100
AcDbEntity
  8
JISSEN
100
AcDbCircle
 10
259.9999985997257
 20
354.4249639602728
 30
0.0
 40
20.0
100
AcDbArc
 50
0.0000000000509992
 51
54.28487276816525
  0
ARC
  5
1A7
330
1A3
100
AcDbEntity
  8
JISSEN
100
AcDbCircle
 10
19.99999859969335
 20
354.4249639601659
 30
0.0
 40
20.0
100
AcDbArc
 50
125.7151272310024
 51
180.0
  0
ELLIPSE
  5
1A8
330
1A3
100
AcDbEntity
  8
JISSEN
100
AcDbEllipse
 10
139.9999985996958
 20
208.0000003341438
 30
0.0
 11
333.9886521455913
 21
-0.0000000000050821
 31
0.0
210
0.0
220
0.0
230
1.0
 40
0.5299581254121253
 41
1.165544440671902
 42
1.976048212917049
  0
LINE
  5
1A9
330
1A3
100
AcDbEntity
  8
0
100
AcDbLine
 10
32.65190089376943
 20
40.39174193440146
 30
0.0
 11
29.99999859984098
 21
40.6237533218964
 31
0.0
  0
ELLIPSE
  5
1AA
330
1A3
100
AcDbEntity
  8
JISSEN
100
AcDbEllipse
 10
139.9999985998383
 20
208.0000003341438
 30
0.0
 11
-333.9886521455913
 21
0.0000000000050412
 31
0.0
210
0.0
220
0.0
230
1.0
 40
0.5299581254121253
 41
1.165544440671902
 42
1.976048212917049
  0
ARC
  5
1AB
330
1A3
100
AcDbEntity
  8
JISSEN
100
AcDbCircle
 10
19.99999859984098
 20
354.4249639601659
 30
0.0
 40
20.0
100
AcDbArc
 50
125.7151272309597
 51
180.0
  0
ARC
  5
1AC
330
1A3
100
AcDbEntity
  8
0
100
AcDbCircle
 10
112.9999985998409
 20
30.00000033414357
 30
0.0
 40
5.0
100
AcDbArc
 50
179.9999999999996
 51
270.0000000000001
  0
ARC
  5
1AD
330
1A3
100
AcDbEntity
  8
JISSEN
100
AcDbCircle
 10
19.99999859980846
 20
61.57503670801474
 30
0.0
 40
20.0
100
AcDbArc
 50
180.0000000000509
 51
234.2848727681652
  0
ARC
  5
1AE
330
1A3
100
AcDbEntity
  8
0
100
AcDbCircle
 10
259.9999985998408
 20
45.0000003341438
 30
0.0
 40
20.0
100
AcDbArc
 50
270.0000000000001
 51
359.9999999999999
  0
ARC
  5
1AF
330
1A3
100
AcDbEntity
  8
JISSEN
100
AcDbCircle
 10
259.9999985998408
 20
61.57503670812161
 30
0.0
 40
20.0
100
AcDbArc
 50
305.7151272310024
 51
0.0
  0
LINE
  5
1B0
330
1A3
100
AcDbEntity
  8
0
100
AcDbLine
 10
112.9999985998409
 20
25.00000033414357
 30
0.0
 11
259.9999985998408
 21
25.0000003341438
 31
0.0
  0
LINE
  5
1B1
330
1A3
100
AcDbEntity
  8
ITTEN
100
AcDbLine
 10
207.999998599841
 20
265.000000334144
 30
0.0
 11
207.9999985998409
 21
315.0000003341435
 31
0.0
  0
LINE
  5
1B2
330
1A3
100
AcDbEntity
  8
ITTEN
100
AcDbLine
 10
71.99999859984109
 20
265.0000003341438
 30
0.0
 11
71.99999859984103
 21
315.0000003341435
 31
0.0
  0
LINE
  5
1B3
330
1A3
100
AcDbEntity
  8
0
100
AcDbLine
 10
184.9999985998409
 20
285.0000003341438
 30
0.0
 11
184.9999985998409
 21
290.0000003341438
 31
0.0
  0
LINE
  5
1B4
330
1A3
100
AcDbEntity
  8
0
100
AcDbLine
 10
234.9999985998408
 20
285.0000003341438
 30
0.0
 11
234.9999985998408
 21
290.0000003341438
 31
0.0
  0
LINE
  5
1B5
330
1A3
100
AcDbEntity
  8
0
100
AcDbLine
 10
184.9999985998409
 20
290.0000003341438
 30
0.0
 11
234.9999985998408
 21
290.0000003341438
 31
0.0
  0
LINE
  5
1B6
330
1A3
100
AcDbEntity
  8
0
100
AcDbLine
 10
184.999998599841
 20
290.0000003341435
 30
0.0
 11
234.9999985998409
 21
290.0000003341438
 31
0.0
  0
LINE
  5
1B7
330
1A3
100
AcDbEntity
  8
0
100
AcDbLine
 10
29.99999859984098
 20
285.0000003341435
 30
0.0
 11
279.9999985998409
 21
285.0000003341438
 31
0.0
  0
LINE
  5
1B8
330
1A3
100
AcDbEntity
  8
0
100
AcDbLine
 10
46.99999859984103
 20
290.0000003341438
 30
0.0
 11
96.99999859984092
 21
290.0000003341438
 31
0.0
  0
LINE
  5
1B9
330
1A3
100
AcDbEntity
  8
0
100
AcDbLine
 10
96.99999859984092
 20
285.0000003341438
 30
0.0
 11
96.99999859984092
 21
290.0000003341438
 31
0.0
  0
LINE
  5
1BA
330
1A3
100
AcDbEntity
  8
0
100
AcDbLine
 10
46.99999859984103
 20
285.0000003341438
 30
0.0
 11
46.99999859984103
 21
290.0000003341438
 31
0.0
  0
LINE
  5
1BB
330
1A3
100
AcDbEntity
  8
0
100
AcDbLine
 10
-0.0000014001589648
 20
285.0000003341438
 30
0.0
 11
29.99999859984098
 21
285.0000003341438
 31
0.0
  0
LINE
  5
1BC
330
1A3
100
AcDbEntity
  8
0
100
AcDbLine
 10
29.99999859984098
 20
40.6237533218964
 30
0.0
 11
29.99999859984098
 21
375.1246456209844
 31
0.0
  0
LINE
  5
1BD
330
1A3
100
AcDbEntity
  8
0
100
AcDbLine
 10
249.9999985998408
 20
40.87535504731852
 30
0.0
 11
249.9999985998408
 21
375.1246456209526
 31
0.0
  0
LINE
  5
1BE
330
1A3
100
AcDbEntity
  8
0
100
AcDbLine
 10
107.9999985998409
 20
30.00000033414357
 30
0.0
 11
107.9999985998409
 21
31.8142919166986
 31
0.0
  0
LINE
  5
1BF
330
1A3
100
AcDbEntity
  8
0
100
AcDbLine
 10
-0.0000014001589648
 20
61.57503670801474
 30
0.0
 11
-0.0000014001590216
 21
354.4249639601659
 31
0.0
  0
LINE
  5
1C0
330
1A3
100
AcDbEntity
  8
0
100
AcDbLine
 10
279.9999985998408
 20
45.0000003341438
 30
0.0
 11
279.9999985998408
 21
354.4249639602728
 31
0.0
  0
LINE
  5
1C1
330
1A3
100
AcDbEntity
  8
0
100
AcDbLine
 10
129.999998599841
 20
5.000000334143919
 30
0.0
 11
129.9999985998409
 21
25.00000033414369
 31
0.0
  0
LINE
  5
1C2
330
1A3
100
AcDbEntity
  8
0
100
AcDbLine
 10
189.9999985998409
 20
5.000000334143578
 30
0.0
 11
189.999998599841
 21
25.0000003341438
 31
0.0
  0
LINE
  5
1C3
330
1A3
100
AcDbEntity
  8
0
100
AcDbLine
 10
134.999998599841
 20
0.0000003341439196
 30
0.0
 11
184.9999985998409
 21
0.0000003341435786
 31
0.0
  0
ENDBLK
  5
1C5
330
1A3
100
AcDbEntity
  8
0
100
AcDbBlockEnd
  0
BLOCK
  5
30D
330
200
100
AcDbEntity
  8
0
100
AcDbBlockBegin
  2
A$C39A14254
 70
     0
 10
0.0
 20
0.0
 30
0.0
  3
A$C39A14254
  1

  0
LINE
  5
201
330
200
100
AcDbEntity
  8
WAKU
100
AcDbLine
 10
1930.000001896394
 20
28.9999976748586
 30
0.0
 11
25.00000189639468
 21
28.9999976748586
 31
0.0
  0
LINE
  5
202
330
200
100
AcDbEntity
  8
WAKU
100
AcDbLine
 10
25.00000189639468
 20
1353.999997674858
 30
0.0
 11
1930.000001896394
 21
1353.999997674858
 31
0.0
  0
LINE
  5
203
330
200
100
AcDbEntity
  8
WAKU
100
AcDbLine
 10
25.00000189639468
 20
28.9999976748586
 30
0.0
 11
25.00000189639468
 21
1353.999997674858
 31
0.0
  0
LINE
  5
204
330
200
100
AcDbEntity
  8
SUNPOU
100
AcDbLine
 10
540.0000018963947
 20
58.9999976748586
 30
0.0
 11
75.00000189639468
 21
58.9999976748586
 31
0.0
  0
LINE
  5
205
330
200
100
AcDbEntity
  8
SUNPOU
100
AcDbLine
 10
75.00000189639468
 20
88.9999976748586
 30
0.0
 11
540.0000018963947
 21
88.9999976748586
 31
0.0
  0
LINE
  5
206
330
200
100
AcDbEntity
  8
SUNPOU
100
AcDbLine
 10
540.0000018963947
 20
118.9999976748586
 30
0.0
 11
75.00000189639468
 21
118.9999976748586
 31
0.0
  0
LINE
  5
207
330
200
100
AcDbEntity
  8
SUNPOU
100
AcDbLine
 10
75.00000189639468
 20
58.9999976748586
 30
0.0
 11
540.0000018963947
 21
58.9999976748586
 31
0.0
  0
LINE
  5
208
330
200
100
AcDbEntity
  8
SUNPOU
100
AcDbLine
 10
540.0000018963947
 20
88.9999976748586
 30
0.0
 11
75.00000189639468
 21
88.9999976748586
 31
0.0
  0
LINE
  5
209
330
200
100
AcDbEntity
  8
SUNPOU
100
AcDbLine
 10
75.00000189639468
 20
118.9999976748586
 30
0.0
 11
540.0000018963947
 21
118.9999976748586
 31
0.0
  0
LINE
  5
20A
330
200
100
AcDbEntity
  8
SUNPOU
100
AcDbLine
 10
540.0000018963947
 20
148.9999976748586
 30
0.0
 11
25.00000189639468
 21
148.9999976748586
 31
0.0
  0
LINE
  5
20B
330
200
100
AcDbEntity
  8
SUNPOU
100
AcDbLine
 10
47.50000189639467
 20
148.9999976748586
 30
0.0
 11
25.00000189639468
 21
118.9999976748586
 31
0.0
  0
LINE
  5
20C
330
200
100
AcDbEntity
  8
SUNPOU
100
AcDbLine
 10
47.50000189639467
 20
88.9999976748586
 30
0.0
 11
25.00000189639468
 21
58.9999976748586
 31
0.0
  0
LINE
  5
20D
330
200
100
AcDbEntity
  8
SUNPOU
100
AcDbLine
 10
47.50000189639467
 20
118.9999976748586
 30
0.0
 11
25.00000189639468
 21
88.9999976748586
 31
0.0
  0
LINE
  5
20E
330
200
100
AcDbEntity
  8
SUNPOU
100
AcDbLine
 10
70.00000189639468
 20
118.9999976748586
 30
0.0
 11
25.00000189639468
 21
118.9999976748586
 31
0.0
  0
LINE
  5
20F
330
200
100
AcDbEntity
  8
SUNPOU
100
AcDbLine
 10
25.00000189639468
 20
88.9999976748586
 30
0.0
 11
70.00000189639468
 21
88.9999976748586
 31
0.0
  0
LINE
  5
210
330
200
100
AcDbEntity
  8
SUNPOU
100
AcDbLine
 10
70.00000189639468
 20
58.9999976748586
 30
0.0
 11
25.00000189639468
 21
58.9999976748586
 31
0.0
  0
LINE
  5
211
330
200
100
AcDbEntity
  8
SUNPOU
100
AcDbLine
 10
70.00000189639468
 20
58.9999976748586
 30
0.0
 11
25.00000189639468
 21
58.9999976748586
 31
0.0
  0
LINE
  5
212
330
200
100
AcDbEntity
  8
SUNPOU
100
AcDbLine
 10
70.00000189639468
 20
88.9999976748586
 30
0.0
 11
25.00000189639468
 21
88.9999976748586
 31
0.0
  0
LINE
  5
213
330
200
100
AcDbEntity
  8
SUNPOU
100
AcDbLine
 10
70.00000189639468
 20
118.9999976748586
 30
0.0
 11
25.00000189639468
 21
118.9999976748586
 31
0.0
  0
TEXT
  5
214
330
200
100
AcDbEntity
  8
TEXT
100
AcDbText
 10
31.50000189639468
 20
36.4999976748586
 30
0.0
 40
15.0
  1
記号
  7
K
 72
     4
 11
47.50000189639467
 21
43.9999976748586
 31
0.0
100
AcDbText
  0
LINE
  5
215
330
200
100
AcDbEntity
  8
SUNPOU
100
AcDbLine
 10
75.00000189639468
 20
28.9999976748586
 30
0.0
 11
75.00000189639468
 21
148.9999976748586
 31
0.0
  0
LINE
  5
216
330
200
100
AcDbEntity
  8
SUNPOU
100
AcDbLine
 10
70.00000189639468
 20
148.9999976748586
 30
0.0
 11
70.00000189639468
 21
28.9999976748586
 31
0.0
  0
LINE
  5
217
330
200
100
AcDbEntity
  8
SUNPOU
100
AcDbLine
 10
70.00000189639468
 20
28.9999976748586
 30
0.0
 11
70.00000189639468
 21
148.9999976748586
 31
0.0
  0
LINE
  5
218
330
200
100
AcDbEntity
  8
SUNPOU
100
AcDbLine
 10
75.00000189639468
 20
148.9999976748586
 30
0.0
 11
75.00000189639468
 21
28.9999976748586
 31
0.0
  0
LINE
  5
219
330
200
100
AcDbEntity
  8
SUNPOU
100
AcDbLine
 10
275.0000018963946
 20
148.9999976748586
 30
0.0
 11
275.0000018963946
 21
28.9999976748586
 31
0.0
  0
TEXT
  5
21A
330
200
100
AcDbEntity
  8
TEXT
100
AcDbText
 10
114.5000018963946
 20
36.4999976748586
 30
0.0
 40
15.0
  1
変更内容・理由
  7
K
 72
     4
 11
175.0000018963946
 21
43.9999976748586
 31
0.0
100
AcDbText
  0
TEXT
  5
21B
330
200
100
AcDbEntity
  8
TEXT
100
AcDbText
 10
291.0000018963946
 20
36.4999976748586
 30
0.0
 40
15.0
  1
設変番号
  7
K
 72
     4
 11
325.0000018963946
 21
43.9999976748586
 31
0.0
100
AcDbText
  0
LINE
  5
21C
330
200
100
AcDbEntity
  8
SUNPOU
100
AcDbLine
 10
47.50000189639467
 20
118.9999976748586
 30
0.0
 11
70.00000189639468
 21
88.9999976748586
 31
0.0
  0
LINE
  5
21D
330
200
100
AcDbEntity
  8
SUNPOU
100
AcDbLine
 10
47.50000189639467
 20
88.9999976748586
 30
0.0
 11
70.00000189639468
 21
58.9999976748586
 31
0.0
  0
LINE
  5
21E
330
200
100
AcDbEntity
  8
SUNPOU
100
AcDbLine
 10
70.00000189639468
 20
118.9999976748586
 30
0.0
 11
47.50000189639467
 21
148.9999976748586
 31
0.0
  0
LINE
  5
21F
330
200
100
AcDbEntity
  8
WAKU
100
AcDbLine
 10
25.00000189639468
 20
713.9999976748586
 30
0.0
 11
0.0000018963946786
 21
713.9999976748586
 31
0.0
  0
LINE
  5
220
330
200
100
AcDbEntity
  8
WAKU
100
AcDbLine
 10
540.0000018963947
 20
148.9999976748586
 30
0.0
 11
540.0000018963947
 21
28.9999976748586
 31
0.0
  0
LINE
  5
221
330
200
100
AcDbEntity
  8
SUNPOU
100
AcDbLine
 10
495.0000018963947
 20
28.9999976748586
 30
0.0
 11
495.0000018963947
 21
148.9999976748586
 31
0.0
  0
LINE
  5
222
330
200
100
AcDbEntity
  8
SUNPOU
100
AcDbLine
 10
450.0000018963946
 20
148.9999976748586
 30
0.0
 11
450.0000018963946
 21
28.9999976748586
 31
0.0
  0
LINE
  5
223
330
200
100
AcDbEntity
  8
SUNPOU
100
AcDbLine
 10
375.0000018963946
 20
28.9999976748586
 30
0.0
 11
375.0000018963946
 21
148.9999976748586
 31
0.0
  0
TEXT
  5
224
330
200
100
AcDbEntity
  8
TEXT
100
AcDbText
 10
456.8214304678232
 20
36.4999976748586
 30
0.0
 40
15.0
  1
担当
  7
K
 72
     4
 11
472.5000018963946
 21
43.9999976748586
 31
0.0
100
AcDbText
  0
TEXT
  5
225
330
200
100
AcDbEntity
  8
TEXT
100
AcDbText
 10
370.5000018963946
 20
36.4999976748586
 30
0.0
 40
15.0
  1
 年 月 日
  7
K
 72
     4
 11
412.5000018963946
 21
43.9999976748586
 31
0.0
100
AcDbText
  0
TEXT
  5
226
330
200
100
AcDbEntity
  8
TEXT
100
AcDbText
 10
502.0000018963947
 20
36.4999976748586
 30
0.0
 40
15.0
  1
検図
  7
K
 72
     4
 11
517.5000018963946
 21
43.9999976748586
 31
0.0
100
AcDbText
  0
TEXT
  5
227
330
200
100
AcDbEntity
  8
TEXT
100
AcDbText
 10
45.16172300405654
 20
1386.221367643795
 30
0.0
 40
15.0
  1
5
 50
180.0
  7
K
100
AcDbText
  0
LINE
  5
228
330
200
100
AcDbEntity
  8
WAKU
100
AcDbLine
 10
325.0000018963946
 20
1403.999997674858
 30
0.0
 11
25.00000189639468
 21
1403.999997674858
 31
0.0
  0
LINE
  5
229
330
200
100
AcDbEntity
  8
WAKU
100
AcDbLine
 10
25.00000189639468
 20
1353.999997674858
 30
0.0
 11
25.00000189639468
 21
1403.999997674858
 31
0.0
  0
TEXT
  5
22A
330
200
100
AcDbEntity
  8
TEXT
100
AcDbText
 10
69.16172300405654
 20
1386.221367643795
 30
0.0
 40
15.0
  1
0
 50
180.0
  7
K
100
AcDbText
  0
TEXT
  5
22B
330
200
100
AcDbEntity
  8
TEXT
100
AcDbText
 10
117.1617230040565
 20
1386.221367643795
 30
0.0
 40
15.0
  1
3
 50
180.0
  7
K
100
AcDbText
  0
TEXT
  5
22C
330
200
100
AcDbEntity
  8
TEXT
100
AcDbText
 10
93.16172300405654
 20
1386.221367643795
 30
0.0
 40
15.0
  1
0
 50
180.0
  7
K
100
AcDbText
  0
LINE
  5
22D
330
200
100
AcDbEntity
  8
TENSEN
100
AcDbLine
 10
97.00000189639457
 20
1353.999997674858
 30
0.0
 11
97.00000189639457
 21
1403.999997674858
 31
0.0
  0
LINE
  5
22E
330
200
100
AcDbEntity
  8
TENSEN
100
AcDbLine
 10
73.00000189639479
 20
1403.999997674858
 30
0.0
 11
73.00000189639479
 21
1353.999997674858
 31
0.0
  0
LINE
  5
22F
330
200
100
AcDbEntity
  8
TENSEN
100
AcDbLine
 10
49.00000189639474
 20
1353.999997674858
 30
0.0
 11
49.00000189639474
 21
1403.999997674858
 31
0.0
  0
TEXT
  5
230
330
200
100
AcDbEntity
  8
TEXT
100
AcDbText
 10
141.1617230040565
 20
1386.221367643795
 30
0.0
 40
15.0
  1
0
 50
180.0
  7
K
100
AcDbText
  0
TEXT
  5
231
330
200
100
AcDbEntity
  8
TEXT
100
AcDbText
 10
189.1617230040565
 20
1386.221367643795
 30
0.0
 40
15.0
  1
S
 50
180.0
  7
K
100
AcDbText
  0
TEXT
  5
232
330
200
100
AcDbEntity
  8
TEXT
100
AcDbText
 10
165.1617230040565
 20
1386.221367643795
 30
0.0
 40
15.0
  1
0
 50
180.0
  7
K
100
AcDbText
  0
LINE
  5
233
330
200
100
AcDbEntity
  8
TENSEN
100
AcDbLine
 10
193.0000018963947
 20
1353.999997674858
 30
0.0
 11
193.0000018963947
 21
1403.999997674858
 31
0.0
  0
LINE
  5
234
330
200
100
AcDbEntity
  8
TENSEN
100
AcDbLine
 10
169.0000018963947
 20
1403.999997674858
 30
0.0
 11
169.0000018963947
 21
1353.999997674858
 31
0.0
  0
LINE
  5
235
330
200
100
AcDbEntity
  8
TENSEN
100
AcDbLine
 10
145.0000018963946
 20
1353.999997674858
 30
0.0
 11
145.0000018963946
 21
1403.999997674858
 31
0.0
  0
LINE
  5
236
330
200
100
AcDbEntity
  8
TENSEN
100
AcDbLine
 10
121.0000018963946
 20
1403.999997674858
 30
0.0
 11
121.0000018963946
 21
1353.999997674858
 31
0.0
  0
TEXT
  5
237
330
200
100
AcDbEntity
  8
TEXT
100
AcDbText
 10
310.9214807503282
 20
1386.48252282928
 30
0.0
 40
15.0
  1
図番
 50
180.0
  7
K
 72
     4
 11
294.4214807503282
 21
1378.98252282928
 31
0.0
100
AcDbText
  0
TEXT
  5
238
330
200
100
AcDbEntity
  8
TEXT
100
AcDbText
 10
237.1617230040565
 20
1386.221367643795
 30
0.0
 40
15.0
  1
C
 50
180.0
  7
K
100
AcDbText
  0
TEXT
  5
239
330
200
100
AcDbEntity
  8
TEXT
100
AcDbText
 10
213.1617230040565
 20
1386.221367643795
 30
0.0
 40
15.0
  1
6
 50
180.0
  7
K
100
AcDbText
  0
TEXT
  5
23A
330
200
100
AcDbEntity
  8
TEXT
100
AcDbText
 10
261.1617230040565
 20
1386.221367643795
 30
0.0
 40
15.0
  1
H
 50
180.0
  7
K
100
AcDbText
  0
LINE
  5
23B
330
200
100
AcDbEntity
  8
SUNPOU
100
AcDbLine
 10
265.0000018963946
 20
1353.999997674858
 30
0.0
 11
265.0000018963946
 21
1403.999997674858
 31
0.0
  0
LINE
  5
23C
330
200
100
AcDbEntity
  8
TENSEN
100
AcDbLine
 10
241.0000018963946
 20
1353.999997674858
 30
0.0
 11
241.0000018963946
 21
1403.999997674858
 31
0.0
  0
LINE
  5
23D
330
200
100
AcDbEntity
  8
TENSEN
100
AcDbLine
 10
217.0000018963945
 20
1403.999997674858
 30
0.0
 11
217.0000018963945
 21
1353.999997674858
 31
0.0
  0
LINE
  5
23E
330
200
100
AcDbEntity
  8
WAKU
100
AcDbLine
 10
325.0000018963946
 20
1403.999997674858
 30
0.0
 11
325.0000018963946
 21
1353.999997674858
 31
0.0
  0
TEXT
  5
23F
330
200
100
AcDbEntity
  8
TEXT
100
AcDbText
 10
1352.895797274477
 20
727.1278839891242
 30
0.0
 40
20.0
  1
定格時間：連続
  7
K
100
AcDbText
  0
LINE
  5
240
330
200
100
AcDbEntity
  8
WAKU
100
AcDbLine
 10
1930.000001896394
 20
1353.999997674858
 30
0.0
 11
1930.000001896394
 21
28.9999976748586
 31
0.0
  0
TEXT
  5
241
330
200
100
AcDbEntity
  8
TEXT
100
AcDbText
 10
1352.895797274477
 20
625.1278839891242
 30
0.0
 40
20.0
  1
          1.8Kg/min-60Hz
  7
K
100
AcDbText
  0
LINE
  5
242
330
200
100
AcDbEntity
  8
TEXT
100
AcDbLine
 10
1349.767736460098
 20
618.4844099386441
 30
0.0
 11
1901.449781928805
 21
618.4844099386441
 31
0.0
  0
LINE
  5
243
330
200
100
AcDbEntity
  8
TEXT
100
AcDbLine
 10
1349.767736460098
 20
652.4844099386442
 30
0.0
 11
1901.449781928805
 21
652.4844099386442
 31
0.0
  0
TEXT
  5
244
330
200
100
AcDbEntity
  8
TEXT
100
AcDbText
 10
1352.895797274477
 20
659.1278839891242
 30
0.0
 40
20.0
  1
氷削能力：1.5Kg/min-50Hz  
  7
K
100
AcDbText
  0
LINE
  5
245
330
200
100
AcDbEntity
  8
TEXT
100
AcDbLine
 10
1349.767736460098
 20
686.4844099386441
 30
0.0
 11
1901.449781928805
 21
686.4844099386441
 31
0.0
  0
TEXT
  5
246
330
200
100
AcDbEntity
  8
TEXT
100
AcDbText
 10
1352.895797274477
 20
693.1278839891242
 30
0.0
 40
20.0
  1
氷魂収容能力：約35個（30mm角)
  7
K
100
AcDbText
  0
LINE
  5
247
330
200
100
AcDbEntity
  8
TEXT
100
AcDbLine
 10
1349.767736460098
 20
720.4844099386441
 30
0.0
 11
1901.449781928805
 21
720.4844099386441
 31
0.0
  0
LINE
  5
248
330
200
100
AcDbEntity
  8
TEXT
100
AcDbLine
 10
1508.21252403602
 20
230.4899224868399
 30
0.0
 11
1726.991110920296
 21
230.4899224868399
 31
0.0
  0
TEXT
  5
249
330
200
100
AcDbEntity
  8
TEXT
100
AcDbText
 10
1655.53637926893
 20
168.9999976748586
 30
0.0
 40
15.0
  1
三 角 法
  7
K
100
AcDbText
  0
TEXT
  5
24A
330
200
100
AcDbEntity
  8
TEXT
100
AcDbText
 10
1652.425838013915
 20
48.9999976748586
 30
0.0
 40
10.0
  1
株式会社
  7
K
100
AcDbText
  0
LINE
  5
24B
330
200
100
AcDbEntity
  8
WAKU
100
AcDbLine
 10
1630.000001896394
 20
193.9999976748586
 30
0.0
 11
1930.000001896394
 21
193.9999976748586
 31
0.0
  0
LINE
  5
24C
330
200
100
AcDbEntity
  8
WAKU
100
AcDbLine
 10
1930.000001896394
 20
158.9999976748586
 30
0.0
 11
1630.000001896394
 21
158.9999976748586
 31
0.0
  0
LINE
  5
24D
330
200
100
AcDbEntity
  8
WAKU
100
AcDbLine
 10
1630.000001896394
 20
93.9999976748586
 30
0.0
 11
1930.000001896394
 21
93.9999976748586
 31
0.0
  0
LINE
  5
24E
330
200
100
AcDbEntity
  8
WAKU
100
AcDbLine
 10
1435.000001896394
 20
273.9999976748586
 30
0.0
 11
1755.000001896394
 21
273.9999976748586
 31
0.0
  0
TEXT
  5
24F
330
200
100
AcDbEntity
  8
TEXT
100
AcDbText
 10
1114.383556015447
 20
13.9999976748586
 30
0.0
 40
13.0
  1
複写図面配布先： 購買  →発注先 フード生産技術 フード品質保証 鋳造生産技術 ジョイテック （              ）
  7
K
100
AcDbText
  0
LINE
  5
250
330
200
100
AcDbEntity
  8
SUNPOU
100
AcDbLine
 10
1480.000001896394
 20
273.9999976748586
 30
0.0
 11
1480.000001896394
 21
193.9999976748586
 31
0.0
  0
LINE
  5
251
330
200
100
AcDbEntity
  8
WAKU
100
AcDbLine
 10
1435.000001896394
 20
193.9999976748586
 30
0.0
 11
1435.000001896394
 21
273.9999976748586
 31
0.0
  0
LINE
  5
252
330
200
100
AcDbEntity
  8
SUNPOU
100
AcDbLine
 10
1190.000001896394
 20
273.9999976748586
 30
0.0
 11
1190.000001896394
 21
152.7499976748586
 31
0.0
  0
LINE
  5
253
330
200
100
AcDbEntity
  8
WAKU
100
AcDbLine
 10
1055.000001896394
 20
273.9999976748586
 30
0.0
 11
1055.000001896394
 21
28.9999976748586
 31
0.0
  0
LINE
  5
254
330
200
100
AcDbEntity
  8
SUNPOU
100
AcDbLine
 10
1435.000001896394
 20
182.0277639444165
 30
0.0
 11
1330.000001896394
 21
28.9999976748586
 31
0.0
  0
TEXT
  5
255
330
200
100
AcDbEntity
  8
TEXT
100
AcDbText
 10
1343.000001896394
 20
166.5277639444165
 30
0.0
 40
13.5
  1
J
  7
K
 72
     1
 11
1347.500001896394
 21
173.2777639444165
 31
0.0
100
AcDbText
 73
     2
  0
TEXT
  5
256
330
200
100
AcDbEntity
  8
TEXT
100
AcDbText
 10
1337.500001896394
 20
111.1249902767172
 30
0.0
 40
10.0
  1
0.1
 41
0.8
  7
K
 11
1337.500001896394
 21
116.1249902767172
 31
0.0
100
AcDbText
 73
     2
  0
TEXT
  5
257
330
200
100
AcDbEntity
  8
TEXT
100
AcDbText
 10
1337.500001896394
 20
130.4860997437969
 30
0.0
 40
10.0
  1
0.05
 41
0.8
  7
K
 11
1337.500001896394
 21
135.4860997437969
 31
0.0
100
AcDbText
 73
     2
  0
TEXT
  5
258
330
200
100
AcDbEntity
  8
TEXT
100
AcDbText
 10
1337.500001896394
 20
149.8472092108766
 30
0.0
 40
10.0
  1
0.05
 41
0.8
  7
K
 11
1337.500001896394
 21
154.8472092108766
 31
0.0
100
AcDbText
 73
     2
  0
TEXT
  5
259
330
200
100
AcDbEntity
  8
TEXT
100
AcDbText
 10
1337.500001896394
 20
53.04166187547815
 30
0.0
 40
10.0
  1
0.3
 41
0.8
  7
K
 11
1337.500001896394
 21
58.04166187547815
 31
0.0
100
AcDbText
 73
     2
  0
TEXT
  5
25A
330
200
100
AcDbEntity
  8
TEXT
100
AcDbText
 10
1337.500001896394
 20
72.40277134255785
 30
0.0
 40
10.0
  1
0.2
 41
0.8
  7
K
 11
1337.500001896394
 21
77.40277134255785
 31
0.0
100
AcDbText
 73
     2
  0
TEXT
  5
25B
330
200
100
AcDbEntity
  8
TEXT
100
AcDbText
 10
1337.500001896394
 20
91.76388080963755
 30
0.0
 40
10.0
  1
0.15
 41
0.8
  7
K
 11
1337.500001896394
 21
96.76388080963755
 31
0.0
100
AcDbText
 73
     2
  0
TEXT
  5
25C
330
200
100
AcDbEntity
  8
TEXT
100
AcDbText
 10
1337.500001896394
 20
33.68055240839845
 30
0.0
 40
10.0
  1
0.5
 41
0.8
  7
K
 11
1337.500001896394
 21
38.68055240839845
 31
0.0
100
AcDbText
 73
     2
  0
LINE
  5
25D
330
200
100
AcDbEntity
  8
TEXT
100
AcDbLine
 10
1435.000001896394
 20
48.3611071419383
 30
0.0
 11
1225.000001896394
 21
48.3611071419383
 31
0.0
  0
LINE
  5
25E
330
200
100
AcDbEntity
  8
TEXT
100
AcDbLine
 10
1225.000001896394
 20
67.722216609018
 30
0.0
 11
1435.000001896394
 21
67.722216609018
 31
0.0
  0
LINE
  5
25F
330
200
100
AcDbEntity
  8
TEXT
100
AcDbLine
 10
1435.000001896394
 20
87.0833260760977
 30
0.0
 11
1225.000001896394
 21
87.0833260760977
 31
0.0
  0
LINE
  5
260
330
200
100
AcDbEntity
  8
TEXT
100
AcDbLine
 10
1225.000001896394
 20
106.4444355431774
 30
0.0
 11
1435.000001896394
 21
106.4444355431774
 31
0.0
  0
LINE
  5
261
330
200
100
AcDbEntity
  8
TEXT
100
AcDbLine
 10
1435.000001896394
 20
125.8055450102571
 30
0.0
 11
1225.000001896394
 21
125.8055450102571
 31
0.0
  0
LINE
  5
262
330
200
100
AcDbEntity
  8
TEXT
100
AcDbLine
 10
1225.000001896394
 20
145.1666544773368
 30
0.0
 11
1435.000001896394
 21
145.1666544773368
 31
0.0
  0
LINE
  5
263
330
200
100
AcDbEntity
  8
TEXT
100
AcDbLine
 10
1435.000001896394
 20
212.6851751878971
 30
0.0
 11
1055.000001896394
 21
212.6851751878971
 31
0.0
  0
LINE
  5
264
330
200
100
AcDbEntity
  8
TEXT
100
AcDbLine
 10
1055.000001896394
 20
243.3425864313779
 30
0.0
 11
1435.000001896394
 21
243.3425864313779
 31
0.0
  0
LINE
  5
265
330
200
100
AcDbEntity
  8
TEXT
100
AcDbLine
 10
1225.000001896394
 20
164.5277639444165
 30
0.0
 11
1435.000001896394
 21
164.5277639444165
 31
0.0
  0
LINE
  5
266
330
200
100
AcDbEntity
  8
WAKU
100
AcDbLine
 10
1435.000001896394
 20
182.0277639444165
 30
0.0
 11
1055.000001896394
 21
182.0277639444165
 31
0.0
  0
LINE
  5
267
330
200
100
AcDbEntity
  8
TEXT
100
AcDbLine
 10
1330.000001896394
 20
182.0277639444165
 30
0.0
 11
1330.000001896394
 21
28.9999976748586
 31
0.0
  0
TEXT
  5
268
330
200
100
AcDbEntity
  8
TEXT
100
AcDbText
 10
1228.880324618021
 20
33.68055240839845
 30
0.0
 40
10.0
  1
1000ｦｺｴ
 41
0.8
  7
K
 72
     2
 11
1272.156515094212
 21
38.68055240839845
 31
0.0
100
AcDbText
 73
     2
  0
LINE
  5
269
330
200
100
AcDbEntity
  8
TEXT
100
AcDbLine
 10
1225.000001896394
 20
182.0277639444165
 30
0.0
 11
1225.000001896394
 21
28.9999976748586
 31
0.0
  0
LINE
  5
26A
330
200
100
AcDbEntity
  8
SUNPOU
100
AcDbLine
 10
1190.000001896394
 20
152.7499976748586
 30
0.0
 11
1190.000001896394
 21
28.9999976748586
 31
0.0
  0
TEXT
  5
26B
330
200
100
AcDbEntity
  8
TEXT
100
AcDbText
 10
1277.79362024922
 20
33.68055240839845
 30
0.0
 40
10.0
  1
2000以下
 41
0.8
  7
K
 72
     2
 11
1325.336477392077
 21
38.68055240839845
 31
0.0
100
AcDbText
 73
     2
  0
TEXT
  5
26C
330
200
100
AcDbEntity
  8
TEXT
100
AcDbText
 10
1114.383556015447
 20
-0.0000023251414518
 30
0.0
 40
12.0
  1
（必要に応じて追加・抹消）
  7
K
100
AcDbText
  0
TEXT
  5
26D
330
200
100
AcDbEntity
  8
TEXT
100
AcDbText
 10
1062.500001896394
 20
33.43701394855537
 30
0.0
 40
10.0
  1
～
  7
K
 11
1062.500001896394
 21
38.43701394855537
 31
0.0
100
AcDbText
 73
     2
  0
LINE
  5
26E
330
200
100
AcDbEntity
  8
TEXT
100
AcDbLine
 10
1055.000001896394
 20
123.3701604118257
 30
0.0
 11
1190.000001896394
 21
123.3701604118257
 31
0.0
  0
LINE
  5
26F
330
200
100
AcDbEntity
  8
TEXT
100
AcDbLine
 10
1055.000001896394
 20
152.4148197256132
 30
0.0
 11
1190.000001896394
 21
152.4148197256132
 31
0.0
  0
TEXT
  5
270
330
200
100
AcDbEntity
  8
TEXT
100
AcDbText
 10
1062.500001896394
 20
108.9331441381289
 30
0.0
 40
10.0
  1
▽▽▽▽
  7
K
 11
1062.500001896394
 21
113.9331441381289
 31
0.0
100
AcDbText
 73
     2
  0
TEXT
  5
271
330
200
100
AcDbEntity
  8
TEXT
100
AcDbText
 10
1064.100001896394
 20
131.6315076147707
 30
0.0
 40
15.0
  1
(標準外ﾊ指定ﾉｺﾄ)
 41
0.8
  7
K
 72
     4
 11
1122.500001896394
 21
138.0600790433421
 31
0.0
100
AcDbText
  0
TEXT
  5
272
330
200
100
AcDbEntity
  8
TEXT
100
AcDbText
 10
1062.500001896394
 20
90.05911159073557
 30
0.0
 40
10.0
  1
▽▽▽
  7
K
 11
1062.500001896394
 21
95.05911159073557
 31
0.0
100
AcDbText
 73
     2
  0
TEXT
  5
273
330
200
100
AcDbEntity
  8
TEXT
100
AcDbText
 10
1062.500001896394
 20
52.31104649594877
 30
0.0
 40
10.0
  1
▽
  7
K
 11
1062.500001896394
 21
57.31104649594877
 31
0.0
100
AcDbText
 73
     2
  0
TEXT
  5
274
330
200
100
AcDbEntity
  8
TEXT
100
AcDbText
 10
1062.500001896394
 20
71.18507904334217
 30
0.0
 40
10.0
  1
▽▽
  7
K
 11
1062.500001896394
 21
76.18507904334217
 31
0.0
100
AcDbText
 73
     2
  0
TEXT
  5
275
330
200
100
AcDbEntity
  8
TEXT
100
AcDbText
 10
1164.880954277347
 20
90.05911159073557
 30
0.0
 40
10.0
  1
6Z
  7
K
 72
     2
 11
1182.500001896394
 21
95.05911159073557
 31
0.0
100
AcDbText
 73
     2
  0
TEXT
  5
276
330
200
100
AcDbEntity
  8
TEXT
100
AcDbText
 10
1155.357144753537
 20
52.31104649594877
 30
0.0
 40
10.0
  1
50Z
  7
K
 72
     2
 11
1182.500001896394
 21
57.31104649594877
 31
0.0
100
AcDbText
 73
     2
  0
TEXT
  5
277
330
200
100
AcDbEntity
  8
TEXT
100
AcDbText
 10
1155.357144753537
 20
71.18507904334217
 30
0.0
 40
10.0
  1
18Z
  7
K
 72
     2
 11
1182.500001896394
 21
76.18507904334217
 31
0.0
100
AcDbText
 73
     2
  0
TEXT
  5
278
330
200
100
AcDbEntity
  8
TEXT
100
AcDbText
 10
1150.595239991632
 20
108.9331441381289
 30
0.0
 40
10.0
  1
0.8Z
  7
K
 72
     2
 11
1182.500001896394
 21
113.9331441381289
 31
0.0
100
AcDbText
 73
     2
  0
TEXT
  5
279
330
200
100
AcDbEntity
  8
TEXT
100
AcDbText
 10
1070.32893419954
 20
220.5138808096375
 30
0.0
 40
15.0
  1
色調
  7
K
 11
1070.32893419954
 21
228.0138808096375
 31
0.0
100
AcDbText
 73
     2
  0
TEXT
  5
27A
330
200
100
AcDbEntity
  8
TEXT
100
AcDbText
 10
1062.500001896394
 20
159.7212918350148
 30
0.0
 40
15.0
  1
標準加工アラサ
  7
K
 72
     4
 11
1122.500001896394
 21
167.2212918350148
 31
0.0
100
AcDbText
  0
TEXT
  5
27B
330
200
100
AcDbEntity
  8
TEXT
100
AcDbText
 10
1070.32893419954
 20
189.8564695661567
 30
0.0
 40
15.0
  1
適用規格など
  7
K
 11
1070.32893419954
 21
197.3564695661567
 31
0.0
100
AcDbText
 73
     2
  0
TEXT
  5
27C
330
200
100
AcDbEntity
  8
TEXT
100
AcDbText
 10
1070.32893419954
 20
251.1712920531183
 30
0.0
 40
15.0
  1
表面処理
  7
K
 11
1070.32893419954
 21
258.6712920531183
 31
0.0
100
AcDbText
 73
     2
  0
TEXT
  5
27D
330
200
100
AcDbEntity
  8
TEXT
100
AcDbText
 10
1300.650763106363
 20
149.8472092108766
 30
0.0
 40
10.0
  1
3以下
 41
0.8
  7
K
 72
     2
 11
1325.336477392077
 21
154.8472092108766
 31
0.0
100
AcDbText
 73
     2
  0
TEXT
  5
27E
330
200
100
AcDbEntity
  8
TEXT
100
AcDbText
 10
1236.042229379926
 20
149.8472092108766
 30
0.0
 40
10.0
  1
0.5以上
 41
0.8
  7
K
 72
     2
 11
1272.156515094212
 21
154.8472092108766
 31
0.0
100
AcDbText
 73
     2
  0
TEXT
  5
27F
330
200
100
AcDbEntity
  8
TEXT
100
AcDbText
 10
1251.737467475164
 20
130.4860997437969
 30
0.0
 40
10.0
  1
3ｦｺｴ
 41
0.8
  7
K
 72
     2
 11
1272.156515094212
 21
135.4860997437969
 31
0.0
100
AcDbText
 73
     2
  0
TEXT
  5
280
330
200
100
AcDbEntity
  8
TEXT
100
AcDbText
 10
1251.737467475164
 20
111.1249902767172
 30
0.0
 40
10.0
  1
6ｦｺｴ
 41
0.8
  7
K
 72
     2
 11
1272.156515094212
 21
116.1249902767172
 31
0.0
100
AcDbText
 73
     2
  0
TEXT
  5
281
330
200
100
AcDbEntity
  8
TEXT
100
AcDbText
 10
1236.499372237069
 20
53.04166187547815
 30
0.0
 40
10.0
  1
315ｦｺｴ
 41
0.8
  7
K
 72
     2
 11
1272.156515094212
 21
58.04166187547815
 31
0.0
100
AcDbText
 73
     2
  0
TEXT
  5
282
330
200
100
AcDbEntity
  8
TEXT
100
AcDbText
 10
1244.118419856117
 20
91.76388080963755
 30
0.0
 40
10.0
  1
30ｦｺｴ
 41
0.8
  7
K
 72
     2
 11
1272.156515094212
 21
96.76388080963755
 31
0.0
100
AcDbText
 73
     2
  0
TEXT
  5
283
330
200
100
AcDbEntity
  8
TEXT
100
AcDbText
 10
1236.499372237069
 20
72.40277134255785
 30
0.0
 40
10.0
  1
120ｦｺｴ
 41
0.8
  7
K
 72
     2
 11
1272.156515094212
 21
77.40277134255785
 31
0.0
100
AcDbText
 73
     2
  0
TEXT
  5
284
330
200
100
AcDbEntity
  8
TEXT
100
AcDbText
 10
1201.200001896394
 20
93.54368271510233
 30
0.0
 40
13.5
  1
法
  7
K
 72
     1
 11
1207.500001896394
 21
93.54368271510233
 31
0.0
100
AcDbText
  0
TEXT
  5
285
330
200
100
AcDbEntity
  8
TEXT
100
AcDbText
 10
1196.785716182108
 20
50.21729338591137
 30
0.0
 40
7.5
  1
mm
  7
K
 72
     1
 11
1207.500001896394
 21
50.21729338591137
 31
0.0
100
AcDbText
  0
TEXT
  5
286
330
200
100
AcDbEntity
  8
TEXT
100
AcDbText
 10
1189.761906658299
 20
54.80951800470558
 30
0.0
 40
10.0
  1
(
  7
K
 72
     2
 11
1195.000001896394
 21
59.80951800470558
 31
0.0
100
AcDbText
 73
     2
  0
TEXT
  5
287
330
200
100
AcDbEntity
  8
TEXT
100
AcDbText
 10
1218.117645153882
 20
54.80951800470558
 30
0.0
 40
10.0
  1
)
  7
K
 11
1218.117645153882
 21
59.80951800470558
 31
0.0
100
AcDbText
 73
     2
  0
TEXT
  5
288
330
200
100
AcDbEntity
  8
TEXT
100
AcDbText
 10
1202.833335229728
 20
59.80951800470558
 30
0.0
 40
10.0
  1
±
  7
K
 72
     1
 11
1207.500001896394
 21
59.80951800470558
 31
0.0
100
AcDbText
  0
TEXT
  5
289
330
200
100
AcDbEntity
  8
TEXT
100
AcDbText
 10
1201.200001896394
 20
78.04368271510236
 30
0.0
 40
13.5
  1
差
  7
K
 72
     1
 11
1207.500001896394
 21
78.04368271510236
 31
0.0
100
AcDbText
  0
TEXT
  5
28A
330
200
100
AcDbEntity
  8
TEXT
100
AcDbText
 10
1201.200001896394
 20
124.5436827151024
 30
0.0
 40
13.5
  1
通
  7
K
 72
     1
 11
1207.500001896394
 21
124.5436827151024
 31
0.0
100
AcDbText
  0
TEXT
  5
28B
330
200
100
AcDbEntity
  8
TEXT
100
AcDbText
 10
1201.200001896394
 20
109.0436827151023
 30
0.0
 40
13.5
  1
寸
  7
K
 72
     1
 11
1207.500001896394
 21
109.0436827151023
 31
0.0
100
AcDbText
  0
TEXT
  5
28C
330
200
100
AcDbEntity
  8
TEXT
100
AcDbText
 10
1201.200001896394
 20
140.0436827151023
 30
0.0
 40
13.5
  1
普
  7
K
 72
     1
 11
1207.500001896394
 21
140.0436827151023
 31
0.0
100
AcDbText
  0
TEXT
  5
28D
330
200
100
AcDbEntity
  8
TEXT
100
AcDbText
 10
1285.412667868268
 20
91.76388080963755
 30
0.0
 40
10.0
  1
120以下
 41
0.8
  7
K
 72
     2
 11
1325.336477392077
 21
96.76388080963755
 31
0.0
100
AcDbText
 73
     2
  0
TEXT
  5
28E
330
200
100
AcDbEntity
  8
TEXT
100
AcDbText
 10
1285.412667868268
 20
72.40277134255785
 30
0.0
 40
10.0
  1
315以下
 41
0.8
  7
K
 72
     2
 11
1325.336477392077
 21
77.40277134255785
 31
0.0
100
AcDbText
 73
     2
  0
TEXT
  5
28F
330
200
100
AcDbEntity
  8
TEXT
100
AcDbText
 10
1277.79362024922
 20
53.04166187547815
 30
0.0
 40
10.0
  1
1000以下
 41
0.8
  7
K
 72
     2
 11
1325.336477392077
 21
58.04166187547815
 31
0.0
100
AcDbText
 73
     2
  0
TEXT
  5
290
330
200
100
AcDbEntity
  8
TEXT
100
AcDbText
 10
1300.650763106363
 20
130.4860997437969
 30
0.0
 40
10.0
  1
6以下
 41
0.8
  7
K
 72
     2
 11
1325.336477392077
 21
135.4860997437969
 31
0.0
100
AcDbText
 73
     2
  0
TEXT
  5
291
330
200
100
AcDbEntity
  8
TEXT
100
AcDbText
 10
1293.031715487315
 20
111.1249902767172
 30
0.0
 40
10.0
  1
30以下
 41
0.8
  7
K
 72
     2
 11
1325.336477392077
 21
116.1249902767172
 31
0.0
100
AcDbText
 73
     2
  0
TEXT
  5
292
330
200
100
AcDbEntity
  8
TEXT
100
AcDbText
 10
1234.750001896394
 20
166.5277639444165
 30
0.0
 40
13.5
  1
呼 ビ 寸 法
  7
K
 72
     1
 11
1277.500001896394
 21
173.2777639444165
 31
0.0
100
AcDbText
 73
     2
  0
LINE
  5
293
330
200
100
AcDbEntity
  8
TEXT
100
AcDbLine
 10
1291.160945725173
 20
196.2958737189815
 30
0.0
 11
1337.762805283942
 21
196.2958737189815
 31
0.0
  0
LINE
  5
294
330
200
100
AcDbEntity
  8
TEXT
100
AcDbLine
 10
1292.158464926283
 20
259.0509608699458
 30
0.0
 11
1338.760324485052
 21
259.0509608699458
 31
0.0
  0
LINE
  5
295
330
200
100
AcDbEntity
  8
TEXT
100
AcDbLine
 10
1291.437604786429
 20
226.6840326982373
 30
0.0
 11
1338.039464345199
 21
226.6840326982373
 31
0.0
  0
LINE
  5
296
330
200
100
AcDbEntity
  8
WAKU
100
AcDbLine
 10
1630.000001896394
 20
28.9999976748586
 30
0.0
 11
1630.000001896394
 21
93.9999976748586
 31
0.0
  0
TEXT
  5
297
330
200
100
AcDbEntity
  8
TEXT
100
AcDbText
 10
1407.500001896394
 20
33.68055240839845
 30
0.0
 40
10.0
  1
3
 41
0.8
  7
K
 11
1407.500001896394
 21
38.68055240839845
 31
0.0
100
AcDbText
 73
     2
  0
TEXT
  5
298
330
200
100
AcDbEntity
  8
TEXT
100
AcDbText
 10
1372.500001896394
 20
33.68055240839845
 30
0.0
 40
10.0
  1
1.2
 41
0.8
  7
K
 11
1372.500001896394
 21
38.68055240839845
 31
0.0
100
AcDbText
 73
     2
  0
TEXT
  5
299
330
200
100
AcDbEntity
  8
TEXT
100
AcDbText
 10
1440.000001896394
 20
38.9999976748586
 30
0.0
 40
15.0
  1
承認
  7
K
100
AcDbText
  0
LINE
  5
29A
330
200
100
AcDbEntity
  8
TEXT
100
AcDbLine
 10
1400.000001896394
 20
182.0277639444165
 30
0.0
 11
1400.000001896394
 21
28.9999976748586
 31
0.0
  0
LINE
  5
29B
330
200
100
AcDbEntity
  8
TEXT
100
AcDbLine
 10
1365.000001896394
 20
28.9999976748586
 30
0.0
 11
1365.000001896394
 21
182.0277639444165
 31
0.0
  0
LINE
  5
29C
330
200
100
AcDbEntity
  8
WAKU
100
AcDbLine
 10
1435.000001896394
 20
28.9999976748586
 30
0.0
 11
1435.000001896394
 21
193.9999976748586
 31
0.0
  0
LINE
  5
29D
330
200
100
AcDbEntity
  8
SUNPOU
100
AcDbLine
 10
1550.000001896394
 20
193.9999976748586
 30
0.0
 11
1550.000001896394
 21
28.9999976748586
 31
0.0
  0
LINE
  5
29E
330
200
100
AcDbEntity
  8
SUNPOU
100
AcDbLine
 10
1480.000001896394
 20
193.9999976748586
 30
0.0
 11
1480.000001896394
 21
28.9999976748586
 31
0.0
  0
CIRCLE
  5
29F
330
200
100
AcDbEntity
  8
JISSEN
100
AcDbCircle
 10
1576.666668563061
 20
33.9999976748586
 30
0.0
 40
1.0
  0
CIRCLE
  5
2A0
330
200
100
AcDbEntity
  8
JISSEN
100
AcDbCircle
 10
1603.333335229728
 20
33.9999976748586
 30
0.0
 40
1.0
  0
TEXT
  5
2A1
330
200
100
AcDbEntity
  8
TEXT
100
AcDbText
 10
1508.268950778827
 20
235.4135826712586
 30
0.0
 40
15.0
  1
キューブｱｲｽ ｽﾗｲｻｰ
  7
K
 72
     4
 11
1584.268950778827
 21
243.4135826712586
 31
0.0
100
AcDbText
  0
LINE
  5
2A2
330
200
100
AcDbEntity
  8
SUNPOU
100
AcDbLine
 10
1630.000001896394
 20
152.7499976748586
 30
0.0
 11
1435.000001896394
 21
152.7499976748586
 31
0.0
  0
LINE
  5
2A3
330
200
100
AcDbEntity
  8
SUNPOU
100
AcDbLine
 10
1630.000001896394
 20
70.2499976748586
 30
0.0
 11
1435.000001896394
 21
70.2499976748586
 31
0.0
  0
LINE
  5
2A4
330
200
100
AcDbEntity
  8
SUNPOU
100
AcDbLine
 10
1435.000001896394
 20
111.4999976748586
 30
0.0
 11
1630.000001896394
 21
111.4999976748586
 31
0.0
  0
LINE
  5
2A5
330
200
100
AcDbEntity
  8
WAKU
100
AcDbLine
 10
1435.000001896394
 20
193.9999976748586
 30
0.0
 11
1630.000001896394
 21
193.9999976748586
 31
0.0
  0
TEXT
  5
2A6
330
200
100
AcDbEntity
  8
TEXT
100
AcDbText
 10
1372.500001896394
 20
149.8472092108766
 30
0.0
 40
10.0
  1
0.1
 41
0.8
  7
K
 11
1372.500001896394
 21
154.8472092108766
 31
0.0
100
AcDbText
 73
     2
  0
TEXT
  5
2A7
330
200
100
AcDbEntity
  8
TEXT
100
AcDbText
 10
1407.500001896394
 20
91.76388080963755
 30
0.0
 40
10.0
  1
0.8
 41
0.8
  7
K
 11
1407.500001896394
 21
96.76388080963755
 31
0.0
100
AcDbText
 73
     2
  0
TEXT
  5
2A8
330
200
100
AcDbEntity
  8
TEXT
100
AcDbText
 10
1372.500001896394
 20
91.76388080963755
 30
0.0
 40
10.0
  1
0.3
 41
0.8
  7
K
 11
1372.500001896394
 21
96.76388080963755
 31
0.0
100
AcDbText
 73
     2
  0
TEXT
  5
2A9
330
200
100
AcDbEntity
  8
TEXT
100
AcDbText
 10
1372.500001896394
 20
53.04166187547815
 30
0.0
 40
10.0
  1
0.8
 41
0.8
  7
K
 11
1372.500001896394
 21
58.04166187547815
 31
0.0
100
AcDbText
 73
     2
  0
TEXT
  5
2AA
330
200
100
AcDbEntity
  8
TEXT
100
AcDbText
 10
1372.500001896394
 20
72.40277134255785
 30
0.0
 40
10.0
  1
0.5
 41
0.8
  7
K
 11
1372.500001896394
 21
77.40277134255785
 31
0.0
100
AcDbText
 73
     2
  0
TEXT
  5
2AB
330
200
100
AcDbEntity
  8
TEXT
100
AcDbText
 10
1407.500001896394
 20
53.04166187547815
 30
0.0
 40
10.0
  1
2
 41
0.8
  7
K
 11
1407.500001896394
 21
58.04166187547815
 31
0.0
100
AcDbText
 73
     2
  0
TEXT
  5
2AC
330
200
100
AcDbEntity
  8
TEXT
100
AcDbText
 10
1407.500001896394
 20
72.40277134255785
 30
0.0
 40
10.0
  1
1.2
 41
0.8
  7
K
 11
1407.500001896394
 21
77.40277134255785
 31
0.0
100
AcDbText
 73
     2
  0
TEXT
  5
2AD
330
200
100
AcDbEntity
  8
TEXT
100
AcDbText
 10
1372.500001896394
 20
111.1249902767172
 30
0.0
 40
10.0
  1
0.2
 41
0.8
  7
K
 11
1372.500001896394
 21
116.1249902767172
 31
0.0
100
AcDbText
 73
     2
  0
TEXT
  5
2AE
330
200
100
AcDbEntity
  8
TEXT
100
AcDbText
 10
1372.500001896394
 20
130.4860997437969
 30
0.0
 40
10.0
  1
0.1
 41
0.8
  7
K
 11
1372.500001896394
 21
135.4860997437969
 31
0.0
100
AcDbText
 73
     2
  0
TEXT
  5
2AF
330
200
100
AcDbEntity
  8
TEXT
100
AcDbText
 10
1407.500001896394
 20
111.1249902767172
 30
0.0
 40
10.0
  1
0.5
 41
0.8
  7
K
 11
1407.500001896394
 21
116.1249902767172
 31
0.0
100
AcDbText
 73
     2
  0
TEXT
  5
2B0
330
200
100
AcDbEntity
  8
TEXT
100
AcDbText
 10
1407.500001896394
 20
130.4860997437969
 30
0.0
 40
10.0
  1
0.2
 41
0.8
  7
K
 11
1407.500001896394
 21
135.4860997437969
 31
0.0
100
AcDbText
 73
     2
  0
LINE
  5
2B1
330
200
100
AcDbEntity
  8
TEXT
100
AcDbLine
 10
1407.500001896394
 20
154.8472092108766
 30
0.0
 11
1425.530168193199
 21
154.8472092108766
 31
0.0
  0
TEXT
  5
2B2
330
200
100
AcDbEntity
  8
TEXT
100
AcDbText
 10
1440.000001896394
 20
80.2499976748586
 30
0.0
 40
15.0
  1
検図
  7
K
100
AcDbText
  0
TEXT
  5
2B3
330
200
100
AcDbEntity
  8
TEXT
100
AcDbText
 10
1440.000001896394
 20
121.4999976748586
 30
0.0
 40
15.0
  1
製図
  7
K
100
AcDbText
  0
TEXT
  5
2B4
330
200
100
AcDbEntity
  8
TEXT
100
AcDbText
 10
1375.428573324966
 20
166.5277639444165
 30
0.0
 40
13.5
  1
K
  7
K
 72
     1
 11
1382.500001896394
 21
173.2777639444165
 31
0.0
100
AcDbText
 73
     2
  0
TEXT
  5
2B5
330
200
100
AcDbEntity
  8
TEXT
100
AcDbText
 10
1411.071430467823
 20
166.5277639444165
 30
0.0
 40
13.5
  1
L
  7
K
 72
     1
 11
1417.500001896394
 21
173.2777639444165
 31
0.0
100
AcDbText
 73
     2
  0
TEXT
  5
2B6
330
200
100
AcDbEntity
  8
TEXT
100
AcDbText
 10
1440.000001896394
 20
162.7499976748586
 30
0.0
 40
15.0
  1
設計
  7
K
100
AcDbText
  0
TEXT
  5
2B7
330
200
100
AcDbEntity
  8
TEXT
100
AcDbText
 10
1440.000001896394
 20
223.9999976748586
 30
0.0
 40
15.0
  1
品名
  7
K
100
AcDbText
  0
LINE
  5
2B8
330
200
100
AcDbEntity
  8
WAKU
100
AcDbLine
 10
1630.000001896394
 20
93.9999976748586
 30
0.0
 11
1630.000001896394
 21
158.9999976748586
 31
0.0
  0
CIRCLE
  5
2B9
330
200
100
AcDbEntity
  8
JISSEN
100
AcDbCircle
 10
1576.666668563061
 20
75.2499976748586
 30
0.0
 40
1.0
  0
CIRCLE
  5
2BA
330
200
100
AcDbEntity
  8
JISSEN
100
AcDbCircle
 10
1576.666668563061
 20
116.4999976748586
 30
0.0
 40
1.0
  0
CIRCLE
  5
2BB
330
200
100
AcDbEntity
  8
JISSEN
100
AcDbCircle
 10
1603.333335229728
 20
75.2499976748586
 30
0.0
 40
1.0
  0
CIRCLE
  5
2BC
330
200
100
AcDbEntity
  8
JISSEN
100
AcDbCircle
 10
1603.333335229728
 20
116.4999976748586
 30
0.0
 40
1.0
  0
TEXT
  5
2BD
330
200
100
AcDbEntity
  8
TEXT
100
AcDbText
 10
1643.500001896394
 20
118.9999976748586
 30
0.0
 40
15.0
  1
図番
  7
K
 72
     4
 11
1660.000001896394
 21
126.4999976748585
 31
0.0
100
AcDbText
  0
TEXT
  5
2BE
330
200
100
AcDbEntity
  8
TEXT
100
AcDbText
 10
1532.67985341947
 20
206.5464139305472
 30
0.0
 40
15.0
  1
ＨＣ－６Ｓ外観図
  7
K
 72
     4
 11
1603.17985341947
 21
214.0464139305472
 31
0.0
100
AcDbText
  0
CIRCLE
  5
2BF
330
200
100
AcDbEntity
  8
JISSEN
100
AcDbCircle
 10
1576.666668563061
 20
157.7499976748585
 30
0.0
 40
1.0
  0
LINE
  5
2C0
330
200
100
AcDbEntity
  8
WAKU
100
AcDbLine
 10
1630.000001896394
 20
158.9999976748586
 30
0.0
 11
1630.000001896394
 21
193.9999976748586
 31
0.0
  0
CIRCLE
  5
2C1
330
200
100
AcDbEntity
  8
JISSEN
100
AcDbCircle
 10
1603.333335229728
 20
157.7499976748585
 30
0.0
 40
1.0
  0
LINE
  5
2C2
330
200
100
AcDbEntity
  8
SUNPOU
100
AcDbLine
 10
1810.000001896394
 20
273.9999976748586
 30
0.0
 11
1810.000001896394
 21
193.9999976748586
 31
0.0
  0
LINE
  5
2C3
330
200
100
AcDbEntity
  8
WAKU
100
AcDbLine
 10
1755.000001896394
 20
273.9999976748586
 30
0.0
 11
1755.000001896394
 21
193.9999976748586
 31
0.0
  0
LINE
  5
2C4
330
200
100
AcDbEntity
  8
SUNPOU
100
AcDbLine
 10
1755.000001896394
 20
233.9999976748586
 30
0.0
 11
1930.000001896394
 21
233.9999976748586
 31
0.0
  0
TEXT
  5
2C5
330
200
100
AcDbEntity
  8
TEXT
100
AcDbText
 10
1702.305593398506
 20
48.9999976748586
 30
0.0
 40
17.5
  1
中部コーポレーション
  7
K
100
AcDbText
  0
LINE
  5
2C6
330
200
100
AcDbEntity
  8
TENSEN
100
AcDbLine
 10
1834.000001896394
 20
93.9999976748586
 30
0.0
 11
1834.000001896394
 21
158.9999976748586
 31
0.0
  0
LINE
  5
2C7
330
200
100
AcDbEntity
  8
TENSEN
100
AcDbLine
 10
1810.000001896394
 20
158.9999976748586
 30
0.0
 11
1810.000001896394
 21
93.9999976748586
 31
0.0
  0
LINE
  5
2C8
330
200
100
AcDbEntity
  8
TENSEN
100
AcDbLine
 10
1786.000001896394
 20
93.9999976748586
 30
0.0
 11
1786.000001896394
 21
158.9999976748586
 31
0.0
  0
LINE
  5
2C9
330
200
100
AcDbEntity
  8
TENSEN
100
AcDbLine
 10
1762.000001896394
 20
158.9999976748586
 30
0.0
 11
1762.000001896394
 21
93.9999976748586
 31
0.0
  0
LINE
  5
2CA
330
200
100
AcDbEntity
  8
TENSEN
100
AcDbLine
 10
1738.000001896394
 20
93.9999976748586
 30
0.0
 11
1738.000001896394
 21
158.9999976748586
 31
0.0
  0
LINE
  5
2CB
330
200
100
AcDbEntity
  8
TENSEN
100
AcDbLine
 10
1714.000001896394
 20
158.9999976748586
 30
0.0
 11
1714.000001896394
 21
93.9999976748586
 31
0.0
  0
LINE
  5
2CC
330
200
100
AcDbEntity
  8
SUNPOU
100
AcDbLine
 10
1690.000001896394
 20
158.9999976748586
 30
0.0
 11
1690.000001896394
 21
93.9999976748586
 31
0.0
  0
TEXT
  5
2CD
330
200
100
AcDbEntity
  8
TEXT
100
AcDbText
 10
1695.608976641064
 20
113.1670354097745
 30
0.0
 40
15.0
  1
H
  7
K
100
AcDbText
  0
TEXT
  5
2CE
330
200
100
AcDbEntity
  8
TEXT
100
AcDbText
 10
1743.608976641064
 20
113.1670354097745
 30
0.0
 40
15.0
  1
6
  7
K
100
AcDbText
  0
TEXT
  5
2CF
330
200
100
AcDbEntity
  8
TEXT
100
AcDbText
 10
1719.608976641065
 20
113.1670354097745
 30
0.0
 40
15.0
  1
C
  7
K
100
AcDbText
  0
TEXT
  5
2D0
330
200
100
AcDbEntity
  8
TEXT
100
AcDbText
 10
1791.608976641064
 20
113.1670354097745
 30
0.0
 40
15.0
  1
0
  7
K
100
AcDbText
  0
TEXT
  5
2D1
330
200
100
AcDbEntity
  8
TEXT
100
AcDbText
 10
1767.608976641065
 20
113.1670354097745
 30
0.0
 40
15.0
  1
S
  7
K
100
AcDbText
  0
TEXT
  5
2D2
330
200
100
AcDbEntity
  8
TEXT
100
AcDbText
 10
1815.608976641065
 20
113.1670354097745
 30
0.0
 40
15.0
  1
0
  7
K
100
AcDbText
  0
TEXT
  5
2D3
330
200
100
AcDbEntity
  8
TEXT
100
AcDbText
 10
1750.000001896395
 20
168.9999976748586
 30
0.0
 40
15.0
  1
尺度
  7
K
100
AcDbText
  0
LINE
  5
2D4
330
200
100
AcDbEntity
  8
SUNPOU
100
AcDbLine
 10
1745.000001896394
 20
193.9999976748586
 30
0.0
 11
1745.000001896394
 21
158.9999976748586
 31
0.0
  0
TEXT
  5
2D5
330
200
100
AcDbEntity
  8
TEXT
100
AcDbText
 10
1760.000001896394
 20
203.9999976748585
 30
0.0
 40
15.0
  1
板 厚
  7
K
100
AcDbText
  0
LINE
  5
2D6
330
200
100
AcDbEntity
  8
SUNPOU
100
AcDbLine
 10
1790.000001896394
 20
158.9999976748586
 30
0.0
 11
1790.000001896394
 21
193.9999976748586
 31
0.0
  0
TEXT
  5
2D7
330
200
100
AcDbEntity
  8
TEXT
100
AcDbText
 10
1804.766401483389
 20
169.0976889450066
 30
0.0
 40
10.0
  1
1/5
  7
K
100
AcDbText
  0
TEXT
  5
2D8
330
200
100
AcDbEntity
  8
TEXT
100
AcDbText
 10
1760.000001896394
 20
243.9999976748586
 30
0.0
 40
15.0
  1
材 質
  7
K
100
AcDbText
  0
LINE
  5
2D9
330
200
100
AcDbEntity
  8
TENSEN
100
AcDbLine
 10
1906.000001896394
 20
158.9999976748586
 30
0.0
 11
1906.000001896394
 21
93.9999976748586
 31
0.0
  0
LINE
  5
2DA
330
200
100
AcDbEntity
  8
TENSEN
100
AcDbLine
 10
1882.000001896394
 20
93.9999976748586
 30
0.0
 11
1882.000001896394
 21
158.9999976748586
 31
0.0
  0
LINE
  5
2DB
330
200
100
AcDbEntity
  8
TENSEN
100
AcDbLine
 10
1858.000001896394
 20
158.9999976748586
 30
0.0
 11
1858.000001896394
 21
93.9999976748586
 31
0.0
  0
TEXT
  5
2DC
330
200
100
AcDbEntity
  8
TEXT
100
AcDbText
 10
1911.608976641065
 20
113.1670354097745
 30
0.0
 40
15.0
  1
5
  7
K
100
AcDbText
  0
TEXT
  5
2DD
330
200
100
AcDbEntity
  8
TEXT
100
AcDbText
 10
1839.608976641065
 20
113.1670354097745
 30
0.0
 40
15.0
  1
3
  7
K
100
AcDbText
  0
TEXT
  5
2DE
330
200
100
AcDbEntity
  8
TEXT
100
AcDbText
 10
1863.608976641065
 20
113.1670354097745
 30
0.0
 40
15.0
  1
0
  7
K
100
AcDbText
  0
TEXT
  5
2DF
330
200
100
AcDbEntity
  8
TEXT
100
AcDbText
 10
1887.608976641065
 20
113.1670354097745
 30
0.0
 40
15.0
  1
0
  7
K
100
AcDbText
  0
TEXT
  5
2E0
330
200
100
AcDbEntity
  8
TEXT
100
AcDbText
 10
1845.31655968575
 20
166.0863007374424
 30
0.0
 40
12.5
  1
(単位mm)
  7
K
100
AcDbText
  0
LINE
  5
2E1
330
200
100
AcDbEntity
  8
TEXT
100
AcDbLine
 10
1843.618615654755
 20
211.6374532489908
 30
0.0
 11
1890.220475213524
 21
211.6374532489908
 31
0.0
  0
LINE
  5
2E2
330
200
100
AcDbEntity
  8
TEXT
100
AcDbLine
 10
1843.618615654755
 20
249.4434623896068
 30
0.0
 11
1890.220475213524
 21
249.4434623896068
 31
0.0
  0
TEXT
  5
2E3
330
200
100
AcDbEntity
  8
TEXT
100
AcDbText
 10
1936.73717315052
 20
497.0067084949757
 30
0.0
 40
20.0
  1
ず
  7
K
 72
     1
 11
1946.070506483853
 21
507.0067084949758
 31
0.0
100
AcDbText
 73
     2
  0
TEXT
  5
2E4
330
200
100
AcDbEntity
  8
TEXT
100
AcDbText
 10
1935.666668563061
 20
497.0067084949757
 30
0.0
 40
20.0
  1
ず
  7
K
 72
     1
 11
1945.000001896394
 21
507.0067084949758
 31
0.0
100
AcDbText
 73
     2
  0
LINE
  5
2E5
330
200
100
AcDbEntity
  8
WAKU
100
AcDbLine
 10
1930.000001896394
 20
273.9999976748586
 30
0.0
 11
1755.000001896394
 21
273.9999976748586
 31
0.0
  0
TEXT
  5
2E6
330
200
100
AcDbEntity
  8
TEXT
100
AcDbText
 10
1935.666668563061
 20
372.0067084949757
 30
0.0
 40
20.0
  1
返
  7
K
 72
     1
 11
1945.000001896394
 21
382.0067084949757
 31
0.0
100
AcDbText
 73
     2
  0
TEXT
  5
2E7
330
200
100
AcDbEntity
  8
TEXT
100
AcDbText
 10
1935.173126646932
 20
323.3039445559628
 30
0.0
 40
20.0
  1
の
  7
K
 72
     4
 11
1944.506459980265
 21
333.3039445559628
 31
0.0
100
AcDbText
  0
TEXT
  5
2E8
330
200
100
AcDbEntity
  8
TEXT
100
AcDbText
 10
1935.666668563061
 20
277.0067084949757
 30
0.0
 40
20.0
  1
と
  7
K
 72
     1
 11
1945.000001896394
 21
287.0067084949758
 31
0.0
100
AcDbText
 73
     2
  0
TEXT
  5
2E9
330
200
100
AcDbEntity
  8
TEXT
100
AcDbText
 10
1935.666668563061
 20
302.0067084949757
 30
0.0
 40
20.0
  1
こ
  7
K
 72
     1
 11
1945.000001896394
 21
312.0067084949758
 31
0.0
100
AcDbText
 73
     2
  0
TEXT
  5
2EA
330
200
100
AcDbEntity
  8
TEXT
100
AcDbText
 10
1935.666668563061
 20
347.0067084949757
 30
0.0
 40
20.0
  1
却
  7
K
 72
     1
 11
1945.000001896394
 21
357.0067084949757
 31
0.0
100
AcDbText
 73
     2
  0
TEXT
  5
2EB
330
200
100
AcDbEntity
  8
TEXT
100
AcDbText
 10
1936.333335229727
 20
397.0067084949758
 30
0.0
 40
20.0
  1
へ
  7
K
 72
     1
 11
1945.000001896394
 21
407.0067084949758
 31
0.0
100
AcDbText
 73
     2
  0
TEXT
  5
2EC
330
200
100
AcDbEntity
  8
TEXT
100
AcDbText
 10
1935.666668563061
 20
422.0067084949757
 30
0.0
 40
20.0
  1
元
  7
K
 72
     1
 11
1945.000001896394
 21
432.0067084949758
 31
0.0
100
AcDbText
 73
     2
  0
TEXT
  5
2ED
330
200
100
AcDbEntity
  8
TEXT
100
AcDbText
 10
1935.666668563061
 20
472.0067084949757
 30
0.0
 40
20.0
  1
発
  7
K
 72
     1
 11
1945.000001896394
 21
482.0067084949758
 31
0.0
100
AcDbText
 73
     2
  0
TEXT
  5
2EE
330
200
100
AcDbEntity
  8
TEXT
100
AcDbText
 10
1935.666668563061
 20
447.0067084949757
 30
0.0
 40
20.0
  1
行
  7
K
 72
     1
 11
1945.000001896394
 21
457.0067084949758
 31
0.0
100
AcDbText
 73
     2
  0
TEXT
  5
2EF
330
200
100
AcDbEntity
  8
TEXT
100
AcDbText
 10
1935.666668563061
 20
522.0067084949757
 30
0.0
 40
20.0
  1
必
  7
K
 72
     1
 11
1945.000001896394
 21
532.0067084949758
 31
0.0
100
AcDbText
 73
     2
  0
TEXT
  5
2F0
330
200
100
AcDbEntity
  8
TEXT
100
AcDbText
 10
1949.628479357421
 20
555.0248490686683
 30
0.0
 40
20.0
  1
、
  7
K
 72
     1
 11
1952.295146024087
 21
565.0248490686683
 31
0.0
100
AcDbText
 73
     2
  0
TEXT
  5
2F1
330
200
100
AcDbEntity
  8
TEXT
100
AcDbText
 10
1935.666668563061
 20
572.0067084949757
 30
0.0
 40
20.0
  1
後
  7
K
 72
     1
 11
1945.000001896394
 21
582.0067084949758
 31
0.0
100
AcDbText
 73
     2
  0
TEXT
  5
2F2
330
200
100
AcDbEntity
  8
TEXT
100
AcDbText
 10
1936.333335229727
 20
597.0067084949757
 30
0.0
 40
20.0
  1
み
  7
K
 72
     1
 11
1945.000001896394
 21
607.0067084949758
 31
0.0
100
AcDbText
 73
     2
  0
TEXT
  5
2F3
330
200
100
AcDbEntity
  8
TEXT
100
AcDbText
 10
1935.666668563061
 20
672.0067084949757
 30
0.0
 40
20.0
  1
は
  7
K
 72
     1
 11
1945.000001896394
 21
682.0067084949758
 31
0.0
100
AcDbText
 73
     2
  0
TEXT
  5
2F4
330
200
100
AcDbEntity
  8
TEXT
100
AcDbText
 10
1936.333335229727
 20
647.0067084949757
 30
0.0
 40
20.0
  1
用
  7
K
 72
     1
 11
1945.000001896394
 21
657.0067084949758
 31
0.0
100
AcDbText
 73
     2
  0
TEXT
  5
2F5
330
200
100
AcDbEntity
  8
TEXT
100
AcDbText
 10
1935.666668563061
 20
622.0067084949757
 30
0.0
 40
20.0
  1
済
  7
K
 72
     1
 11
1945.000001896394
 21
632.0067084949758
 31
0.0
100
AcDbText
 73
     2
  0
TEXT
  5
2F6
330
200
100
AcDbEntity
  8
TEXT
100
AcDbText
 10
1935.666668563061
 20
697.0067084949757
 30
0.0
 40
20.0
  1
図
  7
K
 72
     1
 11
1945.000001896394
 21
707.0067084949758
 31
0.0
100
AcDbText
 73
     2
  0
LINE
  5
2F7
330
200
100
AcDbEntity
  8
TEXT
100
AcDbLine
 10
1349.767736460098
 20
754.4844099386441
 30
0.0
 11
1901.449781928805
 21
754.4844099386441
 31
0.0
  0
LINE
  5
2F8
330
200
100
AcDbEntity
  8
TEXT
100
AcDbLine
 10
1349.767736460098
 20
788.4844099386441
 30
0.0
 11
1901.449781928805
 21
788.4844099386441
 31
0.0
  0
LINE
  5
2F9
330
200
100
AcDbEntity
  8
TEXT
100
AcDbLine
 10
1349.767736460098
 20
822.4844099386441
 30
0.0
 11
1901.449781928805
 21
822.4844099386441
 31
0.0
  0
TEXT
  5
2FA
330
200
100
AcDbEntity
  8
TEXT
100
AcDbText
 10
1352.895797274477
 20
829.1278839891242
 30
0.0
 40
20.0
  1
モーター：分相始動形単相誘導電動機 200W 4P
  7
K
100
AcDbText
  0
LINE
  5
2FB
330
200
100
AcDbEntity
  8
TEXT
100
AcDbLine
 10
1349.767736460098
 20
856.4844099386441
 30
0.0
 11
1901.449781928805
 21
856.4844099386441
 31
0.0
  0
TEXT
  5
2FC
330
200
100
AcDbEntity
  8
TEXT
100
AcDbText
 10
1352.895797274477
 20
863.1278839891242
 30
0.0
 40
20.0
  1
定格消費電力：240/200W
  7
K
100
AcDbText
  0
LINE
  5
2FD
330
200
100
AcDbEntity
  8
TEXT
100
AcDbLine
 10
1349.767736460098
 20
890.4844099386441
 30
0.0
 11
1901.449781928805
 21
890.4844099386441
 31
0.0
  0
TEXT
  5
2FE
330
200
100
AcDbEntity
  8
TEXT
100
AcDbText
 10
1352.895797274477
 20
897.1278839891242
 30
0.0
 40
20.0
  1
電  源  ：単相100V  50/60 Hz
  7
K
100
AcDbText
  0
TEXT
  5
2FF
330
200
100
AcDbEntity
  8
TEXT
100
AcDbText
 10
1352.895797274477
 20
999.1278839891242
 30
0.0
 40
20.0
  1
外形寸法：巾290  ×奥行362  ×高さ412
  7
K
100
AcDbText
  0
LINE
  5
300
330
200
100
AcDbEntity
  8
TEXT
100
AcDbLine
 10
1349.767736460098
 20
992.4844099386442
 30
0.0
 11
1901.449781928805
 21
992.4844099386442
 31
0.0
  0
LINE
  5
301
330
200
100
AcDbEntity
  8
TEXT
100
AcDbLine
 10
1349.767736460098
 20
958.4844099386442
 30
0.0
 11
1901.449781928805
 21
958.4844099386442
 31
0.0
  0
LINE
  5
302
330
200
100
AcDbEntity
  8
TEXT
100
AcDbLine
 10
1349.767736460098
 20
924.484409938644
 30
0.0
 11
1901.449781928805
 21
924.484409938644
 31
0.0
  0
TEXT
  5
303
330
200
100
AcDbEntity
  8
TEXT
100
AcDbText
 10
1352.895797274477
 20
965.1278839891242
 30
0.0
 40
20.0
  1
重  量  ：18K
  7
K
100
AcDbText
  0
TEXT
  5
304
330
200
100
AcDbEntity
  8
TEXT
100
AcDbText
 10
1527.824710245386
 20
967.2102397806261
 30
0.0
 40
20.0
  1
g
  7
K
100
AcDbText
  0
TEXT
  5
305
330
200
100
AcDbEntity
  8
TEXT
100
AcDbText
 10
1352.895797274477
 20
761.1278839891242
 30
0.0
 40
20.0
  1
プロテクター：手動復帰式
  7
K
100
AcDbText
  0
TEXT
  5
306
330
200
100
AcDbEntity
  8
TEXT
100
AcDbText
 10
1352.895797274477
 20
795.1278839891243
 30
0.0
 40
20.0
  1
電源スイッチ：トグル式
  7
K
100
AcDbText
  0
TEXT
  5
307
330
200
100
AcDbEntity
  8
TEXT
100
AcDbText
 10
1352.895797274477
 20
931.1278839891242
 30
0.0
 40
20.0
  1
回 転 数：350/420 rpm
  7
K
100
AcDbText
  0
LINE
  5
308
330
200
100
AcDbEntity
  8
TEXT
100
AcDbLine
 10
1349.767736460098
 20
1026.484409938644
 30
0.0
 11
1418.467978139628
 21
1026.484409938644
 31
0.0
  0
TEXT
  5
309
330
200
100
AcDbEntity
  8
TEXT
100
AcDbText
 10
1352.895797274477
 20
1033.127883989124
 30
0.0
 40
20.0
  1
仕 様
  7
K
100
AcDbText
  0
TEXT
  5
30A
330
200
100
AcDbEntity
  8
TEXT
100
AcDbText
 10
1552.615616806542
 20
996.8795914372613
 30
0.0
 40
10.0
  1
mm
  7
K
100
AcDbText
  0
TEXT
  5
30B
330
200
100
AcDbEntity
  8
TEXT
100
AcDbText
 10
1705.282232234479
 20
998.4786572427474
 30
0.0
 40
10.0
  1
mm
  7
K
100
AcDbText
  0
TEXT
  5
30C
330
200
100
AcDbEntity
  8
TEXT
100
AcDbText
 10
1859.389778072674
 20
996.8795914372613
 30
0.0
 40
10.0
  1
mm
  7
K
100
AcDbText
  0
ENDBLK
  5
30E
330
200
100
AcDbEntity
  8
0
100
AcDbBlockEnd
  0
BLOCK
  5
56D
330
56C
100
AcDbEntity
  8
0
100
AcDbBlockBegin
  2
*D27
 70
     1
 10
0.0
 20
0.0
 30
0.0
  3
*D27
  1

  0
LINE
  5
69E
330
56C
100
AcDbEntity
  8
SUNPOU
 62
     0
100
AcDbLine
 10
404.96890862
 20
494.7021732600001
 30
0.0
 11
494.9370885724711
 21
494.7021732600001
 31
0.0
  0
LINE
  5
69F
330
56C
100
AcDbEntity
  8
SUNPOU
 62
     0
100
AcDbLine
 10
399.96890862
 20
355.7021732599999
 30
0.0
 11
494.9370885724711
 21
355.7021732599999
 31
0.0
  0
LINE
  5
6A0
330
56C
100
AcDbEntity
  8
SUNPOU
 62
     0
100
AcDbLine
 10
489.9370885724711
 20
487.2021732600002
 30
0.0
 11
489.9370885724711
 21
363.20217326
 31
0.0
  0
INSERT
  5
6A1
330
56C
100
AcDbEntity
  8
SUNPOU
 62
     0
100
AcDbBlockReference
  2
ARROW
 10
489.9370885724711
 20
494.7021732600001
 30
0.0
 41
7.5
 42
7.5
 43
7.5
 50
90.0
  0
INSERT
  5
6A2
330
56C
100
AcDbEntity
  8
SUNPOU
 62
     0
100
AcDbBlockReference
  2
ARROW
 10
489.9370885724711
 20
355.7021732599999
 30
0.0
 41
7.5
 42
7.5
 43
7.5
 50
270.0
  0
MTEXT
  5
6A3
330
56C
100
AcDbEntity
  8
SUNPOU
 62
     0
100
AcDbMText
 10
481.987088572471
 20
425.2021732600002
 30
0.0
 40
15.0
 41
0.0
 71
     5
 72
     1
  1
\A1;139
 11
0.0000000000000001
 21
1.0
 31
0.0
  0
POINT
  5
6A4
330
56C
100
AcDbEntity
  8
DEFPOINTS
 62
     0
100
AcDbPoint
 10
399.96890862
 20
494.7021732600001
 30
0.0
  0
POINT
  5
6A5
330
56C
100
AcDbEntity
  8
DEFPOINTS
 62
     0
100
AcDbPoint
 10
394.9689086200001
 20
355.7021732599999
 30
0.0
  0
POINT
  5
6A6
330
56C
100
AcDbEntity
  8
DEFPOINTS
 62
     0
100
AcDbPoint
 10
489.9370885724711
 20
355.7021732599999
 30
0.0
  0
ENDBLK
  5
577
330
56C
100
AcDbEntity
  8
0
100
AcDbBlockEnd
  0
BLOCK
  5
57A
330
579
100
AcDbEntity
  8
0
100
AcDbBlockBegin
  2
*D28
 70
     1
 10
0.0
 20
0.0
 30
0.0
  3
*D28
  1

  0
LINE
  5
6A7
330
579
100
AcDbEntity
  8
SUNPOU
 62
     0
100
AcDbLine
 10
423.96890862
 20
338.70217326
 30
0.0
 11
423.96890862
 21
275.0141836219814
 31
0.0
  0
LINE
  5
6A8
330
579
100
AcDbEntity
  8
SUNPOU
 62
     0
100
AcDbLine
 10
213.96890862
 20
338.70217326
 30
0.0
 11
213.96890862
 21
275.0141836219814
 31
0.0
  0
LINE
  5
6A9
330
579
100
AcDbEntity
  8
SUNPOU
 62
     0
100
AcDbLine
 10
416.46890862
 20
280.0141836219813
 30
0.0
 11
221.46890862
 21
280.0141836219813
 31
0.0
  0
INSERT
  5
6AA
330
579
100
AcDbEntity
  8
SUNPOU
 62
     0
100
AcDbBlockReference
  2
ARROW
 10
423.96890862
 20
280.0141836219813
 30
0.0
 41
7.5
 42
7.5
 43
7.5
  0
INSERT
  5
6AB
330
579
100
AcDbEntity
  8
SUNPOU
 62
     0
100
AcDbBlockReference
  2
ARROW
 10
213.96890862
 20
280.0141836219813
 30
0.0
 41
7.5
 42
7.5
 43
7.5
 50
180.0
  0
MTEXT
  5
6AC
330
579
100
AcDbEntity
  8
SUNPOU
 62
     0
100
AcDbMText
 10
318.96890862
 20
287.9641836219813
 30
0.0
 40
15.0
 41
0.0
 71
     5
 72
     1
  1
\A1;210
  0
POINT
  5
6AD
330
579
100
AcDbEntity
  8
DEFPOINTS
 62
     0
100
AcDbPoint
 10
423.96890862
 20
343.7021732599999
 30
0.0
  0
POINT
  5
6AE
330
579
100
AcDbEntity
  8
DEFPOINTS
 62
     0
100
AcDbPoint
 10
213.96890862
 20
343.7021732599999
 30
0.0
  0
POINT
  5
6AF
330
579
100
AcDbEntity
  8
DEFPOINTS
 62
     0
100
AcDbPoint
 10
213.96890862
 20
280.0141836219813
 30
0.0
  0
ENDBLK
  5
584
330
579
100
AcDbEntity
  8
0
100
AcDbBlockEnd
  0
BLOCK
  5
5BC
330
5BB
100
AcDbEntity
  8
0
100
AcDbBlockBegin
  2
*D29
 70
     1
 10
0.0
 20
0.0
 30
0.0
  3
*D29
  1

  0
LINE
  5
6B0
330
5BB
100
AcDbEntity
  8
SUNPOU
 62
     0
100
AcDbLine
 10
423.9689086200001
 20
976.22971583
 30
0.0
 11
423.9689086200001
 21
767.5302312126059
 31
0.0
  0
LINE
  5
6B1
330
5BB
100
AcDbEntity
  8
SUNPOU
 62
     0
100
AcDbLine
 10
213.96890862
 20
976.22971583
 30
0.0
 11
213.96890862
 21
767.5302312126059
 31
0.0
  0
LINE
  5
6B2
330
5BB
100
AcDbEntity
  8
SUNPOU
 62
     0
100
AcDbLine
 10
416.4689086200001
 20
772.5302312126059
 30
0.0
 11
221.4689086199999
 21
772.5302312126059
 31
0.0
  0
INSERT
  5
6B3
330
5BB
100
AcDbEntity
  8
SUNPOU
 62
     0
100
AcDbBlockReference
  2
ARROW
 10
423.9689086200001
 20
772.5302312126059
 30
0.0
 41
7.5
 42
7.5
 43
7.5
  0
INSERT
  5
6B4
330
5BB
100
AcDbEntity
  8
SUNPOU
 62
     0
100
AcDbBlockReference
  2
ARROW
 10
213.96890862
 20
772.5302312126059
 30
0.0
 41
7.5
 42
7.5
 43
7.5
 50
180.0
  0
MTEXT
  5
6B5
330
5BB
100
AcDbEntity
  8
SUNPOU
 62
     0
100
AcDbMText
 10
318.96890862
 20
780.4802312126059
 30
0.0
 40
15.0
 41
0.0
 71
     5
 72
     1
  1
\A1;210
  0
POINT
  5
6B6
330
5BB
100
AcDbEntity
  8
DEFPOINTS
 62
     0
100
AcDbPoint
 10
423.9689086200001
 20
981.2297158299999
 30
0.0
  0
POINT
  5
6B7
330
5BB
100
AcDbEntity
  8
DEFPOINTS
 62
     0
100
AcDbPoint
 10
213.96890862
 20
981.2297158299999
 30
0.0
  0
POINT
  5
6B8
330
5BB
100
AcDbEntity
  8
DEFPOINTS
 62
     0
100
AcDbPoint
 10
213.96890862
 20
772.5302312126059
 30
0.0
  0
ENDBLK
  5
5C6
330
5BB
100
AcDbEntity
  8
0
100
AcDbBlockEnd
  0
BLOCK
  5
61D
330
61C
100
AcDbEntity
  8
0
100
AcDbBlockBegin
  2
*D30
 70
     1
 10
0.0
 20
0.0
 30
0.0
  3
*D30
  1

  0
LINE
  5
6B9
330
61C
100
AcDbEntity
  8
SUNPOU
 62
     0
100
AcDbLine
 10
1031.817330259999
 20
557.70217326
 30
0.0
 11
1031.817330259999
 21
742.756845790268
 31
0.0
  0
LINE
  5
6BA
330
61C
100
AcDbEntity
  8
SUNPOU
 62
     0
100
AcDbLine
 10
753.8173302599998
 20
540.2915574143322
 30
0.0
 11
753.8173302599998
 21
742.756845790268
 31
0.0
  0
LINE
  5
6BB
330
61C
100
AcDbEntity
  8
SUNPOU
 62
     0
100
AcDbLine
 10
1024.317330259999
 20
737.756845790268
 30
0.0
 11
761.3173302599998
 21
737.756845790268
 31
0.0
  0
INSERT
  5
6BC
330
61C
100
AcDbEntity
  8
SUNPOU
 62
     0
100
AcDbBlockReference
  2
ARROW
 10
1031.817330259999
 20
737.756845790268
 30
0.0
 41
7.5
 42
7.5
 43
7.5
  0
INSERT
  5
6BD
330
61C
100
AcDbEntity
  8
SUNPOU
 62
     0
100
AcDbBlockReference
  2
ARROW
 10
753.8173302599998
 20
737.756845790268
 30
0.0
 41
7.5
 42
7.5
 43
7.5
 50
180.0
  0
MTEXT
  5
6BE
330
61C
100
AcDbEntity
  8
SUNPOU
 62
     0
100
AcDbMText
 10
892.8173302599999
 20
745.706845790268
 30
0.0
 40
15.0
 41
0.0
 71
     5
 72
     1
  1
\A1;278
  0
POINT
  5
6BF
330
61C
100
AcDbEntity
  8
DEFPOINTS
 62
     0
100
AcDbPoint
 10
1031.817330259999
 20
552.7021732599999
 30
0.0
  0
POINT
  5
6C0
330
61C
100
AcDbEntity
  8
DEFPOINTS
 62
     0
100
AcDbPoint
 10
753.8173302599998
 20
535.2915574143322
 30
0.0
  0
POINT
  5
6C1
330
61C
100
AcDbEntity
  8
DEFPOINTS
 62
     0
100
AcDbPoint
 10
753.8173302599998
 20
737.756845790268
 30
0.0
  0
ENDBLK
  5
627
330
61C
100
AcDbEntity
  8
0
100
AcDbBlockEnd
  0
BLOCK
  5
62A
330
629
100
AcDbEntity
  8
0
100
AcDbBlockBegin
  2
*D31
 70
     1
 10
0.0
 20
0.0
 30
0.0
  3
*D31
  1

  0
LINE
  5
6C2
330
629
100
AcDbEntity
  8
SUNPOU
 62
     0
100
AcDbLine
 10
899.8173302599999
 20
489.7021732599999
 30
0.0
 11
899.8173302599999
 21
454.2855960048354
 31
0.0
  0
LINE
  5
6C3
330
629
100
AcDbEntity
  8
SUNPOU
 62
     0
100
AcDbLine
 10
773.8173302599998
 20
489.70217326
 30
0.0
 11
773.8173302599998
 21
454.2855960048354
 31
0.0
  0
LINE
  5
6C4
330
629
100
AcDbEntity
  8
SUNPOU
 62
     0
100
AcDbLine
 10
892.31733026
 20
459.2855960048354
 30
0.0
 11
781.3173302599998
 21
459.2855960048354
 31
0.0
  0
INSERT
  5
6C5
330
629
100
AcDbEntity
  8
SUNPOU
 62
     0
100
AcDbBlockReference
  2
ARROW
 10
899.8173302599999
 20
459.2855960048354
 30
0.0
 41
7.5
 42
7.5
 43
7.5
  0
INSERT
  5
6C6
330
629
100
AcDbEntity
  8
SUNPOU
 62
     0
100
AcDbBlockReference
  2
ARROW
 10
773.8173302599998
 20
459.2855960048354
 30
0.0
 41
7.5
 42
7.5
 43
7.5
 50
180.0
  0
MTEXT
  5
6C7
330
629
100
AcDbEntity
  8
SUNPOU
 62
     0
100
AcDbMText
 10
836.8173302599998
 20
467.2355960048355
 30
0.0
 40
15.0
 41
0.0
 71
     5
 72
     1
  1
\A1;126
  0
POINT
  5
6C8
330
629
100
AcDbEntity
  8
DEFPOINTS
 62
     0
100
AcDbPoint
 10
899.8173302599999
 20
494.7021732599999
 30
0.0
  0
POINT
  5
6C9
330
629
100
AcDbEntity
  8
DEFPOINTS
 62
     0
100
AcDbPoint
 10
773.8173302599998
 20
494.70217326
 30
0.0
  0
POINT
  5
6CA
330
629
100
AcDbEntity
  8
DEFPOINTS
 62
     0
100
AcDbPoint
 10
773.8173302599998
 20
459.2855960048354
 30
0.0
  0
ENDBLK
  5
634
330
629
100
AcDbEntity
  8
0
100
AcDbBlockEnd
  0
BLOCK
  5
639
330
638
100
AcDbEntity
  8
0
100
AcDbBlockBegin
  2
*D32
 70
     1
 10
0.0
 20
0.0
 30
0.0
  3
*D32
  1

  0
LINE
  5
6CB
330
638
100
AcDbEntity
  8
SUNPOU
 62
     0
100
AcDbLine
 10
1031.817330259999
 20
335.7021732599998
 30
0.0
 11
1031.817330259999
 21
293.2905047500535
 31
0.0
  0
LINE
  5
6CC
330
638
100
AcDbEntity
  8
SUNPOU
 62
     0
100
AcDbLine
 10
766.8173302599996
 20
338.7021732599999
 30
0.0
 11
766.8173302599996
 21
293.2905047500535
 31
0.0
  0
LINE
  5
6CD
330
638
100
AcDbEntity
  8
SUNPOU
 62
     0
100
AcDbLine
 10
1024.317330259999
 20
298.2905047500535
 30
0.0
 11
774.3173302599997
 21
298.2905047500535
 31
0.0
  0
INSERT
  5
6CE
330
638
100
AcDbEntity
  8
SUNPOU
 62
     0
100
AcDbBlockReference
  2
ARROW
 10
1031.817330259999
 20
298.2905047500535
 30
0.0
 41
7.5
 42
7.5
 43
7.5
  0
INSERT
  5
6CF
330
638
100
AcDbEntity
  8
SUNPOU
 62
     0
100
AcDbBlockReference
  2
ARROW
 10
766.8173302599996
 20
298.2905047500535
 30
0.0
 41
7.5
 42
7.5
 43
7.5
 50
180.0
  0
MTEXT
  5
6D0
330
638
100
AcDbEntity
  8
SUNPOU
 62
     0
100
AcDbMText
 10
899.3173302599998
 20
306.2405047500535
 30
0.0
 40
15.0
 41
0.0
 71
     5
 72
     1
  1
\A1;265
  0
POINT
  5
6D1
330
638
100
AcDbEntity
  8
DEFPOINTS
 62
     0
100
AcDbPoint
 10
1031.817330259999
 20
340.7021732599998
 30
0.0
  0
POINT
  5
6D2
330
638
100
AcDbEntity
  8
DEFPOINTS
 62
     0
100
AcDbPoint
 10
766.8173302599996
 20
343.7021732599999
 30
0.0
  0
POINT
  5
6D3
330
638
100
AcDbEntity
  8
DEFPOINTS
 62
     0
100
AcDbPoint
 10
766.8173302599996
 20
298.2905047500535
 30
0.0
  0
ENDBLK
  5
643
330
638
100
AcDbEntity
  8
0
100
AcDbBlockEnd
  0
BLOCK
  5
646
330
645
100
AcDbEntity
  8
0
100
AcDbBlockBegin
  2
*D33
 70
     1
 10
0.0
 20
0.0
 30
0.0
  3
*D33
  1

  0
LINE
  5
6D4
330
645
100
AcDbEntity
  8
SUNPOU
 62
     0
100
AcDbLine
 10
1031.817330259999
 20
335.7021732599999
 30
0.0
 11
1031.817330259999
 21
257.8595261120708
 31
0.0
  0
LINE
  5
6D5
330
645
100
AcDbEntity
  8
SUNPOU
 62
     0
100
AcDbLine
 10
746.8173302599999
 20
338.7021732599998
 30
0.0
 11
746.8173302599999
 21
257.8595261120708
 31
0.0
  0
LINE
  5
6D6
330
645
100
AcDbEntity
  8
SUNPOU
 62
     0
100
AcDbLine
 10
1024.317330259999
 20
262.8595261120708
 30
0.0
 11
754.3173302599999
 21
262.8595261120708
 31
0.0
  0
INSERT
  5
6D7
330
645
100
AcDbEntity
  8
SUNPOU
 62
     0
100
AcDbBlockReference
  2
ARROW
 10
1031.817330259999
 20
262.8595261120708
 30
0.0
 41
7.5
 42
7.5
 43
7.5
  0
INSERT
  5
6D8
330
645
100
AcDbEntity
  8
SUNPOU
 62
     0
100
AcDbBlockReference
  2
ARROW
 10
746.8173302599999
 20
262.8595261120708
 30
0.0
 41
7.5
 42
7.5
 43
7.5
 50
180.0
  0
MTEXT
  5
6D9
330
645
100
AcDbEntity
  8
SUNPOU
 62
     0
100
AcDbMText
 10
889.3173302599999
 20
270.8095261120708
 30
0.0
 40
15.0
 41
0.0
 71
     5
 72
     1
  1
\A1;285
  0
POINT
  5
6DA
330
645
100
AcDbEntity
  8
DEFPOINTS
 62
     0
100
AcDbPoint
 10
1031.817330259999
 20
340.7021732599999
 30
0.0
  0
POINT
  5
6DB
330
645
100
AcDbEntity
  8
DEFPOINTS
 62
     0
100
AcDbPoint
 10
746.8173302599999
 20
343.7021732599998
 30
0.0
  0
POINT
  5
6DC
330
645
100
AcDbEntity
  8
DEFPOINTS
 62
     0
100
AcDbPoint
 10
746.8173302599999
 20
262.8595261120708
 30
0.0
  0
ENDBLK
  5
650
330
645
100
AcDbEntity
  8
0
100
AcDbBlockEnd
  0
BLOCK
  5
659
330
658
100
AcDbEntity
  8
0
100
AcDbBlockBegin
  2
*D34
 70
     1
 10
0.0
 20
0.0
 30
0.0
  3
*D34
  1

  0
LINE
  5
6DD
330
658
100
AcDbEntity
  8
SUNPOU
 62
     0
100
AcDbLine
 10
1031.817330259999
 20
506.7021732599999
 30
0.0
 11
1031.817330259999
 21
526.1983901305598
 31
0.0
  0
LINE
  5
6DE
330
658
100
AcDbEntity
  8
SUNPOU
 62
     0
100
AcDbLine
 10
981.8173302599999
 20
501.7021732599999
 30
0.0
 11
981.8173302599999
 21
526.1983901305598
 31
0.0
  0
LINE
  5
6DF
330
658
100
AcDbEntity
  8
SUNPOU
 62
     0
100
AcDbLine
 10
1024.317330259999
 20
521.1983901305598
 30
0.0
 11
989.3173302600001
 21
521.1983901305598
 31
0.0
  0
INSERT
  5
6E0
330
658
100
AcDbEntity
  8
SUNPOU
 62
     0
100
AcDbBlockReference
  2
ARROW
 10
1031.817330259999
 20
521.1983901305598
 30
0.0
 41
7.5
 42
7.5
 43
7.5
  0
INSERT
  5
6E1
330
658
100
AcDbEntity
  8
SUNPOU
 62
     0
100
AcDbBlockReference
  2
ARROW
 10
981.8173302599999
 20
521.1983901305598
 30
0.0
 41
7.5
 42
7.5
 43
7.5
 50
180.0
  0
MTEXT
  5
6E2
330
658
100
AcDbEntity
  8
SUNPOU
 62
     0
100
AcDbMText
 10
1006.81733026
 20
529.1483901305598
 30
0.0
 40
15.0
 41
0.0
 71
     5
 72
     1
  1
\A1;50
  0
POINT
  5
6E3
330
658
100
AcDbEntity
  8
DEFPOINTS
 62
     0
100
AcDbPoint
 10
1031.817330259999
 20
501.7021732599999
 30
0.0
  0
POINT
  5
6E4
330
658
100
AcDbEntity
  8
DEFPOINTS
 62
     0
100
AcDbPoint
 10
981.8173302599999
 20
496.70217326
 30
0.0
  0
POINT
  5
6E5
330
658
100
AcDbEntity
  8
DEFPOINTS
 62
     0
100
AcDbPoint
 10
981.8173302599999
 20
521.1983901305598
 30
0.0
  0
ENDBLK
  5
663
330
658
100
AcDbEntity
  8
0
100
AcDbBlockEnd
  0
ENDSEC
  0
SECTION
  2
ENTITIES
  0
LINE
  5
310
330
DF
100
AcDbEntity
  8
WAKU
100
AcDbLine
 10
1905.0
 20
0.0
 30
0.0
 11
0.0
 21
0.0
 31
0.0
  0
LINE
  5
311
330
DF
100
AcDbEntity
  8
WAKU
100
AcDbLine
 10
0.0
 20
1325.0
 30
0.0
 11
1905.0
 21
1325.0
 31
0.0
  0
LINE
  5
312
330
DF
100
AcDbEntity
  8
WAKU
100
AcDbLine
 10
0.0
 20
0.0
 30
0.0
 11
0.0
 21
1325.0
 31
0.0
  0
LINE
  5
313
330
DF
100
AcDbEntity
  8
SUNPOU
100
AcDbLine
 10
515.0
 20
30.0
 30
0.0
 11
50.0
 21
30.0
 31
0.0
  0
LINE
  5
314
330
DF
100
AcDbEntity
  8
SUNPOU
100
AcDbLine
 10
50.0
 20
60.0
 30
0.0
 11
515.0
 21
60.0
 31
0.0
  0
LINE
  5
315
330
DF
100
AcDbEntity
  8
SUNPOU
100
AcDbLine
 10
515.0
 20
90.0
 30
0.0
 11
50.0
 21
90.0
 31
0.0
  0
LINE
  5
316
330
DF
100
AcDbEntity
  8
SUNPOU
100
AcDbLine
 10
50.0
 20
30.0
 30
0.0
 11
515.0
 21
30.0
 31
0.0
  0
LINE
  5
317
330
DF
100
AcDbEntity
  8
SUNPOU
100
AcDbLine
 10
515.0
 20
60.0
 30
0.0
 11
50.0
 21
60.0
 31
0.0
  0
LINE
  5
318
330
DF
100
AcDbEntity
  8
SUNPOU
100
AcDbLine
 10
50.0
 20
90.0
 30
0.0
 11
515.0
 21
90.0
 31
0.0
  0
LINE
  5
319
330
DF
100
AcDbEntity
  8
SUNPOU
100
AcDbLine
 10
515.0
 20
120.0
 30
0.0
 11
0.0
 21
120.0
 31
0.0
  0
LINE
  5
31A
330
DF
100
AcDbEntity
  8
SUNPOU
100
AcDbLine
 10
22.5
 20
120.0
 30
0.0
 11
0.0
 21
90.0
 31
0.0
  0
LINE
  5
31B
330
DF
100
AcDbEntity
  8
SUNPOU
100
AcDbLine
 10
22.5
 20
60.0
 30
0.0
 11
0.0
 21
30.0
 31
0.0
  0
LINE
  5
31C
330
DF
100
AcDbEntity
  8
SUNPOU
100
AcDbLine
 10
22.5
 20
90.0
 30
0.0
 11
0.0
 21
60.0
 31
0.0
  0
LINE
  5
31D
330
DF
100
AcDbEntity
  8
SUNPOU
100
AcDbLine
 10
45.0
 20
90.0
 30
0.0
 11
0.0
 21
90.0
 31
0.0
  0
LINE
  5
31E
330
DF
100
AcDbEntity
  8
SUNPOU
100
AcDbLine
 10
0.0
 20
60.0
 30
0.0
 11
45.0
 21
60.0
 31
0.0
  0
LINE
  5
31F
330
DF
100
AcDbEntity
  8
SUNPOU
100
AcDbLine
 10
45.0
 20
30.0
 30
0.0
 11
0.0
 21
30.0
 31
0.0
  0
LINE
  5
320
330
DF
100
AcDbEntity
  8
SUNPOU
100
AcDbLine
 10
45.0
 20
30.0
 30
0.0
 11
0.0
 21
30.0
 31
0.0
  0
LINE
  5
321
330
DF
100
AcDbEntity
  8
SUNPOU
100
AcDbLine
 10
45.0
 20
60.0
 30
0.0
 11
0.0
 21
60.0
 31
0.0
  0
LINE
  5
322
330
DF
100
AcDbEntity
  8
SUNPOU
100
AcDbLine
 10
45.0
 20
90.0
 30
0.0
 11
0.0
 21
90.0
 31
0.0
  0
TEXT
  5
323
330
DF
100
AcDbEntity
  8
TEXT
100
AcDbText
 10
6.5
 20
7.5
 30
0.0
 40
15.0
  1
記号
  7
K
 72
     4
 11
22.5
 21
15.0
 31
0.0
100
AcDbText
  0
LINE
  5
324
330
DF
100
AcDbEntity
  8
SUNPOU
100
AcDbLine
 10
50.0
 20
0.0
 30
0.0
 11
50.0
 21
120.0
 31
0.0
  0
LINE
  5
325
330
DF
100
AcDbEntity
  8
SUNPOU
100
AcDbLine
 10
45.0
 20
120.0
 30
0.0
 11
45.0
 21
0.0
 31
0.0
  0
LINE
  5
326
330
DF
100
AcDbEntity
  8
SUNPOU
100
AcDbLine
 10
45.0
 20
0.0
 30
0.0
 11
45.0
 21
120.0
 31
0.0
  0
LINE
  5
327
330
DF
100
AcDbEntity
  8
SUNPOU
100
AcDbLine
 10
50.0
 20
120.0
 30
0.0
 11
50.0
 21
0.0
 31
0.0
  0
LINE
  5
328
330
DF
100
AcDbEntity
  8
SUNPOU
100
AcDbLine
 10
250.0
 20
120.0
 30
0.0
 11
250.0
 21
0.0
 31
0.0
  0
TEXT
  5
329
330
DF
100
AcDbEntity
  8
TEXT
100
AcDbText
 10
89.50000000000001
 20
7.499999999999998
 30
0.0
 40
15.0
  1
変更内容・理由
  7
K
 72
     4
 11
150.0
 21
15.0
 31
0.0
100
AcDbText
  0
TEXT
  5
32A
330
DF
100
AcDbEntity
  8
TEXT
100
AcDbText
 10
266.0
 20
7.5
 30
0.0
 40
15.0
  1
設変番号
  7
K
 72
     4
 11
300.0
 21
15.0
 31
0.0
100
AcDbText
  0
LINE
  5
32B
330
DF
100
AcDbEntity
  8
SUNPOU
100
AcDbLine
 10
22.5
 20
90.0
 30
0.0
 11
45.0
 21
60.0
 31
0.0
  0
LINE
  5
32C
330
DF
100
AcDbEntity
  8
SUNPOU
100
AcDbLine
 10
22.5
 20
60.0
 30
0.0
 11
45.0
 21
30.0
 31
0.0
  0
LINE
  5
32D
330
DF
100
AcDbEntity
  8
SUNPOU
100
AcDbLine
 10
45.0
 20
90.0
 30
0.0
 11
22.5
 21
120.0
 31
0.0
  0
LINE
  5
32E
330
DF
100
AcDbEntity
  8
WAKU
100
AcDbLine
 10
0.0
 20
685.0
 30
0.0
 11
-25.0
 21
685.0
 31
0.0
  0
LINE
  5
32F
330
DF
100
AcDbEntity
  8
WAKU
100
AcDbLine
 10
515.0
 20
120.0
 30
0.0
 11
515.0
 21
0.0
 31
0.0
  0
LINE
  5
330
330
DF
100
AcDbEntity
  8
SUNPOU
100
AcDbLine
 10
470.0
 20
0.0
 30
0.0
 11
470.0
 21
120.0
 31
0.0
  0
LINE
  5
331
330
DF
100
AcDbEntity
  8
SUNPOU
100
AcDbLine
 10
425.0
 20
120.0
 30
0.0
 11
425.0
 21
0.0
 31
0.0
  0
LINE
  5
332
330
DF
100
AcDbEntity
  8
SUNPOU
100
AcDbLine
 10
350.0
 20
0.0
 30
0.0
 11
350.0
 21
120.0
 31
0.0
  0
TEXT
  5
333
330
DF
100
AcDbEntity
  8
TEXT
100
AcDbText
 10
431.8214285714285
 20
7.5
 30
0.0
 40
15.0
  1
担当
  7
K
 72
     4
 11
447.5
 21
15.0
 31
0.0
100
AcDbText
  0
TEXT
  5
334
330
DF
100
AcDbEntity
  8
TEXT
100
AcDbText
 10
345.5
 20
7.5
 30
0.0
 40
15.0
  1
 年 月 日
  7
K
 72
     4
 11
387.5
 21
15.0
 31
0.0
100
AcDbText
  0
TEXT
  5
335
330
DF
100
AcDbEntity
  8
TEXT
100
AcDbText
 10
477.0
 20
7.5
 30
0.0
 40
15.0
  1
検図
  7
K
 72
     4
 11
492.4999999999999
 21
15.0
 31
0.0
100
AcDbText
  0
TEXT
  5
336
330
DF
100
AcDbEntity
  8
TEXT
100
AcDbText
 10
20.16172110766186
 20
1357.221369968937
 30
0.0
 40
15.0
  1
5
 50
180.0
  7
K
100
AcDbText
  0
LINE
  5
337
330
DF
100
AcDbEntity
  8
WAKU
100
AcDbLine
 10
300.0
 20
1375.0
 30
0.0
 11
0.0
 21
1375.0
 31
0.0
  0
LINE
  5
338
330
DF
100
AcDbEntity
  8
WAKU
100
AcDbLine
 10
0.0
 20
1325.0
 30
0.0
 11
0.0
 21
1375.0
 31
0.0
  0
TEXT
  5
339
330
DF
100
AcDbEntity
  8
TEXT
100
AcDbText
 10
44.16172110766185
 20
1357.221369968937
 30
0.0
 40
15.0
  1
0
 50
180.0
  7
K
100
AcDbText
  0
TEXT
  5
33A
330
DF
100
AcDbEntity
  8
TEXT
100
AcDbText
 10
92.16172110766185
 20
1357.221369968937
 30
0.0
 40
15.0
  1
3
 50
180.0
  7
K
100
AcDbText
  0
TEXT
  5
33B
330
DF
100
AcDbEntity
  8
TEXT
100
AcDbText
 10
68.16172110766186
 20
1357.221369968937
 30
0.0
 40
15.0
  1
0
 50
180.0
  7
K
100
AcDbText
  0
LINE
  5
33C
330
DF
100
AcDbEntity
  8
TENSEN
100
AcDbLine
 10
71.99999999999988
 20
1325.0
 30
0.0
 11
71.99999999999988
 21
1375.0
 31
0.0
  0
LINE
  5
33D
330
DF
100
AcDbEntity
  8
TENSEN
100
AcDbLine
 10
48.00000000000011
 20
1375.0
 30
0.0
 11
48.00000000000011
 21
1325.0
 31
0.0
  0
LINE
  5
33E
330
DF
100
AcDbEntity
  8
TENSEN
100
AcDbLine
 10
24.00000000000005
 20
1325.0
 30
0.0
 11
24.00000000000005
 21
1375.0
 31
0.0
  0
TEXT
  5
33F
330
DF
100
AcDbEntity
  8
TEXT
100
AcDbText
 10
116.1617211076618
 20
1357.221369968937
 30
0.0
 40
15.0
  1
0
 50
180.0
  7
K
100
AcDbText
  0
TEXT
  5
340
330
DF
100
AcDbEntity
  8
TEXT
100
AcDbText
 10
164.1617211076618
 20
1357.221369968937
 30
0.0
 40
15.0
  1
S
 50
180.0
  7
K
100
AcDbText
  0
TEXT
  5
341
330
DF
100
AcDbEntity
  8
TEXT
100
AcDbText
 10
140.1617211076618
 20
1357.221369968937
 30
0.0
 40
15.0
  1
0
 50
180.0
  7
K
100
AcDbText
  0
LINE
  5
342
330
DF
100
AcDbEntity
  8
TENSEN
100
AcDbLine
 10
168.0000000000001
 20
1325.0
 30
0.0
 11
168.0000000000001
 21
1375.0
 31
0.0
  0
LINE
  5
343
330
DF
100
AcDbEntity
  8
TENSEN
100
AcDbLine
 10
144.0
 20
1375.0
 30
0.0
 11
144.0
 21
1325.0
 31
0.0
  0
LINE
  5
344
330
DF
100
AcDbEntity
  8
TENSEN
100
AcDbLine
 10
120.0
 20
1325.0
 30
0.0
 11
120.0
 21
1375.0
 31
0.0
  0
LINE
  5
345
330
DF
100
AcDbEntity
  8
TENSEN
100
AcDbLine
 10
95.99999999999994
 20
1375.0
 30
0.0
 11
95.99999999999994
 21
1325.0
 31
0.0
  0
TEXT
  5
346
330
DF
100
AcDbEntity
  8
TEXT
100
AcDbText
 10
285.9214788539335
 20
1357.482525154421
 30
0.0
 40
15.0
  1
図番
 50
180.0
  7
K
 72
     4
 11
269.4214788539335
 21
1349.982525154421
 31
0.0
100
AcDbText
  0
TEXT
  5
347
330
DF
100
AcDbEntity
  8
TEXT
100
AcDbText
 10
212.1617211076618
 20
1357.221369968937
 30
0.0
 40
15.0
  1
C
 50
180.0
  7
K
100
AcDbText
  0
TEXT
  5
348
330
DF
100
AcDbEntity
  8
TEXT
100
AcDbText
 10
188.1617211076618
 20
1357.221369968937
 30
0.0
 40
15.0
  1
6
 50
180.0
  7
K
100
AcDbText
  0
TEXT
  5
349
330
DF
100
AcDbEntity
  8
TEXT
100
AcDbText
 10
236.1617211076618
 20
1357.221369968937
 30
0.0
 40
15.0
  1
H
 50
180.0
  7
K
100
AcDbText
  0
LINE
  5
34A
330
DF
100
AcDbEntity
  8
SUNPOU
100
AcDbLine
 10
240.0
 20
1325.0
 30
0.0
 11
240.0
 21
1375.0
 31
0.0
  0
LINE
  5
34B
330
DF
100
AcDbEntity
  8
TENSEN
100
AcDbLine
 10
215.9999999999999
 20
1325.0
 30
0.0
 11
215.9999999999999
 21
1375.0
 31
0.0
  0
LINE
  5
34C
330
DF
100
AcDbEntity
  8
TENSEN
100
AcDbLine
 10
191.9999999999998
 20
1375.0
 30
0.0
 11
191.9999999999998
 21
1325.0
 31
0.0
  0
LINE
  5
34D
330
DF
100
AcDbEntity
  8
WAKU
100
AcDbLine
 10
300.0
 20
1375.0
 30
0.0
 11
300.0
 21
1325.0
 31
0.0
  0
TEXT
  5
34E
330
DF
100
AcDbEntity
  8
TEXT
100
AcDbText
 10
1327.895795378082
 20
698.1278863142656
 30
0.0
 40
20.0
  1
定格時間：10分
  7
K
100
AcDbText
  0
LINE
  5
34F
330
DF
100
AcDbEntity
  8
WAKU
100
AcDbLine
 10
1905.0
 20
1325.0
 30
0.0
 11
1905.0
 21
0.0
 31
0.0
  0
LINE
  5
352
330
DF
100
AcDbEntity
  8
TEXT
100
AcDbLine
 10
1324.767734563704
 20
623.4844122637855
 30
0.0
 11
1876.44978003241
 21
623.4844122637855
 31
0.0
  0
TEXT
  5
353
330
DF
100
AcDbEntity
  8
TEXT
100
AcDbText
 10
1327.895795378082
 20
630.1278863142656
 30
0.0
 40
20.0
  1
氷削能力：0.8～1.5kg/min
  7
K
100
AcDbText
  0
LINE
  5
354
330
DF
100
AcDbEntity
  8
TEXT
100
AcDbLine
 10
1324.767734563704
 20
657.4844122637856
 30
0.0
 11
1876.44978003241
 21
657.4844122637856
 31
0.0
  0
LINE
  5
356
330
DF
100
AcDbEntity
  8
TEXT
100
AcDbLine
 10
1324.767734563704
 20
691.4844122637855
 30
0.0
 11
1876.44978003241
 21
691.4844122637855
 31
0.0
  0
LINE
  5
357
330
DF
100
AcDbEntity
  8
TEXT
100
AcDbLine
 10
1483.212522139625
 20
201.4899248119813
 30
0.0
 11
1701.991109023901
 21
201.4899248119813
 31
0.0
  0
TEXT
  5
358
330
DF
100
AcDbEntity
  8
TEXT
100
AcDbText
 10
1630.536377372535
 20
140.0
 30
0.0
 40
15.0
  1
三 角 法
  7
K
100
AcDbText
  0
TEXT
  5
359
330
DF
100
AcDbEntity
  8
TEXT
100
AcDbText
 10
1627.42583611752
 20
20.0
 30
0.0
 40
10.0
  1
株式会社
  7
K
100
AcDbText
  0
LINE
  5
35A
330
DF
100
AcDbEntity
  8
WAKU
100
AcDbLine
 10
1605.0
 20
165.0
 30
0.0
 11
1905.0
 21
165.0
 31
0.0
  0
LINE
  5
35B
330
DF
100
AcDbEntity
  8
WAKU
100
AcDbLine
 10
1905.0
 20
130.0
 30
0.0
 11
1605.0
 21
130.0
 31
0.0
  0
LINE
  5
35C
330
DF
100
AcDbEntity
  8
WAKU
100
AcDbLine
 10
1605.0
 20
65.0
 30
0.0
 11
1905.0
 21
65.0
 31
0.0
  0
LINE
  5
35D
330
DF
100
AcDbEntity
  8
WAKU
100
AcDbLine
 10
1030.0
 20
245.0
 30
0.0
 11
1730.0
 21
245.0
 31
0.0
  0
TEXT
  5
35E
330
DF
100
AcDbEntity
  8
TEXT
100
AcDbText
 10
1089.383554119052
 20
-15.0
 30
0.0
 40
13.0
  1
複写図面配布先： 購買  →発注先 フード生産技術 フード品質保証 鋳造生産技術 ジョイテック （              ）
  7
K
100
AcDbText
  0
LINE
  5
35F
330
DF
100
AcDbEntity
  8
SUNPOU
100
AcDbLine
 10
1455.0
 20
245.0
 30
0.0
 11
1455.0
 21
165.0
 31
0.0
  0
LINE
  5
360
330
DF
100
AcDbEntity
  8
WAKU
100
AcDbLine
 10
1410.0
 20
165.0
 30
0.0
 11
1410.0
 21
245.0
 31
0.0
  0
LINE
  5
361
330
DF
100
AcDbEntity
  8
SUNPOU
100
AcDbLine
 10
1165.0
 20
245.0
 30
0.0
 11
1165.0
 21
123.75
 31
0.0
  0
LINE
  5
362
330
DF
100
AcDbEntity
  8
WAKU
100
AcDbLine
 10
1030.0
 20
245.0
 30
0.0
 11
1030.0
 21
0.0
 31
0.0
  0
LINE
  5
363
330
DF
100
AcDbEntity
  8
SUNPOU
100
AcDbLine
 10
1410.0
 20
153.0277662695579
 30
0.0
 11
1305.0
 21
0.0
 31
0.0
  0
TEXT
  5
364
330
DF
100
AcDbEntity
  8
TEXT
100
AcDbText
 10
1318.0
 20
137.5277662695578
 30
0.0
 40
13.5
  1
J
  7
K
 72
     1
 11
1322.5
 21
144.2777662695579
 31
0.0
100
AcDbText
 73
     2
  0
TEXT
  5
365
330
DF
100
AcDbEntity
  8
TEXT
100
AcDbText
 10
1312.5
 20
82.12499260185865
 30
0.0
 40
10.0
  1
0.1
 41
0.8
  7
K
 11
1312.5
 21
87.12499260185865
 31
0.0
100
AcDbText
 73
     2
  0
TEXT
  5
366
330
DF
100
AcDbEntity
  8
TEXT
100
AcDbText
 10
1312.5
 20
101.4861020689383
 30
0.0
 40
10.0
  1
0.05
 41
0.8
  7
K
 11
1312.5
 21
106.4861020689383
 31
0.0
100
AcDbText
 73
     2
  0
TEXT
  5
367
330
DF
100
AcDbEntity
  8
TEXT
100
AcDbText
 10
1312.5
 20
120.847211536018
 30
0.0
 40
10.0
  1
0.05
 41
0.8
  7
K
 11
1312.5
 21
125.847211536018
 31
0.0
100
AcDbText
 73
     2
  0
TEXT
  5
368
330
DF
100
AcDbEntity
  8
TEXT
100
AcDbText
 10
1312.5
 20
24.04166420061955
 30
0.0
 40
10.0
  1
0.3
 41
0.8
  7
K
 11
1312.5
 21
29.04166420061955
 31
0.0
100
AcDbText
 73
     2
  0
TEXT
  5
369
330
DF
100
AcDbEntity
  8
TEXT
100
AcDbText
 10
1312.5
 20
43.40277366769925
 30
0.0
 40
10.0
  1
0.2
 41
0.8
  7
K
 11
1312.5
 21
48.40277366769925
 31
0.0
100
AcDbText
 73
     2
  0
TEXT
  5
36A
330
DF
100
AcDbEntity
  8
TEXT
100
AcDbText
 10
1312.5
 20
62.76388313477895
 30
0.0
 40
10.0
  1
0.15
 41
0.8
  7
K
 11
1312.5
 21
67.76388313477895
 31
0.0
100
AcDbText
 73
     2
  0
TEXT
  5
36B
330
DF
100
AcDbEntity
  8
TEXT
100
AcDbText
 10
1312.5
 20
4.68055473353985
 30
0.0
 40
10.0
  1
0.5
 41
0.8
  7
K
 11
1312.5
 21
9.68055473353985
 31
0.0
100
AcDbText
 73
     2
  0
LINE
  5
36C
330
DF
100
AcDbEntity
  8
TEXT
100
AcDbLine
 10
1410.0
 20
19.3611094670797
 30
0.0
 11
1200.0
 21
19.3611094670797
 31
0.0
  0
LINE
  5
36D
330
DF
100
AcDbEntity
  8
TEXT
100
AcDbLine
 10
1200.0
 20
38.7222189341594
 30
0.0
 11
1410.0
 21
38.7222189341594
 31
0.0
  0
LINE
  5
36E
330
DF
100
AcDbEntity
  8
TEXT
100
AcDbLine
 10
1410.0
 20
58.0833284012391
 30
0.0
 11
1200.0
 21
58.0833284012391
 31
0.0
  0
LINE
  5
36F
330
DF
100
AcDbEntity
  8
TEXT
100
AcDbLine
 10
1200.0
 20
77.4444378683188
 30
0.0
 11
1410.0
 21
77.4444378683188
 31
0.0
  0
LINE
  5
370
330
DF
100
AcDbEntity
  8
TEXT
100
AcDbLine
 10
1410.0
 20
96.8055473353985
 30
0.0
 11
1200.0
 21
96.8055473353985
 31
0.0
  0
LINE
  5
371
330
DF
100
AcDbEntity
  8
TEXT
100
AcDbLine
 10
1200.0
 20
116.1666568024781
 30
0.0
 11
1410.0
 21
116.1666568024781
 31
0.0
  0
LINE
  5
372
330
DF
100
AcDbEntity
  8
TEXT
100
AcDbLine
 10
1410.0
 20
183.6851775130385
 30
0.0
 11
1030.0
 21
183.6851775130385
 31
0.0
  0
LINE
  5
373
330
DF
100
AcDbEntity
  8
TEXT
100
AcDbLine
 10
1030.0
 20
214.3425887565193
 30
0.0
 11
1410.0
 21
214.3425887565193
 31
0.0
  0
LINE
  5
374
330
DF
100
AcDbEntity
  8
TEXT
100
AcDbLine
 10
1200.0
 20
135.5277662695579
 30
0.0
 11
1410.0
 21
135.5277662695579
 31
0.0
  0
LINE
  5
375
330
DF
100
AcDbEntity
  8
WAKU
100
AcDbLine
 10
1410.0
 20
153.0277662695579
 30
0.0
 11
1030.0
 21
153.0277662695579
 31
0.0
  0
LINE
  5
376
330
DF
100
AcDbEntity
  8
TEXT
100
AcDbLine
 10
1305.0
 20
153.0277662695579
 30
0.0
 11
1305.0
 21
0.0
 31
0.0
  0
TEXT
  5
377
330
DF
100
AcDbEntity
  8
TEXT
100
AcDbText
 10
1203.880322721626
 20
4.68055473353985
 30
0.0
 40
10.0
  1
1000ｦｺｴ
 41
0.8
  7
K
 72
     2
 11
1247.156513197817
 21
9.68055473353985
 31
0.0
100
AcDbText
 73
     2
  0
LINE
  5
378
330
DF
100
AcDbEntity
  8
TEXT
100
AcDbLine
 10
1200.0
 20
153.0277662695579
 30
0.0
 11
1200.0
 21
0.0
 31
0.0
  0
LINE
  5
379
330
DF
100
AcDbEntity
  8
SUNPOU
100
AcDbLine
 10
1165.0
 20
123.75
 30
0.0
 11
1165.0
 21
0.0
 31
0.0
  0
TEXT
  5
37A
330
DF
100
AcDbEntity
  8
TEXT
100
AcDbText
 10
1252.793618352825
 20
4.68055473353985
 30
0.0
 40
10.0
  1
2000以下
 41
0.8
  7
K
 72
     2
 11
1300.336475495682
 21
9.68055473353985
 31
0.0
100
AcDbText
 73
     2
  0
TEXT
  5
37B
330
DF
100
AcDbEntity
  8
TEXT
100
AcDbText
 10
1089.383554119052
 20
-29.00000000000005
 30
0.0
 40
12.0
  1
（必要に応じて追加・抹消）
  7
K
100
AcDbText
  0
TEXT
  5
37C
330
DF
100
AcDbEntity
  8
TEXT
100
AcDbText
 10
1037.5
 20
4.437016273696769
 30
0.0
 40
10.0
  1
～
  7
K
 11
1037.5
 21
9.437016273696769
 31
0.0
100
AcDbText
 73
     2
  0
LINE
  5
37D
330
DF
100
AcDbEntity
  8
TEXT
100
AcDbLine
 10
1030.0
 20
94.37016273696713
 30
0.0
 11
1165.0
 21
94.37016273696713
 31
0.0
  0
LINE
  5
37E
330
DF
100
AcDbEntity
  8
TEXT
100
AcDbLine
 10
1030.0
 20
123.4148220507546
 30
0.0
 11
1165.0
 21
123.4148220507546
 31
0.0
  0
TEXT
  5
37F
330
DF
100
AcDbEntity
  8
TEXT
100
AcDbText
 10
1037.5
 20
79.93314646327036
 30
0.0
 40
10.0
  1
▽▽▽▽
  7
K
 11
1037.5
 21
84.93314646327036
 31
0.0
100
AcDbText
 73
     2
  0
TEXT
  5
380
330
DF
100
AcDbEntity
  8
TEXT
100
AcDbText
 10
1039.1
 20
102.6315099399121
 30
0.0
 40
15.0
  1
(標準外ﾊ指定ﾉｺﾄ)
 41
0.8
  7
K
 72
     4
 11
1097.499999999999
 21
109.0600813684835
 31
0.0
100
AcDbText
  0
TEXT
  5
381
330
DF
100
AcDbEntity
  8
TEXT
100
AcDbText
 10
1037.5
 20
61.05911391587696
 30
0.0
 40
10.0
  1
▽▽▽
  7
K
 11
1037.5
 21
66.05911391587696
 31
0.0
100
AcDbText
 73
     2
  0
TEXT
  5
382
330
DF
100
AcDbEntity
  8
TEXT
100
AcDbText
 10
1037.5
 20
23.31104882109016
 30
0.0
 40
10.0
  1
▽
  7
K
 11
1037.5
 21
28.31104882109016
 31
0.0
100
AcDbText
 73
     2
  0
TEXT
  5
383
330
DF
100
AcDbEntity
  8
TEXT
100
AcDbText
 10
1037.5
 20
42.18508136848356
 30
0.0
 40
10.0
  1
▽▽
  7
K
 11
1037.5
 21
47.18508136848356
 31
0.0
100
AcDbText
 73
     2
  0
TEXT
  5
384
330
DF
100
AcDbEntity
  8
TEXT
100
AcDbText
 10
1139.880952380952
 20
61.05911391587696
 30
0.0
 40
10.0
  1
6Z
  7
K
 72
     2
 11
1157.5
 21
66.05911391587696
 31
0.0
100
AcDbText
 73
     2
  0
TEXT
  5
385
330
DF
100
AcDbEntity
  8
TEXT
100
AcDbText
 10
1130.357142857142
 20
23.31104882109016
 30
0.0
 40
10.0
  1
50Z
  7
K
 72
     2
 11
1157.5
 21
28.31104882109016
 31
0.0
100
AcDbText
 73
     2
  0
TEXT
  5
386
330
DF
100
AcDbEntity
  8
TEXT
100
AcDbText
 10
1130.357142857142
 20
42.18508136848356
 30
0.0
 40
10.0
  1
18Z
  7
K
 72
     2
 11
1157.5
 21
47.18508136848356
 31
0.0
100
AcDbText
 73
     2
  0
TEXT
  5
387
330
DF
100
AcDbEntity
  8
TEXT
100
AcDbText
 10
1125.595238095238
 20
79.93314646327036
 30
0.0
 40
10.0
  1
0.8Z
  7
K
 72
     2
 11
1157.5
 21
84.93314646327036
 31
0.0
100
AcDbText
 73
     2
  0
TEXT
  5
388
330
DF
100
AcDbEntity
  8
TEXT
100
AcDbText
 10
1045.328932303146
 20
191.5138831347789
 30
0.0
 40
15.0
  1
色調
  7
K
 11
1045.328932303146
 21
199.0138831347789
 31
0.0
100
AcDbText
 73
     2
  0
TEXT
  5
389
330
DF
100
AcDbEntity
  8
TEXT
100
AcDbText
 10
1037.5
 20
130.7212941601562
 30
0.0
 40
15.0
  1
標準加工アラサ
  7
K
 72
     4
 11
1097.499999999999
 21
138.2212941601562
 31
0.0
100
AcDbText
  0
TEXT
  5
38A
330
DF
100
AcDbEntity
  8
TEXT
100
AcDbText
 10
1045.328932303146
 20
160.8564718912981
 30
0.0
 40
15.0
  1
適用規格など
  7
K
 11
1045.328932303146
 21
168.3564718912981
 31
0.0
100
AcDbText
 73
     2
  0
TEXT
  5
38B
330
DF
100
AcDbEntity
  8
TEXT
100
AcDbText
 10
1045.328932303146
 20
222.1712943782597
 30
0.0
 40
15.0
  1
表面処理
  7
K
 11
1045.328932303146
 21
229.6712943782597
 31
0.0
100
AcDbText
 73
     2
  0
TEXT
  5
38C
330
DF
100
AcDbEntity
  8
TEXT
100
AcDbText
 10
1275.650761209968
 20
120.847211536018
 30
0.0
 40
10.0
  1
3以下
 41
0.8
  7
K
 72
     2
 11
1300.336475495682
 21
125.847211536018
 31
0.0
100
AcDbText
 73
     2
  0
TEXT
  5
38D
330
DF
100
AcDbEntity
  8
TEXT
100
AcDbText
 10
1211.042227483531
 20
120.847211536018
 30
0.0
 40
10.0
  1
0.5以上
 41
0.8
  7
K
 72
     2
 11
1247.156513197817
 21
125.847211536018
 31
0.0
100
AcDbText
 73
     2
  0
TEXT
  5
38E
330
DF
100
AcDbEntity
  8
TEXT
100
AcDbText
 10
1226.737465578769
 20
101.4861020689383
 30
0.0
 40
10.0
  1
3ｦｺｴ
 41
0.8
  7
K
 72
     2
 11
1247.156513197817
 21
106.4861020689383
 31
0.0
100
AcDbText
 73
     2
  0
TEXT
  5
38F
330
DF
100
AcDbEntity
  8
TEXT
100
AcDbText
 10
1226.737465578769
 20
82.12499260185865
 30
0.0
 40
10.0
  1
6ｦｺｴ
 41
0.8
  7
K
 72
     2
 11
1247.156513197817
 21
87.12499260185865
 31
0.0
100
AcDbText
 73
     2
  0
TEXT
  5
390
330
DF
100
AcDbEntity
  8
TEXT
100
AcDbText
 10
1211.499370340674
 20
24.04166420061955
 30
0.0
 40
10.0
  1
315ｦｺｴ
 41
0.8
  7
K
 72
     2
 11
1247.156513197817
 21
29.04166420061955
 31
0.0
100
AcDbText
 73
     2
  0
TEXT
  5
391
330
DF
100
AcDbEntity
  8
TEXT
100
AcDbText
 10
1219.118417959722
 20
62.76388313477895
 30
0.0
 40
10.0
  1
30ｦｺｴ
 41
0.8
  7
K
 72
     2
 11
1247.156513197817
 21
67.76388313477895
 31
0.0
100
AcDbText
 73
     2
  0
TEXT
  5
392
330
DF
100
AcDbEntity
  8
TEXT
100
AcDbText
 10
1211.499370340674
 20
43.40277366769925
 30
0.0
 40
10.0
  1
120ｦｺｴ
 41
0.8
  7
K
 72
     2
 11
1247.156513197817
 21
48.40277366769925
 31
0.0
100
AcDbText
 73
     2
  0
TEXT
  5
393
330
DF
100
AcDbEntity
  8
TEXT
100
AcDbText
 10
1176.2
 20
64.54368504024373
 30
0.0
 40
13.5
  1
法
  7
K
 72
     1
 11
1182.5
 21
64.54368504024373
 31
0.0
100
AcDbText
  0
TEXT
  5
394
330
DF
100
AcDbEntity
  8
TEXT
100
AcDbText
 10
1171.785714285714
 20
21.21729571105277
 30
0.0
 40
7.5
  1
mm
  7
K
 72
     1
 11
1182.5
 21
21.21729571105277
 31
0.0
100
AcDbText
  0
TEXT
  5
395
330
DF
100
AcDbEntity
  8
TEXT
100
AcDbText
 10
1164.761904761904
 20
25.80952032984697
 30
0.0
 40
10.0
  1
(
  7
K
 72
     2
 11
1170.0
 21
30.80952032984697
 31
0.0
100
AcDbText
 73
     2
  0
TEXT
  5
396
330
DF
100
AcDbEntity
  8
TEXT
100
AcDbText
 10
1193.117643257487
 20
25.80952032984697
 30
0.0
 40
10.0
  1
)
  7
K
 11
1193.117643257487
 21
30.80952032984697
 31
0.0
100
AcDbText
 73
     2
  0
TEXT
  5
397
330
DF
100
AcDbEntity
  8
TEXT
100
AcDbText
 10
1177.833333333333
 20
30.80952032984697
 30
0.0
 40
10.0
  1
±
  7
K
 72
     1
 11
1182.5
 21
30.80952032984697
 31
0.0
100
AcDbText
  0
TEXT
  5
398
330
DF
100
AcDbEntity
  8
TEXT
100
AcDbText
 10
1176.2
 20
49.04368504024375
 30
0.0
 40
13.5
  1
差
  7
K
 72
     1
 11
1182.5
 21
49.04368504024375
 31
0.0
100
AcDbText
  0
TEXT
  5
399
330
DF
100
AcDbEntity
  8
TEXT
100
AcDbText
 10
1176.2
 20
95.54368504024381
 30
0.0
 40
13.5
  1
通
  7
K
 72
     1
 11
1182.5
 21
95.54368504024381
 31
0.0
100
AcDbText
  0
TEXT
  5
39A
330
DF
100
AcDbEntity
  8
TEXT
100
AcDbText
 10
1176.2
 20
80.0436850402437
 30
0.0
 40
13.5
  1
寸
  7
K
 72
     1
 11
1182.5
 21
80.0436850402437
 31
0.0
100
AcDbText
  0
TEXT
  5
39B
330
DF
100
AcDbEntity
  8
TEXT
100
AcDbText
 10
1176.2
 20
111.0436850402438
 30
0.0
 40
13.5
  1
普
  7
K
 72
     1
 11
1182.5
 21
111.0436850402438
 31
0.0
100
AcDbText
  0
TEXT
  5
39C
330
DF
100
AcDbEntity
  8
TEXT
100
AcDbText
 10
1260.412665971873
 20
62.76388313477895
 30
0.0
 40
10.0
  1
120以下
 41
0.8
  7
K
 72
     2
 11
1300.336475495682
 21
67.76388313477895
 31
0.0
100
AcDbText
 73
     2
  0
TEXT
  5
39D
330
DF
100
AcDbEntity
  8
TEXT
100
AcDbText
 10
1260.412665971873
 20
43.40277366769925
 30
0.0
 40
10.0
  1
315以下
 41
0.8
  7
K
 72
     2
 11
1300.336475495682
 21
48.40277366769925
 31
0.0
100
AcDbText
 73
     2
  0
TEXT
  5
39E
330
DF
100
AcDbEntity
  8
TEXT
100
AcDbText
 10
1252.793618352825
 20
24.04166420061955
 30
0.0
 40
10.0
  1
1000以下
 41
0.8
  7
K
 72
     2
 11
1300.336475495682
 21
29.04166420061955
 31
0.0
100
AcDbText
 73
     2
  0
TEXT
  5
39F
330
DF
100
AcDbEntity
  8
TEXT
100
AcDbText
 10
1275.650761209968
 20
101.4861020689383
 30
0.0
 40
10.0
  1
6以下
 41
0.8
  7
K
 72
     2
 11
1300.336475495682
 21
106.4861020689383
 31
0.0
100
AcDbText
 73
     2
  0
TEXT
  5
3A0
330
DF
100
AcDbEntity
  8
TEXT
100
AcDbText
 10
1268.03171359092
 20
82.12499260185865
 30
0.0
 40
10.0
  1
30以下
 41
0.8
  7
K
 72
     2
 11
1300.336475495682
 21
87.12499260185865
 31
0.0
100
AcDbText
 73
     2
  0
TEXT
  5
3A1
330
DF
100
AcDbEntity
  8
TEXT
100
AcDbText
 10
1209.75
 20
137.5277662695578
 30
0.0
 40
13.5
  1
呼 ビ 寸 法
  7
K
 72
     1
 11
1252.5
 21
144.2777662695579
 31
0.0
100
AcDbText
 73
     2
  0
LINE
  5
3A2
330
DF
100
AcDbEntity
  8
TEXT
100
AcDbLine
 10
1266.160943828778
 20
167.2958760441229
 30
0.0
 11
1312.762803387548
 21
167.2958760441229
 31
0.0
  0
LINE
  5
3A3
330
DF
100
AcDbEntity
  8
TEXT
100
AcDbLine
 10
1267.158463029889
 20
230.0509631950871
 30
0.0
 11
1313.760322588658
 21
230.0509631950871
 31
0.0
  0
LINE
  5
3A4
330
DF
100
AcDbEntity
  8
TEXT
100
AcDbLine
 10
1266.437602890035
 20
197.6840350233787
 30
0.0
 11
1313.039462448804
 21
197.6840350233787
 31
0.0
  0
LINE
  5
3A5
330
DF
100
AcDbEntity
  8
WAKU
100
AcDbLine
 10
1605.0
 20
0.0
 30
0.0
 11
1605.0
 21
65.0
 31
0.0
  0
TEXT
  5
3A6
330
DF
100
AcDbEntity
  8
TEXT
100
AcDbText
 10
1382.5
 20
4.68055473353985
 30
0.0
 40
10.0
  1
3
 41
0.8
  7
K
 11
1382.5
 21
9.68055473353985
 31
0.0
100
AcDbText
 73
     2
  0
TEXT
  5
3A7
330
DF
100
AcDbEntity
  8
TEXT
100
AcDbText
 10
1347.5
 20
4.68055473353985
 30
0.0
 40
10.0
  1
1.2
 41
0.8
  7
K
 11
1347.5
 21
9.68055473353985
 31
0.0
100
AcDbText
 73
     2
  0
TEXT
  5
3A8
330
DF
100
AcDbEntity
  8
TEXT
100
AcDbText
 10
1415.0
 20
10.0
 30
0.0
 40
15.0
  1
承認
  7
K
100
AcDbText
  0
LINE
  5
3A9
330
DF
100
AcDbEntity
  8
TEXT
100
AcDbLine
 10
1375.0
 20
153.0277662695579
 30
0.0
 11
1375.0
 21
0.0
 31
0.0
  0
LINE
  5
3AA
330
DF
100
AcDbEntity
  8
TEXT
100
AcDbLine
 10
1340.0
 20
0.0
 30
0.0
 11
1340.0
 21
153.0277662695579
 31
0.0
  0
LINE
  5
3AB
330
DF
100
AcDbEntity
  8
WAKU
100
AcDbLine
 10
1410.0
 20
0.0
 30
0.0
 11
1410.0
 21
165.0
 31
0.0
  0
LINE
  5
3AC
330
DF
100
AcDbEntity
  8
SUNPOU
100
AcDbLine
 10
1525.0
 20
165.0
 30
0.0
 11
1525.0
 21
0.0
 31
0.0
  0
LINE
  5
3AD
330
DF
100
AcDbEntity
  8
SUNPOU
100
AcDbLine
 10
1455.0
 20
165.0
 30
0.0
 11
1455.0
 21
0.0
 31
0.0
  0
CIRCLE
  5
3AE
330
DF
100
AcDbEntity
  8
JISSEN
100
AcDbCircle
 10
1551.666666666666
 20
5.0
 30
0.0
 40
1.0
  0
CIRCLE
  5
3AF
330
DF
100
AcDbEntity
  8
JISSEN
100
AcDbCircle
 10
1578.333333333333
 20
5.0
 30
0.0
 40
1.0
  0
TEXT
  5
3B0
330
DF
100
AcDbEntity
  8
TEXT
100
AcDbText
 10
1465.842051704615
 20
208.4938695990999
 30
0.0
 40
15.0
  1
キューブアイスクラッシャー
  7
K
 72
     4
 11
1580.842051704615
 21
215.9938695990999
 31
0.0
100
AcDbText
  0
LINE
  5
3B1
330
DF
100
AcDbEntity
  8
SUNPOU
100
AcDbLine
 10
1605.0
 20
123.75
 30
0.0
 11
1410.0
 21
123.75
 31
0.0
  0
LINE
  5
3B2
330
DF
100
AcDbEntity
  8
SUNPOU
100
AcDbLine
 10
1605.0
 20
41.25
 30
0.0
 11
1410.0
 21
41.25
 31
0.0
  0
LINE
  5
3B3
330
DF
100
AcDbEntity
  8
SUNPOU
100
AcDbLine
 10
1410.0
 20
82.5
 30
0.0
 11
1605.0
 21
82.5
 31
0.0
  0
LINE
  5
3B4
330
DF
100
AcDbEntity
  8
WAKU
100
AcDbLine
 10
1410.0
 20
165.0
 30
0.0
 11
1605.0
 21
165.0
 31
0.0
  0
TEXT
  5
3B5
330
DF
100
AcDbEntity
  8
TEXT
100
AcDbText
 10
1347.5
 20
120.847211536018
 30
0.0
 40
10.0
  1
0.1
 41
0.8
  7
K
 11
1347.5
 21
125.847211536018
 31
0.0
100
AcDbText
 73
     2
  0
TEXT
  5
3B6
330
DF
100
AcDbEntity
  8
TEXT
100
AcDbText
 10
1382.5
 20
62.76388313477895
 30
0.0
 40
10.0
  1
0.8
 41
0.8
  7
K
 11
1382.5
 21
67.76388313477895
 31
0.0
100
AcDbText
 73
     2
  0
TEXT
  5
3B7
330
DF
100
AcDbEntity
  8
TEXT
100
AcDbText
 10
1347.5
 20
62.76388313477895
 30
0.0
 40
10.0
  1
0.3
 41
0.8
  7
K
 11
1347.5
 21
67.76388313477895
 31
0.0
100
AcDbText
 73
     2
  0
TEXT
  5
3B8
330
DF
100
AcDbEntity
  8
TEXT
100
AcDbText
 10
1347.5
 20
24.04166420061955
 30
0.0
 40
10.0
  1
0.8
 41
0.8
  7
K
 11
1347.5
 21
29.04166420061955
 31
0.0
100
AcDbText
 73
     2
  0
TEXT
  5
3B9
330
DF
100
AcDbEntity
  8
TEXT
100
AcDbText
 10
1347.5
 20
43.40277366769925
 30
0.0
 40
10.0
  1
0.5
 41
0.8
  7
K
 11
1347.5
 21
48.40277366769925
 31
0.0
100
AcDbText
 73
     2
  0
TEXT
  5
3BA
330
DF
100
AcDbEntity
  8
TEXT
100
AcDbText
 10
1382.5
 20
24.04166420061955
 30
0.0
 40
10.0
  1
2
 41
0.8
  7
K
 11
1382.5
 21
29.04166420061955
 31
0.0
100
AcDbText
 73
     2
  0
TEXT
  5
3BB
330
DF
100
AcDbEntity
  8
TEXT
100
AcDbText
 10
1382.5
 20
43.40277366769925
 30
0.0
 40
10.0
  1
1.2
 41
0.8
  7
K
 11
1382.5
 21
48.40277366769925
 31
0.0
100
AcDbText
 73
     2
  0
TEXT
  5
3BC
330
DF
100
AcDbEntity
  8
TEXT
100
AcDbText
 10
1347.5
 20
82.12499260185865
 30
0.0
 40
10.0
  1
0.2
 41
0.8
  7
K
 11
1347.5
 21
87.12499260185865
 31
0.0
100
AcDbText
 73
     2
  0
TEXT
  5
3BD
330
DF
100
AcDbEntity
  8
TEXT
100
AcDbText
 10
1347.5
 20
101.4861020689383
 30
0.0
 40
10.0
  1
0.1
 41
0.8
  7
K
 11
1347.5
 21
106.4861020689383
 31
0.0
100
AcDbText
 73
     2
  0
TEXT
  5
3BE
330
DF
100
AcDbEntity
  8
TEXT
100
AcDbText
 10
1382.5
 20
82.12499260185865
 30
0.0
 40
10.0
  1
0.5
 41
0.8
  7
K
 11
1382.5
 21
87.12499260185865
 31
0.0
100
AcDbText
 73
     2
  0
TEXT
  5
3BF
330
DF
100
AcDbEntity
  8
TEXT
100
AcDbText
 10
1382.5
 20
101.4861020689383
 30
0.0
 40
10.0
  1
0.2
 41
0.8
  7
K
 11
1382.5
 21
106.4861020689383
 31
0.0
100
AcDbText
 73
     2
  0
LINE
  5
3C0
330
DF
100
AcDbEntity
  8
TEXT
100
AcDbLine
 10
1382.5
 20
125.847211536018
 30
0.0
 11
1400.530166296804
 21
125.847211536018
 31
0.0
  0
TEXT
  5
3C1
330
DF
100
AcDbEntity
  8
TEXT
100
AcDbText
 10
1415.0
 20
51.25
 30
0.0
 40
15.0
  1
検図
  7
K
100
AcDbText
  0
TEXT
  5
3C2
330
DF
100
AcDbEntity
  8
TEXT
100
AcDbText
 10
1415.0
 20
92.5
 30
0.0
 40
15.0
  1
製図
  7
K
100
AcDbText
  0
TEXT
  5
3C3
330
DF
100
AcDbEntity
  8
TEXT
100
AcDbText
 10
1350.428571428571
 20
137.5277662695578
 30
0.0
 40
13.5
  1
K
  7
K
 72
     1
 11
1357.5
 21
144.2777662695579
 31
0.0
100
AcDbText
 73
     2
  0
TEXT
  5
3C4
330
DF
100
AcDbEntity
  8
TEXT
100
AcDbText
 10
1386.071428571428
 20
137.5277662695578
 30
0.0
 40
13.5
  1
L
  7
K
 72
     1
 11
1392.5
 21
144.2777662695579
 31
0.0
100
AcDbText
 73
     2
  0
TEXT
  5
3C5
330
DF
100
AcDbEntity
  8
TEXT
100
AcDbText
 10
1415.0
 20
133.75
 30
0.0
 40
15.0
  1
設計
  7
K
100
AcDbText
  0
TEXT
  5
3C6
330
DF
100
AcDbEntity
  8
TEXT
100
AcDbText
 10
1415.0
 20
195.0
 30
0.0
 40
15.0
  1
品名
  7
K
100
AcDbText
  0
LINE
  5
3C7
330
DF
100
AcDbEntity
  8
WAKU
100
AcDbLine
 10
1605.0
 20
65.0
 30
0.0
 11
1605.0
 21
130.0
 31
0.0
  0
CIRCLE
  5
3C8
330
DF
100
AcDbEntity
  8
JISSEN
100
AcDbCircle
 10
1551.666666666666
 20
46.25
 30
0.0
 40
1.0
  0
CIRCLE
  5
3C9
330
DF
100
AcDbEntity
  8
JISSEN
100
AcDbCircle
 10
1551.666666666666
 20
87.5
 30
0.0
 40
1.0
  0
CIRCLE
  5
3CA
330
DF
100
AcDbEntity
  8
JISSEN
100
AcDbCircle
 10
1578.333333333333
 20
46.25
 30
0.0
 40
1.0
  0
CIRCLE
  5
3CB
330
DF
100
AcDbEntity
  8
JISSEN
100
AcDbCircle
 10
1578.333333333333
 20
87.5
 30
0.0
 40
1.0
  0
TEXT
  5
3CC
330
DF
100
AcDbEntity
  8
TEXT
100
AcDbText
 10
1618.5
 20
90.0
 30
0.0
 40
15.0
  1
図番
  7
K
 72
     4
 11
1635.0
 21
97.5
 31
0.0
100
AcDbText
  0
TEXT
  5
3CD
330
DF
100
AcDbEntity
  8
TEXT
100
AcDbText
 10
1512.96556580879
 20
177.5464162556886
 30
0.0
 40
15.0
  1
ＨS-28外観図
  7
K
 72
     4
 11
1578.179851523075
 21
185.0464162556886
 31
0.0
100
AcDbText
  0
CIRCLE
  5
3CE
330
DF
100
AcDbEntity
  8
JISSEN
100
AcDbCircle
 10
1551.666666666666
 20
128.75
 30
0.0
 40
1.0
  0
LINE
  5
3CF
330
DF
100
AcDbEntity
  8
WAKU
100
AcDbLine
 10
1605.0
 20
130.0
 30
0.0
 11
1605.0
 21
165.0
 31
0.0
  0
CIRCLE
  5
3D0
330
DF
100
AcDbEntity
  8
JISSEN
100
AcDbCircle
 10
1578.333333333333
 20
128.75
 30
0.0
 40
1.0
  0
LINE
  5
3D1
330
DF
100
AcDbEntity
  8
SUNPOU
100
AcDbLine
 10
1785.0
 20
245.0
 30
0.0
 11
1785.0
 21
165.0
 31
0.0
  0
LINE
  5
3D2
330
DF
100
AcDbEntity
  8
WAKU
100
AcDbLine
 10
1730.0
 20
245.0
 30
0.0
 11
1730.0
 21
165.0
 31
0.0
  0
LINE
  5
3D3
330
DF
100
AcDbEntity
  8
SUNPOU
100
AcDbLine
 10
1730.0
 20
205.0
 30
0.0
 11
1905.0
 21
205.0
 31
0.0
  0
TEXT
  5
3D4
330
DF
100
AcDbEntity
  8
TEXT
100
AcDbText
 10
1677.305591502112
 20
20.0
 30
0.0
 40
17.5
  1
中部コーポレーション
  7
K
100
AcDbText
  0
LINE
  5
3DB
330
DF
100
AcDbEntity
  8
SUNPOU
100
AcDbLine
 10
1665.0
 20
130.0
 30
0.0
 11
1665.0
 21
65.0
 31
0.0
  0
TEXT
  5
3DC
330
DF
100
AcDbEntity
  8
TEXT
100
AcDbText
 10
1670.60897474467
 20
84.16703773491599
 30
0.0
 40
15.0
  1
H
  7
K
100
AcDbText
  0
TEXT
  5
3DD
330
DF
100
AcDbEntity
  8
TEXT
100
AcDbText
 10
1718.60897474467
 20
84.16703773491599
 30
0.0
 40
15.0
  1
2
  7
K
100
AcDbText
  0
TEXT
  5
3DE
330
DF
100
AcDbEntity
  8
TEXT
100
AcDbText
 10
1694.60897474467
 20
84.16703773491599
 30
0.0
 40
15.0
  1
S
  7
K
100
AcDbText
  0
TEXT
  5
3DF
330
DF
100
AcDbEntity
  8
TEXT
100
AcDbText
 10
1766.60897474467
 20
84.16703773491599
 30
0.0
 40
15.0
  1
-02
  7
K
100
AcDbText
  0
TEXT
  5
3E0
330
DF
100
AcDbEntity
  8
TEXT
100
AcDbText
 10
1742.60897474467
 20
84.16703773491599
 30
0.0
 40
15.0
  1
8
  7
K
100
AcDbText
  0
TEXT
  5
3E2
330
DF
100
AcDbEntity
  8
TEXT
100
AcDbText
 10
1725.0
 20
140.0
 30
0.0
 40
15.0
  1
尺度
  7
K
100
AcDbText
  0
LINE
  5
3E3
330
DF
100
AcDbEntity
  8
SUNPOU
100
AcDbLine
 10
1720.0
 20
165.0
 30
0.0
 11
1720.0
 21
130.0
 31
0.0
  0
TEXT
  5
3E4
330
DF
100
AcDbEntity
  8
TEXT
100
AcDbText
 10
1735.0
 20
175.0
 30
0.0
 40
15.0
  1
板 厚
  7
K
100
AcDbText
  0
LINE
  5
3E5
330
DF
100
AcDbEntity
  8
SUNPOU
100
AcDbLine
 10
1765.0
 20
130.0
 30
0.0
 11
1765.0
 21
165.0
 31
0.0
  0
TEXT
  5
3E6
330
DF
100
AcDbEntity
  8
TEXT
100
AcDbText
 10
1779.766399586995
 20
140.097691270148
 30
0.0
 40
10.0
  1
1/5
  7
K
100
AcDbText
  0
TEXT
  5
3E7
330
DF
100
AcDbEntity
  8
TEXT
100
AcDbText
 10
1735.0
 20
215.0
 30
0.0
 40
15.0
  1
材 質
  7
K
100
AcDbText
  0
TEXT
  5
3EF
330
DF
100
AcDbEntity
  8
TEXT
100
AcDbText
 10
1820.316557789356
 20
137.0863030625838
 30
0.0
 40
12.5
  1
(単位mm)
  7
K
100
AcDbText
  0
LINE
  5
3F0
330
DF
100
AcDbEntity
  8
TEXT
100
AcDbLine
 10
1818.61861375836
 20
182.6374555741322
 30
0.0
 11
1865.22047331713
 21
182.6374555741322
 31
0.0
  0
LINE
  5
3F1
330
DF
100
AcDbEntity
  8
TEXT
100
AcDbLine
 10
1818.61861375836
 20
220.4434647147481
 30
0.0
 11
1865.22047331713
 21
220.4434647147481
 31
0.0
  0
TEXT
  5
3F2
330
DF
100
AcDbEntity
  8
TEXT
100
AcDbText
 10
1911.737171254126
 20
468.0067108201171
 30
0.0
 40
20.0
  1
ず
  7
K
 72
     1
 11
1921.070504587459
 21
478.0067108201172
 31
0.0
100
AcDbText
 73
     2
  0
TEXT
  5
3F3
330
DF
100
AcDbEntity
  8
TEXT
100
AcDbText
 10
1910.666666666666
 20
468.0067108201171
 30
0.0
 40
20.0
  1
ず
  7
K
 72
     1
 11
1920.0
 21
478.0067108201172
 31
0.0
100
AcDbText
 73
     2
  0
LINE
  5
3F4
330
DF
100
AcDbEntity
  8
WAKU
100
AcDbLine
 10
1905.0
 20
245.0
 30
0.0
 11
1730.0
 21
245.0
 31
0.0
  0
TEXT
  5
3F5
330
DF
100
AcDbEntity
  8
TEXT
100
AcDbText
 10
1910.666666666666
 20
343.0067108201171
 30
0.0
 40
20.0
  1
返
  7
K
 72
     1
 11
1920.0
 21
353.0067108201171
 31
0.0
100
AcDbText
 73
     2
  0
TEXT
  5
3F6
330
DF
100
AcDbEntity
  8
TEXT
100
AcDbText
 10
1910.173124750537
 20
294.3039468811042
 30
0.0
 40
20.0
  1
の
  7
K
 72
     4
 11
1919.506458083871
 21
304.3039468811042
 31
0.0
100
AcDbText
  0
TEXT
  5
3F7
330
DF
100
AcDbEntity
  8
TEXT
100
AcDbText
 10
1910.666666666666
 20
248.0067108201172
 30
0.0
 40
20.0
  1
と
  7
K
 72
     1
 11
1920.0
 21
258.0067108201171
 31
0.0
100
AcDbText
 73
     2
  0
TEXT
  5
3F8
330
DF
100
AcDbEntity
  8
TEXT
100
AcDbText
 10
1910.666666666666
 20
273.0067108201172
 30
0.0
 40
20.0
  1
こ
  7
K
 72
     1
 11
1920.0
 21
283.0067108201171
 31
0.0
100
AcDbText
 73
     2
  0
TEXT
  5
3F9
330
DF
100
AcDbEntity
  8
TEXT
100
AcDbText
 10
1910.666666666666
 20
318.0067108201171
 30
0.0
 40
20.0
  1
却
  7
K
 72
     1
 11
1920.0
 21
328.0067108201171
 31
0.0
100
AcDbText
 73
     2
  0
TEXT
  5
3FA
330
DF
100
AcDbEntity
  8
TEXT
100
AcDbText
 10
1911.333333333333
 20
368.0067108201171
 30
0.0
 40
20.0
  1
へ
  7
K
 72
     1
 11
1920.0
 21
378.0067108201171
 31
0.0
100
AcDbText
 73
     2
  0
TEXT
  5
3FB
330
DF
100
AcDbEntity
  8
TEXT
100
AcDbText
 10
1910.666666666666
 20
393.0067108201171
 30
0.0
 40
20.0
  1
元
  7
K
 72
     1
 11
1920.0
 21
403.0067108201171
 31
0.0
100
AcDbText
 73
     2
  0
TEXT
  5
3FC
330
DF
100
AcDbEntity
  8
TEXT
100
AcDbText
 10
1910.666666666666
 20
443.0067108201171
 30
0.0
 40
20.0
  1
発
  7
K
 72
     1
 11
1920.0
 21
453.0067108201172
 31
0.0
100
AcDbText
 73
     2
  0
TEXT
  5
3FD
330
DF
100
AcDbEntity
  8
TEXT
100
AcDbText
 10
1910.666666666666
 20
418.0067108201171
 30
0.0
 40
20.0
  1
行
  7
K
 72
     1
 11
1920.0
 21
428.0067108201172
 31
0.0
100
AcDbText
 73
     2
  0
TEXT
  5
3FE
330
DF
100
AcDbEntity
  8
TEXT
100
AcDbText
 10
1910.666666666666
 20
493.0067108201171
 30
0.0
 40
20.0
  1
必
  7
K
 72
     1
 11
1920.0
 21
503.0067108201172
 31
0.0
100
AcDbText
 73
     2
  0
TEXT
  5
3FF
330
DF
100
AcDbEntity
  8
TEXT
100
AcDbText
 10
1924.628477461025
 20
526.0248513938097
 30
0.0
 40
20.0
  1
、
  7
K
 72
     1
 11
1927.295144127692
 21
536.0248513938097
 31
0.0
100
AcDbText
 73
     2
  0
TEXT
  5
400
330
DF
100
AcDbEntity
  8
TEXT
100
AcDbText
 10
1910.666666666666
 20
543.0067108201171
 30
0.0
 40
20.0
  1
後
  7
K
 72
     1
 11
1920.0
 21
553.0067108201172
 31
0.0
100
AcDbText
 73
     2
  0
TEXT
  5
401
330
DF
100
AcDbEntity
  8
TEXT
100
AcDbText
 10
1911.333333333333
 20
568.0067108201171
 30
0.0
 40
20.0
  1
み
  7
K
 72
     1
 11
1920.0
 21
578.0067108201172
 31
0.0
100
AcDbText
 73
     2
  0
TEXT
  5
402
330
DF
100
AcDbEntity
  8
TEXT
100
AcDbText
 10
1910.666666666666
 20
643.0067108201171
 30
0.0
 40
20.0
  1
は
  7
K
 72
     1
 11
1920.0
 21
653.0067108201172
 31
0.0
100
AcDbText
 73
     2
  0
TEXT
  5
403
330
DF
100
AcDbEntity
  8
TEXT
100
AcDbText
 10
1911.333333333333
 20
618.0067108201171
 30
0.0
 40
20.0
  1
用
  7
K
 72
     1
 11
1920.0
 21
628.0067108201172
 31
0.0
100
AcDbText
 73
     2
  0
TEXT
  5
404
330
DF
100
AcDbEntity
  8
TEXT
100
AcDbText
 10
1910.666666666666
 20
593.0067108201171
 30
0.0
 40
20.0
  1
済
  7
K
 72
     1
 11
1920.0
 21
603.0067108201172
 31
0.0
100
AcDbText
 73
     2
  0
TEXT
  5
405
330
DF
100
AcDbEntity
  8
TEXT
100
AcDbText
 10
1910.666666666666
 20
668.0067108201171
 30
0.0
 40
20.0
  1
図
  7
K
 72
     1
 11
1920.0
 21
678.0067108201172
 31
0.0
100
AcDbText
 73
     2
  0
LINE
  5
406
330
DF
100
AcDbEntity
  8
TEXT
100
AcDbLine
 10
1324.767734563704
 20
725.4844122637855
 30
0.0
 11
1876.44978003241
 21
725.4844122637855
 31
0.0
  0
LINE
  5
407
330
DF
100
AcDbEntity
  8
TEXT
100
AcDbLine
 10
1324.767734563704
 20
759.4844122637855
 30
0.0
 11
1876.44978003241
 21
759.4844122637855
 31
0.0
  0
LINE
  5
408
330
DF
100
AcDbEntity
  8
TEXT
100
AcDbLine
 10
1324.767734563704
 20
793.4844122637855
 30
0.0
 11
1876.44978003241
 21
793.4844122637855
 31
0.0
  0
TEXT
  5
409
330
DF
100
AcDbEntity
  8
TEXT
100
AcDbText
 10
1327.895795378082
 20
800.1278863142657
 30
0.0
 40
20.0
  1
モーター：コンデンサー始動単相誘導電動機 
  7
K
100
AcDbText
  0
LINE
  5
40A
330
DF
100
AcDbEntity
  8
TEXT
100
AcDbLine
 10
1324.767734563704
 20
827.4844122637855
 30
0.0
 11
1876.44978003241
 21
827.4844122637855
 31
0.0
  0
TEXT
  5
40B
330
DF
100
AcDbEntity
  8
TEXT
100
AcDbText
 10
1327.895795378082
 20
834.1278863142656
 30
0.0
 40
20.0
  1
定格消費電力：82/120W
  7
K
100
AcDbText
  0
LINE
  5
40C
330
DF
100
AcDbEntity
  8
TEXT
100
AcDbLine
 10
1324.767734563704
 20
861.4844122637855
 30
0.0
 11
1876.44978003241
 21
861.4844122637855
 31
0.0
  0
TEXT
  5
40D
330
DF
100
AcDbEntity
  8
TEXT
100
AcDbText
 10
1327.895795378082
 20
868.1278863142656
 30
0.0
 40
20.0
  1
電  源  ：単相100V  50/60 Hz
  7
K
100
AcDbText
  0
TEXT
  5
40E
330
DF
100
AcDbEntity
  8
TEXT
100
AcDbText
 10
1327.895795378082
 20
970.1278863142656
 30
0.0
 40
20.0
  1
外形寸法：巾210  ×奥行265 ×高さ355
  7
K
100
AcDbText
  0
LINE
  5
40F
330
DF
100
AcDbEntity
  8
TEXT
100
AcDbLine
 10
1324.767734563704
 20
963.4844122637856
 30
0.0
 11
1876.44978003241
 21
963.4844122637856
 31
0.0
  0
LINE
  5
410
330
DF
100
AcDbEntity
  8
TEXT
100
AcDbLine
 10
1324.767734563704
 20
929.4844122637854
 30
0.0
 11
1876.44978003241
 21
929.4844122637854
 31
0.0
  0
LINE
  5
411
330
DF
100
AcDbEntity
  8
TEXT
100
AcDbLine
 10
1324.767734563704
 20
895.4844122637855
 30
0.0
 11
1876.44978003241
 21
895.4844122637855
 31
0.0
  0
TEXT
  5
412
330
DF
100
AcDbEntity
  8
TEXT
100
AcDbText
 10
1327.895795378082
 20
936.1278863142656
 30
0.0
 40
20.0
  1
重  量  ：5.8K
  7
K
100
AcDbText
  0
TEXT
  5
413
330
DF
100
AcDbEntity
  8
TEXT
100
AcDbText
 10
1511.730935044472
 20
937.7863229988456
 30
0.0
 40
20.0
  1
g
  7
K
100
AcDbText
  0
TEXT
  5
414
330
DF
100
AcDbEntity
  8
TEXT
100
AcDbText
 10
1327.895795378082
 20
732.1278863142656
 30
0.0
 40
20.0
  1
プロテクター：自動復帰式（モータ内蔵）
  7
K
100
AcDbText
  0
TEXT
  5
415
330
DF
100
AcDbEntity
  8
TEXT
100
AcDbText
 10
1327.895795378082
 20
766.1278863142656
 30
0.0
 40
20.0
  1
電源スイッチ：ロータリースイッチ
  7
K
100
AcDbText
  0
TEXT
  5
416
330
DF
100
AcDbEntity
  8
TEXT
100
AcDbText
 10
1327.895795378082
 20
902.1278863142656
 30
0.0
 40
20.0
  1
回 転 数：72/86rpm
  7
K
100
AcDbText
  0
LINE
  5
417
330
DF
100
AcDbEntity
  8
TEXT
100
AcDbLine
 10
1324.767734563704
 20
997.4844122637856
 30
0.0
 11
1393.467976243233
 21
997.4844122637856
 31
0.0
  0
TEXT
  5
418
330
DF
100
AcDbEntity
  8
TEXT
100
AcDbText
 10
1327.895795378082
 20
1004.127886314265
 30
0.0
 40
20.0
  1
仕 様
  7
K
100
AcDbText
  0
TEXT
  5
419
330
DF
100
AcDbEntity
  8
TEXT
100
AcDbText
 10
1527.615614910147
 20
967.8795937624027
 30
0.0
 40
10.0
  1
mm
  7
K
100
AcDbText
  0
TEXT
  5
41A
330
DF
100
AcDbEntity
  8
TEXT
100
AcDbText
 10
1680.282230338085
 20
969.4786595678888
 30
0.0
 40
10.0
  1
mm
  7
K
100
AcDbText
  0
TEXT
  5
41B
330
DF
100
AcDbEntity
  8
TEXT
100
AcDbText
 10
1834.389776176279
 20
967.8795937624027
 30
0.0
 40
10.0
  1
mm
  7
K
100
AcDbText
  0
LINE
  5
4F7
330
DF
100
AcDbEntity
  8
0
100
AcDbLine
 10
230.96890862
 20
329.70217326
 30
0.0
 11
246.96890862
 21
329.70217326
 31
0.0
  0
LINE
  5
4F8
330
DF
100
AcDbEntity
  8
0
100
AcDbLine
 10
213.9689086199999
 20
0.000000000000008
 30
0.0
 11
213.96890862
 21
120.0
 31
0.0
  0
LINE
  5
4FD
330
DF
100
AcDbEntity
  8
0
100
AcDbLine
 10
423.96890862
 20
340.7021732599999
 30
0.0
 11
423.9689086200001
 21
362.7021732599999
 31
0.0
  0
LINE
  5
4FE
330
DF
100
AcDbEntity
  8
0
100
AcDbLine
 10
213.96890862
 20
340.70217326
 30
0.0
 11
213.96890862
 21
362.7021732599999
 31
0.0
  0
LINE
  5
4FF
330
DF
100
AcDbEntity
  8
0
100
AcDbLine
 10
218.96890862
 20
335.7021732599999
 30
0.0
 11
418.96890862
 21
335.7021732599999
 31
0.0
  0
LINE
  5
500
330
DF
100
AcDbEntity
  8
ITTEN
100
AcDbLine
 10
238.96890862
 20
323.70217326
 30
0.0
 11
238.96890862
 21
337.7021732599999
 31
0.0
  0
LINE
  5
501
330
DF
100
AcDbEntity
  8
ITTEN
100
AcDbLine
 10
398.9689086199999
 20
323.70217326
 30
0.0
 11
398.9689086199999
 21
337.7021732599999
 31
0.0
  0
LINE
  5
502
330
DF
100
AcDbEntity
  8
0
100
AcDbLine
 10
246.96890862
 20
329.70217326
 30
0.0
 11
246.9689086200001
 21
335.7021732599999
 31
0.0
  0
LINE
  5
503
330
DF
100
AcDbEntity
  8
0
100
AcDbLine
 10
230.96890862
 20
329.70217326
 30
0.0
 11
230.96890862
 21
335.7021732599999
 31
0.0
  0
LINE
  5
504
330
DF
100
AcDbEntity
  8
0
100
AcDbLine
 10
406.9689086199999
 20
329.70217326
 30
0.0
 11
406.96890862
 21
335.7021732599999
 31
0.0
  0
LINE
  5
505
330
DF
100
AcDbEntity
  8
0
100
AcDbLine
 10
390.9689086199999
 20
329.70217326
 30
0.0
 11
390.9689086199999
 21
335.7021732599999
 31
0.0
  0
LINE
  5
506
330
DF
100
AcDbEntity
  8
0
100
AcDbLine
 10
390.9689086199999
 20
329.70217326
 30
0.0
 11
406.96890862
 21
329.70217326
 31
0.0
  0
LINE
  5
507
330
DF
100
AcDbEntity
  8
0
100
AcDbLine
 10
213.96890862
 20
341.7021732599999
 30
0.0
 11
423.96890862
 21
341.7021732599999
 31
0.0
  0
LINE
  5
509
330
DF
100
AcDbEntity
  8
0
100
AcDbLine
 10
213.96890862
 20
343.7021732599999
 30
0.0
 11
423.96890862
 21
343.7021732599999
 31
0.0
  0
LINE
  5
50A
330
DF
100
AcDbEntity
  8
0
100
AcDbLine
 10
242.96890862
 20
355.70217326
 30
0.0
 11
394.9689086200001
 21
355.7021732599999
 31
0.0
  0
LINE
  5
50B
330
DF
100
AcDbEntity
  8
0
100
AcDbLine
 10
218.96890862
 20
367.70217326
 30
0.0
 11
221.2328705239632
 21
367.70217326
 31
0.0
  0
LINE
  5
50E
330
DF
100
AcDbEntity
  8
0
100
AcDbLine
 10
237.9689086199999
 20
360.70217326
 30
0.0
 11
237.9689086199999
 21
362.7021732599999
 31
0.0
  0
LINE
  5
50F
330
DF
100
AcDbEntity
  8
0
100
AcDbLine
 10
399.96890862
 20
360.7021732599999
 30
0.0
 11
399.96890862
 21
362.7021732599999
 31
0.0
  0
LINE
  5
511
330
DF
100
AcDbEntity
  8
0
100
AcDbLine
 10
416.7049467160368
 20
367.70217326
 30
0.0
 11
418.9689086200001
 21
367.70217326
 31
0.0
  0
LINE
  5
512
330
DF
100
AcDbEntity
  8
0
100
AcDbLine
 10
237.96890862
 20
494.7021732599999
 30
0.0
 11
399.96890862
 21
494.7021732600001
 31
0.0
  0
LINE
  5
513
330
DF
100
AcDbEntity
  8
0
100
AcDbLine
 10
219.000055431172
 20
652.7021732600001
 30
0.0
 11
418.937761808828
 21
652.7021732599999
 31
0.0
  0
LINE
  5
514
330
DF
100
AcDbEntity
  8
0
100
AcDbLine
 10
218.7904243140398
 20
648.7021732600001
 30
0.0
 11
419.1473929259601
 21
648.7021732599999
 31
0.0
  0
LINE
  5
515
330
DF
100
AcDbEntity
  8
0
100
AcDbLine
 10
213.96890862
 20
556.7021732599999
 30
0.0
 11
423.9689086200001
 21
556.7021732599999
 31
0.0
  0
LINE
  5
516
330
DF
100
AcDbEntity
  8
0
100
AcDbLine
 10
218.96890862
 20
496.7021732599999
 30
0.0
 11
418.96890862
 21
496.7021732599999
 31
0.0
  0
LINE
  5
51A
330
DF
100
AcDbEntity
  8
0
100
AcDbLine
 10
358.96890862
 20
632.70217326
 30
0.0
 11
358.96890862
 21
648.7021732599999
 31
0.0
  0
LINE
  5
51B
330
DF
100
AcDbEntity
  8
0
100
AcDbLine
 10
278.96890862
 20
632.70217326
 30
0.0
 11
278.96890862
 21
648.7021732599999
 31
0.0
  0
LINE
  5
51C
330
DF
100
AcDbEntity
  8
0
100
AcDbLine
 10
278.96890862
 20
632.70217326
 30
0.0
 11
358.9689086199999
 21
632.70217326
 31
0.0
  0
LINE
  5
520
330
DF
100
AcDbEntity
  8
0
100
AcDbLine
 10
224.9022453591602
 20
679.7723483339339
 30
0.0
 11
318.96890862
 21
684.70217326
 31
0.0
  0
LINE
  5
522
330
DF
100
AcDbEntity
  8
0
100
AcDbLine
 10
413.0355718808385
 20
679.7723483339466
 30
0.0
 11
318.9689086199957
 21
684.70217326
 31
0.0
  0
LINE
  5
528
330
DF
100
AcDbEntity
  8
0
100
AcDbLine
 10
213.96890862
 20
552.7021732599999
 30
0.0
 11
423.9689086200001
 21
552.7021732599999
 31
0.0
  0
LINE
  5
530
330
DF
100
AcDbEntity
  8
0
100
AcDbLine
 10
237.96890862
 20
362.7021732599999
 30
0.0
 11
237.96890862
 21
496.7021732599999
 31
0.0
  0
LINE
  5
531
330
DF
100
AcDbEntity
  8
0
100
AcDbLine
 10
399.96890862
 20
360.7021732599999
 30
0.0
 11
399.96890862
 21
496.7021732599998
 31
0.0
  0
LINE
  5
535
330
DF
100
AcDbEntity
  8
0
100
AcDbLine
 10
423.96890862
 20
501.7021732599999
 30
0.0
 11
423.9689086200001
 21
552.7021732599999
 31
0.0
  0
LINE
  5
536
330
DF
100
AcDbEntity
  8
0
100
AcDbLine
 10
213.96890862
 20
501.7021732599999
 30
0.0
 11
213.96890862
 21
552.7021732599999
 31
0.0
  0
CIRCLE
  5
537
330
DF
100
AcDbEntity
  8
0
100
AcDbCircle
 10
378.9689086199999
 20
524.70217326
 30
0.0
 40
12.0
  0
LINE
  5
53D
330
DF
100
AcDbEntity
  8
0
100
AcDbLine
 10
374.8324354748802
 20
513.437645310738
 30
0.0
 11
390.7130611105905
 21
522.2374456325014
 31
0.0
  0
LINE
  5
53E
330
DF
100
AcDbEntity
  8
0
100
AcDbLine
 10
367.3152612007925
 20
527.5644279357406
 30
0.0
 11
382.7203377146146
 21
536.100716138284
 31
0.0
  0
LINE
  5
53F
330
DF
100
AcDbEntity
  8
0
100
AcDbLine
 10
372.8936982661223
 20
516.9364019520862
 30
0.0
 11
388.7743239018325
 21
525.7362022738496
 31
0.0
  0
LINE
  5
540
330
DF
100
AcDbEntity
  8
0
100
AcDbLine
 10
369.2539984095505
 20
524.0656712943924
 30
0.0
 11
384.6590749233726
 21
532.6019594969359
 31
0.0
  0
LINE
  5
541
330
DF
100
AcDbEntity
  8
0
100
AcDbLine
 10
369.2539984095505
 20
524.0656712943924
 30
0.0
 11
372.8936982661223
 21
516.9364019520862
 31
0.0
  0
LINE
  5
542
330
DF
100
AcDbEntity
  8
0
100
AcDbLine
 10
384.6590749233726
 20
532.6019594969359
 30
0.0
 11
388.7743239018325
 21
525.7362022738496
 31
0.0
  0
LINE
  5
543
330
DF
100
AcDbEntity
  8
ITTEN
100
AcDbLine
 10
346.9689086199999
 20
524.70217326
 30
0.0
 11
403.9689086200001
 21
524.70217326
 31
0.0
  0
LINE
  5
545
330
DF
100
AcDbEntity
  8
ITTEN
100
AcDbLine
 10
226.9689086199999
 20
524.70217326
 30
0.0
 11
283.96890862
 21
524.70217326
 31
0.0
  0
LINE
  5
546
330
DF
100
AcDbEntity
  8
0
100
AcDbLine
 10
264.6590749233725
 20
532.6019594969359
 30
0.0
 11
268.7743239018325
 21
525.7362022738496
 31
0.0
  0
LINE
  5
547
330
DF
100
AcDbEntity
  8
0
100
AcDbLine
 10
249.2539984095504
 20
524.0656712943924
 30
0.0
 11
252.8936982661223
 21
516.9364019520862
 31
0.0
  0
LINE
  5
548
330
DF
100
AcDbEntity
  8
0
100
AcDbLine
 10
249.2539984095504
 20
524.0656712943924
 30
0.0
 11
264.6590749233725
 21
532.6019594969359
 31
0.0
  0
LINE
  5
549
330
DF
100
AcDbEntity
  8
0
100
AcDbLine
 10
252.8936982661223
 20
516.9364019520862
 30
0.0
 11
268.7743239018325
 21
525.7362022738496
 31
0.0
  0
LINE
  5
54A
330
DF
100
AcDbEntity
  8
0
100
AcDbLine
 10
247.3152612007925
 20
527.5644279357406
 30
0.0
 11
262.7203377146146
 21
536.100716138284
 31
0.0
  0
LINE
  5
54B
330
DF
100
AcDbEntity
  8
0
100
AcDbLine
 10
254.8324354748803
 20
513.437645310738
 30
0.0
 11
270.7130611105905
 21
522.2374456325014
 31
0.0
  0
CIRCLE
  5
54C
330
DF
100
AcDbEntity
  8
0
100
AcDbCircle
 10
258.9689086199999
 20
524.70217326
 30
0.0
 40
12.0
  0
ARC
  5
54D
330
DF
100
AcDbEntity
  8
0
100
AcDbCircle
 10
218.96890862
 20
501.7021732599999
 30
0.0
 40
5.0
100
AcDbArc
 50
179.9999999999999
 51
270.0
  0
ARC
  5
54E
330
DF
100
AcDbEntity
  8
0
100
AcDbCircle
 10
418.96890862
 20
501.7021732599999
 30
0.0
 40
5.0
100
AcDbArc
 50
270.0
 51
360.0
  0
CIRCLE
  5
550
330
DF
100
AcDbEntity
  8
0
100
AcDbCircle
 10
378.96890862
 20
588.70217326
 30
0.0
 40
8.0
  0
LINE
  5
551
330
DF
100
AcDbEntity
  8
ITTEN
100
AcDbLine
 10
352.4689086199999
 20
588.70217326
 30
0.0
 11
405.46890862
 21
588.70217326
 31
0.0
  0
ARC
  5
552
330
DF
100
AcDbEntity
  8
0
100
AcDbCircle
 10
218.96890862
 20
340.70217326
 30
0.0
 40
5.0
100
AcDbArc
 50
180.0
 51
270.0
  0
ARC
  5
553
330
DF
100
AcDbEntity
  8
0
100
AcDbCircle
 10
418.96890862
 20
340.7021732599999
 30
0.0
 40
5.0
100
AcDbArc
 50
270.0
 51
0.0
  0
ARC
  5
554
330
DF
100
AcDbEntity
  8
0
100
AcDbCircle
 10
218.96890862
 20
362.7021732599999
 30
0.0
 40
5.0
100
AcDbArc
 50
89.99999999999985
 51
180.0
  0
ARC
  5
555
330
DF
100
AcDbEntity
  8
0
100
AcDbCircle
 10
418.9689086200001
 20
362.7021732599999
 30
0.0
 40
5.0
100
AcDbArc
 50
0.0
 51
90.0
  0
ARC
  5
556
330
DF
100
AcDbEntity
  8
0
100
AcDbCircle
 10
232.96890862
 20
362.7021732599999
 30
0.0
 40
5.0
100
AcDbArc
 50
0.0
 51
89.99999999999982
  0
ARC
  5
557
330
DF
100
AcDbEntity
  8
0
100
AcDbCircle
 10
404.96890862
 20
362.7021732599999
 30
0.0
 40
5.0
100
AcDbArc
 50
90.0
 51
180.0
  0
ARC
  5
55B
330
DF
100
AcDbEntity
  8
0
100
AcDbCircle
 10
394.9689086200001
 20
360.7021732599999
 30
0.0
 40
5.0
100
AcDbArc
 50
270.0
 51
0.0
  0
ARC
  5
55C
330
DF
100
AcDbEntity
  8
0
100
AcDbCircle
 10
242.96890862
 20
360.70217326
 30
0.0
 40
5.0
100
AcDbArc
 50
180.0000000000002
 51
270.0
  0
LINE
  5
55D
330
DF
100
AcDbEntity
  8
0
100
AcDbLine
 10
213.96890862
 20
556.7021732599999
 30
0.0
 11
220.170777466602
 21
675.0408804413758
 31
0.0
  0
LINE
  5
55E
330
DF
100
AcDbEntity
  8
0
100
AcDbLine
 10
423.9689086200001
 20
556.7021732600001
 30
0.0
 11
417.7670397733972
 21
675.0408804413885
 31
0.0
  0
ARC
  5
55F
330
DF
100
AcDbEntity
  8
0
100
AcDbCircle
 10
412.7738920996244
 20
674.7792006601737
 30
0.0
 40
5.0
100
AcDbArc
 50
3.000000000000016
 51
87.00000000000784
  0
ARC
  5
560
330
DF
100
AcDbEntity
  8
0
100
AcDbCircle
 10
225.1639251403749
 20
674.779200660161
 30
0.0
 40
5.0
100
AcDbArc
 50
92.99999999999998
 51
176.9999999999999
  0
LINE
  5
561
330
DF
100
AcDbEntity
  8
ITTEN
100
AcDbLine
 10
258.9689086199999
 20
494.7021732599999
 30
0.0
 11
258.9689086199999
 21
556.7021732599999
 31
0.0
  0
LINE
  5
562
330
DF
100
AcDbEntity
  8
ITTEN
100
AcDbLine
 10
378.96890862
 20
504.0219676235134
 30
0.0
 11
378.96890862
 21
606.0219676235133
 31
0.0
  0
LINE
  5
565
330
DF
100
AcDbEntity
  8
0
100
AcDbLine
 10
226.2255254044994
 20
372.4312540029166
 30
0.0
 11
232.96890862
 21
496.7021732599999
 31
0.0
  0
LINE
  5
566
330
DF
100
AcDbEntity
  8
0
100
AcDbLine
 10
411.7122918355007
 20
372.4312540029166
 30
0.0
 11
404.96890862
 21
496.7021732599998
 31
0.0
  0
ARC
  5
567
330
DF
100
AcDbEntity
  8
0
100
AcDbCircle
 10
221.2328705239632
 20
372.7021732599999
 30
0.0
 40
5.0
100
AcDbArc
 50
269.9999999999997
 51
356.8939729043835
  0
ARC
  5
568
330
DF
100
AcDbEntity
  8
0
100
AcDbCircle
 10
416.7049467160368
 20
372.7021732599999
 30
0.0
 40
5.0
100
AcDbArc
 50
183.1060270956164
 51
270.0
  0
LINE
  5
569
330
DF
100
AcDbEntity
  8
0
100
AcDbLine
 10
218.96890862
 20
367.70217326
 30
0.0
 11
232.96890862
 21
367.70217326
 31
0.0
  0
LINE
  5
56A
330
DF
100
AcDbEntity
  8
0
100
AcDbLine
 10
404.96890862
 20
367.70217326
 30
0.0
 11
418.9689086200001
 21
367.70217326
 31
0.0
  0
DIMENSION
  5
578
330
DF
100
AcDbEntity
  8
SUNPOU
100
AcDbDimension
  2
*D27
 10
489.9370885724711
 20
355.7021732599999
 30
0.0
 11
481.987088572471
 21
425.2021732600002
 31
0.0
 70
    32
  3
IMAO
100
AcDbAlignedDimension
 13
399.96890862
 23
494.7021732600001
 33
0.0
 14
394.9689086200001
 24
355.7021732599999
 34
0.0
 50
90.0
100
AcDbRotatedDimension
1001
ACAD
1000
DSTYLE
1002
{
1070
   287
1070
     3
1070
    40
1040
5.0
1070
   271
1070
     4
1070
   272
1070
     4
1070
   279
1070
     0
1070
   284
1070
     0
1070
   285
1070
     0
1070
   286
1070
     0
1070
   340
1005
D7
1070
     6
1000
ARROW
1070
     7
1000
ARROW
1002
}
  0
DIMENSION
  5
585
330
DF
100
AcDbEntity
  8
SUNPOU
100
AcDbDimension
  2
*D28
 10
213.96890862
 20
280.0141836219813
 30
0.0
 11
318.96890862
 21
287.9641836219813
 31
0.0
 70
    32
  3
IMAO
100
AcDbAlignedDimension
 13
423.96890862
 23
343.7021732599999
 33
0.0
 14
213.96890862
 24
343.7021732599999
 34
0.0
100
AcDbRotatedDimension
1001
ACAD
1000
DSTYLE
1002
{
1070
   287
1070
     3
1070
    40
1040
5.0
1070
   271
1070
     4
1070
   272
1070
     4
1070
   279
1070
     0
1070
   284
1070
     0
1070
   285
1070
     0
1070
   286
1070
     0
1070
   340
1005
D7
1070
     6
1000
ARROW
1070
     7
1000
ARROW
1002
}
  0
LINE
  5
586
330
DF
100
AcDbEntity
  8
ITTEN
100
AcDbLine
 10
318.96890862
 20
315.70217326
 30
0.0
 11
318.96890862
 21
1184.576498139999
 31
0.0
  0
LINE
  5
588
330
DF
100
AcDbEntity
  8
0
100
AcDbLine
 10
230.4811967110764
 20
1115.22971583
 30
0.0
 11
407.4566205289237
 21
1115.229715829999
 31
0.0
  0
LINE
  5
58B
330
DF
100
AcDbEntity
  8
0
100
AcDbLine
 10
220.5997169220967
 20
854.7063562675708
 30
0.0
 11
213.9689086200002
 21
981.2297158299999
 31
0.0
  0
LINE
  5
58C
330
DF
100
AcDbEntity
  8
0
100
AcDbLine
 10
417.3381003179034
 20
854.7063562675708
 30
0.0
 11
423.9689086200001
 21
981.2297158299999
 31
0.0
  0
LINE
  5
591
330
DF
100
AcDbEntity
  8
0
100
AcDbLine
 10
247.2234893345138
 20
837.2297158300005
 30
0.0
 11
270.96890862
 21
837.2297158300002
 31
0.0
  0
LINE
  5
592
330
DF
100
AcDbEntity
  8
0
100
AcDbLine
 10
230.5860122696425
 20
845.2297158300002
 30
0.0
 11
407.3518049703577
 21
845.2297158300002
 31
0.0
  0
LINE
  5
597
330
DF
100
AcDbEntity
  8
0
100
AcDbLine
 10
247.2234893345138
 20
837.2297158300003
 30
0.0
 11
246.8048016845702
 21
845.218752108037
 31
0.0
  0
LINE
  5
598
330
DF
100
AcDbEntity
  8
0
100
AcDbLine
 10
270.5502209700564
 20
837.2406795519637
 30
0.0
 11
270.96890862
 21
845.2297158300003
 31
0.0
  0
LINE
  5
599
330
DF
100
AcDbEntity
  8
0
100
AcDbLine
 10
367.3881708542643
 20
837.2297158300002
 30
0.0
 11
390.96890862
 21
837.2297158300003
 31
0.0
  0
LINE
  5
59A
330
DF
100
AcDbEntity
  8
0
100
AcDbLine
 10
367.3881708542643
 20
837.2297158300003
 30
0.0
 11
366.96890862
 21
845.2297158300003
 31
0.0
  0
LINE
  5
59B
330
DF
100
AcDbEntity
  8
0
100
AcDbLine
 10
390.96890862
 20
837.2297158300003
 30
0.0
 11
391.3875962699435
 21
845.2187521080372
 31
0.0
  0
LINE
  5
5A1
330
DF
100
AcDbEntity
  8
ITTEN
100
AcDbLine
 10
167.41385732
 20
981.2297158300001
 30
0.0
 11
460.8486657200001
 21
981.2297158300001
 31
0.0
  0
LINE
  5
5A4
330
DF
100
AcDbEntity
  8
0
100
AcDbLine
 10
213.96890862
 20
981.2297158299999
 30
0.0
 11
220.4949013635307
 21
1105.753075392429
 31
0.0
  0
LINE
  5
5A5
330
DF
100
AcDbEntity
  8
0
100
AcDbLine
 10
423.9689086200001
 20
981.2297158299999
 30
0.0
 11
417.4429158764695
 21
1105.753075392429
 31
0.0
  0
LINE
  5
5A8
330
DF
100
AcDbEntity
  8
0
100
AcDbLine
 10
241.204902333944
 20
1111.22971583
 30
0.0
 11
400.0067690360559
 21
1111.22971583
 31
0.0
  0
ARC
  5
5AA
330
DF
100
AcDbEntity
  8
0
100
AcDbCircle
 10
230.4811967110764
 20
1105.22971583
 30
0.0
 40
10.0
100
AcDbArc
 50
90.0
 51
176.9999999999999
  0
ARC
  5
5AC
330
DF
100
AcDbEntity
  8
0
100
AcDbCircle
 10
407.4566205289237
 20
1105.229715829999
 30
0.0
 40
10.0
100
AcDbArc
 50
2.999999999999966
 51
90.0
  0
ARC
  5
5AE
330
DF
100
AcDbEntity
  8
0
100
AcDbCircle
 10
230.5860122696425
 20
855.2297158300001
 30
0.0
 40
10.0
100
AcDbArc
 50
182.9999999999999
 51
270.0
  0
ARC
  5
5AF
330
DF
100
AcDbEntity
  8
0
100
AcDbCircle
 10
407.3518049703577
 20
855.2297158300003
 30
0.0
 40
10.0
100
AcDbArc
 50
270.0
 51
357.0
  0
LINE
  5
5B0
330
DF
100
AcDbEntity
  8
0
100
AcDbLine
 10
240.9952712168119
 20
859.2297158300004
 30
0.0
 11
400.4260312703204
 21
859.2297158300002
 31
0.0
  0
LINE
  5
5B3
330
DF
100
AcDbEntity
  8
0
100
AcDbLine
 10
224.9022453599998
 20
981.2297158300001
 30
0.0
 11
231.2186069863983
 21
1101.75307539243
 31
0.0
  0
LINE
  5
5B4
330
DF
100
AcDbEntity
  8
0
100
AcDbLine
 10
410.4123266178661
 20
868.7063562675708
 30
0.0
 11
416.3094260100001
 21
981.2297158299999
 31
0.0
  0
LINE
  5
5B5
330
DF
100
AcDbEntity
  8
0
100
AcDbLine
 10
231.0089758692661
 20
868.706356267571
 30
0.0
 11
224.90224536
 21
985.2297158300002
 31
0.0
  0
LINE
  5
5B6
330
DF
100
AcDbEntity
  8
0
100
AcDbLine
 10
416.3094260100001
 20
981.2297158299999
 30
0.0
 11
409.9930643836017
 21
1101.753075392429
 31
0.0
  0
ARC
  5
5B7
330
DF
100
AcDbEntity
  8
0
100
AcDbCircle
 10
400.0067690360559
 20
1101.22971583
 30
0.0
 40
10.0
100
AcDbArc
 50
2.999999999999966
 51
89.99999999999992
  0
ARC
  5
5B8
330
DF
100
AcDbEntity
  8
0
100
AcDbCircle
 10
241.204902333944
 20
1101.22971583
 30
0.0
 40
10.0
100
AcDbArc
 50
89.99999999999992
 51
176.9999999999999
  0
ARC
  5
5B9
330
DF
100
AcDbEntity
  8
0
100
AcDbCircle
 10
240.9952712168119
 20
869.2297158300004
 30
0.0
 40
10.0
100
AcDbArc
 50
182.9999999999999
 51
270.0
  0
ARC
  5
5BA
330
DF
100
AcDbEntity
  8
0
100
AcDbCircle
 10
400.4260312703204
 20
869.2297158300002
 30
0.0
 40
10.0
100
AcDbArc
 50
270.0
 51
357.0
  0
DIMENSION
  5
5C7
330
DF
100
AcDbEntity
  8
SUNPOU
100
AcDbDimension
  2
*D29
 10
213.96890862
 20
772.5302312126059
 30
0.0
 11
318.96890862
 21
780.4802312126059
 31
0.0
 70
    32
  3
IMAO
100
AcDbAlignedDimension
 13
423.9689086200001
 23
981.2297158299999
 33
0.0
 14
213.96890862
 24
981.2297158299999
 34
0.0
100
AcDbRotatedDimension
1001
ACAD
1000
DSTYLE
1002
{
1070
   287
1070
     3
1070
    40
1040
5.0
1070
   271
1070
     4
1070
   272
1070
     4
1070
   279
1070
     0
1070
   284
1070
     0
1070
   285
1070
     0
1070
   286
1070
     0
1070
   340
1005
D7
1070
     6
1000
ARROW
1070
     7
1000
ARROW
1002
}
  0
LINE
  5
5C8
330
DF
100
AcDbEntity
  8
0
100
AcDbLine
 10
250.9037245334362
 20
837.2297158300005
 30
0.0
 11
250.4844622991718
 21
845.2297158300002
 31
0.0
  0
LINE
  5
5C9
330
DF
100
AcDbEntity
  8
0
100
AcDbLine
 10
390.96890862
 20
837.2297158300003
 30
0.0
 11
391.3875962699435
 21
845.2187521080372
 31
0.0
  0
LINE
  5
5CA
330
DF
100
AcDbEntity
  8
0
100
AcDbLine
 10
385.5389979243535
 20
837.2297158300005
 30
0.0
 11
385.9582601586178
 21
845.2297158300003
 31
0.0
  0
LINE
  5
5CC
330
DF
100
AcDbEntity
  8
ITTEN
100
AcDbLine
 10
899.8173302600001
 20
335.7021732599999
 30
0.0
 11
899.8173302600001
 21
708.7021732599999
 31
0.0
  0
LINE
  5
5CD
330
DF
100
AcDbEntity
  8
0
100
AcDbLine
 10
1031.817330259999
 20
-0.0000000000000101
 30
0.0
 11
1031.817330259999
 21
245.0
 31
0.0
  0
LINE
  5
5CE
330
DF
100
AcDbEntity
  8
0
100
AcDbLine
 10
766.8173302599996
 20
340.70217326
 30
0.0
 11
766.8173302599996
 21
357.7021732599999
 31
0.0
  0
LINE
  5
5D4
330
DF
100
AcDbEntity
  8
0
100
AcDbLine
 10
766.8173302599998
 20
496.7021732600001
 30
0.0
 11
1026.817330259999
 21
496.70217326
 31
0.0
  0
LINE
  5
5D5
330
DF
100
AcDbEntity
  8
0
100
AcDbLine
 10
761.8173302599998
 20
552.7021732600001
 30
0.0
 11
1031.817330259999
 21
552.7021732599999
 31
0.0
  0
LINE
  5
5D6
330
DF
100
AcDbEntity
  8
0
100
AcDbLine
 10
761.8173302599998
 20
556.7021732600001
 30
0.0
 11
1031.817330259999
 21
556.7021732599999
 31
0.0
  0
LINE
  5
5D7
330
DF
100
AcDbEntity
  8
0
100
AcDbLine
 10
773.2703488418033
 20
684.7021732599999
 30
0.0
 11
1020.364311678196
 21
684.70217326
 31
0.0
  0
LINE
  5
5D8
330
DF
100
AcDbEntity
  8
0
100
AcDbLine
 10
766.8484770711716
 20
652.7021732600001
 30
0.0
 11
1026.786183448827
 21
652.7021732599999
 31
0.0
  0
LINE
  5
5D9
330
DF
100
AcDbEntity
  8
0
100
AcDbLine
 10
766.6388459540394
 20
648.7021732600001
 30
0.0
 11
1026.99581456596
 21
648.7021732599998
 31
0.0
  0
LINE
  5
5DB
330
DF
100
AcDbEntity
  8
0
100
AcDbLine
 10
999.8173302599997
 20
329.70217326
 30
0.0
 11
1015.817330259999
 21
329.70217326
 31
0.0
  0
LINE
  5
5DC
330
DF
100
AcDbEntity
  8
0
100
AcDbLine
 10
999.8173302599997
 20
329.70217326
 30
0.0
 11
999.8173302599997
 21
335.7021732599999
 31
0.0
  0
LINE
  5
5DD
330
DF
100
AcDbEntity
  8
0
100
AcDbLine
 10
1015.817330259999
 20
329.70217326
 30
0.0
 11
1015.817330259999
 21
335.7021732599999
 31
0.0
  0
LINE
  5
5DE
330
DF
100
AcDbEntity
  8
ITTEN
100
AcDbLine
 10
1007.817330259999
 20
323.70217326
 30
0.0
 11
1007.817330259999
 21
337.7021732599999
 31
0.0
  0
LINE
  5
5E0
330
DF
100
AcDbEntity
  8
0
100
AcDbLine
 10
779.8173302599999
 20
329.70217326
 30
0.0
 11
795.81733026
 21
329.70217326
 31
0.0
  0
LINE
  5
5E1
330
DF
100
AcDbEntity
  8
0
100
AcDbLine
 10
779.8173302599998
 20
329.70217326
 30
0.0
 11
779.8173302599998
 21
335.7021732599999
 31
0.0
  0
LINE
  5
5E2
330
DF
100
AcDbEntity
  8
0
100
AcDbLine
 10
795.8173302599999
 20
329.70217326
 30
0.0
 11
795.81733026
 21
335.7021732599999
 31
0.0
  0
LINE
  5
5E3
330
DF
100
AcDbEntity
  8
ITTEN
100
AcDbLine
 10
787.8173302599999
 20
323.70217326
 30
0.0
 11
787.8173302599999
 21
337.7021732599999
 31
0.0
  0
LINE
  5
5E6
330
DF
100
AcDbEntity
  8
0
100
AcDbLine
 10
771.8173302599999
 20
335.70217326
 30
0.0
 11
1026.817330259999
 21
335.7021732599999
 31
0.0
  0
LINE
  5
5E7
330
DF
100
AcDbEntity
  8
0
100
AcDbLine
 10
1031.817330259999
 20
340.7021732599999
 30
0.0
 11
1031.817330259999
 21
357.7021732599999
 31
0.0
  0
LINE
  5
5E8
330
DF
100
AcDbEntity
  8
0
100
AcDbLine
 10
766.8173302599996
 20
343.7021732599999
 30
0.0
 11
1031.817330259999
 21
343.7021732599999
 31
0.0
  0
LINE
  5
5E9
330
DF
100
AcDbEntity
  8
0
100
AcDbLine
 10
766.8173302599996
 20
341.7021732599999
 30
0.0
 11
1031.817330259999
 21
341.7021732599999
 31
0.0
  0
LINE
  5
5EA
330
DF
100
AcDbEntity
  8
0
100
AcDbLine
 10
774.8173302599999
 20
367.70217326
 30
0.0
 11
1023.81733026
 21
367.7021732599999
 31
0.0
  0
LINE
  5
5EE
330
DF
100
AcDbEntity
  8
0
100
AcDbLine
 10
766.8173302599999
 20
340.70217326
 30
0.0
 11
766.8173302599999
 21
359.70217326
 31
0.0
  0
LINE
  5
5F1
330
DF
100
AcDbEntity
  8
0
100
AcDbLine
 10
746.8173302599999
 20
343.7021732599998
 30
0.0
 11
766.8173302599996
 21
343.7021732599999
 31
0.0
  0
LINE
  5
5F2
330
DF
100
AcDbEntity
  8
0
100
AcDbLine
 10
746.8173302599999
 20
353.7021732599999
 30
0.0
 11
766.8173302599996
 21
353.7021732599999
 31
0.0
  0
LINE
  5
5F4
330
DF
100
AcDbEntity
  8
0
100
AcDbLine
 10
746.81733026
 20
343.7021732599999
 30
0.0
 11
746.81733026
 21
353.7021732599999
 31
0.0
  0
LINE
  5
5F5
330
DF
100
AcDbEntity
  8
0
100
AcDbLine
 10
1031.817330259999
 20
340.7021732599999
 30
0.0
 11
1031.817330259999
 21
359.7021732599999
 31
0.0
  0
LINE
  5
5F7
330
DF
100
AcDbEntity
  8
0
100
AcDbLine
 10
773.8173302599998
 20
367.2415652741694
 30
0.0
 11
773.8173302599998
 21
496.7021732599999
 31
0.0
  0
ARC
  5
5F9
330
DF
100
AcDbEntity
  8
0
100
AcDbCircle
 10
1023.81733026
 20
359.7021732599999
 30
0.0
 40
8.0
100
AcDbArc
 50
0.0
 51
90.0
  0
ARC
  5
5FA
330
DF
100
AcDbEntity
  8
0
100
AcDbCircle
 10
774.8173302599999
 20
359.70217326
 30
0.0
 40
8.0
100
AcDbArc
 50
90.0
 51
180.0
  0
LINE
  5
5FB
330
DF
100
AcDbEntity
  8
0
100
AcDbLine
 10
1025.817330259999
 20
367.4481399524148
 30
0.0
 11
1025.81733026
 21
496.7021732600001
 31
0.0
  0
LINE
  5
5FC
330
DF
100
AcDbEntity
  8
0
100
AcDbLine
 10
773.8173302599998
 20
494.70217326
 30
0.0
 11
1025.817330259999
 21
494.7021732599999
 31
0.0
  0
LINE
  5
5FE
330
DF
100
AcDbEntity
  8
0
100
AcDbLine
 10
761.8173302599998
 20
501.70217326
 30
0.0
 11
761.8173302599998
 21
552.7021732600001
 31
0.0
  0
LINE
  5
600
330
DF
100
AcDbEntity
  8
0
100
AcDbLine
 10
1031.817330259999
 20
501.7021732599999
 30
0.0
 11
1031.817330259999
 21
552.7021732599999
 31
0.0
  0
LINE
  5
606
330
DF
100
AcDbEntity
  8
0
100
AcDbLine
 10
753.8173302599998
 20
514.1127891056676
 30
0.0
 11
753.8173302599998
 21
535.2915574143322
 31
0.0
  0
LINE
  5
609
330
DF
100
AcDbEntity
  8
0
100
AcDbLine
 10
753.8173302599998
 20
514.1127891056675
 30
0.0
 11
761.8173302599998
 21
512.70217326
 31
0.0
  0
LINE
  5
60A
330
DF
100
AcDbEntity
  8
0
100
AcDbLine
 10
753.8173302599998
 20
535.2915574143322
 30
0.0
 11
761.8173302599998
 21
536.70217326
 31
0.0
  0
LINE
  5
60E
330
DF
100
AcDbEntity
  8
0
100
AcDbLine
 10
761.8173302599998
 20
556.7021732600001
 30
0.0
 11
766.6388459540395
 21
648.7021732600001
 31
0.0
  0
LINE
  5
60F
330
DF
100
AcDbEntity
  8
0
100
AcDbLine
 10
1031.817330259999
 20
556.7021732599999
 30
0.0
 11
1026.99581456596
 21
648.7021732599998
 31
0.0
  0
ARC
  5
611
330
DF
100
AcDbEntity
  8
0
100
AcDbCircle
 10
766.8173302599998
 20
501.70217326
 30
0.0
 40
5.0
100
AcDbArc
 50
180.0
 51
270.0
  0
ARC
  5
612
330
DF
100
AcDbEntity
  8
0
100
AcDbCircle
 10
1026.817330259999
 20
501.7021732599999
 30
0.0
 40
5.0
100
AcDbArc
 50
270.0
 51
0.0
  0
ARC
  5
613
330
DF
100
AcDbEntity
  8
0
100
AcDbCircle
 10
773.2703488418033
 20
679.7021732599999
 30
0.0
 40
5.0
100
AcDbArc
 50
90.0
 51
177.0
  0
ARC
  5
614
330
DF
100
AcDbEntity
  8
0
100
AcDbCircle
 10
1020.364311678196
 20
679.70217326
 30
0.0
 40
5.0
100
AcDbArc
 50
2.999999999999991
 51
90.0
  0
LINE
  5
615
330
DF
100
AcDbEntity
  8
0
100
AcDbLine
 10
759.8173302599998
 20
596.7021732599999
 30
0.0
 11
763.9136414313214
 21
596.7021732600001
 31
0.0
  0
LINE
  5
616
330
DF
100
AcDbEntity
  8
0
100
AcDbLine
 10
759.8173302599998
 20
580.7021732599999
 30
0.0
 11
763.0751169627927
 21
580.7021732599999
 31
0.0
  0
LINE
  5
618
330
DF
100
AcDbEntity
  8
0
100
AcDbLine
 10
759.8173302599998
 20
580.7021732599999
 30
0.0
 11
759.8173302599998
 21
596.70217326
 31
0.0
  0
LINE
  5
619
330
DF
100
AcDbEntity
  8
0
100
AcDbLine
 10
766.8484770711716
 20
652.7021732600001
 30
0.0
 11
768.2772011680305
 21
679.9638530412146
 31
0.0
  0
LINE
  5
61A
330
DF
100
AcDbEntity
  8
0
100
AcDbLine
 10
1026.786183448827
 20
652.7021732599998
 30
0.0
 11
1025.357459351969
 21
679.9638530412147
 31
0.0
  0
DIMENSION
  5
628
330
DF
100
AcDbEntity
  8
SUNPOU
100
AcDbDimension
  2
*D30
 10
753.8173302599998
 20
737.756845790268
 30
0.0
 11
892.8173302599999
 21
745.706845790268
 31
0.0
 70
    32
  3
IMAO
100
AcDbAlignedDimension
 13
1031.817330259999
 23
552.7021732599999
 33
0.0
 14
753.8173302599998
 24
535.2915574143322
 34
0.0
100
AcDbRotatedDimension
1001
ACAD
1000
DSTYLE
1002
{
1070
   287
1070
     3
1070
    40
1040
5.0
1070
   271
1070
     4
1070
   272
1070
     4
1070
   279
1070
     0
1070
   284
1070
     0
1070
   285
1070
     0
1070
   286
1070
     0
1070
   340
1005
D7
1070
     6
1000
ARROW
1070
     7
1000
ARROW
1002
}
  0
DIMENSION
  5
635
330
DF
100
AcDbEntity
  8
SUNPOU
100
AcDbDimension
  2
*D31
 10
773.8173302599998
 20
459.2855960048354
 30
0.0
 11
836.8173302599998
 21
467.2355960048355
 31
0.0
 70
    32
  3
IMAO
100
AcDbAlignedDimension
 13
899.8173302599999
 23
494.7021732599999
 33
0.0
 14
773.8173302599998
 24
494.70217326
 34
0.0
100
AcDbRotatedDimension
1001
ACAD
1000
DSTYLE
1002
{
1070
   287
1070
     3
1070
    40
1040
5.0
1070
   271
1070
     4
1070
   272
1070
     4
1070
   279
1070
     0
1070
   284
1070
     0
1070
   285
1070
     0
1070
   286
1070
     0
1070
   340
1005
D7
1070
     6
1000
ARROW
1070
     7
1000
ARROW
1002
}
  0
ARC
  5
636
330
DF
100
AcDbEntity
  8
0
100
AcDbCircle
 10
771.8173302599999
 20
340.70217326
 30
0.0
 40
5.0
100
AcDbArc
 50
179.9999999999997
 51
270.0
  0
ARC
  5
637
330
DF
100
AcDbEntity
  8
0
100
AcDbCircle
 10
1026.817330259999
 20
340.7021732599999
 30
0.0
 40
5.0
100
AcDbArc
 50
270.0
 51
0.0
  0
DIMENSION
  5
644
330
DF
100
AcDbEntity
  8
SUNPOU
100
AcDbDimension
  2
*D32
 10
766.8173302599996
 20
298.2905047500535
 30
0.0
 11
899.3173302599998
 21
306.2405047500535
 31
0.0
 70
    32
  3
IMAO
100
AcDbAlignedDimension
 13
1031.817330259999
 23
340.7021732599998
 33
0.0
 14
766.8173302599996
 24
343.7021732599999
 34
0.0
100
AcDbRotatedDimension
1001
ACAD
1000
DSTYLE
1002
{
1070
   287
1070
     3
1070
    40
1040
5.0
1070
   271
1070
     4
1070
   272
1070
     4
1070
   279
1070
     0
1070
   284
1070
     0
1070
   285
1070
     0
1070
   286
1070
     0
1070
   340
1005
D7
1070
     6
1000
ARROW
1070
     7
1000
ARROW
1002
}
  0
DIMENSION
  5
651
330
DF
100
AcDbEntity
  8
SUNPOU
100
AcDbDimension
  2
*D33
 10
746.8173302599999
 20
262.8595261120708
 30
0.0
 11
889.3173302599999
 21
270.8095261120708
 31
0.0
 70
    32
  3
IMAO
100
AcDbAlignedDimension
 13
1031.817330259999
 23
340.7021732599999
 33
0.0
 14
746.8173302599999
 24
343.7021732599998
 34
0.0
100
AcDbRotatedDimension
1001
ACAD
1000
DSTYLE
1002
{
1070
   287
1070
     3
1070
    40
1040
5.0
1070
   271
1070
     4
1070
   272
1070
     4
1070
   279
1070
     0
1070
   284
1070
     0
1070
   285
1070
     0
1070
   286
1070
     0
1070
   340
1005
D7
1070
     6
1000
ARROW
1070
     7
1000
ARROW
1002
}
  0
LINE
  5
656
330
DF
100
AcDbEntity
  8
ITTEN
100
AcDbLine
 10
981.8173302599999
 20
463.7021732599999
 30
0.0
 11
981.8173302599999
 21
525.70217326
 31
0.0
  0
DIMENSION
  5
664
330
DF
100
AcDbEntity
  8
SUNPOU
100
AcDbDimension
  2
*D34
 10
981.8173302599999
 20
521.1983901305598
 30
0.0
 11
1006.81733026
 21
529.1483901305598
 31
0.0
 70
    32
  3
IMAO
100
AcDbAlignedDimension
 13
1031.817330259999
 23
501.7021732599999
 33
0.0
 14
981.8173302599999
 24
496.70217326
 34
0.0
100
AcDbRotatedDimension
1001
ACAD
1000
DSTYLE
1002
{
1070
   287
1070
     3
1070
    40
1040
5.0
1070
   271
1070
     4
1070
   272
1070
     4
1070
   279
1070
     0
1070
   284
1070
     0
1070
   285
1070
     0
1070
   286
1070
     0
1070
   340
1005
D7
1070
     6
1000
ARROW
1070
     7
1000
ARROW
1002
}
  0
INSERT
  5
665
330
DF
100
AcDbEntity
  8
SUNPOU
100
AcDbBlockReference
  2
ARROW
 10
981.8173302599999
 20
494.7021732599998
 30
0.0
 41
7.5
 42
7.5
 43
7.5
 50
146.5055474099439
  0
LINE
  5
666
330
DF
100
AcDbEntity
  8
SUNPOU
100
AcDbLine
 10
988.0718746875844
 20
490.5632514193059
 30
0.0
 11
1072.491595294933
 21
434.6988108589274
 31
0.0
  0
LINE
  5
667
330
DF
100
AcDbEntity
  8
SUNPOU
100
AcDbLine
 10
1072.491595294933
 20
434.6988108589274
 30
0.0
 11
1079.991595294933
 21
434.6988108589274
 31
0.0
  0
LINE
  5
668
330
DF
100
AcDbEntity
  8
SUNPOU
100
AcDbLine
 10
1079.991595294933
 20
434.6988108589274
 30
0.0
 11
1283.991595294933
 21
434.6988108589274
 31
0.0
  0
MTEXT
  5
669
330
DF
100
AcDbEntity
  8
SUNPOU
100
AcDbMText
 10
1080.441595294933
 20
442.6488108589274
 30
0.0
 40
15.0
 41
0.0
 71
     4
 72
     1
  1
\A1;電源コード長さ約2050
1001
ACAD
1000
MTEXTBEGIN
1070
    73
1070
     1
1070
    44
1040
1.0
1070
    74
1070
     0
1000
MTEXTEND
  0
TEXT
  5
66A
330
DF
100
AcDbEntity
  8
SUNPOU
100
AcDbText
 10
1155.459445218789
 20
415.7999296151611
 30
0.0
 40
15.0
  1
立ち上り170
  7
K
100
AcDbText
  0
ENDSEC
  0
SECTION
  2
OBJECTS
  0
DICTIONARY
  5
D3
330
0
100
AcDbDictionary
  3
ACAD_GROUP
350
D4
  3
ACAD_MLINESTYLE
350
D5
  3
ACAD_PLOTSTYLENAME
350
66E
  3
ACAD_LAYOUT
350
670
  3
ACAD_PLOTSETTINGS
350
671
  3
ACDBHEADERROUNDTRIPXREC
350
679
  0
DICTIONARY
  5
69C
330
DF
100
AcDbDictionary
280
     1
  3
ACAD_LAYOUTSELFREF
360
69D
  0
DICTIONARY
  5
69A
330
DC
100
AcDbDictionary
280
     1
  3
ACAD_LAYOUTSELFREF
360
69B
  0
DICTIONARY
  5
D4
102
{ACAD_REACTORS
330
D3
102
}
330
D3
100
AcDbDictionary
  0
DICTIONARY
  5
D5
102
{ACAD_REACTORS
330
D3
102
}
330
D3
100
AcDbDictionary
  3
STANDARD
350
E2
  0
ACDBDICTIONARYWDFLT
  5
66E
102
{ACAD_REACTORS
330
D3
102
}
330
D3
100
AcDbDictionary
281
     1
  3
Normal
350
66F
100
AcDbDictionaryWithDefault
340
66F
  0
DICTIONARY
  5
670
102
{ACAD_REACTORS
330
D3
102
}
330
D3
100
AcDbDictionary
  0
DICTIONARY
  5
671
102
{ACAD_REACTORS
330
D3
102
}
330
D3
100
AcDbDictionary
  0
DICTIONARY
  5
679
102
{ACAD_REACTORS
330
D3
102
}
330
D3
100
AcDbDictionary
  3
TSTACKALIGN
350
67A
  3
TSTACKSIZE
350
67B
  3
HYPERLINKBASE
350
67C
  3
STYLESHEET
350
67D
  3
LAYOUTDICT
350
67E
  3
PLOTSETDICT
350
67F
  3
PLOTSTYLNAMDICT
350
680
  3
LWETCUNION
350
681
  3
INSUNITS
350
682
  3
CEPSNTYPE
350
683
  3
FINGERPRINTGUID
350
684
  3
VERSIONGUID
350
685
  3
PSVPSCALE
350
686
  3
DIMSTYLEDATA
350
687
  3
PUCSORTHOREF
350
688
  3
PUCSORTHOVIEW
350
689
  3
PUCSBASE
350
68A
  3
PUCSORGTOP
350
68B
  3
PUCSORGBOTTOM
350
68C
  3
PUCSORGLEFT
350
68D
  3
PUCSORGRIGHT
350
68E
  3
PUCSORGFRONT
350
68F
  3
PUCSORGBACK
350
690
  3
UCSORTHOREF
350
691
  3
UCSORTHOVIEW
350
692
  3
UCSBASE
350
693
  3
UCSORGTOP
350
694
  3
UCSORGBOTTOM
350
695
  3
UCSORGLEFT
350
696
  3
UCSORGRIGHT
350
697
  3
UCSORGFRONT
350
698
  3
UCSORGBACK
350
699
  0
XRECORD
  5
69D
102
{ACAD_REACTORS
330
69C
102
}
330
69C
100
AcDbXrecord
340
DF
  0
XRECORD
  5
69B
102
{ACAD_REACTORS
330
69A
102
}
330
69A
100
AcDbXrecord
340
DC
  0
MLINESTYLE
  5
E2
102
{ACAD_REACTORS
330
D5
102
}
330
D5
100
AcDbMlineStyle
  2
STANDARD
 70
     0
  3

 62
     0
 51
90.0
 52
90.0
 71
     2
 49
0.5
 62
   256
  6
BYLAYER
 49
-0.5
 62
   256
  6
BYLAYER
  0
ACDBPLACEHOLDER
  5
66F
102
{ACAD_REACTORS
330
66E
102
}
330
66E
100
AcDbPlaceHolder
280
     0
  0
XRECORD
  5
67A
102
{ACAD_REACTORS
330
679
102
}
330
679
100
AcDbXrecord
 90
        1
  0
XRECORD
  5
67B
102
{ACAD_REACTORS
330
679
102
}
330
679
100
AcDbXrecord
 90
       70
  0
XRECORD
  5
67C
102
{ACAD_REACTORS
330
679
102
}
330
679
100
AcDbXrecord
  1

  0
XRECORD
  5
67D
102
{ACAD_REACTORS
330
679
102
}
330
679
100
AcDbXrecord
  1

  0
XRECORD
  5
67E
102
{ACAD_REACTORS
330
679
102
}
330
679
100
AcDbXrecord
340
670
  0
XRECORD
  5
67F
102
{ACAD_REACTORS
330
679
102
}
330
679
100
AcDbXrecord
340
671
  0
XRECORD
  5
680
102
{ACAD_REACTORS
330
679
102
}
330
679
100
AcDbXrecord
340
66E
  0
XRECORD
  5
681
102
{ACAD_REACTORS
330
679
102
}
330
679
100
AcDbXrecord
 90
    14877
  0
XRECORD
  5
682
102
{ACAD_REACTORS
330
679
102
}
330
679
100
AcDbXrecord
 90
        0
  0
XRECORD
  5
683
102
{ACAD_REACTORS
330
679
102
}
330
679
100
AcDbXrecord
 90
        0
  0
XRECORD
  5
684
102
{ACAD_REACTORS
330
679
102
}
330
679
100
AcDbXrecord
  1
{485B2962-3559-4C4B-9D8C-F4277EAE362F}
  0
XRECORD
  5
685
102
{ACAD_REACTORS
330
679
102
}
330
679
100
AcDbXrecord
  1
{76C38E9C-75D6-4E10-9BF1-974C354661A4}
  0
XRECORD
  5
686
102
{ACAD_REACTORS
330
679
102
}
330
679
100
AcDbXrecord
 40
0.0
  0
XRECORD
  5
687
102
{ACAD_REACTORS
330
679
102
}
330
679
100
AcDbXrecord
1000
DSTYLE
1002
{
1070
   341
340
E3
1070
   342
340
E3
1070
   343
340
E3
1070
   344
340
E3
1002
}
  0
XRECORD
  5
688
102
{ACAD_REACTORS
330
679
102
}
330
679
100
AcDbXrecord
340
0
  0
XRECORD
  5
689
102
{ACAD_REACTORS
330
679
102
}
330
679
100
AcDbXrecord
 70
     0
  0
XRECORD
  5
68A
102
{ACAD_REACTORS
330
679
102
}
330
679
100
AcDbXrecord
340
0
  0
XRECORD
  5
68B
102
{ACAD_REACTORS
330
679
102
}
330
679
100
AcDbXrecord
 10
0.0
 20
0.0
 30
0.0
  0
XRECORD
  5
68C
102
{ACAD_REACTORS
330
679
102
}
330
679
100
AcDbXrecord
 10
0.0
 20
0.0
 30
0.0
  0
XRECORD
  5
68D
102
{ACAD_REACTORS
330
679
102
}
330
679
100
AcDbXrecord
 10
0.0
 20
0.0
 30
0.0
  0
XRECORD
  5
68E
102
{ACAD_REACTORS
330
679
102
}
330
679
100
AcDbXrecord
 10
0.0
 20
0.0
 30
0.0
  0
XRECORD
  5
68F
102
{ACAD_REACTORS
330
679
102
}
330
679
100
AcDbXrecord
 10
0.0
 20
0.0
 30
0.0
  0
XRECORD
  5
690
102
{ACAD_REACTORS
330
679
102
}
330
679
100
AcDbXrecord
 10
0.0
 20
0.0
 30
0.0
  0
XRECORD
  5
691
102
{ACAD_REACTORS
330
679
102
}
330
679
100
AcDbXrecord
340
0
  0
XRECORD
  5
692
102
{ACAD_REACTORS
330
679
102
}
330
679
100
AcDbXrecord
 70
     0
  0
XRECORD
  5
693
102
{ACAD_REACTORS
330
679
102
}
330
679
100
AcDbXrecord
340
0
  0
XRECORD
  5
694
102
{ACAD_REACTORS
330
679
102
}
330
679
100
AcDbXrecord
 10
0.0
 20
0.0
 30
0.0
  0
XRECORD
  5
695
102
{ACAD_REACTORS
330
679
102
}
330
679
100
AcDbXrecord
 10
0.0
 20
0.0
 30
0.0
  0
XRECORD
  5
696
102
{ACAD_REACTORS
330
679
102
}
330
679
100
AcDbXrecord
 10
0.0
 20
0.0
 30
0.0
  0
XRECORD
  5
697
102
{ACAD_REACTORS
330
679
102
}
330
679
100
AcDbXrecord
 10
0.0
 20
0.0
 30
0.0
  0
XRECORD
  5
698
102
{ACAD_REACTORS
330
679
102
}
330
679
100
AcDbXrecord
 10
0.0
 20
0.0
 30
0.0
  0
XRECORD
  5
699
102
{ACAD_REACTORS
330
679
102
}
330
679
100
AcDbXrecord
 10
0.0
 20
0.0
 30
0.0
  0
ENDSEC
  0
EOF
