  0
SECTION
  2
HEADER
  9
$ACADVER
  1
AC1015
  9
$ACADMAINTVER
 70
    20
  9
$DWGCODEPAGE
  3
ANSI_932
  9
$INSBASE
 10
0.0
 20
0.0
 30
0.0
  9
$EXTMIN
 10
5022.231590241616
 20
-11066.71870964927
 30
-0.0000000349181948
  9
$EXTMAX
 10
9285.347916034451
 20
-8154.247559925968
 30
0.0000000814935746
  9
$LIMMIN
 10
0.0
 20
0.0
  9
$LIMMAX
 10
3999.999984
 20
2770.0
  9
$ORTHOMODE
 70
     0
  9
$REGENMODE
 70
     1
  9
$FILLMODE
 70
     1
  9
$QTEXTMODE
 70
     0
  9
$MIRRTEXT
 70
     0
  9
$LTSCALE
 40
50.0
  9
$ATTMODE
 70
     1
  9
$TEXTSIZE
 40
30.0
  9
$TRACEWID
 40
0.05
  9
$TEXTSTYLE
  7
K
  9
$CLAYER
  8
SUNPOU
  9
$CELTYPE
  6
BYLAYER
  9
$CECOLOR
 62
   256
  9
$CELTSCALE
 40
1.0
  9
$DISPSILH
 70
     0
  9
$DIMSCALE
 40
15.0
  9
$DIMASZ
 40
1.5
  9
$DIMEXO
 40
1.0
  9
$DIMDLI
 40
6.0
  9
$DIMRND
 40
0.0
  9
$DIMDLE
 40
0.0
  9
$DIMEXE
 40
1.0
  9
$DIMTP
 40
495.0
  9
$DIMTM
 40
0.0
  9
$DIMTXT
 40
2.0
  9
$DIMCEN
 40
0.0
  9
$DIMTSZ
 40
0.0
  9
$DIMTOL
 70
     0
  9
$DIMLIM
 70
     0
  9
$DIMTIH
 70
     0
  9
$DIMTOH
 70
     0
  9
$DIMSE1
 70
     0
  9
$DIMSE2
 70
     0
  9
$DIMTAD
 70
     1
  9
$DIMZIN
 70
     8
  9
$DIMBLK
  1

  9
$DIMASO
 70
     1
  9
$DIMSHO
 70
     0
  9
$DIMPOST
  1

  9
$DIMAPOST
  1

  9
$DIMALT
 70
     0
  9
$DIMALTD
 70
     2
  9
$DIMALTF
 40
25.4
  9
$DIMLFAC
 40
1.0
  9
$DIMTOFL
 70
     1
  9
$DIMTVP
 40
0.0
  9
$DIMTIX
 70
     1
  9
$DIMSOXD
 70
     0
  9
$DIMSAH
 70
     1
  9
$DIMBLK1
  1
ARROW
  9
$DIMBLK2
  1
ARROW
  9
$DIMSTYLE
  2
IMCADLT
  9
$DIMCLRD
 70
     0
  9
$DIMCLRE
 70
     0
  9
$DIMCLRT
 70
     0
  9
$DIMTFAC
 40
1.0
  9
$DIMGAP
 40
1.0
  9
$DIMJUST
 70
     0
  9
$DIMSD1
 70
     0
  9
$DIMSD2
 70
     0
  9
$DIMTOLJ
 70
     1
  9
$DIMTZIN
 70
     0
  9
$DIMALTZ
 70
     0
  9
$DIMALTTZ
 70
     0
  9
$DIMUPT
 70
     1
  9
$DIMDEC
 70
     1
  9
$DIMTDEC
 70
     1
  9
$DIMALTU
 70
     2
  9
$DIMALTTD
 70
     2
  9
$DIMTXSTY
  7
STANDARD
  9
$DIMAUNIT
 70
     0
  9
$DIMADEC
 70
     0
  9
$DIMALTRND
 40
0.0
  9
$DIMAZIN
 70
     0
  9
$DIMDSEP
 70
    46
  9
$DIMATFIT
 70
     1
  9
$DIMFRAC
 70
     0
  9
$DIMLDRBLK
  1

  9
$DIMLUNIT
 70
     2
  9
$DIMLWD
 70
    -2
  9
$DIMLWE
 70
    -2
  9
$DIMTMOVE
 70
     0
  9
$LUNITS
 70
     2
  9
$LUPREC
 70
     2
  9
$SKETCHINC
 40
0.1
  9
$FILLETRAD
 40
10.0
  9
$AUNITS
 70
     0
  9
$AUPREC
 70
     2
  9
$MENU
  1
STDR12J
  9
$ELEVATION
 40
0.0
  9
$PELEVATION
 40
0.0
  9
$THICKNESS
 40
0.0
  9
$LIMCHECK
 70
     0
  9
$CHAMFERA
 40
85.0
  9
$CHAMFERB
 40
85.0
  9
$CHAMFERC
 40
0.0
  9
$CHAMFERD
 40
0.0
  9
$SKPOLY
 70
     0
  9
$TDCREATE
 40
2451523.401117476
  9
$TDUCREATE
 40
2451523.026117477
  9
$TDUPDATE
 40
2460734.438296100
  9
$TDUUPDATE
 40
2460734.063296100
  9
$TDINDWG
 40
1.2894678472
  9
$TDUSRTIMER
 40
1.2894678472
  9
$USRTIMER
 70
     1
  9
$ANGBASE
 50
0.0
  9
$ANGDIR
 70
     0
  9
$PDMODE
 70
     3
  9
$PDSIZE
 40
0.0
  9
$PLINEWID
 40
0.0
  9
$SPLFRAME
 70
     0
  9
$SPLINETYPE
 70
     5
  9
$SPLINESEGS
 70
     8
  9
$HANDSEED
  5
60F
  9
$SURFTAB1
 70
     6
  9
$SURFTAB2
 70
     6
  9
$SURFTYPE
 70
     6
  9
$SURFU
 70
     6
  9
$SURFV
 70
     6
  9
$UCSBASE
  2

  9
$UCSNAME
  2

  9
$UCSORG
 10
0.0
 20
0.0
 30
0.0
  9
$UCSXDIR
 10
1.0
 20
0.0
 30
0.0
  9
$UCSYDIR
 10
0.0
 20
1.0
 30
0.0
  9
$UCSORTHOREF
  2

  9
$UCSORTHOVIEW
 70
     0
  9
$UCSORGTOP
 10
0.0
 20
0.0
 30
0.0
  9
$UCSORGBOTTOM
 10
0.0
 20
0.0
 30
0.0
  9
$UCSORGLEFT
 10
0.0
 20
0.0
 30
0.0
  9
$UCSORGRIGHT
 10
0.0
 20
0.0
 30
0.0
  9
$UCSORGFRONT
 10
0.0
 20
0.0
 30
0.0
  9
$UCSORGBACK
 10
0.0
 20
0.0
 30
0.0
  9
$PUCSBASE
  2

  9
$PUCSNAME
  2

  9
$PUCSORG
 10
0.0
 20
0.0
 30
0.0
  9
$PUCSXDIR
 10
1.0
 20
0.0
 30
0.0
  9
$PUCSYDIR
 10
0.0
 20
1.0
 30
0.0
  9
$PUCSORTHOREF
  2

  9
$PUCSORTHOVIEW
 70
     0
  9
$PUCSORGTOP
 10
0.0
 20
0.0
 30
0.0
  9
$PUCSORGBOTTOM
 10
0.0
 20
0.0
 30
0.0
  9
$PUCSORGLEFT
 10
0.0
 20
0.0
 30
0.0
  9
$PUCSORGRIGHT
 10
0.0
 20
0.0
 30
0.0
  9
$PUCSORGFRONT
 10
0.0
 20
0.0
 30
0.0
  9
$PUCSORGBACK
 10
0.0
 20
0.0
 30
0.0
  9
$USERI1
 70
     3
  9
$USERI2
 70
     1
  9
$USERI3
 70
    10
  9
$USERI4
 70
     1
  9
$USERI5
 70
     1
  9
$USERR1
 40
10.0
  9
$USERR2
 40
3.0
  9
$USERR3
 40
3.0
  9
$USERR4
 40
2.5
  9
$USERR5
 40
5.0
  9
$WORLDVIEW
 70
     1
  9
$SHADEDGE
 70
     3
  9
$SHADEDIF
 70
    70
  9
$TILEMODE
 70
     1
  9
$MAXACTVP
 70
    16
  9
$PINSBASE
 10
0.0
 20
0.0
 30
0.0
  9
$PLIMCHECK
 70
     0
  9
$PEXTMIN
 10
1.000000000000000E+20
 20
1.000000000000000E+20
 30
1.000000000000000E+20
  9
$PEXTMAX
 10
-1.000000000000000E+20
 20
-1.000000000000000E+20
 30
-1.000000000000000E+20
  9
$PLIMMIN
 10
0.0
 20
0.0
  9
$PLIMMAX
 10
12.0
 20
9.0
  9
$UNITMODE
 70
     0
  9
$VISRETAIN
 70
     0
  9
$PLINEGEN
 70
     0
  9
$PSLTSCALE
 70
     0
  9
$TREEDEPTH
 70
     0
  9
$CMLSTYLE
  2
STANDARD
  9
$CMLJUST
 70
     0
  9
$CMLSCALE
 40
1.0
  9
$PROXYGRAPHICS
 70
     1
  9
$MEASUREMENT
 70
     0
  9
$CELWEIGHT
370
    -1
  9
$ENDCAPS
280
     0
  9
$JOINSTYLE
280
     0
  9
$LWDISPLAY
290
     0
  9
$INSUNITS
 70
     0
  9
$HYPERLINKBASE
  1

  9
$STYLESHEET
  1
yama1.ctb
  9
$XEDIT
290
     1
  9
$CEPSNTYPE
380
     0
  9
$PSTYLEMODE
290
     1
  9
$FINGERPRINTGUID
  2
{101BC01E-9BB3-4462-89C5-669AD7C99DEE}
  9
$VERSIONGUID
  2
{28E9AD3F-6FA1-46B3-8242-D109853FC240}
  9
$EXTNAMES
290
     1
  9
$PSVPSCALE
 40
0.0
  9
$OLESTARTUP
290
     0
  0
ENDSEC
  0
SECTION
  2
CLASSES
  0
CLASS
  1
DICTIONARYVAR
  2
AcDbDictionaryVar
  3
ObjectDBX Classes
 90
        0
280
     0
281
     0
  0
CLASS
  1
ACDBDICTIONARYWDFLT
  2
AcDbDictionaryWithDefault
  3
ObjectDBX Classes
 90
        0
280
     0
281
     0
  0
CLASS
  1
ACDBPLACEHOLDER
  2
AcDbPlaceHolder
  3
ObjectDBX Classes
 90
        0
280
     0
281
     0
  0
CLASS
  1
LAYOUT
  2
AcDbLayout
  3
ObjectDBX Classes
 90
        0
280
     0
281
     0
  0
CLASS
  1
SCALE
  2
AcDbScale
  3
ObjectDBX Classes
 90
     1153
280
     0
281
     0
  0
CLASS
  1
TABLESTYLE
  2
AcDbTableStyle
  3
ObjectDBX Classes
 90
     4095
280
     0
281
     0
  0
CLASS
  1
MLEADERSTYLE
  2
AcDbMLeaderStyle
  3
ACDB_MLEADERSTYLE_CLASS
 90
     4095
280
     0
281
     0
  0
ENDSEC
  0
SECTION
  2
TABLES
  0
TABLE
  2
VPORT
  5
19
330
0
100
AcDbSymbolTable
 70
     1
  0
VPORT
  5
5C4
330
19
100
AcDbSymbolTableRecord
100
AcDbViewportTableRecord
  2
*Active
 70
     0
 10
0.0
 20
0.0
 11
1.0
 21
1.0
 12
7268.666759774166
 22
-9610.633149498257
 13
0.0
 23
0.0
 14
1.0
 24
1.0
 15
10.0
 25
10.0
 16
0.0
 26
0.0
 36
1.0
 17
0.0
 27
0.0
 37
0.0
 40
2996.27003816155
 41
2.257177033492823
 42
50.0
 43
0.0
 44
0.0
 50
0.0
 51
0.0
 71
     0
 72
   500
 73
     1
 74
     0
 75
     0
 76
     0
 77
     0
 78
     0
281
     0
 65
     1
110
0.0
120
0.0
130
0.0
111
1.0
121
0.0
131
0.0
112
0.0
122
1.0
132
0.0
 79
     0
146
0.0
  0
ENDTAB
  0
TABLE
  2
LTYPE
  5
14
330
0
100
AcDbSymbolTable
 70
     4
  0
LTYPE
  5
15
330
14
100
AcDbSymbolTableRecord
100
AcDbLinetypeTableRecord
  2
BYBLOCK
 70
     0
  3

 72
    65
 73
     0
 40
0.0
  0
LTYPE
  5
16
330
14
100
AcDbSymbolTableRecord
100
AcDbLinetypeTableRecord
  2
BYLAYER
 70
     0
  3

 72
    65
 73
     0
 40
0.0
  0
LTYPE
  5
8
330
14
100
AcDbSymbolTableRecord
100
AcDbLinetypeTableRecord
  2
CONTINUOUS
 70
     0
  3
実線
 72
    65
 73
     0
 40
0.0
  0
LTYPE
  5
4F
330
14
100
AcDbSymbolTableRecord
100
AcDbLinetypeTableRecord
  2
CENTER
 70
     0
  3
____ _ ____ _ ____ _ ____ _ ____ _ ____ _ ____
 72
    65
 73
     4
 40
2.0
 49
1.25
 74
     0
 49
-0.25
 74
     0
 49
0.25
 74
     0
 49
-0.25
 74
     0
  0
LTYPE
  5
2A0
330
14
100
AcDbSymbolTableRecord
100
AcDbLinetypeTableRecord
  2
PHANTOM
 70
     0
  3
_____ _ _ _____ _ _ _____ _ _ _____ _ _ ____
 72
    65
 73
     6
 40
2.5
 49
1.25
 74
     0
 49
-0.25
 74
     0
 49
0.25
 74
     0
 49
-0.25
 74
     0
 49
0.25
 74
     0
 49
-0.25
 74
     0
  0
LTYPE
  5
51
330
14
100
AcDbSymbolTableRecord
100
AcDbLinetypeTableRecord
  2
HIDDEN
 70
     0
  3
_ _ _ _ _ _ _ _ _ _ _ _ _ _ _ _ _ _ _ _ _ _ _
 72
    65
 73
     2
 40
0.375
 49
0.25
 74
     0
 49
-0.125
 74
     0
  0
ENDTAB
  0
TABLE
  2
LAYER
  5
10
330
0
100
AcDbSymbolTable
 70
    19
  0
LAYER
  5
4
330
10
100
AcDbSymbolTableRecord
100
AcDbLayerTableRecord
  2
0
 70
     0
 62
     7
  6
CONTINUOUS
370
    -3
390
5
  0
LAYER
  5
18C
330
10
100
AcDbSymbolTableRecord
100
AcDbLayerTableRecord
  2
ITTEN
 70
     0
 62
     1
  6
CENTER
370
    -3
390
5
  0
LAYER
  5
29F
330
10
100
AcDbSymbolTableRecord
100
AcDbLayerTableRecord
  2
NITEN
 70
     0
 62
     2
  6
PHANTOM
370
    -3
390
5
  0
LAYER
  5
296
330
10
100
AcDbSymbolTableRecord
100
AcDbLayerTableRecord
  2
HATCH
 70
     0
 62
     4
  6
CONTINUOUS
370
    -3
390
5
  0
LAYER
  5
2B
330
10
100
AcDbSymbolTableRecord
100
AcDbLayerTableRecord
  2
SUNPOU
 70
     0
 62
     3
  6
CONTINUOUS
370
    -3
390
5
  0
LAYER
  5
2A4
330
10
100
AcDbSymbolTableRecord
100
AcDbLayerTableRecord
  2
TEXT
 70
     0
 62
     3
  6
CONTINUOUS
370
    -3
390
5
  0
LAYER
  5
1C4
330
10
100
AcDbSymbolTableRecord
100
AcDbLayerTableRecord
  2
SAISEN
 70
     0
 62
     4
  6
CONTINUOUS
370
    -3
390
5
  0
LAYER
  5
4E
330
10
100
AcDbSymbolTableRecord
100
AcDbLayerTableRecord
  2
JISSEN
 70
     0
 62
     7
  6
CONTINUOUS
370
    -3
390
5
  0
LAYER
  5
75
330
10
100
AcDbSymbolTableRecord
100
AcDbLayerTableRecord
  2
TENSEN
 70
     0
 62
     2
  6
HIDDEN
370
    -3
390
5
  0
LAYER
  5
30A
330
10
100
AcDbSymbolTableRecord
100
AcDbLayerTableRecord
  2
WAKU
 70
     0
 62
     5
  6
CONTINUOUS
370
    -3
390
5
  0
LAYER
  5
3A
330
10
100
AcDbSymbolTableRecord
100
AcDbLayerTableRecord
  2
DEFPOINTS
 70
     0
 62
     7
  6
CONTINUOUS
290
     0
370
    -3
390
5
  0
LAYER
  5
79
330
10
100
AcDbSymbolTableRecord
100
AcDbLayerTableRecord
  2
水槽
 70
     0
 62
     7
  6
CONTINUOUS
370
    -3
390
5
  0
LAYER
  5
168
330
10
100
AcDbSymbolTableRecord
100
AcDbLayerTableRecord
  2
つぼ
 70
     0
 62
     7
  6
CONTINUOUS
370
    -3
390
5
  0
LAYER
  5
16B
330
10
100
AcDbSymbolTableRecord
100
AcDbLayerTableRecord
  2
トップリング
 70
     0
 62
     7
  6
CONTINUOUS
370
    -3
390
5
  0
LAYER
  5
281
330
10
100
AcDbSymbolTableRecord
100
AcDbLayerTableRecord
  2
水槽額縁
 70
     0
 62
     7
  6
CONTINUOUS
370
    -3
390
5
  0
LAYER
  5
1EB
330
10
100
AcDbSymbolTableRecord
100
AcDbLayerTableRecord
  2
さん
 70
     0
 62
     7
  6
CONTINUOUS
370
    -3
390
5
  0
LAYER
  5
284
330
10
100
AcDbSymbolTableRecord
100
AcDbLayerTableRecord
  2
外釜額縁
 70
     0
 62
     7
  6
CONTINUOUS
370
    -3
390
5
  0
LAYER
  5
279
330
10
100
AcDbSymbolTableRecord
100
AcDbLayerTableRecord
  2
外釜カバ
 70
     0
 62
     7
  6
CONTINUOUS
370
    -3
390
5
  0
LAYER
  5
86
330
10
100
AcDbSymbolTableRecord
100
AcDbLayerTableRecord
  2
フィルタ枠
 70
     0
 62
     7
  6
CONTINUOUS
370
    -3
390
5
  0
ENDTAB
  0
TABLE
  2
STYLE
  5
11
330
0
100
AcDbSymbolTable
 70
     3
  0
STYLE
  5
12
330
11
100
AcDbSymbolTableRecord
100
AcDbTextStyleTableRecord
  2
STANDARD
 70
     0
 40
0.0
 41
1.0
 50
0.0
 71
     0
 42
0.2
  3
ROMANS
  4
EXTFONT
  0
STYLE
  5
2C
330
11
100
AcDbSymbolTableRecord
100
AcDbTextStyleTableRecord
  2
K
 70
     0
 40
0.0
 41
1.0
 50
0.0
 71
     0
 42
30.0
  3
ROMANS
  4
EXTFONT
  0
ENDTAB
  0
TABLE
  2
VIEW
  5
17
330
0
100
AcDbSymbolTable
 70
     0
  0
ENDTAB
  0
TABLE
  2
UCS
  5
18
330
0
100
AcDbSymbolTable
 70
     0
  0
ENDTAB
  0
TABLE
  2
APPID
  5
1B
330
0
100
AcDbSymbolTable
 70
     3
  0
APPID
  5
1C
330
1B
100
AcDbSymbolTableRecord
100
AcDbRegAppTableRecord
  2
ACAD
 70
     0
  0
APPID
  5
5F6
330
1B
100
AcDbSymbolTableRecord
100
AcDbRegAppTableRecord
  2
___LIKI___
 70
     0
  0
APPID
  5
60E
330
1B
100
AcDbSymbolTableRecord
100
AcDbRegAppTableRecord
  2
ACAD_MLEADERVER
 70
     0
  0
ENDTAB
  0
TABLE
  2
DIMSTYLE
  5
1D
330
0
100
AcDbSymbolTable
 70
     2
100
AcDbDimStyleTable
 71
     1
340
1E
  0
DIMSTYLE
105
1E
102
{ACAD_REACTORS
330
59E
330
527
330
518
330
45D
330
450
330
443
330
434
330
427
330
41A
330
40B
330
3F8
330
3EB
330
3DE
330
3CF
330
2EE
330
3E
330
30
102
}
330
1D
100
AcDbSymbolTableRecord
100
AcDbDimStyleTableRecord
  2
IMCADLT
 70
     0
 40
10.0
 41
2.5
 42
1.0
 43
6.0
 44
1.0
 73
     0
 74
     0
 77
     3
 78
     8
140
3.0
141
0.0
146
0.45
147
1.0
172
     1
173
     1
271
     2
272
     2
284
     8
289
     1
340
12
341
1F
343
1F
344
1F
  0
ENDTAB
  0
TABLE
  2
BLOCK_RECORD
  5
1
330
0
100
AcDbSymbolTable
 70
    20
  0
BLOCK_RECORD
  5
2
330
1
100
AcDbSymbolTableRecord
100
AcDbBlockTableRecord
  2
*MODEL_SPACE
340
A
  0
BLOCK_RECORD
  5
C
330
1
100
AcDbSymbolTableRecord
100
AcDbBlockTableRecord
  2
*PAPER_SPACE
340
F
  0
BLOCK_RECORD
  5
1F
330
1
100
AcDbSymbolTableRecord
100
AcDbBlockTableRecord
  2
ARROW
340
0
102
{BLKREFS
331
2F4
331
2F5
331
3D7
331
3D8
331
3E4
331
3E5
331
3F1
331
3F2
331
3FE
331
3FF
331
413
331
414
331
420
331
421
331
42D
331
42E
331
43C
331
43D
331
449
331
44A
331
456
331
457
331
463
331
464
331
520
331
521
331
52D
331
52E
331
5A6
331
5A7
331
44
331
45
331
36
331
37
102
}
  0
BLOCK_RECORD
  5
4A1
330
1
100
AcDbSymbolTableRecord
100
AcDbBlockTableRecord
  2
BATU2
340
0
102
{BLKREFS
331
4C9
331
4C7
331
4C4
331
4AD
331
4A8
331
4A0
102
}
  0
BLOCK_RECORD
  5
2EF
330
1
100
AcDbSymbolTableRecord
100
AcDbBlockTableRecord
  2
*D2
340
0
  0
BLOCK_RECORD
  5
3D0
330
1
100
AcDbSymbolTableRecord
100
AcDbBlockTableRecord
  2
*D3
340
0
  0
BLOCK_RECORD
  5
3DF
330
1
100
AcDbSymbolTableRecord
100
AcDbBlockTableRecord
  2
*D4
340
0
  0
BLOCK_RECORD
  5
3EC
330
1
100
AcDbSymbolTableRecord
100
AcDbBlockTableRecord
  2
*D5
340
0
  0
BLOCK_RECORD
  5
3F9
330
1
100
AcDbSymbolTableRecord
100
AcDbBlockTableRecord
  2
*D6
340
0
  0
BLOCK_RECORD
  5
40C
330
1
100
AcDbSymbolTableRecord
100
AcDbBlockTableRecord
  2
*D7
340
0
  0
BLOCK_RECORD
  5
41B
330
1
100
AcDbSymbolTableRecord
100
AcDbBlockTableRecord
  2
*D8
340
0
  0
BLOCK_RECORD
  5
428
330
1
100
AcDbSymbolTableRecord
100
AcDbBlockTableRecord
  2
*D9
340
0
  0
BLOCK_RECORD
  5
435
330
1
100
AcDbSymbolTableRecord
100
AcDbBlockTableRecord
  2
*D10
340
0
  0
BLOCK_RECORD
  5
444
330
1
100
AcDbSymbolTableRecord
100
AcDbBlockTableRecord
  2
*D11
340
0
  0
BLOCK_RECORD
  5
451
330
1
100
AcDbSymbolTableRecord
100
AcDbBlockTableRecord
  2
*D12
340
0
  0
BLOCK_RECORD
  5
45E
330
1
100
AcDbSymbolTableRecord
100
AcDbBlockTableRecord
  2
*D13
340
0
  0
BLOCK_RECORD
  5
519
330
1
100
AcDbSymbolTableRecord
100
AcDbBlockTableRecord
  2
*D14
340
0
  0
BLOCK_RECORD
  5
528
330
1
100
AcDbSymbolTableRecord
100
AcDbBlockTableRecord
  2
*D15
340
0
  0
BLOCK_RECORD
  5
59F
330
1
100
AcDbSymbolTableRecord
100
AcDbBlockTableRecord
  2
*D16
340
0
  0
BLOCK_RECORD
  5
3F
330
1
100
AcDbSymbolTableRecord
100
AcDbBlockTableRecord
  2
*D17
340
0
  0
BLOCK_RECORD
  5
31
330
1
100
AcDbSymbolTableRecord
100
AcDbBlockTableRecord
  2
*D18
340
0
  0
ENDTAB
  0
ENDSEC
  0
SECTION
  2
BLOCKS
  0
BLOCK
  5
3
330
2
100
AcDbEntity
  8
0
100
AcDbBlockBegin
  2
*MODEL_SPACE
 70
     0
 10
0.0
 20
0.0
 30
0.0
  3
*MODEL_SPACE
  1

  0
ENDBLK
  5
9
330
2
100
AcDbEntity
  8
0
100
AcDbBlockEnd
  0
BLOCK
  5
D
330
C
100
AcDbEntity
 67
     1
  8
0
100
AcDbBlockBegin
  2
*PAPER_SPACE
 70
     0
 10
0.0
 20
0.0
 30
0.0
  3
*PAPER_SPACE
  1

  0
ENDBLK
  5
E
330
C
100
AcDbEntity
 67
     1
  8
0
100
AcDbBlockEnd
  0
BLOCK
  5
20
330
1F
100
AcDbEntity
  8
0
100
AcDbBlockBegin
  2
ARROW
 70
     0
 10
1.0
 20
0.5
 30
0.0
  3
ARROW
  1

  0
LINE
  5
21
330
1F
100
AcDbEntity
  8
0
100
AcDbLine
 10
1.0
 20
0.5
 30
0.0
 11
-0.5000000000000214
 21
0.0980762113533018
 31
0.0
  0
LINE
  5
22
330
1F
100
AcDbEntity
  8
0
100
AcDbLine
 10
0.0
 20
0.5
 30
0.0
 11
1.0
 21
0.5
 31
0.0
  0
LINE
  5
23
330
1F
100
AcDbEntity
  8
0
100
AcDbLine
 10
1.0
 20
0.5
 30
0.0
 11
-0.4999999999999574
 21
0.9019237886467408
 31
0.0
  0
ENDBLK
  5
24
330
1F
100
AcDbEntity
  8
0
100
AcDbBlockEnd
  0
BLOCK
  5
4A2
330
4A1
100
AcDbEntity
  8
0
100
AcDbBlockBegin
  2
BATU2
 70
     0
 10
0.0
 20
0.0
 30
0.0
  3
BATU2
  1

  0
LINE
  5
4A3
330
4A1
100
AcDbEntity
  8
ITTEN
100
AcDbLine
 10
1.0
 20
0.0
 30
0.0
 11
-1.0
 21
0.0
 31
0.0
  0
LINE
  5
4A4
330
4A1
100
AcDbEntity
  8
ITTEN
100
AcDbLine
 10
0.0
 20
1.0
 30
0.0
 11
0.0
 21
-1.0
 31
0.0
  0
ENDBLK
  5
4A5
330
4A1
100
AcDbEntity
  8
0
100
AcDbBlockEnd
  0
BLOCK
  5
2F0
330
2EF
100
AcDbEntity
  8
0
100
AcDbBlockBegin
  2
*D2
 70
     1
 10
0.0
 20
0.0
 30
0.0
  3
*D2
  1

  0
LINE
  5
2F1
330
2EF
100
AcDbEntity
  8
0
  6
ByBlock
 62
     0
100
AcDbLine
 10
6210.626297673307
 20
-6848.884047111276
 30
0.0
 11
5836.873965515785
 21
-6848.884047111276
 31
0.0
  0
LINE
  5
2F2
330
2EF
100
AcDbEntity
  8
0
  6
ByBlock
 62
     0
100
AcDbLine
 10
5987.626297673305
 20
-7114.884047111274
 30
0.0
 11
5836.873965515785
 21
-7114.884047111274
 31
0.0
  0
LINE
  5
2F3
330
2EF
100
AcDbEntity
  8
0
  6
ByBlock
 62
     0
100
AcDbLine
 10
5846.873965515784
 20
-6863.884047111276
 30
0.0
 11
5846.873965515784
 21
-7099.884047111274
 31
0.0
  0
INSERT
  5
2F4
330
2EF
100
AcDbEntity
  8
0
  6
ByBlock
 62
     0
100
AcDbBlockReference
  2
ARROW
 10
5846.873965515784
 20
-6848.884047111276
 30
0.0
 41
15.0
 42
15.0
 43
15.0
 50
90.0
  0
INSERT
  5
2F5
330
2EF
100
AcDbEntity
  8
0
  6
ByBlock
 62
     0
100
AcDbBlockReference
  2
ARROW
 10
5846.873965515784
 20
-7114.884047111274
 30
0.0
 41
15.0
 42
15.0
 43
15.0
 50
270.0
  0
MTEXT
  5
2F6
330
2EF
100
AcDbEntity
  8
0
  6
ByBlock
 62
     0
100
AcDbMText
 10
5826.873965515784
 20
-6992.564975913163
 30
0.0
 40
20.0
 41
0.0
 71
     5
 72
     1
  1
\A1;266
 11
0.0000000000000001
 21
1.0
 31
0.0
 73
     1
 44
1.0
1001
ACAD
1000
MTEXTBEGIN
1070
    73
1070
     1
1070
    44
1040
1.0
1070
    74
1070
     0
1000
MTEXTEND
  0
POINT
  5
2F7
330
2EF
100
AcDbEntity
  8
DEFPOINTS
  6
ByBlock
 62
     0
100
AcDbPoint
 10
6220.626297673307
 20
-6848.884047111276
 30
0.0
  0
POINT
  5
2F8
330
2EF
100
AcDbEntity
  8
DEFPOINTS
  6
ByBlock
 62
     0
100
AcDbPoint
 10
5997.626297673305
 20
-7114.884047111274
 30
0.0
  0
POINT
  5
2F9
330
2EF
100
AcDbEntity
  8
DEFPOINTS
  6
ByBlock
 62
     0
100
AcDbPoint
 10
5846.873965515784
 20
-7114.884047111274
 30
0.0
  0
ENDBLK
  5
2FA
330
2EF
100
AcDbEntity
  8
0
100
AcDbBlockEnd
  0
BLOCK
  5
3D1
330
3D0
100
AcDbEntity
  8
0
100
AcDbBlockBegin
  2
*D3
 70
     1
 10
0.0
 20
0.0
 30
0.0
  3
*D3
  1

  0
LINE
  5
3D2
330
3D0
100
AcDbEntity
  8
0
  6
ByBlock
 62
     0
100
AcDbLine
 10
7574.529879577015
 20
-5365.676184087293
 30
0.0
 11
7574.529879577015
 21
-5256.481361559806
 31
0.0
  0
LINE
  5
3D3
330
3D0
100
AcDbEntity
  8
0
  6
ByBlock
 62
     0
100
AcDbLine
 10
7609.529879577016
 20
-5405.676184087293
 30
0.0
 11
7609.529879577016
 21
-5256.481361559806
 31
0.0
  0
LINE
  5
3D4
330
3D0
100
AcDbEntity
  8
0
  6
ByBlock
 62
     0
100
AcDbLine
 10
7559.529879577016
 20
-5266.481361559807
 30
0.0
 11
7544.529879577016
 21
-5266.481361559807
 31
0.0
  0
LINE
  5
3D5
330
3D0
100
AcDbEntity
  8
0
  6
ByBlock
 62
     0
100
AcDbLine
 10
7624.529879577015
 20
-5266.481361559807
 30
0.0
 11
7691.910831957969
 21
-5266.481361559807
 31
0.0
  0
LINE
  5
3D6
330
3D0
100
AcDbEntity
  8
0
  6
ByBlock
 62
     0
100
AcDbLine
 10
7574.529879577015
 20
-5266.481361559807
 30
0.0
 11
7609.529879577016
 21
-5266.481361559807
 31
0.0
  0
INSERT
  5
3D7
330
3D0
100
AcDbEntity
  8
0
  6
ByBlock
 62
     0
100
AcDbBlockReference
  2
ARROW
 10
7574.529879577015
 20
-5266.481361559807
 30
0.0
 41
15.0
 42
15.0
 43
15.0
  0
INSERT
  5
3D8
330
3D0
100
AcDbEntity
  8
0
  6
ByBlock
 62
     0
100
AcDbBlockReference
  2
ARROW
 10
7609.529879577016
 20
-5266.481361559807
 30
0.0
 41
15.0
 42
15.0
 43
15.0
 50
180.0
  0
MTEXT
  5
3D9
330
3D0
100
AcDbEntity
  8
0
  6
ByBlock
 62
     0
100
AcDbMText
 10
7665.720355767493
 20
-5246.481361559807
 30
0.0
 40
20.0
 41
0.0
 71
     5
 72
     1
  1
\A1;35
 73
     1
 44
1.0
1001
ACAD
1000
MTEXTBEGIN
1070
    73
1070
     1
1070
    44
1040
1.0
1070
    74
1070
     0
1000
MTEXTEND
  0
POINT
  5
3DA
330
3D0
100
AcDbEntity
  8
DEFPOINTS
  6
ByBlock
 62
     0
100
AcDbPoint
 10
7574.529879577015
 20
-5375.676184087293
 30
0.0
  0
POINT
  5
3DB
330
3D0
100
AcDbEntity
  8
DEFPOINTS
  6
ByBlock
 62
     0
100
AcDbPoint
 10
7609.529879577016
 20
-5415.676184087293
 30
0.0
  0
POINT
  5
3DC
330
3D0
100
AcDbEntity
  8
DEFPOINTS
  6
ByBlock
 62
     0
100
AcDbPoint
 10
7609.529879577016
 20
-5266.481361559807
 30
0.0
  0
ENDBLK
  5
3DD
330
3D0
100
AcDbEntity
  8
0
100
AcDbBlockEnd
  0
BLOCK
  5
3E0
330
3DF
100
AcDbEntity
  8
0
100
AcDbBlockBegin
  2
*D4
 70
     1
 10
0.0
 20
0.0
 30
0.0
  3
*D4
  1

  0
LINE
  5
3E1
330
3DF
100
AcDbEntity
  8
0
  6
ByBlock
 62
     0
100
AcDbLine
 10
8094.529879577015
 20
-5405.676184087293
 30
0.0
 11
8094.529879577015
 21
-5196.926586912825
 31
0.0
  0
LINE
  5
3E2
330
3DF
100
AcDbEntity
  8
0
  6
ByBlock
 62
     0
100
AcDbLine
 10
7574.529879577015
 20
-5365.676184087293
 30
0.0
 11
7574.529879577015
 21
-5196.926586912825
 31
0.0
  0
LINE
  5
3E3
330
3DF
100
AcDbEntity
  8
0
  6
ByBlock
 62
     0
100
AcDbLine
 10
8079.529879577016
 20
-5206.926586912825
 30
0.0
 11
7589.529879577016
 21
-5206.926586912825
 31
0.0
  0
INSERT
  5
3E4
330
3DF
100
AcDbEntity
  8
0
  6
ByBlock
 62
     0
100
AcDbBlockReference
  2
ARROW
 10
8094.529879577015
 20
-5206.926586912825
 30
0.0
 41
15.0
 42
15.0
 43
15.0
  0
INSERT
  5
3E5
330
3DF
100
AcDbEntity
  8
0
  6
ByBlock
 62
     0
100
AcDbBlockReference
  2
ARROW
 10
7574.529879577015
 20
-5206.926586912825
 30
0.0
 41
15.0
 42
15.0
 43
15.0
 50
180.0
  0
MTEXT
  5
3E6
330
3DF
100
AcDbEntity
  8
0
  6
ByBlock
 62
     0
100
AcDbMText
 10
7829.217074221718
 20
-5186.926586912825
 30
0.0
 40
20.0
 41
0.0
 71
     5
 72
     1
  1
\A1;520
 73
     1
 44
1.0
1001
ACAD
1000
MTEXTBEGIN
1070
    73
1070
     1
1070
    44
1040
1.0
1070
    74
1070
     0
1000
MTEXTEND
  0
POINT
  5
3E7
330
3DF
100
AcDbEntity
  8
DEFPOINTS
  6
ByBlock
 62
     0
100
AcDbPoint
 10
8094.529879577015
 20
-5415.676184087293
 30
0.0
  0
POINT
  5
3E8
330
3DF
100
AcDbEntity
  8
DEFPOINTS
  6
ByBlock
 62
     0
100
AcDbPoint
 10
7574.529879577015
 20
-5375.676184087293
 30
0.0
  0
POINT
  5
3E9
330
3DF
100
AcDbEntity
  8
DEFPOINTS
  6
ByBlock
 62
     0
100
AcDbPoint
 10
7574.529879577015
 20
-5206.926586912825
 30
0.0
  0
ENDBLK
  5
3EA
330
3DF
100
AcDbEntity
  8
0
100
AcDbBlockEnd
  0
BLOCK
  5
3ED
330
3EC
100
AcDbEntity
  8
0
100
AcDbBlockBegin
  2
*D5
 70
     1
 10
0.0
 20
0.0
 30
0.0
  3
*D5
  1

  0
LINE
  5
3EE
330
3EC
100
AcDbEntity
  8
0
  6
ByBlock
 62
     0
100
AcDbLine
 10
7429.529879579693
 20
-5775.676184087293
 30
0.0
 11
7298.427719361026
 21
-5775.676184087293
 31
0.0
  0
LINE
  5
3EF
330
3EC
100
AcDbEntity
  8
0
  6
ByBlock
 62
     0
100
AcDbLine
 10
7429.529879579693
 20
-5375.676184087293
 30
0.0
 11
7298.427719361026
 21
-5375.676184087293
 31
0.0
  0
LINE
  5
3F0
330
3EC
100
AcDbEntity
  8
0
  6
ByBlock
 62
     0
100
AcDbLine
 10
7308.427719361024
 20
-5760.676184087293
 30
0.0
 11
7308.427719361024
 21
-5390.676184087292
 31
0.0
  0
INSERT
  5
3F1
330
3EC
100
AcDbEntity
  8
0
  6
ByBlock
 62
     0
100
AcDbBlockReference
  2
ARROW
 10
7308.427719361024
 20
-5775.676184087292
 30
0.0
 41
15.0
 42
15.0
 43
15.0
 50
270.0
  0
INSERT
  5
3F2
330
3EC
100
AcDbEntity
  8
0
  6
ByBlock
 62
     0
100
AcDbBlockReference
  2
ARROW
 10
7308.427719361024
 20
-5375.676184087293
 30
0.0
 41
15.0
 42
15.0
 43
15.0
 50
90.0
  0
MTEXT
  5
3F3
330
3EC
100
AcDbEntity
  8
0
  6
ByBlock
 62
     0
100
AcDbMText
 10
7288.427719361026
 20
-5575.676184087291
 30
0.0
 40
20.0
 41
0.0
 71
     5
 72
     1
  1
\A1;400
 11
0.0000000000000001
 21
1.0
 31
0.0
 73
     1
 44
1.0
1001
ACAD
1000
MTEXTBEGIN
1070
    73
1070
     1
1070
    44
1040
1.0
1070
    74
1070
     0
1000
MTEXTEND
  0
POINT
  5
3F4
330
3EC
100
AcDbEntity
  8
DEFPOINTS
  6
ByBlock
 62
     0
100
AcDbPoint
 10
7439.529879579692
 20
-5775.676184087293
 30
0.0
  0
POINT
  5
3F5
330
3EC
100
AcDbEntity
  8
DEFPOINTS
  6
ByBlock
 62
     0
100
AcDbPoint
 10
7439.529879579692
 20
-5375.676184087293
 30
0.0
  0
POINT
  5
3F6
330
3EC
100
AcDbEntity
  8
DEFPOINTS
  6
ByBlock
 62
     0
100
AcDbPoint
 10
7308.427719361024
 20
-5375.676184087293
 30
0.0
  0
ENDBLK
  5
3F7
330
3EC
100
AcDbEntity
  8
0
100
AcDbBlockEnd
  0
BLOCK
  5
3FA
330
3F9
100
AcDbEntity
  8
0
100
AcDbBlockBegin
  2
*D6
 70
     1
 10
0.0
 20
0.0
 30
0.0
  3
*D6
  1

  0
LINE
  5
3FB
330
3F9
100
AcDbEntity
  8
0
  6
ByBlock
 62
     0
100
AcDbLine
 10
8104.529879577016
 20
-5735.676184087293
 30
0.0
 11
8227.127384097387
 21
-5735.676184087293
 31
0.0
  0
LINE
  5
3FC
330
3F9
100
AcDbEntity
  8
0
  6
ByBlock
 62
     0
100
AcDbLine
 10
8104.529879577016
 20
-5415.676184087293
 30
0.0
 11
8227.127384097387
 21
-5415.676184087293
 31
0.0
  0
LINE
  5
3FD
330
3F9
100
AcDbEntity
  8
0
  6
ByBlock
 62
     0
100
AcDbLine
 10
8217.127384097388
 20
-5720.676184087293
 30
0.0
 11
8217.127384097388
 21
-5430.676184087293
 31
0.0
  0
INSERT
  5
3FE
330
3F9
100
AcDbEntity
  8
0
  6
ByBlock
 62
     0
100
AcDbBlockReference
  2
ARROW
 10
8217.127384097388
 20
-5735.676184087293
 30
0.0
 41
15.0
 42
15.0
 43
15.0
 50
270.0
  0
INSERT
  5
3FF
330
3F9
100
AcDbEntity
  8
0
  6
ByBlock
 62
     0
100
AcDbBlockReference
  2
ARROW
 10
8217.127384097388
 20
-5415.676184087293
 30
0.0
 41
15.0
 42
15.0
 43
15.0
 50
90.0
  0
MTEXT
  5
400
330
3F9
100
AcDbEntity
  8
0
  6
ByBlock
 62
     0
100
AcDbMText
 10
8197.127384097388
 20
-5575.676184087293
 30
0.0
 40
20.0
 41
0.0
 71
     5
 72
     1
  1
\A1;320
 11
0.0000000000000001
 21
1.0
 31
0.0
 73
     1
 44
1.0
1001
ACAD
1000
MTEXTBEGIN
1070
    73
1070
     1
1070
    44
1040
1.0
1070
    74
1070
     0
1000
MTEXTEND
  0
POINT
  5
401
330
3F9
100
AcDbEntity
  8
DEFPOINTS
  6
ByBlock
 62
     0
100
AcDbPoint
 10
8094.529879577015
 20
-5735.676184087293
 30
0.0
  0
POINT
  5
402
330
3F9
100
AcDbEntity
  8
DEFPOINTS
  6
ByBlock
 62
     0
100
AcDbPoint
 10
8094.529879577015
 20
-5415.676184087293
 30
0.0
  0
POINT
  5
403
330
3F9
100
AcDbEntity
  8
DEFPOINTS
  6
ByBlock
 62
     0
100
AcDbPoint
 10
8217.127384097388
 20
-5415.676184087293
 30
0.0
  0
ENDBLK
  5
404
330
3F9
100
AcDbEntity
  8
0
100
AcDbBlockEnd
  0
BLOCK
  5
40D
330
40C
100
AcDbEntity
  8
0
100
AcDbBlockBegin
  2
*D7
 70
     1
 10
0.0
 20
0.0
 30
0.0
  3
*D7
  1

  0
LINE
  5
40E
330
40C
100
AcDbEntity
  8
0
  6
ByBlock
 62
     0
100
AcDbLine
 10
6223.308254624349
 20
-6878.884047111276
 30
0.0
 11
6223.308254624349
 21
-7220.785750855807
 31
0.0
  0
LINE
  5
40F
330
40C
100
AcDbEntity
  8
0
  6
ByBlock
 62
     0
100
AcDbLine
 10
6371.343639101233
 20
-6878.884047111276
 30
0.0
 11
6371.343639101233
 21
-7220.785750855807
 31
0.0
  0
LINE
  5
410
330
40C
100
AcDbEntity
  8
0
  6
ByBlock
 62
     0
100
AcDbLine
 10
6386.343639101234
 20
-7210.785750855809
 30
0.0
 11
6401.343639101233
 21
-7210.785750855809
 31
0.0
  0
LINE
  5
411
330
40C
100
AcDbEntity
  8
0
  6
ByBlock
 62
     0
100
AcDbLine
 10
6208.308254624348
 20
-7210.785750855809
 30
0.0
 11
6047.022540338634
 21
-7210.785750855809
 31
0.0
  0
LINE
  5
412
330
40C
100
AcDbEntity
  8
0
  6
ByBlock
 62
     0
100
AcDbLine
 10
6371.343639101233
 20
-7210.785750855809
 30
0.0
 11
6223.308254624349
 21
-7210.785750855809
 31
0.0
  0
INSERT
  5
413
330
40C
100
AcDbEntity
  8
0
  6
ByBlock
 62
     0
100
AcDbBlockReference
  2
ARROW
 10
6371.343639101233
 20
-7210.785750855809
 30
0.0
 41
15.0
 42
15.0
 43
15.0
 50
180.0
  0
INSERT
  5
414
330
40C
100
AcDbEntity
  8
0
  6
ByBlock
 62
     0
100
AcDbBlockReference
  2
ARROW
 10
6223.308254624349
 20
-7210.785750855809
 30
0.0
 41
15.0
 42
15.0
 43
15.0
  0
MTEXT
  5
415
330
40C
100
AcDbEntity
  8
0
  6
ByBlock
 62
     0
100
AcDbMText
 10
6120.165397481492
 20
-7190.785750855808
 30
0.0
 40
20.0
 41
0.0
 71
     5
 72
     1
  1
\A1;外径φ148
 73
     1
 44
1.0
1001
ACAD
1000
MTEXTBEGIN
1070
    73
1070
     1
1070
    44
1040
1.0
1070
    74
1070
     0
1000
MTEXTEND
  0
POINT
  5
416
330
40C
100
AcDbEntity
  8
DEFPOINTS
  6
ByBlock
 62
     0
100
AcDbPoint
 10
6223.308254624349
 20
-6868.884047111277
 30
0.0
  0
POINT
  5
417
330
40C
100
AcDbEntity
  8
DEFPOINTS
  6
ByBlock
 62
     0
100
AcDbPoint
 10
6371.343639101233
 20
-6868.884047111277
 30
0.0
  0
POINT
  5
418
330
40C
100
AcDbEntity
  8
DEFPOINTS
  6
ByBlock
 62
     0
100
AcDbPoint
 10
6371.343639101233
 20
-7210.785750855809
 30
0.0
  0
ENDBLK
  5
419
330
40C
100
AcDbEntity
  8
0
100
AcDbBlockEnd
  0
BLOCK
  5
41C
330
41B
100
AcDbEntity
  8
0
100
AcDbBlockBegin
  2
*D8
 70
     1
 10
0.0
 20
0.0
 30
0.0
  3
*D8
  1

  0
LINE
  5
41D
330
41B
100
AcDbEntity
  8
0
  6
ByBlock
 62
     0
100
AcDbLine
 10
6213.358254624349
 20
-6868.884047111277
 30
0.0
 11
5903.515549387997
 21
-6868.884047111277
 31
0.0
  0
LINE
  5
41E
330
41B
100
AcDbEntity
  8
0
  6
ByBlock
 62
     0
100
AcDbLine
 10
5987.626297673305
 20
-7114.884047111274
 30
0.0
 11
5903.515549387997
 21
-7114.884047111274
 31
0.0
  0
LINE
  5
41F
330
41B
100
AcDbEntity
  8
0
  6
ByBlock
 62
     0
100
AcDbLine
 10
5913.515549387998
 20
-6883.884047111276
 30
0.0
 11
5913.515549387998
 21
-7099.884047111274
 31
0.0
  0
INSERT
  5
420
330
41B
100
AcDbEntity
  8
0
  6
ByBlock
 62
     0
100
AcDbBlockReference
  2
ARROW
 10
5913.515549387998
 20
-6868.884047111277
 30
0.0
 41
15.0
 42
15.0
 43
15.0
 50
90.0
  0
INSERT
  5
421
330
41B
100
AcDbEntity
  8
0
  6
ByBlock
 62
     0
100
AcDbBlockReference
  2
ARROW
 10
5913.515549387998
 20
-7114.884047111274
 30
0.0
 41
15.0
 42
15.0
 43
15.0
 50
270.0
  0
MTEXT
  5
422
330
41B
100
AcDbEntity
  8
0
  6
ByBlock
 62
     0
100
AcDbMText
 10
5893.515549387998
 20
-6988.477211387493
 30
0.0
 40
20.0
 41
0.0
 71
     5
 72
     1
  1
\A1;246
 11
0.0000000000000001
 21
1.0
 31
0.0
 73
     1
 44
1.0
1001
ACAD
1000
MTEXTBEGIN
1070
    73
1070
     1
1070
    44
1040
1.0
1070
    74
1070
     0
1000
MTEXTEND
  0
POINT
  5
423
330
41B
100
AcDbEntity
  8
DEFPOINTS
  6
ByBlock
 62
     0
100
AcDbPoint
 10
6223.358254624349
 20
-6868.884047111277
 30
0.0
  0
POINT
  5
424
330
41B
100
AcDbEntity
  8
DEFPOINTS
  6
ByBlock
 62
     0
100
AcDbPoint
 10
5997.626297673305
 20
-7114.884047111274
 30
0.0
  0
POINT
  5
425
330
41B
100
AcDbEntity
  8
DEFPOINTS
  6
ByBlock
 62
     0
100
AcDbPoint
 10
5913.515549387998
 20
-7114.884047111274
 30
0.0
  0
ENDBLK
  5
426
330
41B
100
AcDbEntity
  8
0
100
AcDbBlockEnd
  0
BLOCK
  5
429
330
428
100
AcDbEntity
  8
0
100
AcDbBlockBegin
  2
*D9
 70
     1
 10
0.0
 20
0.0
 30
0.0
  3
*D9
  1

  0
LINE
  5
42A
330
428
100
AcDbEntity
  8
0
  6
ByBlock
 62
     0
100
AcDbLine
 10
6906.798209743626
 20
-6414.879353531834
 30
0.0
 11
7065.595301851161
 21
-6414.879353531834
 31
0.0
  0
LINE
  5
42B
330
428
100
AcDbEntity
  8
0
  6
ByBlock
 62
     0
100
AcDbLine
 10
6607.626297673309
 20
-7114.884047111274
 30
0.0
 11
7065.595301851161
 21
-7114.884047111274
 31
0.0
  0
LINE
  5
42C
330
428
100
AcDbEntity
  8
0
  6
ByBlock
 62
     0
100
AcDbLine
 10
7055.595301851162
 20
-6429.879353531832
 30
0.0
 11
7055.595301851162
 21
-7099.884047111274
 31
0.0
  0
INSERT
  5
42D
330
428
100
AcDbEntity
  8
0
  6
ByBlock
 62
     0
100
AcDbBlockReference
  2
ARROW
 10
7055.595301851162
 20
-6414.879353531834
 30
0.0
 41
15.0
 42
15.0
 43
15.0
 50
90.0
  0
INSERT
  5
42E
330
428
100
AcDbEntity
  8
0
  6
ByBlock
 62
     0
100
AcDbBlockReference
  2
ARROW
 10
7055.595301851162
 20
-7114.884047111274
 30
0.0
 41
15.0
 42
15.0
 43
15.0
 50
270.0
  0
MTEXT
  5
42F
330
428
100
AcDbEntity
  8
0
  6
ByBlock
 62
     0
100
AcDbMText
 10
7035.595301851161
 20
-6759.337230789767
 30
0.0
 40
20.0
 41
0.0
 71
     5
 72
     1
  1
\A1;700
 11
0.0000000000000001
 21
1.0
 31
0.0
 73
     1
 44
1.0
1001
ACAD
1000
MTEXTBEGIN
1070
    73
1070
     1
1070
    44
1040
1.0
1070
    74
1070
     0
1000
MTEXTEND
  0
POINT
  5
430
330
428
100
AcDbEntity
  8
DEFPOINTS
  6
ByBlock
 62
     0
100
AcDbPoint
 10
6896.798209743626
 20
-6414.879353531834
 30
0.0
  0
POINT
  5
431
330
428
100
AcDbEntity
  8
DEFPOINTS
  6
ByBlock
 62
     0
100
AcDbPoint
 10
6597.626297673308
 20
-7114.884047111274
 30
0.0
  0
POINT
  5
432
330
428
100
AcDbEntity
  8
DEFPOINTS
  6
ByBlock
 62
     0
100
AcDbPoint
 10
7055.595301851162
 20
-7114.884047111274
 30
0.0
  0
ENDBLK
  5
433
330
428
100
AcDbEntity
  8
0
100
AcDbBlockEnd
  0
BLOCK
  5
436
330
435
100
AcDbEntity
  8
0
100
AcDbBlockBegin
  2
*D10
 70
     1
 10
0.0
 20
0.0
 30
0.0
  3
*D10
  1

  0
LINE
  5
437
330
435
100
AcDbEntity
  8
0
  6
ByBlock
 62
     0
100
AcDbLine
 10
6906.798209743627
 20
-6414.879353531834
 30
0.0
 11
6997.284393074889
 21
-6414.879353531834
 31
0.0
  0
LINE
  5
438
330
435
100
AcDbEntity
  8
0
  6
ByBlock
 62
     0
100
AcDbLine
 10
6906.798209743626
 20
-6459.879353531832
 30
0.0
 11
6997.284393074889
 21
-6459.879353531832
 31
0.0
  0
LINE
  5
439
330
435
100
AcDbEntity
  8
0
  6
ByBlock
 62
     0
100
AcDbLine
 10
6987.28439307489
 20
-6399.879353531833
 30
0.0
 11
6987.28439307489
 21
-6384.879353531832
 31
0.0
  0
LINE
  5
43A
330
435
100
AcDbEntity
  8
0
  6
ByBlock
 62
     0
100
AcDbLine
 10
6987.28439307489
 20
-6474.879353531832
 30
0.0
 11
6987.28439307489
 21
-6617.117448769929
 31
0.0
  0
LINE
  5
43B
330
435
100
AcDbEntity
  8
0
  6
ByBlock
 62
     0
100
AcDbLine
 10
6987.28439307489
 20
-6414.879353531834
 30
0.0
 11
6987.28439307489
 21
-6459.879353531832
 31
0.0
  0
INSERT
  5
43C
330
435
100
AcDbEntity
  8
0
  6
ByBlock
 62
     0
100
AcDbBlockReference
  2
ARROW
 10
6987.28439307489
 20
-6414.879353531834
 30
0.0
 41
15.0
 42
15.0
 43
15.0
 50
270.0
  0
INSERT
  5
43D
330
435
100
AcDbEntity
  8
0
  6
ByBlock
 62
     0
100
AcDbBlockReference
  2
ARROW
 10
6987.28439307489
 20
-6459.879353531832
 30
0.0
 41
15.0
 42
15.0
 43
15.0
 50
90.0
  0
MTEXT
  5
43E
330
435
100
AcDbEntity
  8
0
  6
ByBlock
 62
     0
100
AcDbMText
 10
6967.28439307489
 20
-6553.498401150881
 30
0.0
 40
20.0
 41
0.0
 71
     5
 72
     1
  1
\A1;天板厚45
 11
0.0000000000000001
 21
1.0
 31
0.0
 73
     1
 44
1.0
1001
ACAD
1000
MTEXTBEGIN
1070
    73
1070
     1
1070
    44
1040
1.0
1070
    74
1070
     0
1000
MTEXTEND
  0
POINT
  5
43F
330
435
100
AcDbEntity
  8
DEFPOINTS
  6
ByBlock
 62
     0
100
AcDbPoint
 10
6896.798209743628
 20
-6414.879353531834
 30
0.0
  0
POINT
  5
440
330
435
100
AcDbEntity
  8
DEFPOINTS
  6
ByBlock
 62
     0
100
AcDbPoint
 10
6896.798209743626
 20
-6459.879353531832
 30
0.0
  0
POINT
  5
441
330
435
100
AcDbEntity
  8
DEFPOINTS
  6
ByBlock
 62
     0
100
AcDbPoint
 10
6987.28439307489
 20
-6459.879353531832
 30
0.0
  0
ENDBLK
  5
442
330
435
100
AcDbEntity
  8
0
100
AcDbBlockEnd
  0
BLOCK
  5
445
330
444
100
AcDbEntity
  8
0
100
AcDbBlockBegin
  2
*D11
 70
     1
 10
0.0
 20
0.0
 30
0.0
  3
*D11
  1

  0
LINE
  5
446
330
444
100
AcDbEntity
  8
0
  6
ByBlock
 62
     0
100
AcDbLine
 10
5997.626297673305
 20
-7124.884047111274
 30
0.0
 11
5997.626297673305
 21
-7341.652134183831
 31
0.0
  0
LINE
  5
447
330
444
100
AcDbEntity
  8
0
  6
ByBlock
 62
     0
100
AcDbLine
 10
6597.626297673305
 20
-7124.884047111274
 30
0.0
 11
6597.626297673305
 21
-7341.652134183831
 31
0.0
  0
LINE
  5
448
330
444
100
AcDbEntity
  8
0
  6
ByBlock
 62
     0
100
AcDbLine
 10
6012.626297673305
 20
-7331.652134183831
 30
0.0
 11
6582.626297673304
 21
-7331.652134183831
 31
0.0
  0
INSERT
  5
449
330
444
100
AcDbEntity
  8
0
  6
ByBlock
 62
     0
100
AcDbBlockReference
  2
ARROW
 10
5997.626297673305
 20
-7331.652134183831
 30
0.0
 41
15.0
 42
15.0
 43
15.0
 50
180.0
  0
INSERT
  5
44A
330
444
100
AcDbEntity
  8
0
  6
ByBlock
 62
     0
100
AcDbBlockReference
  2
ARROW
 10
6597.626297673305
 20
-7331.652134183831
 30
0.0
 41
15.0
 42
15.0
 43
15.0
  0
MTEXT
  5
44B
330
444
100
AcDbEntity
  8
0
  6
ByBlock
 62
     0
100
AcDbMText
 10
6297.800491330836
 20
-7311.65213418383
 30
0.0
 40
20.0
 41
0.0
 71
     5
 72
     1
  1
\A1;600
 73
     1
 44
1.0
1001
ACAD
1000
MTEXTBEGIN
1070
    73
1070
     1
1070
    44
1040
1.0
1070
    74
1070
     0
1000
MTEXTEND
  0
POINT
  5
44C
330
444
100
AcDbEntity
  8
DEFPOINTS
  6
ByBlock
 62
     0
100
AcDbPoint
 10
5997.626297673305
 20
-7114.884047111274
 30
0.0
  0
POINT
  5
44D
330
444
100
AcDbEntity
  8
DEFPOINTS
  6
ByBlock
 62
     0
100
AcDbPoint
 10
6597.626297673305
 20
-7114.884047111274
 30
0.0
  0
POINT
  5
44E
330
444
100
AcDbEntity
  8
DEFPOINTS
  6
ByBlock
 62
     0
100
AcDbPoint
 10
6597.626297673305
 20
-7331.652134183831
 30
0.0
  0
ENDBLK
  5
44F
330
444
100
AcDbEntity
  8
0
100
AcDbBlockEnd
  0
BLOCK
  5
452
330
451
100
AcDbEntity
  8
0
100
AcDbBlockBegin
  2
*D12
 70
     1
 10
0.0
 20
0.0
 30
0.0
  3
*D12
  1

  0
LINE
  5
453
330
451
100
AcDbEntity
  8
0
  6
ByBlock
 62
     0
100
AcDbLine
 10
6896.798209743628
 20
-5985.676184168784
 30
0.0
 11
6896.798209743628
 21
-6150.321760853469
 31
0.0
  0
LINE
  5
454
330
451
100
AcDbEntity
  8
0
  6
ByBlock
 62
     0
100
AcDbLine
 10
5696.798209681054
 20
-5985.676184168784
 30
0.0
 11
5696.798209681054
 21
-6150.321760853469
 31
0.0
  0
LINE
  5
455
330
451
100
AcDbEntity
  8
0
  6
ByBlock
 62
     0
100
AcDbLine
 10
6881.798209743627
 20
-6140.321760853469
 30
0.0
 11
5711.798209681053
 21
-6140.321760853469
 31
0.0
  0
INSERT
  5
456
330
451
100
AcDbEntity
  8
0
  6
ByBlock
 62
     0
100
AcDbBlockReference
  2
ARROW
 10
6896.798209743628
 20
-6140.321760853469
 30
0.0
 41
15.0
 42
15.0
 43
15.0
  0
INSERT
  5
457
330
451
100
AcDbEntity
  8
0
  6
ByBlock
 62
     0
100
AcDbBlockReference
  2
ARROW
 10
5696.798209681054
 20
-6140.321760853469
 30
0.0
 41
15.0
 42
15.0
 43
15.0
 50
180.0
  0
MTEXT
  5
458
330
451
100
AcDbEntity
  8
0
  6
ByBlock
 62
     0
100
AcDbMText
 10
6296.488616246334
 20
-6120.321760853468
 30
0.0
 40
20.0
 41
0.0
 71
     5
 72
     1
  1
\A1;1200
 73
     1
 44
1.0
1001
ACAD
1000
MTEXTBEGIN
1070
    73
1070
     1
1070
    44
1040
1.0
1070
    74
1070
     0
1000
MTEXTEND
  0
POINT
  5
459
330
451
100
AcDbEntity
  8
DEFPOINTS
  6
ByBlock
 62
     0
100
AcDbPoint
 10
6896.798209743628
 20
-5975.676184168784
 30
0.0
  0
POINT
  5
45A
330
451
100
AcDbEntity
  8
DEFPOINTS
  6
ByBlock
 62
     0
100
AcDbPoint
 10
5696.798209681054
 20
-5975.676184168784
 30
0.0
  0
POINT
  5
45B
330
451
100
AcDbEntity
  8
DEFPOINTS
  6
ByBlock
 62
     0
100
AcDbPoint
 10
5696.798209681054
 20
-6140.321760853469
 30
0.0
  0
ENDBLK
  5
45C
330
451
100
AcDbEntity
  8
0
100
AcDbBlockEnd
  0
BLOCK
  5
45F
330
45E
100
AcDbEntity
  8
0
100
AcDbBlockBegin
  2
*D13
 70
     1
 10
0.0
 20
0.0
 30
0.0
  3
*D13
  1

  0
LINE
  5
460
330
45E
100
AcDbEntity
  8
0
  6
ByBlock
 62
     0
100
AcDbLine
 10
6906.798209743627
 20
-5175.676184005802
 30
0.0
 11
7067.845926092759
 21
-5175.676184005802
 31
0.0
  0
LINE
  5
461
330
45E
100
AcDbEntity
  8
0
  6
ByBlock
 62
     0
100
AcDbLine
 10
6906.798209743627
 20
-5975.676184168784
 30
0.0
 11
7067.845926092759
 21
-5975.676184168784
 31
0.0
  0
LINE
  5
462
330
45E
100
AcDbEntity
  8
0
  6
ByBlock
 62
     0
100
AcDbLine
 10
7057.84592609276
 20
-5190.676184005802
 30
0.0
 11
7057.84592609276
 21
-5960.676184168784
 31
0.0
  0
INSERT
  5
463
330
45E
100
AcDbEntity
  8
0
  6
ByBlock
 62
     0
100
AcDbBlockReference
  2
ARROW
 10
7057.84592609276
 20
-5175.676184005802
 30
0.0
 41
15.0
 42
15.0
 43
15.0
 50
90.0
  0
INSERT
  5
464
330
45E
100
AcDbEntity
  8
0
  6
ByBlock
 62
     0
100
AcDbBlockReference
  2
ARROW
 10
7057.84592609276
 20
-5975.676184168784
 30
0.0
 41
15.0
 42
15.0
 43
15.0
 50
270.0
  0
MTEXT
  5
465
330
45E
100
AcDbEntity
  8
0
  6
ByBlock
 62
     0
100
AcDbMText
 10
7037.84592609276
 20
-5575.676184087293
 30
0.0
 40
20.0
 41
0.0
 71
     5
 72
     1
  1
\A1;800
 11
0.0000000000000001
 21
1.0
 31
0.0
 73
     1
 44
1.0
1001
ACAD
1000
MTEXTBEGIN
1070
    73
1070
     1
1070
    44
1040
1.0
1070
    74
1070
     0
1000
MTEXTEND
  0
POINT
  5
466
330
45E
100
AcDbEntity
  8
DEFPOINTS
  6
ByBlock
 62
     0
100
AcDbPoint
 10
6896.798209743628
 20
-5175.676184005802
 30
0.0
  0
POINT
  5
467
330
45E
100
AcDbEntity
  8
DEFPOINTS
  6
ByBlock
 62
     0
100
AcDbPoint
 10
6896.798209743628
 20
-5975.676184168784
 30
0.0
  0
POINT
  5
468
330
45E
100
AcDbEntity
  8
DEFPOINTS
  6
ByBlock
 62
     0
100
AcDbPoint
 10
7057.84592609276
 20
-5975.676184168784
 30
0.0
  0
ENDBLK
  5
469
330
45E
100
AcDbEntity
  8
0
100
AcDbBlockEnd
  0
BLOCK
  5
51A
330
519
100
AcDbEntity
  8
0
100
AcDbBlockBegin
  2
*D14
 70
     1
 10
0.0
 20
0.0
 30
0.0
  3
*D14
  1

  0
LINE
  5
51B
330
519
100
AcDbEntity
  8
0
  6
ByBlock
 62
     0
100
AcDbLine
 10
6710.596817277194
 20
-5575.676184087296
 30
0.0
 11
6739.259609543572
 21
-5575.676184087296
 31
0.0
  0
LINE
  5
51C
330
519
100
AcDbEntity
  8
0
  6
ByBlock
 62
     0
100
AcDbLine
 10
6549.821566894022
 20
-5675.676184087295
 30
0.0
 11
6739.259609543572
 21
-5675.676184087295
 31
0.0
  0
LINE
  5
51D
330
519
100
AcDbEntity
  8
0
  6
ByBlock
 62
     0
100
AcDbLine
 10
6729.259609543572
 20
-5560.676184087295
 30
0.0
 11
6729.259609543572
 21
-5545.676184087295
 31
0.0
  0
LINE
  5
51E
330
519
100
AcDbEntity
  8
0
  6
ByBlock
 62
     0
100
AcDbLine
 10
6729.259609543572
 20
-5690.676184087295
 30
0.0
 11
6729.259609543572
 21
-5806.39046980158
 31
0.0
  0
LINE
  5
51F
330
519
100
AcDbEntity
  8
0
  6
ByBlock
 62
     0
100
AcDbLine
 10
6729.259609543572
 20
-5575.676184087296
 30
0.0
 11
6729.259609543572
 21
-5675.676184087295
 31
0.0
  0
INSERT
  5
520
330
519
100
AcDbEntity
  8
0
  6
ByBlock
 62
     0
100
AcDbBlockReference
  2
ARROW
 10
6729.259609543572
 20
-5575.676184087296
 30
0.0
 41
15.0
 42
15.0
 43
15.0
 50
270.0
  0
INSERT
  5
521
330
519
100
AcDbEntity
  8
0
  6
ByBlock
 62
     0
100
AcDbBlockReference
  2
ARROW
 10
6729.259609543572
 20
-5675.676184087295
 30
0.0
 41
15.0
 42
15.0
 43
15.0
 50
90.0
  0
MTEXT
  5
522
330
519
100
AcDbEntity
  8
0
  6
ByBlock
 62
     0
100
AcDbMText
 10
6709.259609543572
 20
-5772.104755515865
 30
0.0
 40
20.0
 41
0.0
 71
     5
 72
     1
  1
\A1;100
 11
0.0000000000000001
 21
1.0
 31
0.0
 73
     1
 44
1.0
1001
ACAD
1000
MTEXTBEGIN
1070
    73
1070
     1
1070
    44
1040
1.0
1070
    74
1070
     0
1000
MTEXTEND
  0
POINT
  5
523
330
519
100
AcDbEntity
  8
DEFPOINTS
  6
ByBlock
 62
     0
100
AcDbPoint
 10
6700.596817277194
 20
-5575.676184087296
 30
0.0
  0
POINT
  5
524
330
519
100
AcDbEntity
  8
DEFPOINTS
  6
ByBlock
 62
     0
100
AcDbPoint
 10
6539.821566894023
 20
-5675.676184087295
 30
0.0
  0
POINT
  5
525
330
519
100
AcDbEntity
  8
DEFPOINTS
  6
ByBlock
 62
     0
100
AcDbPoint
 10
6729.259609543572
 20
-5675.676184087295
 30
0.0
  0
ENDBLK
  5
526
330
519
100
AcDbEntity
  8
0
100
AcDbBlockEnd
  0
BLOCK
  5
529
330
528
100
AcDbEntity
  8
0
100
AcDbBlockBegin
  2
*D15
 70
     1
 10
0.0
 20
0.0
 30
0.0
  3
*D15
  1

  0
LINE
  5
52A
330
528
100
AcDbEntity
  8
0
  6
ByBlock
 62
     0
100
AcDbLine
 10
6296.798209621391
 20
-5904.482843034564
 30
0.0
 11
6296.798209621391
 21
-5928.843785021119
 31
0.0
  0
LINE
  5
52B
330
528
100
AcDbEntity
  8
0
  6
ByBlock
 62
     0
100
AcDbLine
 10
6496.826297673305
 20
-5730.712571164664
 30
0.0
 11
6496.826297673305
 21
-5928.843785021119
 31
0.0
  0
LINE
  5
52C
330
528
100
AcDbEntity
  8
0
  6
ByBlock
 62
     0
100
AcDbLine
 10
6311.79820962139
 20
-5918.843785021119
 30
0.0
 11
6481.826297673305
 21
-5918.843785021119
 31
0.0
  0
INSERT
  5
52D
330
528
100
AcDbEntity
  8
0
  6
ByBlock
 62
     0
100
AcDbBlockReference
  2
ARROW
 10
6296.798209621391
 20
-5918.843785021119
 30
0.0
 41
15.0
 42
15.0
 43
15.0
 50
180.0
  0
INSERT
  5
52E
330
528
100
AcDbEntity
  8
0
  6
ByBlock
 62
     0
100
AcDbBlockReference
  2
ARROW
 10
6496.826297673305
 20
-5918.843785021119
 30
0.0
 41
15.0
 42
15.0
 43
15.0
  0
MTEXT
  5
52F
330
528
100
AcDbEntity
  8
0
  6
ByBlock
 62
     0
100
AcDbMText
 10
6399.204900851501
 20
-5898.84378502112
 30
0.0
 40
20.0
 41
0.0
 71
     5
 72
     1
  1
\A1;200
 73
     1
 44
1.0
1001
ACAD
1000
MTEXTBEGIN
1070
    73
1070
     1
1070
    44
1040
1.0
1070
    74
1070
     0
1000
MTEXTEND
  0
POINT
  5
530
330
528
100
AcDbEntity
  8
DEFPOINTS
  6
ByBlock
 62
     0
100
AcDbPoint
 10
6296.798209621391
 20
-5894.482843034564
 30
0.0
  0
POINT
  5
531
330
528
100
AcDbEntity
  8
DEFPOINTS
  6
ByBlock
 62
     0
100
AcDbPoint
 10
6496.826297673305
 20
-5720.712571164664
 30
0.0
  0
POINT
  5
532
330
528
100
AcDbEntity
  8
DEFPOINTS
  6
ByBlock
 62
     0
100
AcDbPoint
 10
6496.826297673305
 20
-5918.843785021119
 30
0.0
  0
ENDBLK
  5
533
330
528
100
AcDbEntity
  8
0
100
AcDbBlockEnd
  0
BLOCK
  5
5A0
330
59F
100
AcDbEntity
  8
0
100
AcDbBlockBegin
  2
*D16
 70
     1
 10
0.0
 20
0.0
 30
0.0
  3
*D16
  1

  0
LINE
  5
5A1
330
59F
100
AcDbEntity
  8
0
  6
ByBlock
 62
     0
100
AcDbLine
 10
6866.798209743627
 20
-5530.676184087295
 30
0.0
 11
6866.798209743627
 21
-5471.492345585728
 31
0.0
  0
LINE
  5
5A2
330
59F
100
AcDbEntity
  8
0
  6
ByBlock
 62
     0
100
AcDbLine
 10
6896.798209743628
 20
-5523.766816336072
 30
0.0
 11
6896.798209743628
 21
-5471.492345585728
 31
0.0
  0
LINE
  5
5A3
330
59F
100
AcDbEntity
  8
0
  6
ByBlock
 62
     0
100
AcDbLine
 10
6851.798209743626
 20
-5481.492345585728
 30
0.0
 11
6836.798209743626
 21
-5481.492345585728
 31
0.0
  0
LINE
  5
5A4
330
59F
100
AcDbEntity
  8
0
  6
ByBlock
 62
     0
100
AcDbLine
 10
6911.798209743627
 20
-5481.492345585728
 30
0.0
 11
6979.179162124579
 21
-5481.492345585728
 31
0.0
  0
LINE
  5
5A5
330
59F
100
AcDbEntity
  8
0
  6
ByBlock
 62
     0
100
AcDbLine
 10
6866.798209743627
 20
-5481.492345585728
 30
0.0
 11
6896.798209743628
 21
-5481.492345585728
 31
0.0
  0
INSERT
  5
5A6
330
59F
100
AcDbEntity
  8
0
  6
ByBlock
 62
     0
100
AcDbBlockReference
  2
ARROW
 10
6866.798209743627
 20
-5481.492345585728
 30
0.0
 41
15.0
 42
15.0
 43
15.0
  0
INSERT
  5
5A7
330
59F
100
AcDbEntity
  8
0
  6
ByBlock
 62
     0
100
AcDbBlockReference
  2
ARROW
 10
6896.798209743628
 20
-5481.492345585728
 30
0.0
 41
15.0
 42
15.0
 43
15.0
 50
180.0
  0
MTEXT
  5
5A8
330
59F
100
AcDbEntity
  8
0
  6
ByBlock
 62
     0
100
AcDbMText
 10
6952.988685934103
 20
-5461.492345585728
 30
0.0
 40
20.0
 41
0.0
 71
     5
 72
     1
  1
\A1;30
 73
     1
 44
1.0
1001
ACAD
1000
MTEXTBEGIN
1070
    73
1070
     1
1070
    44
1040
1.0
1070
    74
1070
     0
1000
MTEXTEND
  0
POINT
  5
5A9
330
59F
100
AcDbEntity
  8
DEFPOINTS
  6
ByBlock
 62
     0
100
AcDbPoint
 10
6866.798209743627
 20
-5540.676184087296
 30
0.0
  0
POINT
  5
5AA
330
59F
100
AcDbEntity
  8
DEFPOINTS
  6
ByBlock
 62
     0
100
AcDbPoint
 10
6896.798209743628
 20
-5533.766816336072
 30
0.0
  0
POINT
  5
5AB
330
59F
100
AcDbEntity
  8
DEFPOINTS
  6
ByBlock
 62
     0
100
AcDbPoint
 10
6896.798209743628
 20
-5481.492345585728
 30
0.0
  0
ENDBLK
  5
5AC
330
59F
100
AcDbEntity
  8
0
100
AcDbBlockEnd
  0
BLOCK
  5
40
330
3F
100
AcDbEntity
  8
0
100
AcDbBlockBegin
  2
*D17
 70
     1
 10
0.0
 20
0.0
 30
0.0
  3
*D17
  1

  0
LINE
  5
41
330
3F
100
AcDbEntity
  8
SUNPOU
 62
     0
370
    -2
100
AcDbLine
 10
6035.702926075581
 20
-8661.4627118861
 30
0.0
 11
5915.703610855008
 21
-8661.4627118861
 31
0.0
  0
LINE
  5
42
330
3F
100
AcDbEntity
  8
SUNPOU
 62
     0
370
    -2
100
AcDbLine
 10
6035.702926075567
 20
-9019.462711883509
 30
0.0
 11
5915.703610855008
 21
-9019.462711883509
 31
0.0
  0
LINE
  5
43
330
3F
100
AcDbEntity
  8
SUNPOU
 62
     0
370
    -2
100
AcDbLine
 10
5930.703610855008
 20
-8683.962711886101
 30
0.0
 11
5930.703610855008
 21
-8996.96271188351
 31
0.0
  0
INSERT
  5
44
330
3F
100
AcDbEntity
  8
SUNPOU
 62
     0
370
    -2
100
AcDbBlockReference
  2
ARROW
 10
5930.703610855008
 20
-8661.4627118861
 30
0.0
 41
22.5
 42
22.5
 43
22.5
 50
90.0
  0
INSERT
  5
45
330
3F
100
AcDbEntity
  8
SUNPOU
 62
     0
370
    -2
100
AcDbBlockReference
  2
ARROW
 10
5930.703610855008
 20
-9019.462711883509
 30
0.0
 41
22.5
 42
22.5
 43
22.5
 50
270.0
  0
MTEXT
  5
46
330
3F
100
AcDbEntity
  8
SUNPOU
 62
     0
100
AcDbMText
 10
5900.70361085501
 20
-8840.462711884804
 30
0.0
 40
30.0
 41
0.0
 71
     5
 72
     1
  1
\A1;358
 11
0.0000000000000001
 21
1.0
 31
0.0
 73
     1
 44
1.0
1001
ACAD
1000
MTEXTBEGIN
1070
    73
1070
     1
1070
    44
1040
1.0
1070
    74
1070
     0
1000
MTEXTEND
  0
POINT
  5
47
330
3F
100
AcDbEntity
  8
DEFPOINTS
 62
     0
100
AcDbPoint
 10
6050.70292607558
 20
-8661.4627118861
 30
0.0
  0
POINT
  5
48
330
3F
100
AcDbEntity
  8
DEFPOINTS
 62
     0
100
AcDbPoint
 10
6050.702926075566
 20
-9019.462711883509
 30
0.0
  0
POINT
  5
49
330
3F
100
AcDbEntity
  8
DEFPOINTS
 62
     0
100
AcDbPoint
 10
5930.703610855008
 20
-9019.462711883509
 30
0.0
  0
ENDBLK
  5
4A
330
3F
100
AcDbEntity
  8
0
100
AcDbBlockEnd
  0
BLOCK
  5
32
330
31
100
AcDbEntity
  8
0
100
AcDbBlockBegin
  2
*D18
 70
     1
 10
0.0
 20
0.0
 30
0.0
  3
*D18
  1

  0
LINE
  5
33
330
31
100
AcDbEntity
  8
SUNPOU
 62
     0
370
    -2
100
AcDbLine
 10
6020.794338797064
 20
-8651.462711886102
 30
0.0
 11
5819.450602425771
 21
-8651.462711886102
 31
0.0
  0
LINE
  5
34
330
31
100
AcDbEntity
  8
SUNPOU
 62
     0
370
    -2
100
AcDbLine
 10
6020.794338797064
 20
-9029.462711883507
 30
0.0
 11
5819.450602425771
 21
-9029.462711883507
 31
0.0
  0
LINE
  5
35
330
31
100
AcDbEntity
  8
SUNPOU
 62
     0
370
    -2
100
AcDbLine
 10
5834.450602425771
 20
-8673.962711886101
 30
0.0
 11
5834.450602425771
 21
-9006.962711883508
 31
0.0
  0
INSERT
  5
36
330
31
100
AcDbEntity
  8
SUNPOU
 62
     0
370
    -2
100
AcDbBlockReference
  2
ARROW
 10
5834.450602425771
 20
-8651.462711886102
 30
0.0
 41
22.5
 42
22.5
 43
22.5
 50
90.0
  0
INSERT
  5
37
330
31
100
AcDbEntity
  8
SUNPOU
 62
     0
370
    -2
100
AcDbBlockReference
  2
ARROW
 10
5834.450602425771
 20
-9029.462711883507
 30
0.0
 41
22.5
 42
22.5
 43
22.5
 50
270.0
  0
MTEXT
  5
38
330
31
100
AcDbEntity
  8
SUNPOU
 62
     0
100
AcDbMText
 10
5804.450602425771
 20
-8840.462711884804
 30
0.0
 40
30.0
 41
0.0
 71
     5
 72
     1
  1
\A1;378
 11
0.0000000000000001
 21
1.0
 31
0.0
 73
     1
 44
1.0
1001
ACAD
1000
MTEXTBEGIN
1070
    73
1070
     1
1070
    44
1040
1.0
1070
    74
1070
     0
1000
MTEXTEND
  0
POINT
  5
39
330
31
100
AcDbEntity
  8
DEFPOINTS
 62
     0
100
AcDbPoint
 10
6035.794338797064
 20
-8651.462711886102
 30
0.0
  0
POINT
  5
3B
330
31
100
AcDbEntity
  8
DEFPOINTS
 62
     0
100
AcDbPoint
 10
6035.794338797064
 20
-9029.462711883507
 30
0.0
  0
POINT
  5
3C
330
31
100
AcDbEntity
  8
DEFPOINTS
 62
     0
100
AcDbPoint
 10
5834.450602425771
 20
-9029.462711883507
 30
0.0
  0
ENDBLK
  5
3D
330
31
100
AcDbEntity
  8
0
100
AcDbBlockEnd
  0
ENDSEC
  0
SECTION
  2
ENTITIES
  0
MTEXT
  5
2E
102
{ACAD_REACTORS
330
2F
102
}
330
2
100
AcDbEntity
  8
SUNPOU
100
AcDbMText
 10
6066.890172044092
 20
-9327.296430889594
 30
0.0
 40
30.0
 41
0.0
 71
     9
 72
     1
  1
天板固定用フランジ
 73
     1
 44
1.0
1001
ACAD
1000
MTEXTBEGIN
1070
    73
1070
     1
1070
    44
1040
1.0
1070
    74
1070
     0
1000
MTEXTEND
  0
LEADER
  5
2F
330
2
100
AcDbEntity
  8
SUNPOU
100
AcDbLeader
  3
IMCADLT
 73
     0
 75
     1
 41
314.0000000000002
 76
     3
 10
6217.473657720197
 20
-9070.462711883509
 30
0.0
 10
6096.890172044092
 20
-9317.296430889594
 30
0.0
 10
6076.890172044091
 20
-9317.296430889594
 30
0.0
340
2E
213
0.0
223
10.0
233
0.0
1001
ACAD
1000
DSTYLE
1002
{
1070
   147
1040
1.0
1070
    41
1040
2.0
1070
    47
1040
495.0
1070
    77
1070
     0
1070
   140
1040
2.0
1070
   146
1040
1.0
1070
   174
1070
     1
1070
   271
1070
     1
1070
   272
1070
     1
1070
   284
1070
     0
1070
   288
1070
     1
1070
   341
1005
0
1070
   342
1005
1F
1002
}
  0
DIMENSION
  5
30
330
2
100
AcDbEntity
  8
SUNPOU
100
AcDbDimension
  2
*D18
 10
5834.450602425771
 20
-9029.462711883507
 30
0.0
 11
5834.450602425771
 21
-8840.462711884804
 31
0.0
 70
   128
 71
     5
 42
377.9999999974061
  3
IMCADLT
100
AcDbAlignedDimension
 13
6035.794338797064
 23
-8651.462711886102
 33
0.0
 14
6035.794338797064
 24
-9029.462711883507
 34
0.0
 50
90.0
100
AcDbRotatedDimension
1001
ACAD
1000
DSTYLE
1002
{
1070
    40
1040
15.0
1070
    41
1040
1.5
1070
    47
1040
495.0
1070
    77
1070
     1
1070
   140
1040
2.0
1070
   146
1040
1.0
1070
   174
1070
     1
1070
   271
1070
     1
1070
   272
1070
     1
1070
   284
1070
     0
1070
   288
1070
     1
1070
   341
1005
0
1002
}
  0
DIMENSION
  5
3E
330
2
100
AcDbEntity
  8
SUNPOU
100
AcDbDimension
  2
*D17
 10
5930.703610855008
 20
-9019.462711883509
 30
0.0
 11
5930.703610855009
 21
-8840.462711884804
 31
0.0
 70
   128
 71
     5
 42
357.9999999974079
  3
IMCADLT
100
AcDbAlignedDimension
 13
6050.70292607558
 23
-8661.4627118861
 33
0.0
 14
6050.702926075566
 24
-9019.462711883509
 34
0.0
 50
90.0
100
AcDbRotatedDimension
1001
ACAD
1000
DSTYLE
1002
{
1070
    40
1040
15.0
1070
    41
1040
1.5
1070
    47
1040
495.0
1070
    77
1070
     1
1070
   140
1040
2.0
1070
   146
1040
1.0
1070
   174
1070
     1
1070
   271
1070
     1
1070
   272
1070
     1
1070
   284
1070
     0
1070
   288
1070
     1
1070
   341
1005
0
1002
}
  0
LEADER
  5
4B
330
2
100
AcDbEntity
  8
SUNPOU
100
AcDbLeader
  3
IMCADLT
 73
     0
 75
     1
 41
278.0
 76
     3
 10
6035.79433879705
 20
-9029.462711883507
 30
0.0
 10
5878.825020829958
 20
-9195.668963529355
 30
0.0
 10
5858.825020829957
 20
-9195.668963529355
 30
0.0
340
4C
213
0.0
223
10.0
233
0.0
1001
ACAD
1000
DSTYLE
1002
{
1070
   147
1040
1.0
1070
    41
1040
2.0
1070
    47
1040
495.0
1070
    77
1070
     0
1070
   140
1040
2.0
1070
   146
1040
1.0
1070
   174
1070
     1
1070
   271
1070
     1
1070
   272
1070
     1
1070
   284
1070
     0
1070
   288
1070
     1
1070
   341
1005
0
1070
   342
1005
1F
1002
}
  0
MTEXT
  5
4C
102
{ACAD_REACTORS
330
4B
102
}
330
2
100
AcDbEntity
  8
SUNPOU
100
AcDbMText
 10
5848.825020829957
 20
-9205.668963529355
 30
0.0
 40
30.0
 41
0.0
 71
     9
 72
     1
  1
床固定用フランジ
 73
     1
 44
1.0
1001
ACAD
1000
MTEXTBEGIN
1070
    73
1070
     1
1070
    44
1040
1.0
1070
    74
1070
     0
1000
MTEXTEND
  0
LINE
  5
4D
330
2
100
AcDbEntity
  8
JISSEN
  6
CENTER
 62
     1
 48
0.2
100
AcDbLine
 10
6050.702926075566
 20
-9019.462711883509
 30
0.0
 11
6060.885751518539
 21
-9019.462711883509
 31
0.0
  0
CIRCLE
  5
50
330
2
100
AcDbEntity
  8
JISSEN
  6
HIDDEN
 62
     2
 48
0.2
100
AcDbCircle
 10
6055.794338797054
 20
-9019.462711883509
 30
0.0
 40
3.000000000000909
  0
LINE
  5
52
330
2
100
AcDbEntity
  8
JISSEN
  6
CENTER
 62
     1
 48
0.2
100
AcDbLine
 10
6055.794338797054
 20
-9013.75382538468
 30
0.0
 11
6055.794338797054
 21
-9025.171598382335
 31
0.0
  0
LINE
  5
53
330
2
100
AcDbEntity
  8
JISSEN
100
AcDbLine
 10
6030.794338797051
 20
-9024.462711883506
 30
0.0
 11
6030.794338797055
 21
-8999.462711883507
 31
0.0
  0
ARC
  5
54
330
2
100
AcDbEntity
  8
JISSEN
100
AcDbCircle
 10
6035.79433879705
 20
-9024.462711883506
 30
0.0
 40
5.0
100
AcDbArc
 50
179.9999999999955
 51
269.9999999999955
  0
LINE
  5
55
330
2
100
AcDbEntity
  8
JISSEN
100
AcDbLine
 10
6035.79433879705
 20
-9029.462711883507
 30
0.0
 11
6059.79433879705
 21
-9029.462711883509
 31
0.0
  0
LINE
  5
56
330
2
100
AcDbEntity
  8
JISSEN
  6
HIDDEN
 62
     2
100
AcDbLine
 10
6059.79433879705
 20
-9029.462711883509
 30
0.0
 11
6309.794338797053
 21
-9029.46271188353
 31
0.0
  0
LINE
  5
57
330
2
100
AcDbEntity
  8
JISSEN
  6
HIDDEN
 62
     2
100
AcDbLine
 10
6309.794338797055
 20
-9000.462711884823
 30
0.0
 11
6030.794338797055
 21
-9000.462711884802
 31
0.0
  0
CIRCLE
  5
58
330
2
100
AcDbEntity
  8
JISSEN
  6
HIDDEN
 62
     2
 48
0.2
100
AcDbCircle
 10
6309.794338797054
 20
-9019.462711883528
 30
0.0
 40
3.000000000000909
  0
LINE
  5
59
330
2
100
AcDbEntity
  8
JISSEN
  6
CENTER
 62
     1
 48
0.2
100
AcDbLine
 10
6304.702926075567
 20
-9019.462711883528
 30
0.0
 11
6314.885751518539
 21
-9019.462711883528
 31
0.0
  0
LINE
  5
5A
330
2
100
AcDbEntity
  8
JISSEN
  6
HIDDEN
 62
     2
100
AcDbLine
 10
6559.794338797054
 20
-9029.462711883549
 30
0.0
 11
6309.794338797053
 21
-9029.46271188353
 31
0.0
  0
LINE
  5
5B
330
2
100
AcDbEntity
  8
JISSEN
  6
HIDDEN
 62
     2
100
AcDbLine
 10
6309.794338797055
 20
-9000.462711884823
 30
0.0
 11
6588.794338797055
 21
-9000.462711884846
 31
0.0
  0
CIRCLE
  5
5C
330
2
100
AcDbEntity
  8
JISSEN
  6
HIDDEN
 62
     2
 48
0.2
100
AcDbCircle
 10
6563.794338797054
 20
-9019.462711883548
 30
0.0
 40
3.000000000000909
  0
LINE
  5
5D
330
2
100
AcDbEntity
  8
JISSEN
  6
CENTER
 62
     1
 48
0.2
100
AcDbLine
 10
6568.88575151854
 20
-9019.462711883548
 30
0.0
 11
6558.702926075568
 21
-9019.462711883548
 31
0.0
  0
LINE
  5
5E
330
2
100
AcDbEntity
  8
JISSEN
  6
CENTER
 62
     1
 48
0.2
100
AcDbLine
 10
6563.794338797055
 20
-9013.753825384721
 30
0.0
 11
6563.794338797055
 21
-9025.171598382376
 31
0.0
  0
LINE
  5
5F
330
2
100
AcDbEntity
  8
JISSEN
100
AcDbLine
 10
6583.794338797057
 20
-9029.462711883551
 30
0.0
 11
6559.794338797054
 21
-9029.462711883549
 31
0.0
  0
ARC
  5
60
330
2
100
AcDbEntity
  8
JISSEN
100
AcDbCircle
 10
6583.794338797057
 20
-9024.46271188355
 30
0.0
 40
5.0
100
AcDbArc
 50
269.9999999999955
 51
359.9999999999955
  0
LINE
  5
61
330
2
100
AcDbEntity
  8
JISSEN
100
AcDbLine
 10
6588.794338797058
 20
-9024.46271188355
 30
0.0
 11
6588.794338797055
 21
-8999.46271188355
 31
0.0
  0
LINE
  5
62
330
2
100
AcDbEntity
  8
JISSEN
  6
HIDDEN
 62
     2
100
AcDbLine
 10
6309.794338797068
 20
-8680.462711884805
 30
0.0
 11
6588.794338797068
 21
-8680.462711884805
 31
0.0
  0
LINE
  5
63
330
2
100
AcDbEntity
  8
JISSEN
  6
HIDDEN
 62
     2
100
AcDbLine
 10
6309.794338797068
 20
-8680.462711884805
 30
0.0
 11
6030.794338797068
 21
-8680.462711884805
 31
0.0
  0
LINE
  5
64
330
2
100
AcDbEntity
  8
JISSEN
  6
CENTER
 62
     1
 48
0.2
100
AcDbLine
 10
6563.794338797068
 20
-8667.171598384928
 30
0.0
 11
6563.794338797068
 21
-8655.753825387273
 31
0.0
  0
LINE
  5
65
330
2
100
AcDbEntity
  8
JISSEN
  6
CENTER
 62
     1
 48
0.2
100
AcDbLine
 10
6568.885751518556
 20
-8661.4627118861
 30
0.0
 11
6558.702926075582
 21
-8661.4627118861
 31
0.0
  0
CIRCLE
  5
66
330
2
100
AcDbEntity
  8
JISSEN
  6
HIDDEN
 62
     2
 48
0.2
100
AcDbCircle
 10
6563.794338797068
 20
-8661.4627118861
 30
0.0
 40
3.000000000000909
  0
LINE
  5
67
330
2
100
AcDbEntity
  8
JISSEN
  6
HIDDEN
 62
     2
100
AcDbLine
 10
6559.79433879707
 20
-8651.462711886102
 30
0.0
 11
6309.794338797068
 21
-8651.462711886102
 31
0.0
  0
LINE
  5
68
330
2
100
AcDbEntity
  8
JISSEN
100
AcDbLine
 10
6588.794338797072
 20
-8656.462711886101
 30
0.0
 11
6588.794338797068
 21
-8681.462711886101
 31
0.0
  0
ARC
  5
69
330
2
100
AcDbEntity
  8
JISSEN
100
AcDbCircle
 10
6583.794338797073
 20
-8656.462711886101
 30
0.0
 40
5.0
100
AcDbArc
 50
0.0
 51
90.0
  0
LINE
  5
6A
330
2
100
AcDbEntity
  8
JISSEN
100
AcDbLine
 10
6583.794338797073
 20
-8651.462711886102
 30
0.0
 11
6559.79433879707
 21
-8651.462711886102
 31
0.0
  0
LINE
  5
6B
330
2
100
AcDbEntity
  8
JISSEN
  6
CENTER
 62
     1
 48
0.2
100
AcDbLine
 10
6304.702926075581
 20
-8661.4627118861
 30
0.0
 11
6314.885751518554
 21
-8661.4627118861
 31
0.0
  0
CIRCLE
  5
6C
330
2
100
AcDbEntity
  8
JISSEN
  6
HIDDEN
 62
     2
 48
0.2
100
AcDbCircle
 10
6309.794338797068
 20
-8661.4627118861
 30
0.0
 40
3.000000000000909
  0
LINE
  5
6D
330
2
100
AcDbEntity
  8
JISSEN
  6
CENTER
 62
     1
 48
0.2
100
AcDbLine
 10
6055.794338797068
 20
-8667.171598384928
 30
0.0
 11
6055.794338797068
 21
-8655.753825387273
 31
0.0
  0
CIRCLE
  5
6E
330
2
100
AcDbEntity
  8
JISSEN
  6
HIDDEN
 62
     2
 48
0.2
100
AcDbCircle
 10
6055.794338797068
 20
-8661.4627118861
 30
0.0
 40
3.000000000000909
  0
LINE
  5
6F
330
2
100
AcDbEntity
  8
JISSEN
  6
CENTER
 62
     1
 48
0.2
100
AcDbLine
 10
6050.70292607558
 20
-8661.4627118861
 30
0.0
 11
6060.885751518554
 21
-8661.4627118861
 31
0.0
  0
LINE
  5
70
330
2
100
AcDbEntity
  8
JISSEN
  6
HIDDEN
 62
     2
100
AcDbLine
 10
6059.794338797066
 20
-8651.462711886102
 30
0.0
 11
6309.794338797068
 21
-8651.462711886102
 31
0.0
  0
LINE
  5
71
330
2
100
AcDbEntity
  8
JISSEN
100
AcDbLine
 10
6035.794338797064
 20
-8651.462711886102
 30
0.0
 11
6059.794338797066
 21
-8651.462711886102
 31
0.0
  0
ARC
  5
72
330
2
100
AcDbEntity
  8
JISSEN
100
AcDbCircle
 10
6035.794338797064
 20
-8656.462711886101
 30
0.0
 40
5.0
100
AcDbArc
 50
90.0
 51
180.0
  0
LINE
  5
73
330
2
100
AcDbEntity
  8
JISSEN
100
AcDbLine
 10
6030.794338797065
 20
-8656.462711886101
 30
0.0
 11
6030.794338797068
 21
-8681.462711886101
 31
0.0
  0
ARC
  5
74
330
2
100
AcDbEntity
  8
TENSEN
100
AcDbCircle
 10
6310.322076050802
 20
-10500.5304418982
 30
0.0
 40
786.4735043771623
100
AcDbArc
 50
79.93117273910454
 51
100.0688272608954
  0
CIRCLE
  5
76
330
2
100
AcDbEntity
  8
JISSEN
100
AcDbCircle
 10
6447.822076050801
 20
-9728.669852064701
 30
0.0
 40
2.5
  0
CIRCLE
  5
77
330
2
100
AcDbEntity
  8
JISSEN
100
AcDbCircle
 10
6172.822076050802
 20
-9728.669852064701
 30
0.0
 40
2.5
  0
LINE
  5
78
330
2
100
AcDbEntity
  8
水槽
 48
0.1
100
AcDbLine
 10
6178.558039582824
 20
-9735.408743306948
 30
0.0
 11
6193.318555611796
 21
-9906.986738853499
 31
0.0
  0
LINE
  5
7A
330
2
100
AcDbEntity
  8
水槽
 48
0.1
100
AcDbLine
 10
6177.561719566347
 20
-9735.494454594245
 30
0.0
 11
6192.32223560861
 21
-9907.072450295284
 31
0.0
  0
LINE
  5
7B
330
2
100
AcDbEntity
  8
水槽
 48
0.1
100
AcDbLine
 10
6178.558039582824
 20
-9735.408743306948
 30
0.0
 11
6193.318555611796
 21
-9906.986738853499
 31
0.0
  0
LINE
  5
7C
330
2
100
AcDbEntity
  8
水槽
 48
0.1
100
AcDbLine
 10
6177.561719566347
 20
-9735.494454594245
 30
0.0
 11
6192.32223560861
 21
-9907.072450295284
 31
0.0
  0
LINE
  5
7D
330
2
100
AcDbEntity
  8
水槽
 48
0.1
100
AcDbLine
 10
6443.082432535255
 20
-9735.494454594245
 30
0.0
 11
6428.321916492993
 21
-9907.072450295284
 31
0.0
  0
LINE
  5
7E
330
2
100
AcDbEntity
  8
水槽
 48
0.1
100
AcDbLine
 10
6442.086112518778
 20
-9735.408743306948
 30
0.0
 11
6427.325596489807
 21
-9906.986738853499
 31
0.0
  0
LINE
  5
7F
330
2
100
AcDbEntity
  8
JISSEN
100
AcDbLine
 10
6457.657460540012
 20
-9887.670574908788
 30
0.0
 11
6457.657460540016
 21
-9998.670574908789
 31
0.0
  0
LINE
  5
80
330
2
100
AcDbEntity
  8
JISSEN
100
AcDbLine
 10
6161.289768301577
 20
-9887.670574908788
 30
0.0
 11
6161.289768301572
 21
-9998.670574908789
 31
0.0
  0
LWPOLYLINE
  5
81
330
2
100
AcDbEntity
  8
JISSEN
100
AcDbPolyline
 90
       12
 70
     0
 43
0.0
 10
6148.224434421436
 20
-9875.670574912803
 10
6148.437578882031
 20
-9876.908187909801
 42
0.3650985201864199
 10
6149.817267275021
 20
-9878.070574908788
 10
6153.289768301576
 20
-9878.070574908788
 42
-0.4142135623729841
 10
6162.889768301576
 20
-9887.670574908788
 10
6162.889768301573
 20
-9998.670574908789
 42
0.4142135623732219
 10
6171.289768301573
 20
-10007.07057490878
 10
6185.189768301574
 20
-10007.07057490878
 42
-0.4142135623730951
 10
6188.789768301575
 20
-10010.67057490878
 10
6188.789768301575
 20
-10015.67057490879
 42
0.414213562373038
 10
6190.189768301574
 20
-10017.07057490878
 10
6229.289768301574
 20
-10017.07057490878
  0
LINE
  5
82
330
2
100
AcDbEntity
  8
JISSEN
100
AcDbLine
 10
6459.289768301572
 20
-9887.670574908788
 30
0.0
 11
6459.289768301577
 21
-9998.670574908789
 31
0.0
  0
LINE
  5
83
330
2
100
AcDbEntity
  8
水槽
 48
0.1
100
AcDbLine
 10
6407.322076064971
 20
-9927.070574910899
 30
0.0
 11
6420.322076050801
 21
-9927.070574910899
 31
0.0
  0
LINE
  5
84
330
2
100
AcDbEntity
  8
水槽
 48
0.1
100
AcDbLine
 10
6407.322076064971
 20
-9926.070574910902
 30
0.0
 11
6420.323664876078
 21
-9926.070574910902
 31
0.0
  0
LINE
  5
85
330
2
100
AcDbEntity
  8
フィルタ枠
 48
0.1
100
AcDbLine
 10
6427.322076063422
 20
-9928.070574910654
 30
0.0
 11
6409.322076065254
 21
-9928.070574908085
 31
0.0
  0
LINE
  5
87
330
2
100
AcDbEntity
  8
フィルタ枠
 48
0.1
100
AcDbLine
 10
6409.322076064971
 20
-9927.070574910899
 30
0.0
 11
6427.322076053268
 21
-9927.070574910899
 31
0.0
  0
LINE
  5
88
330
2
100
AcDbEntity
  8
JISSEN
 48
0.1
100
AcDbLine
 10
6429.322076063134
 20
-10016.07057490878
 30
0.0
 11
6407.322076064969
 21
-10016.07057490878
 31
0.0
  0
LINE
  5
89
330
2
100
AcDbEntity
  8
JISSEN
100
AcDbLine
 10
6430.357460540015
 20
-10017.07057490878
 30
0.0
 11
6391.257460540015
 21
-10017.07057490878
 31
0.0
  0
LINE
  5
8A
330
2
100
AcDbEntity
  8
JISSEN
100
AcDbLine
 10
6430.389768301575
 20
-10018.67057490879
 30
0.0
 11
6391.289768301574
 21
-10018.67057490879
 31
0.0
  0
LWPOLYLINE
  5
8B
330
2
100
AcDbEntity
  8
JISSEN
100
AcDbPolyline
 90
        6
 70
     0
 43
0.0
 10
6406.32207606497
 20
-10005.07057490878
 10
6406.32207606497
 20
-10016.07057490878
 42
0.414213562373095
 10
6407.322076064969
 20
-10017.07057490878
 10
6429.322076063134
 20
-10017.07057490878
 42
0.4142135623730951
 10
6430.322076063133
 20
-10016.07057490878
 10
6430.322076063133
 20
-10005.07057490878
  0
ARC
  5
8C
330
2
100
AcDbEntity
  8
JISSEN
100
AcDbCircle
 10
6449.257460540017
 20
-9998.670574908789
 30
0.0
 40
8.399999999999636
100
AcDbArc
 50
270.0
 51
0.000000000000007
  0
ARC
  5
8D
330
2
100
AcDbEntity
  8
JISSEN
100
AcDbCircle
 10
6449.289768301577
 20
-9998.670574908789
 30
0.0
 40
10.0
100
AcDbArc
 50
270.0
 51
0.0000000000013047
  0
LINE
  5
8E
330
2
100
AcDbEntity
  8
JISSEN
 48
0.1
100
AcDbLine
 10
6430.322076063133
 20
-10005.07057490878
 30
0.0
 11
6429.322076063134
 21
-10005.07057490878
 31
0.0
  0
LINE
  5
8F
330
2
100
AcDbEntity
  8
JISSEN
 48
0.1
100
AcDbLine
 10
6429.322076063134
 20
-10005.07057490878
 30
0.0
 11
6429.322076063134
 21
-10016.07057490878
 31
0.0
  0
ARC
  5
90
330
2
100
AcDbEntity
  8
JISSEN
100
AcDbCircle
 10
6430.357460540015
 20
-10015.67057490879
 30
0.0
 40
1.399999999999636
100
AcDbArc
 50
270.0
 51
0.000000000000007
  0
LINE
  5
91
330
2
100
AcDbEntity
  8
JISSEN
100
AcDbLine
 10
6431.757460540016
 20
-10010.67057490878
 30
0.0
 11
6431.757460540016
 21
-10015.67057490879
 31
0.0
  0
ARC
  5
92
330
2
100
AcDbEntity
  8
JISSEN
100
AcDbCircle
 10
6435.357460540014
 20
-10010.67057490879
 30
0.0
 40
3.599999999999909
100
AcDbArc
 50
89.99999999999277
 51
179.9999999999928
  0
LINE
  5
93
330
2
100
AcDbEntity
  8
JISSEN
100
AcDbLine
 10
6449.257460540017
 20
-10007.07057490878
 30
0.0
 11
6435.357460540015
 21
-10007.07057490878
 31
0.0
  0
ARC
  5
94
330
2
100
AcDbEntity
  8
JISSEN
100
AcDbCircle
 10
6430.389768301575
 20
-10015.67057490879
 30
0.0
 40
3.0
100
AcDbArc
 50
270.0
 51
0.000000000000007
  0
LINE
  5
95
330
2
100
AcDbEntity
  8
JISSEN
100
AcDbLine
 10
6433.389768301575
 20
-10010.67057490878
 30
0.0
 11
6433.389768301575
 21
-10015.67057490879
 31
0.0
  0
ARC
  5
96
330
2
100
AcDbEntity
  8
JISSEN
100
AcDbCircle
 10
6435.389768301575
 20
-10010.67057490878
 30
0.0
 40
2.0
100
AcDbArc
 50
90.0
 51
180.0
  0
LINE
  5
97
330
2
100
AcDbEntity
  8
JISSEN
100
AcDbLine
 10
6430.322076063133
 20
-10005.07057490878
 30
0.0
 11
6429.822076063134
 21
-10005.07057490878
 31
0.0
  0
LINE
  5
98
330
2
100
AcDbEntity
  8
JISSEN
100
AcDbLine
 10
6449.289768301577
 20
-10008.67057490879
 30
0.0
 11
6435.389768301575
 21
-10008.67057490878
 31
0.0
  0
LINE
  5
99
330
2
100
AcDbEntity
  8
水槽
 48
0.1
100
AcDbLine
 10
6428.311341733665
 20
-9911.041113414565
 30
0.0
 11
6428.322076050801
 21
-9907.070574910902
 31
0.0
  0
LINE
  5
9A
330
2
100
AcDbEntity
  8
水槽
 48
0.1
100
AcDbLine
 10
6428.322076050801
 20
-9911.043049674569
 30
0.0
 11
6428.322076050801
 21
-9919.0705749109
 31
0.0
  0
LINE
  5
9B
330
2
100
AcDbEntity
  8
水槽
 48
0.1
100
AcDbLine
 10
6427.323664786652
 20
-9919.071693816347
 30
0.0
 11
6427.325596489807
 21
-9906.986738853499
 31
0.0
  0
ARC
  5
9C
330
2
100
AcDbEntity
  8
水槽
 48
0.1
100
AcDbCircle
 10
6420.322076050801
 20
-9919.0705749109
 30
0.0
 40
8.0
100
AcDbArc
 50
270.0000000000017
 51
0.000000000000007
  0
ARC
  5
9D
330
2
100
AcDbEntity
  8
水槽
 48
0.1
100
AcDbCircle
 10
6420.323664876078
 20
-9919.0705749109
 30
0.0
 40
7.0
100
AcDbArc
 50
270.0
 51
359.9908416342943
  0
ARC
  5
9E
330
2
100
AcDbEntity
  8
フィルタ枠
 48
0.1
100
AcDbCircle
 10
6427.322076053268
 20
-9930.070574910899
 30
0.0
 40
3.0
100
AcDbArc
 50
0.0000000471097723
 51
89.99999999999939
  0
ARC
  5
9F
330
2
100
AcDbEntity
  8
フィルタ枠
 48
0.1
100
AcDbCircle
 10
6427.322076063134
 20
-9930.070574910653
 30
0.0
 40
2.0
100
AcDbArc
 50
359.9999999999964
 51
89.99999999182184
  0
LINE
  5
A0
330
2
100
AcDbEntity
  8
フィルタ枠
 48
0.1
100
AcDbLine
 10
6429.322076063134
 20
-9939.0705749109
 30
0.0
 11
6430.322076059322
 21
-9939.070574910227
 31
0.0
  0
LINE
  5
A1
330
2
100
AcDbEntity
  8
フィルタ枠
 48
0.1
100
AcDbLine
 10
6430.322076053268
 20
-9930.070574908434
 30
0.0
 11
6430.322076059323
 21
-9939.070574910227
 31
0.0
  0
LINE
  5
A2
330
2
100
AcDbEntity
  8
フィルタ枠
 48
0.1
100
AcDbLine
 10
6429.322076063134
 20
-9930.070574910653
 30
0.0
 11
6429.322076063134
 21
-9939.0705749109
 31
0.0
  0
LINE
  5
A3
330
2
100
AcDbEntity
  8
JISSEN
100
AcDbLine
 10
6199.289768301576
 20
-10055.67057490932
 30
0.0
 11
6199.289768301576
 21
-10107.67057490932
 31
0.0
  0
LINE
  5
A4
330
2
100
AcDbEntity
  8
JISSEN
100
AcDbLine
 10
6197.689768301578
 20
-10107.67057490932
 30
0.0
 11
6197.689768301578
 21
-10055.67057490932
 31
0.0
  0
LINE
  5
A5
330
2
100
AcDbEntity
  8
JISSEN
100
AcDbLine
 10
6195.889768301575
 20
-10026.67057490932
 30
0.0
 11
6195.889768301575
 21
-10107.67057490932
 31
0.0
  0
LINE
  5
A6
330
2
100
AcDbEntity
  8
JISSEN
100
AcDbLine
 10
6194.289768301576
 20
-10107.67057490932
 30
0.0
 11
6194.289768301576
 21
-10026.67057490932
 31
0.0
  0
LINE
  5
A7
330
2
100
AcDbEntity
  8
JISSEN
100
AcDbLine
 10
6383.225152778457
 20
-10089.92472870221
 30
0.0
 11
6383.225152778457
 21
-10133.67057490878
 31
0.0
  0
LINE
  5
A8
330
2
100
AcDbEntity
  8
JISSEN
100
AcDbLine
 10
6384.225152778458
 20
-10089.73506210355
 30
0.0
 11
6384.225152778458
 21
-10133.67057490878
 31
0.0
  0
LINE
  5
A9
330
2
100
AcDbEntity
  8
JISSEN
100
AcDbLine
 10
6236.418999347811
 20
-10089.73506210355
 30
0.0
 11
6236.418999347811
 21
-10133.67057490878
 31
0.0
  0
LINE
  5
AA
330
2
100
AcDbEntity
  8
JISSEN
100
AcDbLine
 10
6237.41899934781
 20
-10089.92472870221
 30
0.0
 11
6237.41899934781
 21
-10133.67057490878
 31
0.0
  0
LINE
  5
AB
330
2
100
AcDbEntity
  8
JISSEN
100
AcDbLine
 10
6384.289768301576
 20
-10133.67057490878
 30
0.0
 11
6310.322076063133
 21
-10133.67057490878
 31
0.0
  0
LINE
  5
AC
330
2
100
AcDbEntity
  8
JISSEN
100
AcDbLine
 10
6236.418999347811
 20
-10133.67057490878
 30
0.0
 11
6310.322076063133
 21
-10133.67057490878
 31
0.0
  0
LINE
  5
AD
330
2
100
AcDbEntity
  8
JISSEN
100
AcDbLine
 10
6195.889768301575
 20
-10107.67057490932
 30
0.0
 11
6194.289768301576
 21
-10107.67057490932
 31
0.0
  0
LINE
  5
AE
330
2
100
AcDbEntity
  8
JISSEN
100
AcDbLine
 10
6199.289768301576
 20
-10107.67057490932
 30
0.0
 11
6197.689768301578
 21
-10107.67057490932
 31
0.0
  0
LINE
  5
AF
330
2
100
AcDbEntity
  8
水槽
 48
0.1
100
AcDbLine
 10
6310.322076050802
 20
-9938.0705749109
 30
0.0
 11
6219.322076036632
 21
-9938.0705749109
 31
0.0
  0
LINE
  5
B0
330
2
100
AcDbEntity
  8
フィルタ枠
 48
0.1
100
AcDbLine
 10
6216.322076036632
 20
-9942.0705749109
 30
0.0
 11
6310.322076050802
 21
-9942.0705749109
 31
0.0
  0
LINE
  5
B1
330
2
100
AcDbEntity
  8
フィルタ枠
 48
0.1
100
AcDbLine
 10
6310.322076050802
 20
-9941.0705749109
 30
0.0
 11
6216.322076036632
 21
-9941.0705749109
 31
0.0
  0
LINE
  5
B2
330
2
100
AcDbEntity
  8
水槽
 48
0.1
100
AcDbLine
 10
6310.322076050802
 20
-9939.0705749109
 30
0.0
 11
6219.322076036632
 21
-9939.0705749109
 31
0.0
  0
LINE
  5
B3
330
2
100
AcDbEntity
  8
JISSEN
100
AcDbLine
 10
6214.354383824691
 20
-10021.87057490879
 30
0.0
 11
6236.354383824692
 21
-10021.87057490879
 31
0.0
  0
LINE
  5
B4
330
2
100
AcDbEntity
  8
JISSEN
100
AcDbLine
 10
6236.354383824692
 20
-10018.67057490879
 30
0.0
 11
6214.354383824691
 21
-10018.67057490879
 31
0.0
  0
LINE
  5
B5
330
2
100
AcDbEntity
  8
JISSEN
100
AcDbLine
 10
6236.289768301577
 20
-10043.67057490932
 30
0.0
 11
6220.103177801576
 21
-10043.67057490932
 31
0.0
  0
LINE
  5
B6
330
2
100
AcDbEntity
  8
JISSEN
100
AcDbLine
 10
6234.689768301578
 20
-10074.67057490932
 30
0.0
 11
6226.289768301576
 21
-10074.67057490932
 31
0.0
  0
LINE
  5
B7
330
2
100
AcDbEntity
  8
JISSEN
100
AcDbLine
 10
6236.289768301577
 20
-10063.67057490932
 30
0.0
 11
6220.103177801576
 21
-10063.67057490932
 31
0.0
  0
LINE
  5
B8
330
2
100
AcDbEntity
  8
JISSEN
100
AcDbLine
 10
6234.689768301578
 20
-10088.67057490932
 30
0.0
 11
6226.289768301576
 21
-10088.67057490932
 31
0.0
  0
LINE
  5
B9
330
2
100
AcDbEntity
  8
JISSEN
100
AcDbLine
 10
6190.189768301574
 20
-10018.67057490879
 30
0.0
 11
6229.289768301574
 21
-10018.67057490879
 31
0.0
  0
LINE
  5
BA
330
2
100
AcDbEntity
  8
JISSEN
 48
0.1
100
AcDbLine
 10
6230.689768301574
 20
-10006.67057490879
 30
0.0
 11
6230.689768301574
 21
-9996.67057490879
 31
0.0
  0
LINE
  5
BB
330
2
100
AcDbEntity
  8
JISSEN
 48
0.1
100
AcDbLine
 10
6232.289768301574
 20
-10006.67057490879
 30
0.0
 11
6232.289768301574
 21
-9996.67057490879
 31
0.0
  0
LINE
  5
BC
330
2
100
AcDbEntity
  8
JISSEN
 48
0.1
100
AcDbLine
 10
6388.289768301575
 20
-9996.670574908787
 30
0.0
 11
6388.289768301575
 21
-10006.67057490879
 31
0.0
  0
LINE
  5
BD
330
2
100
AcDbEntity
  8
JISSEN
 48
0.1
100
AcDbLine
 10
6389.889768301575
 20
-10006.67057490879
 30
0.0
 11
6389.889768301575
 21
-9996.670574908787
 31
0.0
  0
LINE
  5
BE
330
2
100
AcDbEntity
  8
JISSEN
100
AcDbLine
 10
6383.289768301576
 20
-10018.67057490879
 30
0.0
 11
6383.289768301576
 21
-10073.17057490878
 31
0.0
  0
LINE
  5
BF
330
2
100
AcDbEntity
  8
JISSEN
100
AcDbLine
 10
6384.289768301576
 20
-10021.87057490879
 30
0.0
 11
6384.289768301576
 21
-10073.17057490878
 31
0.0
  0
ARC
  5
C0
330
2
100
AcDbEntity
  8
JISSEN
100
AcDbCircle
 10
6382.789768301576
 20
-10076.17057490878
 30
0.0
 40
2.5
100
AcDbArc
 50
89.99999999999994
 51
179.9999999999999
  0
ARC
  5
C1
330
2
100
AcDbEntity
  8
JISSEN
100
AcDbCircle
 10
6382.789768301576
 20
-10087.17057490879
 30
0.0
 40
2.5
100
AcDbArc
 50
179.9999999999999
 51
269.9999999999999
  0
LINE
  5
C2
330
2
100
AcDbEntity
  8
JISSEN
100
AcDbLine
 10
6382.789768301576
 20
-10074.67057490879
 30
0.0
 11
6382.789768301576
 21
-10074.67057490879
 31
0.0
  0
ARC
  5
C3
330
2
100
AcDbEntity
  8
JISSEN
100
AcDbCircle
 10
6382.789768301576
 20
-10076.17057490878
 30
0.0
 40
1.5
100
AcDbArc
 50
89.99999999999994
 51
179.9999999999999
  0
LINE
  5
C4
330
2
100
AcDbEntity
  8
JISSEN
100
AcDbLine
 10
6381.289768301576
 20
-10076.17057490878
 30
0.0
 11
6381.289768301576
 21
-10087.17057490879
 31
0.0
  0
LINE
  5
C5
330
2
100
AcDbEntity
  8
JISSEN
100
AcDbLine
 10
6382.789768301576
 20
-10088.67057490878
 30
0.0
 11
6382.789768301576
 21
-10088.67057490878
 31
0.0
  0
ARC
  5
C6
330
2
100
AcDbEntity
  8
JISSEN
100
AcDbCircle
 10
6382.789768301576
 20
-10087.17057490879
 30
0.0
 40
1.5
100
AcDbArc
 50
179.9999999999999
 51
269.9999999999999
  0
LINE
  5
C7
330
2
100
AcDbEntity
  8
JISSEN
100
AcDbLine
 10
6380.289768301576
 20
-10076.17057490878
 30
0.0
 11
6380.289768301576
 21
-10087.17057490879
 31
0.0
  0
ARC
  5
C8
330
2
100
AcDbEntity
  8
JISSEN
100
AcDbCircle
 10
6382.789768301576
 20
-10073.17057490878
 30
0.0
 40
0.5
100
AcDbArc
 50
269.9999999999999
 51
0.000000000000007
  0
ARC
  5
C9
330
2
100
AcDbEntity
  8
JISSEN
100
AcDbCircle
 10
6382.789768301576
 20
-10073.17057490878
 30
0.0
 40
1.5
100
AcDbArc
 50
269.9999999999999
 51
0.000000000000007
  0
ARC
  5
CA
330
2
100
AcDbEntity
  8
JISSEN
100
AcDbCircle
 10
6382.789768301576
 20
-10090.17057490878
 30
0.0
 40
0.5
100
AcDbArc
 50
29.45187980169115
 51
89.99999999999994
  0
ARC
  5
CB
330
2
100
AcDbEntity
  8
JISSEN
100
AcDbCircle
 10
6382.789768301576
 20
-10090.17057490878
 30
0.0
 40
1.5
100
AcDbArc
 50
16.87842439490892
 51
89.99999999999994
  0
LINE
  5
CC
330
2
100
AcDbEntity
  8
JISSEN
 48
0.1
100
AcDbLine
 10
6407.322076064969
 20
-10005.07057490878
 30
0.0
 11
6406.32207606497
 21
-10005.07057490878
 31
0.0
  0
LINE
  5
CD
330
2
100
AcDbEntity
  8
JISSEN
 48
0.1
100
AcDbLine
 10
6407.322076064969
 20
-10016.07057490878
 30
0.0
 11
6407.322076064969
 21
-10005.07057490878
 31
0.0
  0
LINE
  5
CE
330
2
100
AcDbEntity
  8
JISSEN
100
AcDbLine
 10
6389.889768301575
 20
-10006.67057490879
 30
0.0
 11
6389.889768301573
 21
-10015.67057490879
 31
0.0
  0
LINE
  5
CF
330
2
100
AcDbEntity
  8
JISSEN
100
AcDbLine
 10
6388.289768301575
 20
-10015.67057490879
 30
0.0
 11
6388.289768301575
 21
-10006.67057490879
 31
0.0
  0
LINE
  5
D0
330
2
100
AcDbEntity
  8
JISSEN
100
AcDbLine
 10
6406.289768301576
 20
-10018.67057490879
 30
0.0
 11
6406.289768301576
 21
-10021.87057490879
 31
0.0
  0
LINE
  5
D1
330
2
100
AcDbEntity
  8
JISSEN
100
AcDbLine
 10
6406.289768301576
 20
-10021.87057490879
 30
0.0
 11
6384.289768301576
 21
-10021.87057490879
 31
0.0
  0
ARC
  5
D2
330
2
100
AcDbEntity
  8
JISSEN
100
AcDbCircle
 10
6391.289768301574
 20
-10015.67057490879
 30
0.0
 40
1.40000000000009
100
AcDbArc
 50
180.0
 51
270.0
  0
ARC
  5
D3
330
2
100
AcDbEntity
  8
JISSEN
100
AcDbCircle
 10
6391.289768301574
 20
-10015.67057490879
 30
0.0
 40
3.0
100
AcDbArc
 50
180.0
 51
270.0
  0
LINE
  5
D4
330
2
100
AcDbEntity
  8
JISSEN
100
AcDbLine
 10
6391.289768301574
 20
-10018.67057490879
 30
0.0
 11
6384.289768301576
 21
-10018.67057490879
 31
0.0
  0
LINE
  5
D5
330
2
100
AcDbEntity
  8
JISSEN
100
AcDbLine
 10
6383.289768301576
 20
-10008.67057490878
 30
0.0
 11
6383.289768301576
 21
-10018.67057490879
 31
0.0
  0
LINE
  5
D6
330
2
100
AcDbEntity
  8
JISSEN
100
AcDbLine
 10
6391.289768301574
 20
-10018.67057490879
 30
0.0
 11
6384.289768301576
 21
-10018.67057490879
 31
0.0
  0
LINE
  5
D7
330
2
100
AcDbEntity
  8
JISSEN
100
AcDbLine
 10
6384.289768301576
 20
-10018.67057490879
 30
0.0
 11
6406.289768301576
 21
-10018.67057490879
 31
0.0
  0
LINE
  5
D8
330
2
100
AcDbEntity
  8
JISSEN
100
AcDbLine
 10
6384.289768301576
 20
-10008.67057490878
 30
0.0
 11
6384.289768301576
 21
-10018.67057490879
 31
0.0
  0
LINE
  5
D9
330
2
100
AcDbEntity
  8
JISSEN
100
AcDbLine
 10
6406.822076064969
 20
-10005.07057490878
 30
0.0
 11
6406.32207606497
 21
-10005.07057490878
 31
0.0
  0
LINE
  5
DA
330
2
100
AcDbEntity
  8
JISSEN
100
AcDbLine
 10
6384.289768301576
 20
-10008.67057490878
 30
0.0
 11
6383.289768301576
 21
-10008.67057490878
 31
0.0
  0
LWPOLYLINE
  5
DB
330
2
100
AcDbEntity
  8
JISSEN
100
AcDbPolyline
 90
        2
 70
     0
 43
0.0
 10
6316.424814570055
 20
-10045.93597536241
 10
6316.424814570055
 20
-10061.19524077647
  0
LWPOLYLINE
  5
DC
330
2
100
AcDbEntity
  8
JISSEN
100
AcDbPolyline
 90
        4
 70
     0
 43
0.0
 10
6313.813579346717
 20
-10063.49913495286
 10
6237.354383824691
 20
-10063.49913495286
 10
6237.354383824691
 20
-10043.63208118603
 10
6313.813579346717
 20
-10043.63208118603
  0
LINE
  5
DD
330
2
100
AcDbEntity
  8
JISSEN
100
AcDbLine
 10
6237.354383824691
 20
-10018.67057490879
 30
0.0
 11
6237.354383824691
 21
-10073.17057490878
 31
0.0
  0
LINE
  5
DE
330
2
100
AcDbEntity
  8
JISSEN
100
AcDbLine
 10
6236.354383824692
 20
-10021.87057490879
 30
0.0
 11
6236.354383824692
 21
-10073.17057490878
 31
0.0
  0
ARC
  5
DF
330
2
100
AcDbEntity
  8
JISSEN
100
AcDbCircle
 10
6280.743944590651
 20
-10062.85038720655
 30
0.0
 40
6.393488948866777
100
AcDbArc
 50
98.73402419024012
 51
185.823829705905
  0
ARC
  5
E0
330
2
100
AcDbEntity
  8
JISSEN
100
AcDbCircle
 10
6313.806750960834
 20
-10060.85966068019
 30
0.0
 40
2.639483105258324
100
AcDbArc
 50
269.85177471755
 51
352.6957279205862
  0
LINE
  5
E1
330
2
100
AcDbEntity
  8
JISSEN
100
AcDbLine
 10
6302.727239520071
 20
-10056.53103786723
 30
0.0
 11
6279.773107391637
 21
-10056.53103786723
 31
0.0
  0
ARC
  5
E2
330
2
100
AcDbEntity
  8
JISSEN
100
AcDbCircle
 10
6301.756402321054
 20
-10062.85038720655
 30
0.0
 40
6.393488948866777
100
AcDbArc
 50
354.176170294095
 51
81.26597580975987
  0
LINE
  5
E3
330
2
100
AcDbEntity
  8
JISSEN
100
AcDbLine
 10
6239.354383824691
 20
-10076.17057490878
 30
0.0
 11
6239.354383824691
 21
-10087.17057490879
 31
0.0
  0
ARC
  5
E4
330
2
100
AcDbEntity
  8
JISSEN
100
AcDbCircle
 10
6237.854383824692
 20
-10076.17057490878
 30
0.0
 40
1.5
100
AcDbArc
 50
0.0000000000000579
 51
90.00000000000005
  0
ARC
  5
E5
330
2
100
AcDbEntity
  8
JISSEN
100
AcDbCircle
 10
6237.854383824692
 20
-10073.17057490878
 30
0.0
 40
1.5
100
AcDbArc
 50
180.0
 51
270.0000000000001
  0
LINE
  5
E6
330
2
100
AcDbEntity
  8
JISSEN
100
AcDbLine
 10
6237.854383824692
 20
-10074.67057490879
 30
0.0
 11
6237.854383824692
 21
-10074.67057490879
 31
0.0
  0
ARC
  5
E7
330
2
100
AcDbEntity
  8
JISSEN
100
AcDbCircle
 10
6237.854383824692
 20
-10073.17057490878
 30
0.0
 40
0.5
100
AcDbArc
 50
180.0
 51
270.0000000000001
  0
ARC
  5
E8
330
2
100
AcDbEntity
  8
JISSEN
100
AcDbCircle
 10
6237.789768301577
 20
-10076.17057490878
 30
0.0
 40
1.5
100
AcDbArc
 50
0.0000000000000579
 51
90.00000000000005
  0
ARC
  5
E9
330
2
100
AcDbEntity
  8
JISSEN
100
AcDbCircle
 10
6237.789768301577
 20
-10073.17057490878
 30
0.0
 40
1.5
100
AcDbArc
 50
180.0
 51
270.0000000000001
  0
LINE
  5
EA
330
2
100
AcDbEntity
  8
JISSEN
100
AcDbLine
 10
6239.289768301576
 20
-10076.17057490878
 30
0.0
 11
6239.289768301576
 21
-10087.17057490879
 31
0.0
  0
LINE
  5
EB
330
2
100
AcDbEntity
  8
JISSEN
100
AcDbLine
 10
6237.789768301577
 20
-10074.67057490879
 30
0.0
 11
6237.789768301577
 21
-10074.67057490879
 31
0.0
  0
LINE
  5
EC
330
2
100
AcDbEntity
  8
JISSEN
100
AcDbLine
 10
6236.289768301577
 20
-10066.67057490932
 30
0.0
 11
6234.689768301578
 21
-10066.67057490932
 31
0.0
  0
ARC
  5
ED
330
2
100
AcDbEntity
  8
JISSEN
100
AcDbCircle
 10
6237.854383824692
 20
-10090.17057490878
 30
0.0
 40
1.5
100
AcDbArc
 50
90.00000000000005
 51
163.1215756050911
  0
LINE
  5
EE
330
2
100
AcDbEntity
  8
JISSEN
100
AcDbLine
 10
6237.854383824692
 20
-10088.67057490878
 30
0.0
 11
6237.854383824692
 21
-10088.67057490878
 31
0.0
  0
ARC
  5
EF
330
2
100
AcDbEntity
  8
JISSEN
100
AcDbCircle
 10
6237.854383824692
 20
-10090.17057490878
 30
0.0
 40
0.5
100
AcDbArc
 50
90.00000000000005
 51
150.5481201983088
  0
ARC
  5
F0
330
2
100
AcDbEntity
  8
JISSEN
100
AcDbCircle
 10
6237.789768301577
 20
-10090.17057490878
 30
0.0
 40
1.5
100
AcDbArc
 50
90.00000000000005
 51
180.0000000000001
  0
LINE
  5
F1
330
2
100
AcDbEntity
  8
JISSEN
100
AcDbLine
 10
6237.789768301577
 20
-10088.67057490878
 30
0.0
 11
6237.789768301577
 21
-10088.67057490878
 31
0.0
  0
LINE
  5
F2
330
2
100
AcDbEntity
  8
JISSEN
100
AcDbLine
 10
6234.689768301578
 20
-10096.67057490932
 30
0.0
 11
6236.289768301577
 21
-10096.67057490932
 31
0.0
  0
ARC
  5
F3
330
2
100
AcDbEntity
  8
JISSEN
100
AcDbCircle
 10
6237.854383824692
 20
-10087.17057490879
 30
0.0
 40
1.5
100
AcDbArc
 50
270.0000000000001
 51
0.0000000000000579
  0
ARC
  5
F4
330
2
100
AcDbEntity
  8
JISSEN
100
AcDbCircle
 10
6237.789768301577
 20
-10087.17057490879
 30
0.0
 40
1.5
100
AcDbArc
 50
270.0000000000001
 51
0.0000000000000579
  0
LINE
  5
F5
330
2
100
AcDbEntity
  8
JISSEN
100
AcDbLine
 10
6234.689768301578
 20
-10066.67057490932
 30
0.0
 11
6234.689768301578
 21
-10096.67057490932
 31
0.0
  0
LINE
  5
F6
330
2
100
AcDbEntity
  8
JISSEN
100
AcDbLine
 10
6236.289768301577
 20
-10096.67057490932
 30
0.0
 11
6236.289768301577
 21
-10066.67057490932
 31
0.0
  0
LINE
  5
F7
330
2
100
AcDbEntity
  8
JISSEN
100
AcDbLine
 10
6240.354383824691
 20
-10076.17057490878
 30
0.0
 11
6240.354383824691
 21
-10087.17057490879
 31
0.0
  0
ARC
  5
F8
330
2
100
AcDbEntity
  8
JISSEN
100
AcDbCircle
 10
6237.854383824692
 20
-10076.17057490878
 30
0.0
 40
2.5
100
AcDbArc
 50
0.0000000000000579
 51
90.00000000000005
  0
ARC
  5
F9
330
2
100
AcDbEntity
  8
JISSEN
100
AcDbCircle
 10
6237.854383824692
 20
-10087.17057490879
 30
0.0
 40
2.5
100
AcDbArc
 50
270.0000000000001
 51
0.0000000000000579
  0
ARC
  5
FA
330
2
100
AcDbEntity
  8
JISSEN
100
AcDbCircle
 10
6280.743944590651
 20
-10044.28082893234
 30
0.0
 40
6.393488948866777
100
AcDbArc
 50
174.176170294095
 51
261.2659758097599
  0
LINE
  5
FB
330
2
100
AcDbEntity
  8
JISSEN
100
AcDbLine
 10
6302.727239520071
 20
-10050.60017827166
 30
0.0
 11
6279.773107391637
 21
-10050.60017827166
 31
0.0
  0
ARC
  5
FC
330
2
100
AcDbEntity
  8
JISSEN
100
AcDbCircle
 10
6301.756402321054
 20
-10044.28082893234
 30
0.0
 40
6.393488948866777
100
AcDbArc
 50
278.7340241902401
 51
5.823829705905004
  0
ARC
  5
FD
330
2
100
AcDbEntity
  8
JISSEN
100
AcDbCircle
 10
6313.806750960834
 20
-10046.2715554587
 30
0.0
 40
2.639483105258324
100
AcDbArc
 50
7.304272079413849
 51
90.14822528244998
  0
LINE
  5
FE
330
2
100
AcDbEntity
  8
JISSEN
100
AcDbLine
 10
6230.689768301574
 20
-10006.67057490879
 30
0.0
 11
6230.689768301576
 21
-10015.67057490879
 31
0.0
  0
LINE
  5
FF
330
2
100
AcDbEntity
  8
JISSEN
100
AcDbLine
 10
6232.289768301574
 20
-10015.67057490879
 30
0.0
 11
6232.289768301574
 21
-10006.67057490879
 31
0.0
  0
LINE
  5
100
330
2
100
AcDbEntity
  8
JISSEN
100
AcDbLine
 10
6229.289768301574
 20
-10018.67057490879
 30
0.0
 11
6236.354383824692
 21
-10018.67057490879
 31
0.0
  0
ARC
  5
101
330
2
100
AcDbEntity
  8
JISSEN
100
AcDbCircle
 10
6229.289768301574
 20
-10015.67057490879
 30
0.0
 40
3.0
100
AcDbArc
 50
270.0
 51
0.000000000000007
  0
ARC
  5
102
330
2
100
AcDbEntity
  8
JISSEN
100
AcDbCircle
 10
6229.289768301574
 20
-10015.67057490879
 30
0.0
 40
1.40000000000009
100
AcDbArc
 50
270.0
 51
0.000000000000007
  0
LINE
  5
103
330
2
100
AcDbEntity
  8
JISSEN
100
AcDbLine
 10
6236.354383824692
 20
-10008.67057490878
 30
0.0
 11
6236.354383824692
 21
-10018.67057490879
 31
0.0
  0
LINE
  5
104
330
2
100
AcDbEntity
  8
JISSEN
100
AcDbLine
 10
6237.354383824691
 20
-10008.67057490878
 30
0.0
 11
6237.354383824691
 21
-10018.67057490879
 31
0.0
  0
LINE
  5
105
330
2
100
AcDbEntity
  8
JISSEN
100
AcDbLine
 10
6229.289768301574
 20
-10018.67057490879
 30
0.0
 11
6236.354383824692
 21
-10018.67057490879
 31
0.0
  0
LINE
  5
106
330
2
100
AcDbEntity
  8
JISSEN
100
AcDbLine
 10
6237.354383824691
 20
-10008.67057490878
 30
0.0
 11
6236.354383824692
 21
-10008.67057490878
 31
0.0
  0
LINE
  5
107
330
2
100
AcDbEntity
  8
水槽
 48
0.1
100
AcDbLine
 10
6310.322076050802
 20
-9938.0705749109
 30
0.0
 11
6401.322076064971
 21
-9938.0705749109
 31
0.0
  0
LINE
  5
108
330
2
100
AcDbEntity
  8
水槽
 48
0.1
100
AcDbLine
 10
6310.322076050802
 20
-9939.0705749109
 30
0.0
 11
6401.322076064971
 21
-9939.0705749109
 31
0.0
  0
LINE
  5
109
330
2
100
AcDbEntity
  8
フィルタ枠
 48
0.1
100
AcDbLine
 10
6310.322076050802
 20
-9941.0705749109
 30
0.0
 11
6404.322076064971
 21
-9941.0705749109
 31
0.0
  0
LINE
  5
10A
330
2
100
AcDbEntity
  8
フィルタ枠
 48
0.1
100
AcDbLine
 10
6404.322076064971
 20
-9942.0705749109
 30
0.0
 11
6310.322076050802
 21
-9942.0705749109
 31
0.0
  0
LINE
  5
10B
330
2
100
AcDbEntity
  8
JISSEN
 48
0.1
100
AcDbLine
 10
6389.889768301575
 20
-9996.670574908787
 30
0.0
 11
6388.289768301575
 21
-9996.670574908787
 31
0.0
  0
ARC
  5
10C
330
2
100
AcDbEntity
  8
水槽
 48
0.1
100
AcDbCircle
 10
6407.322076064971
 20
-9929.070574910902
 30
0.0
 40
2.0
100
AcDbArc
 50
90.00000000000152
 51
180.0
  0
ARC
  5
10D
330
2
100
AcDbEntity
  8
水槽
 48
0.1
100
AcDbCircle
 10
6407.322076064971
 20
-9929.070574910902
 30
0.0
 40
3.0
100
AcDbArc
 50
90.0
 51
180.0
  0
ARC
  5
10E
330
2
100
AcDbEntity
  8
水槽
 48
0.1
100
AcDbCircle
 10
6401.322076064971
 20
-9935.070574910902
 30
0.0
 40
3.0
100
AcDbArc
 50
269.9999999999998
 51
0.000000000000007
  0
LINE
  5
10F
330
2
100
AcDbEntity
  8
水槽
 48
0.1
100
AcDbLine
 10
6404.322076064971
 20
-9935.070574910902
 30
0.0
 11
6404.322076064971
 21
-9929.070574910902
 31
0.0
  0
ARC
  5
110
330
2
100
AcDbEntity
  8
水槽
 48
0.1
100
AcDbCircle
 10
6401.322076064971
 20
-9935.070574910902
 30
0.0
 40
4.0
100
AcDbArc
 50
270.0
 51
0.0000000000018645
  0
LINE
  5
111
330
2
100
AcDbEntity
  8
水槽
 48
0.1
100
AcDbLine
 10
6405.322076064971
 20
-9935.070574910902
 30
0.0
 11
6405.322076064971
 21
-9929.070574910902
 31
0.0
  0
ARC
  5
112
330
2
100
AcDbEntity
  8
フィルタ枠
 48
0.1
100
AcDbCircle
 10
6409.322076064971
 20
-9930.070574910899
 30
0.0
 40
3.0
100
AcDbArc
 50
90.0
 51
180.000000000001
  0
ARC
  5
113
330
2
100
AcDbEntity
  8
フィルタ枠
 48
0.1
100
AcDbCircle
 10
6409.32207606497
 20
-9930.070574908086
 30
0.0
 40
2.0
100
AcDbArc
 50
89.99999999182277
 51
180.0
  0
LINE
  5
114
330
2
100
AcDbEntity
  8
フィルタ枠
 48
0.1
100
AcDbLine
 10
6406.322076064971
 20
-9939.070574910902
 30
0.0
 11
6406.322076064971
 21
-9930.070574910899
 31
0.0
  0
LINE
  5
115
330
2
100
AcDbEntity
  8
フィルタ枠
 48
0.1
100
AcDbLine
 10
6407.322076064969
 20
-9939.0705749109
 30
0.0
 11
6407.322076064969
 21
-9930.070574908086
 31
0.0
  0
ARC
  5
116
330
2
100
AcDbEntity
  8
フィルタ枠
 48
0.1
100
AcDbCircle
 10
6404.322076064969
 20
-9939.0705749109
 30
0.0
 40
3.0
100
AcDbArc
 50
270.0
 51
0.0000000000011775
  0
ARC
  5
117
330
2
100
AcDbEntity
  8
フィルタ枠
 48
0.1
100
AcDbCircle
 10
6404.322076064971
 20
-9939.070574910902
 30
0.0
 40
2.0
100
AcDbArc
 50
269.9999999999978
 51
359.9999999999987
  0
LINE
  5
118
330
2
100
AcDbEntity
  8
フィルタ枠
 48
0.1
100
AcDbLine
 10
6398.378803567175
 20
-9942.0705749109
 30
0.0
 11
6404.322076064969
 21
-9942.0705749109
 31
0.0
  0
LINE
  5
119
330
2
100
AcDbEntity
  8
フィルタ枠
 48
0.1
100
AcDbLine
 10
6394.315381010915
 20
-9941.0705749109
 30
0.0
 11
6404.322076064971
 21
-9941.070574910902
 31
0.0
  0
LINE
  5
11A
330
2
100
AcDbEntity
  8
JISSEN
 48
0.1
100
AcDbLine
 10
6230.689768301574
 20
-9996.67057490879
 30
0.0
 11
6232.289768301574
 21
-9996.67057490879
 31
0.0
  0
LINE
  5
11B
330
2
100
AcDbEntity
  8
JISSEN
 48
0.1
100
AcDbLine
 10
6230.689768301574
 20
-9996.67057490879
 30
0.0
 11
6230.689768301574
 21
-9996.67057490879
 31
0.0
  0
ARC
  5
11C
330
2
100
AcDbEntity
  8
JISSEN
100
AcDbCircle
 10
6171.289768301573
 20
-9998.670574908787
 30
0.0
 40
10.0
100
AcDbArc
 50
180.0000000000104
 51
270.0
  0
LINE
  5
11D
330
2
100
AcDbEntity
  8
JISSEN
100
AcDbLine
 10
6206.103177801575
 20
-10051.17057490932
 30
0.0
 11
6206.103177801575
 21
-10056.17057490932
 31
0.0
  0
LINE
  5
11E
330
2
100
AcDbEntity
  8
JISSEN
100
AcDbLine
 10
6220.103177801576
 20
-10043.17057490932
 30
0.0
 11
6220.103177801576
 21
-10064.17057490932
 31
0.0
  0
LINE
  5
11F
330
2
100
AcDbEntity
  8
JISSEN
100
AcDbLine
 10
6217.103177801575
 20
-10043.17057490932
 30
0.0
 11
6217.103177801575
 21
-10064.17057490932
 31
0.0
  0
LINE
  5
120
330
2
100
AcDbEntity
  8
JISSEN
100
AcDbLine
 10
6199.289768301576
 20
-10055.67057490932
 30
0.0
 11
6197.689768301578
 21
-10055.67057490932
 31
0.0
  0
LINE
  5
121
330
2
100
AcDbEntity
  8
JISSEN
100
AcDbLine
 10
6217.103177801575
 20
-10064.17057490932
 30
0.0
 11
6220.103177801576
 21
-10064.17057490932
 31
0.0
  0
LINE
  5
122
330
2
100
AcDbEntity
  8
JISSEN
100
AcDbLine
 10
6226.289768301576
 20
-10066.67057490932
 30
0.0
 11
6226.289768301576
 21
-10096.67057490932
 31
0.0
  0
LINE
  5
123
330
2
100
AcDbEntity
  8
JISSEN
100
AcDbLine
 10
6206.103177801575
 20
-10056.17057490932
 30
0.0
 11
6217.103177801575
 21
-10056.17057490932
 31
0.0
  0
LINE
  5
124
330
2
100
AcDbEntity
  8
JISSEN
100
AcDbLine
 10
6226.289768301576
 20
-10066.67057490932
 30
0.0
 11
6199.289768301576
 21
-10066.67057490932
 31
0.0
  0
LINE
  5
125
330
2
100
AcDbEntity
  8
JISSEN
100
AcDbLine
 10
6226.289768301576
 20
-10096.67057490932
 30
0.0
 11
6199.289768301576
 21
-10096.67057490932
 31
0.0
  0
LINE
  5
126
330
2
100
AcDbEntity
  8
JISSEN
100
AcDbLine
 10
6171.289768301573
 20
-10008.67057490879
 30
0.0
 11
6185.189768301574
 21
-10008.67057490878
 31
0.0
  0
LINE
  5
127
102
{ACAD_REACTORS
330
295
102
}
330
2
100
AcDbEntity
  8
JISSEN
 48
0.1
100
AcDbLine
 10
6191.322076038468
 20
-10016.07057490878
 30
0.0
 11
6213.322076036633
 21
-10016.07057490878
 31
0.0
  0
LINE
  5
128
330
2
100
AcDbEntity
  8
JISSEN
100
AcDbLine
 10
6190.322076038468
 20
-10005.07057490878
 30
0.0
 11
6190.822076038468
 21
-10005.07057490878
 31
0.0
  0
LINE
  5
129
102
{ACAD_REACTORS
330
295
102
}
330
2
100
AcDbEntity
  8
JISSEN
 48
0.1
100
AcDbLine
 10
6191.322076038468
 20
-10005.07057490878
 30
0.0
 11
6191.322076038468
 21
-10016.07057490878
 31
0.0
  0
LINE
  5
12A
330
2
100
AcDbEntity
  8
JISSEN
 48
0.1
100
AcDbLine
 10
6190.322076038468
 20
-10005.07057490878
 30
0.0
 11
6191.322076038468
 21
-10005.07057490878
 31
0.0
  0
LINE
  5
12B
330
2
100
AcDbEntity
  8
JISSEN
100
AcDbLine
 10
6213.822076036633
 20
-10005.07057490878
 30
0.0
 11
6214.322076036634
 21
-10005.07057490878
 31
0.0
  0
LINE
  5
12C
102
{ACAD_REACTORS
330
295
102
}
330
2
100
AcDbEntity
  8
JISSEN
 48
0.1
100
AcDbLine
 10
6213.322076036633
 20
-10016.07057490878
 30
0.0
 11
6213.322076036633
 21
-10005.07057490878
 31
0.0
  0
LINE
  5
12D
330
2
100
AcDbEntity
  8
JISSEN
 48
0.1
100
AcDbLine
 10
6213.322076036633
 20
-10005.07057490878
 30
0.0
 11
6214.322076036634
 21
-10005.07057490878
 31
0.0
  0
LWPOLYLINE
  5
12E
330
2
100
AcDbEntity
  8
JISSEN
100
AcDbPolyline
 90
        6
 70
     0
 43
0.0
 10
6214.322076036634
 20
-10005.07057490878
 10
6214.322076036634
 20
-10016.07057490878
 42
-0.414213562373095
 10
6213.322076036633
 20
-10017.07057490878
 10
6191.322076038468
 20
-10017.07057490878
 42
-0.4142135623730951
 10
6190.322076038468
 20
-10016.07057490878
 10
6190.322076038468
 20
-10005.07057490878
  0
LINE
  5
12F
330
2
100
AcDbEntity
  8
JISSEN
100
AcDbLine
 10
6194.289768301576
 20
-10026.67057490932
 30
0.0
 11
6195.889768301575
 21
-10026.67057490932
 31
0.0
  0
ARC
  5
130
330
2
100
AcDbEntity
  8
JISSEN
100
AcDbCircle
 10
6185.189768301577
 20
-10010.67057490878
 30
0.0
 40
1.999999999997271
100
AcDbArc
 50
0.0
 51
90.00000000007814
  0
LINE
  5
131
330
2
100
AcDbEntity
  8
JISSEN
100
AcDbLine
 10
6187.189768301574
 20
-10010.67057490878
 30
0.0
 11
6187.189768301574
 21
-10015.67057490879
 31
0.0
  0
ARC
  5
132
330
2
100
AcDbEntity
  8
JISSEN
100
AcDbCircle
 10
6190.18976830157
 20
-10015.67057490879
 30
0.0
 40
2.999999999996362
100
AcDbArc
 50
179.9999999999305
 51
270.0000000000695
  0
LINE
  5
133
330
2
100
AcDbEntity
  8
JISSEN
100
AcDbLine
 10
6220.103177801576
 20
-10043.17057490932
 30
0.0
 11
6217.103177801575
 21
-10043.17057490932
 31
0.0
  0
LINE
  5
134
330
2
100
AcDbEntity
  8
JISSEN
100
AcDbLine
 10
6214.354383824691
 20
-10018.67057490879
 30
0.0
 11
6214.354383824691
 21
-10021.87057490879
 31
0.0
  0
LINE
  5
135
330
2
100
AcDbEntity
  8
JISSEN
100
AcDbLine
 10
6217.103177801575
 20
-10051.17057490932
 30
0.0
 11
6206.103177801575
 21
-10051.17057490932
 31
0.0
  0
LINE
  5
136
102
{ACAD_REACTORS
330
295
102
}
330
2
100
AcDbEntity
  8
TENSEN
 48
0.5
100
AcDbLine
 10
6213.322076036633
 20
-9939.0705749109
 30
0.0
 11
6213.322076036633
 21
-10005.07057490878
 31
0.0
  0
LINE
  5
137
102
{ACAD_REACTORS
330
295
102
}
330
2
100
AcDbEntity
  8
TENSEN
 48
0.5
100
AcDbLine
 10
6191.322076038468
 20
-9939.0705749109
 30
0.0
 11
6191.322076038468
 21
-10005.07057490878
 31
0.0
  0
LINE
  5
138
330
2
100
AcDbEntity
  8
フィルタ枠
 48
0.1
100
AcDbLine
 10
6213.322076036633
 20
-9939.0705749109
 30
0.0
 11
6213.322076036633
 21
-9930.070574908086
 31
0.0
  0
LINE
  5
139
330
2
100
AcDbEntity
  8
フィルタ枠
 48
0.1
100
AcDbLine
 10
6214.322076036631
 20
-9939.070574910902
 30
0.0
 11
6214.322076036631
 21
-9930.070574910899
 31
0.0
  0
ARC
  5
13A
330
2
100
AcDbEntity
  8
フィルタ枠
 48
0.1
100
AcDbCircle
 10
6211.322076036633
 20
-9930.070574908086
 30
0.0
 40
2.0
100
AcDbArc
 50
0.000000000000007
 51
90.00000000817724
  0
ARC
  5
13B
330
2
100
AcDbEntity
  8
フィルタ枠
 48
0.1
100
AcDbCircle
 10
6211.322076036631
 20
-9930.070574910899
 30
0.0
 40
3.0
100
AcDbArc
 50
359.999999999999
 51
90.0
  0
LINE
  5
13C
330
2
100
AcDbEntity
  8
水槽
 48
0.1
100
AcDbLine
 10
6215.322076036631
 20
-9935.070574910902
 30
0.0
 11
6215.322076036631
 21
-9929.070574910902
 31
0.0
  0
LINE
  5
13D
330
2
100
AcDbEntity
  8
水槽
 48
0.1
100
AcDbLine
 10
6216.322076036632
 20
-9935.070574910902
 30
0.0
 11
6216.322076036632
 21
-9929.070574910902
 31
0.0
  0
ARC
  5
13E
330
2
100
AcDbEntity
  8
水槽
 48
0.1
100
AcDbCircle
 10
6213.322076036631
 20
-9929.070574910902
 30
0.0
 40
3.0
100
AcDbArc
 50
0.000000000000007
 51
90.0
  0
ARC
  5
13F
330
2
100
AcDbEntity
  8
水槽
 48
0.1
100
AcDbCircle
 10
6213.322076036631
 20
-9929.070574910902
 30
0.0
 40
2.0
100
AcDbArc
 50
0.000000000000007
 51
89.99999999999849
  0
LINE
  5
140
330
2
100
AcDbEntity
  8
フィルタ枠
 48
0.1
100
AcDbLine
 10
6211.322076036631
 20
-9927.070574910899
 30
0.0
 11
6193.322076048334
 21
-9927.070574910899
 31
0.0
  0
LINE
  5
141
330
2
100
AcDbEntity
  8
フィルタ枠
 48
0.1
100
AcDbLine
 10
6193.322076038181
 20
-9928.070574910654
 30
0.0
 11
6211.322076036347
 21
-9928.070574908085
 31
0.0
  0
LINE
  5
142
330
2
100
AcDbEntity
  8
水槽
 48
0.1
100
AcDbLine
 10
6213.322076036631
 20
-9926.070574910902
 30
0.0
 11
6200.320487225525
 21
-9926.070574910902
 31
0.0
  0
LINE
  5
143
330
2
100
AcDbEntity
  8
水槽
 48
0.1
100
AcDbLine
 10
6213.322076036631
 20
-9927.070574910899
 30
0.0
 11
6200.322076050801
 21
-9927.070574910899
 31
0.0
  0
ARC
  5
144
330
2
100
AcDbEntity
  8
水槽
 48
0.1
100
AcDbCircle
 10
6200.320487225525
 20
-9919.0705749109
 30
0.0
 40
7.0
100
AcDbArc
 50
180.0091583657057
 51
270.0
  0
ARC
  5
145
330
2
100
AcDbEntity
  8
水槽
 48
0.1
100
AcDbCircle
 10
6200.322076050801
 20
-9919.0705749109
 30
0.0
 40
8.0
100
AcDbArc
 50
180.0
 51
269.9999999999983
  0
LINE
  5
146
330
2
100
AcDbEntity
  8
水槽
 48
0.1
100
AcDbLine
 10
6193.32048731495
 20
-9919.071693816347
 30
0.0
 11
6193.318555611796
 21
-9906.986738853499
 31
0.0
  0
LINE
  5
147
330
2
100
AcDbEntity
  8
水槽
 48
0.1
100
AcDbLine
 10
6192.322076050801
 20
-9911.043049674569
 30
0.0
 11
6192.322076050801
 21
-9919.0705749109
 31
0.0
  0
LINE
  5
148
330
2
100
AcDbEntity
  8
水槽
 48
0.1
100
AcDbLine
 10
6192.332810367938
 20
-9911.041113414565
 30
0.0
 11
6192.322076050801
 21
-9907.070574910902
 31
0.0
  0
LINE
  5
149
330
2
100
AcDbEntity
  8
水槽
 48
0.1
100
AcDbLine
 10
6215.322076036631
 20
-9935.070574910902
 30
0.0
 11
6215.322076036631
 21
-9929.070574910902
 31
0.0
  0
LINE
  5
14A
330
2
100
AcDbEntity
  8
水槽
 48
0.1
100
AcDbLine
 10
6216.322076036632
 20
-9935.070574910902
 30
0.0
 11
6216.322076036632
 21
-9929.070574910902
 31
0.0
  0
ARC
  5
14B
330
2
100
AcDbEntity
  8
水槽
 48
0.1
100
AcDbCircle
 10
6213.322076036631
 20
-9929.070574910902
 30
0.0
 40
3.0
100
AcDbArc
 50
0.000000000000007
 51
90.0
  0
ARC
  5
14C
330
2
100
AcDbEntity
  8
水槽
 48
0.1
100
AcDbCircle
 10
6213.322076036631
 20
-9929.070574910902
 30
0.0
 40
2.0
100
AcDbArc
 50
0.000000000000007
 51
89.99999999999849
  0
LINE
  5
14D
330
2
100
AcDbEntity
  8
フィルタ枠
 48
0.1
100
AcDbLine
 10
6211.322076036631
 20
-9927.070574910899
 30
0.0
 11
6193.322076048334
 21
-9927.070574910899
 31
0.0
  0
LINE
  5
14E
330
2
100
AcDbEntity
  8
水槽
 48
0.1
100
AcDbLine
 10
6213.322076036631
 20
-9926.070574910902
 30
0.0
 11
6200.320487225525
 21
-9926.070574910902
 31
0.0
  0
LINE
  5
14F
330
2
100
AcDbEntity
  8
水槽
 48
0.1
100
AcDbLine
 10
6213.322076036631
 20
-9927.070574910899
 30
0.0
 11
6200.322076050801
 21
-9927.070574910899
 31
0.0
  0
ARC
  5
150
330
2
100
AcDbEntity
  8
水槽
 48
0.1
100
AcDbCircle
 10
6219.322076036632
 20
-9935.070574910902
 30
0.0
 40
4.0
100
AcDbArc
 50
179.9999999999981
 51
270.0
  0
ARC
  5
151
330
2
100
AcDbEntity
  8
水槽
 48
0.1
100
AcDbCircle
 10
6219.322076036632
 20
-9935.070574910902
 30
0.0
 40
3.0
100
AcDbArc
 50
180.0
 51
270.0000000000002
  0
LINE
  5
152
330
2
100
AcDbEntity
  8
フィルタ枠
 48
0.1
100
AcDbLine
 10
6191.322076038468
 20
-9939.0705749109
 30
0.0
 11
6190.322076042281
 21
-9939.070574910227
 31
0.0
  0
ARC
  5
153
330
2
100
AcDbEntity
  8
水槽
 48
0.1
100
AcDbCircle
 10
6213.322076036631
 20
-9929.070574910902
 30
0.0
 40
3.0
100
AcDbArc
 50
0.000000000000007
 51
90.0
  0
ARC
  5
154
330
2
100
AcDbEntity
  8
水槽
 48
0.1
100
AcDbCircle
 10
6213.322076036631
 20
-9929.070574910902
 30
0.0
 40
2.0
100
AcDbArc
 50
0.000000000000007
 51
89.99999999999849
  0
LINE
  5
155
330
2
100
AcDbEntity
  8
水槽
 48
0.1
100
AcDbLine
 10
6213.322076036631
 20
-9926.070574910902
 30
0.0
 11
6200.320487225525
 21
-9926.070574910902
 31
0.0
  0
LINE
  5
156
330
2
100
AcDbEntity
  8
水槽
 48
0.1
100
AcDbLine
 10
6216.322076036632
 20
-9935.070574910902
 30
0.0
 11
6216.322076036632
 21
-9929.070574910902
 31
0.0
  0
LINE
  5
157
330
2
100
AcDbEntity
  8
水槽
 48
0.1
100
AcDbLine
 10
6213.322076036631
 20
-9927.070574910899
 30
0.0
 11
6200.322076050801
 21
-9927.070574910899
 31
0.0
  0
LINE
  5
158
330
2
100
AcDbEntity
  8
水槽
 48
0.1
100
AcDbLine
 10
6215.322076036631
 20
-9935.070574910902
 30
0.0
 11
6215.322076036631
 21
-9929.070574910902
 31
0.0
  0
ARC
  5
159
330
2
100
AcDbEntity
  8
フィルタ枠
 48
0.1
100
AcDbCircle
 10
6193.322076048334
 20
-9930.070574910899
 30
0.0
 40
3.0
100
AcDbArc
 50
90.00000000000062
 51
179.9999999528902
  0
ARC
  5
15A
102
{ACAD_REACTORS
330
295
102
}
330
2
100
AcDbEntity
  8
フィルタ枠
 48
0.1
100
AcDbCircle
 10
6193.322076038469
 20
-9930.070574910653
 30
0.0
 40
2.0
100
AcDbArc
 50
90.00000000817818
 51
180.0000000000036
  0
ARC
  5
15B
330
2
100
AcDbEntity
  8
フィルタ枠
 48
0.1
100
AcDbCircle
 10
6216.322076036632
 20
-9939.0705749109
 30
0.0
 40
3.0
100
AcDbArc
 50
179.9999999999988
 51
270.0
  0
ARC
  5
15C
330
2
100
AcDbEntity
  8
フィルタ枠
 48
0.1
100
AcDbCircle
 10
6216.322076036632
 20
-9939.070574910902
 30
0.0
 40
2.0
100
AcDbArc
 50
180.0000000000013
 51
270.0000000000021
  0
ARC
  5
15D
330
2
100
AcDbEntity
  8
フィルタ枠
 48
0.1
100
AcDbCircle
 10
6211.322076036631
 20
-9930.070574910899
 30
0.0
 40
3.0
100
AcDbArc
 50
359.999999999999
 51
90.0
  0
ARC
  5
15E
102
{ACAD_REACTORS
330
295
102
}
330
2
100
AcDbEntity
  8
フィルタ枠
 48
0.1
100
AcDbCircle
 10
6211.322076036633
 20
-9930.070574908086
 30
0.0
 40
2.0
100
AcDbArc
 50
0.000000000000007
 51
90.00000000817726
  0
LINE
  5
15F
330
2
100
AcDbEntity
  8
フィルタ枠
 48
0.1
100
AcDbLine
 10
6222.265348534428
 20
-9942.0705749109
 30
0.0
 11
6216.322076036632
 21
-9942.0705749109
 31
0.0
  0
LINE
  5
160
330
2
100
AcDbEntity
  8
フィルタ枠
 48
0.1
100
AcDbLine
 10
6226.328771090686
 20
-9941.0705749109
 30
0.0
 11
6216.322076036632
 21
-9941.070574910902
 31
0.0
  0
LINE
  5
161
102
{ACAD_REACTORS
330
295
102
}
330
2
100
AcDbEntity
  8
フィルタ枠
 48
0.1
100
AcDbLine
 10
6193.322076038181
 20
-9928.070574910654
 30
0.0
 11
6211.322076036347
 21
-9928.070574908085
 31
0.0
  0
LINE
  5
162
102
{ACAD_REACTORS
330
295
102
}
330
2
100
AcDbEntity
  8
フィルタ枠
 48
0.1
100
AcDbLine
 10
6191.322076038468
 20
-9930.070574910653
 30
0.0
 11
6191.322076038468
 21
-9939.0705749109
 31
0.0
  0
LINE
  5
163
102
{ACAD_REACTORS
330
295
102
}
330
2
100
AcDbEntity
  8
フィルタ枠
 48
0.1
100
AcDbLine
 10
6213.322076036633
 20
-9939.0705749109
 30
0.0
 11
6213.322076036633
 21
-9930.070574908086
 31
0.0
  0
LINE
  5
164
330
2
100
AcDbEntity
  8
フィルタ枠
 48
0.1
100
AcDbLine
 10
6190.322076048335
 20
-9930.070574908434
 30
0.0
 11
6190.322076042279
 21
-9939.070574910227
 31
0.0
  0
LINE
  5
165
330
2
100
AcDbEntity
  8
フィルタ枠
 48
0.1
100
AcDbLine
 10
6211.322076036631
 20
-9927.070574910899
 30
0.0
 11
6193.322076048334
 21
-9927.070574910899
 31
0.0
  0
LINE
  5
166
330
2
100
AcDbEntity
  8
フィルタ枠
 48
0.1
100
AcDbLine
 10
6214.322076036631
 20
-9939.070574910902
 30
0.0
 11
6214.322076036631
 21
-9930.070574910899
 31
0.0
  0
ARC
  5
167
330
2
100
AcDbEntity
  8
つぼ
 48
0.1
100
AcDbCircle
 10
6584.868618603993
 20
-9892.703112921921
 30
0.0
 40
215.9352180105752
100
AcDbArc
 50
132.3779003935021
 51
164.465079332806
  0
ARC
  5
169
330
2
100
AcDbEntity
  8
つぼ
 48
0.1
100
AcDbCircle
 10
6584.868618603993
 20
-9892.703112921921
 30
0.0
 40
217.4352180105752
100
AcDbArc
 50
132.3260855078697
 51
164.5190862601475
  0
LINE
  5
16A
330
2
100
AcDbEntity
  8
トップリング
 48
0.1
100
AcDbLine
 10
6461.322076050802
 20
-9709.665881329437
 30
0.0
 11
6461.322076050802
 21
-9674.665881329437
 31
0.0
  0
LINE
  5
16C
330
2
100
AcDbEntity
  8
トップリング
 48
0.1
100
AcDbLine
 10
6462.322076050805
 20
-9674.665881329437
 30
0.0
 11
6462.322076050805
 21
-9709.665881329437
 31
0.0
  0
LINE
  5
16D
330
2
100
AcDbEntity
  8
トップリング
 48
0.1
100
AcDbLine
 10
6488.81657204108
 20
-9689.603785794473
 30
0.0
 11
6488.818319757555
 21
-9680.903460406662
 31
0.0
  0
LINE
  5
16E
330
2
100
AcDbEntity
  8
トップリング
 48
0.1
100
AcDbLine
 10
6488.822076050817
 20
-9689.603785794473
 30
0.0
 11
6488.817921015338
 21
-9681.346645400161
 31
0.0
  0
LINE
  5
16F
330
2
100
AcDbEntity
  8
トップリング
 48
0.1
100
AcDbLine
 10
6487.822076050801
 20
-9689.603785794473
 30
0.0
 11
6487.822076050808
 21
-9681.022083428114
 31
0.0
  0
LINE
  5
170
330
2
100
AcDbEntity
  8
JISSEN
100
AcDbLine
 10
6488.822076050809
 20
-9680.903460406662
 30
0.0
 11
6488.822076050817
 21
-9689.603785794473
 31
0.0
  0
LINE
  5
171
330
2
100
AcDbEntity
  8
JISSEN
100
AcDbLine
 10
6487.822076050817
 20
-9689.603785794473
 30
0.0
 11
6487.822076050808
 21
-9680.903460406662
 31
0.0
  0
LINE
  5
172
330
2
100
AcDbEntity
  8
JISSEN
100
AcDbLine
 10
6490.322076050818
 20
-9687.665881329435
 30
0.0
 11
6490.322076050819
 21
-9683.665881329435
 31
0.0
  0
LINE
  5
173
330
2
100
AcDbEntity
  8
JISSEN
100
AcDbLine
 10
6491.32207605082
 20
-9683.665881329435
 30
0.0
 11
6491.322076050818
 21
-9687.665881329435
 31
0.0
  0
LINE
  5
174
330
2
100
AcDbEntity
  8
JISSEN
100
AcDbLine
 10
6487.157460540014
 20
-9789.533803894254
 30
0.0
 11
6472.109649959559
 21
-9876.908187909801
 31
0.0
  0
LINE
  5
175
330
2
100
AcDbEntity
  8
JISSEN
100
AcDbLine
 10
6488.789768301575
 20
-9789.670574908788
 30
0.0
 11
6473.718744455962
 21
-9877.179745625246
 31
0.0
  0
ARC
  5
176
330
2
100
AcDbEntity
  8
JISSEN
100
AcDbCircle
 10
6467.257460540011
 20
-9887.670574908788
 30
0.0
 40
9.599999999999909
100
AcDbArc
 50
89.99999999999728
 51
179.9999999999972
  0
ARC
  5
177
330
2
100
AcDbEntity
  8
JISSEN
100
AcDbCircle
 10
6467.289768301573
 20
-9887.670574908788
 30
0.0
 40
8.0
100
AcDbArc
 50
90.0
 51
180.0
  0
LINE
  5
178
330
2
100
AcDbEntity
  8
JISSEN
100
AcDbLine
 10
6470.729961566568
 20
-9878.070574908788
 30
0.0
 11
6467.257460540013
 21
-9878.070574908788
 31
0.0
  0
ARC
  5
179
330
2
100
AcDbEntity
  8
JISSEN
100
AcDbCircle
 10
6470.729961566568
 20
-9876.670574908787
 30
0.0
 40
1.40000000000054
100
AcDbArc
 50
269.9999999999907
 51
350.2282526480021
  0
LINE
  5
17A
330
2
100
AcDbEntity
  8
JISSEN
100
AcDbLine
 10
6470.762269328128
 20
-9879.670574908788
 30
0.0
 11
6467.289768301573
 21
-9879.670574908788
 31
0.0
  0
ARC
  5
17B
330
2
100
AcDbEntity
  8
JISSEN
100
AcDbCircle
 10
6470.762269328128
 20
-9876.670574908787
 30
0.0
 40
3.000000000000332
100
AcDbArc
 50
270.0
 51
350.2282526479728
  0
LINE
  5
17C
330
2
100
AcDbEntity
  8
JISSEN
 48
0.1
100
AcDbLine
 10
6487.157460540014
 20
-9709.665881329343
 30
0.0
 11
6487.157460540014
 21
-9789.533803894254
 31
0.0
  0
LINE
  5
17D
330
2
100
AcDbEntity
  8
JISSEN
 48
0.1
100
AcDbLine
 10
6488.822076063134
 20
-9742.170574908788
 30
0.0
 11
6488.822076063134
 21
-9709.665881329343
 31
0.0
  0
LINE
  5
17E
330
2
100
AcDbEntity
  8
JISSEN
100
AcDbLine
 10
6487.157460540014
 20
-9713.270574908788
 30
0.0
 11
6487.157460540014
 21
-9789.533803894254
 31
0.0
  0
LINE
  5
17F
330
2
100
AcDbEntity
  8
JISSEN
100
AcDbLine
 10
6488.822076063134
 20
-9713.270574908788
 30
0.0
 11
6488.822076063134
 21
-9789.670574908788
 31
0.0
  0
LINE
  5
180
330
2
100
AcDbEntity
  8
水槽
 48
0.1
100
AcDbLine
 10
6459.822076050802
 20
-9699.665881329437
 30
0.0
 11
6456.322076050804
 21
-9699.665881329437
 31
0.0
  0
LINE
  5
181
330
2
100
AcDbEntity
  8
水槽
 48
0.1
100
AcDbLine
 10
6459.822076050802
 20
-9698.665881329437
 30
0.0
 11
6456.322076050804
 21
-9698.665881329437
 31
0.0
  0
LINE
  5
182
330
2
100
AcDbEntity
  8
水槽
 48
0.1
100
AcDbLine
 10
6459.822076050802
 20
-9699.665881329437
 30
0.0
 11
6456.322076050804
 21
-9699.665881329437
 31
0.0
  0
LINE
  5
183
330
2
100
AcDbEntity
  8
水槽
 48
0.1
100
AcDbLine
 10
6459.822076050802
 20
-9698.665881329437
 30
0.0
 11
6456.322076050804
 21
-9698.665881329439
 31
0.0
  0
LINE
  5
184
330
2
100
AcDbEntity
  8
水槽
 48
0.1
100
AcDbLine
 10
6459.822076050802
 20
-9699.665881329437
 30
0.0
 11
6459.822076050802
 21
-9698.665881329437
 31
0.0
  0
LINE
  5
185
330
2
100
AcDbEntity
  8
トップリング
 48
0.1
100
AcDbLine
 10
6462.322076050805
 20
-9695.665881329437
 30
0.0
 11
6461.322076050802
 21
-9695.665881329437
 31
0.0
  0
LINE
  5
186
330
2
100
AcDbEntity
  8
JISSEN
 48
0.1
100
AcDbLine
 10
6488.822076063134
 20
-9709.665881329343
 30
0.0
 11
6487.157460540014
 21
-9709.665881329343
 31
0.0
  0
LINE
  5
187
330
2
100
AcDbEntity
  8
トップリング
 48
0.1
100
AcDbLine
 10
6461.322076050802
 20
-9724.665881329439
 30
0.0
 11
6461.322076050802
 21
-9696.665881329437
 31
0.0
  0
LINE
  5
188
330
2
100
AcDbEntity
  8
トップリング
 48
0.1
100
AcDbLine
 10
6462.322076050805
 20
-9724.665881329439
 30
0.0
 11
6461.322076050802
 21
-9724.665881329439
 31
0.0
  0
LINE
  5
189
330
2
100
AcDbEntity
  8
トップリング
 48
0.1
100
AcDbLine
 10
6462.322076050805
 20
-9696.665881329437
 30
0.0
 11
6462.322076050805
 21
-9724.665881329439
 31
0.0
  0
LINE
  5
18A
330
2
100
AcDbEntity
  8
トップリング
 48
0.1
100
AcDbLine
 10
6488.81657204108
 20
-9689.603785794473
 30
0.0
 11
6487.822076050817
 21
-9689.603785794473
 31
0.0
  0
LINE
  5
18B
330
2
100
AcDbEntity
  8
ITTEN
 48
0.1
100
AcDbLine
 10
6487.066356370033
 20
-9701.665881329343
 30
0.0
 11
6482.989837601067
 21
-9701.665881329343
 31
0.0
  0
LINE
  5
18D
330
2
100
AcDbEntity
  8
JISSEN
100
AcDbLine
 10
6487.822076050801
 20
-9689.603785794473
 30
0.0
 11
6488.822076050801
 21
-9689.603785794473
 31
0.0
  0
LINE
  5
18E
330
2
100
AcDbEntity
  8
JISSEN
100
AcDbLine
 10
6487.322076050817
 20
-9689.665881329432
 30
0.0
 11
6488.322076050818
 21
-9689.665881329432
 31
0.0
  0
LINE
  5
18F
330
2
100
AcDbEntity
  8
JISSEN
100
AcDbLine
 10
6488.322076050815
 20
-9690.665881329433
 30
0.0
 11
6487.322076050816
 21
-9690.665881329433
 31
0.0
  0
ARC
  5
190
330
2
100
AcDbEntity
  8
JISSEN
100
AcDbCircle
 10
6487.322076050816
 20
-9692.665881329435
 30
0.0
 40
3.0
100
AcDbArc
 50
89.99999999997454
 51
179.9999999999712
  0
ARC
  5
191
330
2
100
AcDbEntity
  8
JISSEN
100
AcDbCircle
 10
6487.322076050816
 20
-9692.665881329435
 30
0.0
 40
2.0
100
AcDbArc
 50
89.99999999997129
 51
179.9999999999712
  0
LINE
  5
192
330
2
100
AcDbEntity
  8
TENSEN
 48
0.1
100
AcDbLine
 10
6484.322076050798
 20
-9699.165881329344
 30
0.0
 11
6485.322076050798
 21
-9699.165881329344
 31
0.0
  0
LINE
  5
193
330
2
100
AcDbEntity
  8
TENSEN
 48
0.1
100
AcDbLine
 10
6484.322076050798
 20
-9704.165881329345
 30
0.0
 11
6485.322076050798
 21
-9704.165881329345
 31
0.0
  0
ARC
  5
194
330
2
100
AcDbEntity
  8
JISSEN
100
AcDbCircle
 10
6488.322076050818
 20
-9687.665881329435
 30
0.0
 40
2.0
100
AcDbArc
 50
269.9999999999712
 51
359.9999999999713
  0
ARC
  5
195
330
2
100
AcDbEntity
  8
JISSEN
100
AcDbCircle
 10
6488.322076050818
 20
-9687.665881329435
 30
0.0
 40
3.0
100
AcDbArc
 50
269.999999999968
 51
359.9999999999713
  0
LINE
  5
196
330
2
100
AcDbEntity
  8
JISSEN
100
AcDbLine
 10
6484.322076050798
 20
-9728.665881329344
 30
0.0
 11
6485.322076050798
 21
-9728.665881329344
 31
0.0
  0
LINE
  5
197
330
2
100
AcDbEntity
  8
JISSEN
100
AcDbLine
 10
6484.322076050798
 20
-9728.665881329344
 30
0.0
 11
6484.322076050816
 21
-9692.665881329432
 31
0.0
  0
LINE
  5
198
330
2
100
AcDbEntity
  8
JISSEN
100
AcDbLine
 10
6485.322076050815
 20
-9692.665881329432
 30
0.0
 11
6485.322076050798
 21
-9728.665881329344
 31
0.0
  0
LINE
  5
199
330
2
100
AcDbEntity
  8
JISSEN
100
AcDbLine
 10
6484.322076050816
 20
-9693.665881329431
 30
0.0
 11
6484.322076050798
 21
-9728.665881329344
 31
0.0
  0
LINE
  5
19A
330
2
100
AcDbEntity
  8
JISSEN
100
AcDbLine
 10
6485.322076050798
 20
-9728.665881329344
 30
0.0
 11
6485.322076050815
 21
-9693.665881329431
 31
0.0
  0
LINE
  5
19B
330
2
100
AcDbEntity
  8
水槽
 48
0.1
100
AcDbLine
 10
6450.322076050804
 20
-9733.665876429299
 30
0.0
 11
6448.490617417487
 21
-9733.665877477818
 31
0.0
  0
ARC
  5
19C
330
2
100
AcDbEntity
  8
水槽
 48
0.1
100
AcDbCircle
 10
6445.075072541626
 20
-9735.665877477817
 30
0.0
 40
2.0
100
AcDbArc
 50
90.0
 51
175.0830632114468
  0
LINE
  5
19D
330
2
100
AcDbEntity
  8
水槽
 48
0.1
100
AcDbLine
 10
6448.490617417487
 20
-9733.665877477818
 30
0.0
 11
6445.075072541626
 21
-9733.665877477818
 31
0.0
  0
ARC
  5
19E
330
2
100
AcDbEntity
  8
水槽
 48
0.1
100
AcDbCircle
 10
6445.075072528334
 20
-9735.665877632305
 30
0.0
 40
3.0
100
AcDbArc
 50
90.0000162296118
 51
175.0830632114469
  0
LINE
  5
19F
330
2
100
AcDbEntity
  8
つぼ
 48
0.1
100
AcDbLine
 10
6449.322076050801
 20
-9732.665876429297
 30
0.0
 11
6445.075071678555
 21
-9732.665877632307
 31
0.0
  0
LINE
  5
1A0
330
2
100
AcDbEntity
  8
水槽
 48
0.1
100
AcDbLine
 10
6453.322076050804
 20
-9713.66588132944
 30
0.0
 11
6452.322076050805
 21
-9713.665881329436
 31
0.0
  0
LINE
  5
1A1
330
2
100
AcDbEntity
  8
JISSEN
 48
0.1
100
AcDbLine
 10
6453.322076050804
 20
-9708.665881329437
 30
0.0
 11
6453.322076050804
 21
-9702.665881329437
 31
0.0
  0
LINE
  5
1A2
330
2
100
AcDbEntity
  8
JISSEN
 48
0.1
100
AcDbLine
 10
6454.822076050804
 20
-9708.665881329437
 30
0.0
 11
6453.322076050804
 21
-9708.665881329437
 31
0.0
  0
LINE
  5
1A3
330
2
100
AcDbEntity
  8
JISSEN
 48
0.1
100
AcDbLine
 10
6453.322076050804
 20
-9709.665881329437
 30
0.0
 11
6453.322076050804
 21
-9709.665881329437
 31
0.0
  0
LINE
  5
1A4
330
2
100
AcDbEntity
  8
JISSEN
 48
0.1
100
AcDbLine
 10
6453.322076050804
 20
-9702.665881329437
 30
0.0
 11
6454.822076050804
 21
-9702.665881329437
 31
0.0
  0
LINE
  5
1A5
330
2
100
AcDbEntity
  8
JISSEN
 48
0.1
100
AcDbLine
 10
6453.322076050804
 20
-9708.665881329437
 30
0.0
 11
6453.322076050804
 21
-9702.665881329437
 31
0.0
  0
LINE
  5
1A6
330
2
100
AcDbEntity
  8
JISSEN
 48
0.1
100
AcDbLine
 10
6453.322076050804
 20
-9702.665881329437
 30
0.0
 11
6453.322076050804
 21
-9702.665881329437
 31
0.0
  0
LINE
  5
1A7
330
2
100
AcDbEntity
  8
JISSEN
 48
0.1
100
AcDbLine
 10
6454.822076050804
 20
-9708.665881329437
 30
0.0
 11
6454.822076050804
 21
-9702.665881329437
 31
0.0
  0
LINE
  5
1A8
330
2
100
AcDbEntity
  8
水槽
 48
0.1
100
AcDbLine
 10
6442.322075767541
 20
-9732.552274901296
 30
0.0
 11
6442.322075767541
 21
-9732.775512106055
 31
0.0
  0
LINE
  5
1A9
330
2
100
AcDbEntity
  8
水槽
 48
0.1
100
AcDbLine
 10
6442.447969914065
 20
-9732.665878412118
 30
0.0
 11
6442.21876199019
 21
-9732.665878412118
 31
0.0
  0
LINE
  5
1AA
330
2
100
AcDbEntity
  8
水槽
 48
0.1
100
AcDbLine
 10
6442.447969914065
 20
-9732.665878412118
 30
0.0
 11
6442.322075767541
 21
-9732.665878412118
 31
0.0
  0
LINE
  5
1AB
330
2
100
AcDbEntity
  8
水槽
 48
0.1
100
AcDbLine
 10
6450.322076050804
 20
-9732.665876429297
 30
0.0
 11
6444.160877323721
 21
-9732.665876429299
 31
0.0
  0
LINE
  5
1AC
330
2
100
AcDbEntity
  8
水槽
 48
0.1
100
AcDbLine
 10
6442.322075767541
 20
-9732.552274901296
 30
0.0
 11
6442.322075767541
 21
-9732.775512106055
 31
0.0
  0
LINE
  5
1AD
330
2
100
AcDbEntity
  8
水槽
 48
0.1
100
AcDbLine
 10
6442.447969914065
 20
-9732.665878412118
 30
0.0
 11
6442.21876199019
 21
-9732.665878412118
 31
0.0
  0
LINE
  5
1AE
330
2
100
AcDbEntity
  8
水槽
 48
0.1
100
AcDbLine
 10
6442.447969914065
 20
-9732.665878412118
 30
0.0
 11
6442.322075767541
 21
-9732.665878412118
 31
0.0
  0
LINE
  5
1AF
330
2
100
AcDbEntity
  8
つぼ
 48
0.1
100
AcDbLine
 10
6449.322076050801
 20
-9732.665876429297
 30
0.0
 11
6440.672536266738
 21
-9732.665878879368
 31
0.0
  0
LINE
  5
1B0
330
2
100
AcDbEntity
  8
水槽
 48
0.1
100
AcDbLine
 10
6450.322076050804
 20
-9732.665876429297
 30
0.0
 11
6444.164475440505
 21
-9732.665876429297
 31
0.0
  0
ARC
  5
1B1
330
2
100
AcDbEntity
  8
水槽
 48
0.1
100
AcDbCircle
 10
6456.322076050804
 20
-9702.665881329437
 30
0.0
 40
4.0
100
AcDbArc
 50
90.0
 51
180.0
  0
ARC
  5
1B2
330
2
100
AcDbEntity
  8
水槽
 48
0.1
100
AcDbCircle
 10
6456.322076050804
 20
-9702.665881329437
 30
0.0
 40
3.0
100
AcDbArc
 50
90.0
 51
180.0
  0
LINE
  5
1B3
330
2
100
AcDbEntity
  8
水槽
 48
0.1
100
AcDbLine
 10
6452.322076050805
 20
-9705.665881329437
 30
0.0
 11
6452.322076050805
 21
-9706.665881329437
 31
0.0
  0
LINE
  5
1B4
330
2
100
AcDbEntity
  8
水槽
 48
0.1
100
AcDbLine
 10
6453.322076050804
 20
-9705.665881329437
 30
0.0
 11
6453.322076050804
 21
-9706.665881329437
 31
0.0
  0
LINE
  5
1B5
330
2
100
AcDbEntity
  8
つぼ
 48
0.1
100
AcDbLine
 10
6449.322076050801
 20
-9732.665876429297
 30
0.0
 11
6440.672536266738
 21
-9732.665878879368
 31
0.0
  0
LINE
  5
1B6
330
2
100
AcDbEntity
  8
水槽
 48
0.1
100
AcDbLine
 10
6453.322076050804
 20
-9729.806174764918
 30
0.0
 11
6453.322076050804
 21
-9725.789436941644
 31
0.0
  0
LINE
  5
1B7
330
2
100
AcDbEntity
  8
水槽
 48
0.1
100
AcDbLine
 10
6452.322076050805
 20
-9730.730974959366
 30
0.0
 11
6452.322076050805
 21
-9725.789436941644
 31
0.0
  0
LINE
  5
1B8
330
2
100
AcDbEntity
  8
水槽
 48
0.1
100
AcDbLine
 10
6453.322076050804
 20
-9725.806174764919
 30
0.0
 11
6453.322076050804
 21
-9730.665876429299
 31
0.0
  0
LINE
  5
1B9
330
2
100
AcDbEntity
  8
水槽
 48
0.1
100
AcDbLine
 10
6453.322076050804
 20
-9725.806174764919
 30
0.0
 11
6453.322076050804
 21
-9730.665876429299
 31
0.0
  0
LINE
  5
1BA
330
2
100
AcDbEntity
  8
水槽
 48
0.1
100
AcDbLine
 10
6452.322076050805
 20
-9725.789436941644
 30
0.0
 11
6452.322076050805
 21
-9707.66588132944
 31
0.0
  0
LINE
  5
1BB
330
2
100
AcDbEntity
  8
水槽
 48
0.1
100
AcDbLine
 10
6452.322076050805
 20
-9725.806174764919
 30
0.0
 11
6452.322076050805
 21
-9730.665876429299
 31
0.0
  0
LINE
  5
1BC
330
2
100
AcDbEntity
  8
水槽
 48
0.1
100
AcDbLine
 10
6452.322076050805
 20
-9702.665881329437
 30
0.0
 11
6452.322076050805
 21
-9705.665881329437
 31
0.0
  0
LINE
  5
1BD
330
2
100
AcDbEntity
  8
水槽
 48
0.1
100
AcDbLine
 10
6453.322076050804
 20
-9702.665881329437
 30
0.0
 11
6453.322076050804
 21
-9705.665881329437
 31
0.0
  0
LINE
  5
1BE
330
2
100
AcDbEntity
  8
水槽
 48
0.1
100
AcDbLine
 10
6453.322076050804
 20
-9706.665881329437
 30
0.0
 11
6453.322076050804
 21
-9725.789436941644
 31
0.0
  0
LINE
  5
1BF
330
2
100
AcDbEntity
  8
水槽
 48
0.1
100
AcDbLine
 10
6452.322076050805
 20
-9706.665881329437
 30
0.0
 11
6452.322076050805
 21
-9725.789436941644
 31
0.0
  0
ARC
  5
1C0
330
2
100
AcDbEntity
  8
つぼ
 48
0.1
100
AcDbCircle
 10
6440.672536266738
 20
-9734.665878879368
 30
0.0
 40
2.0
100
AcDbArc
 50
89.99999999999351
 51
132.3779003935002
  0
LINE
  5
1C1
330
2
100
AcDbEntity
  8
つぼ
 48
0.1
100
AcDbLine
 10
6449.322076050801
 20
-9731.165878879366
 30
0.0
 11
6440.478840069012
 21
-9731.165878879366
 31
0.0
  0
ARC
  5
1C2
330
2
100
AcDbEntity
  8
つぼ
 48
0.1
100
AcDbCircle
 10
6440.478840069008
 20
-9734.165878879352
 30
0.0
 40
3.0
100
AcDbArc
 50
89.99999999994356
 51
132.3260855080517
  0
LINE
  5
1C3
330
2
100
AcDbEntity
  8
SAISEN
 48
0.1
100
AcDbLine
 10
6439.322076050801
 20
-9731.053802601614
 30
0.0
 11
6439.322076050801
 21
-9731.270395050081
 31
0.0
  0
LINE
  5
1C5
330
2
100
AcDbEntity
  8
SAISEN
 48
0.1
100
AcDbLine
 10
6439.419871739847
 20
-9731.165878879366
 30
0.0
 11
6439.203169523131
 21
-9731.165878879366
 31
0.0
  0
LINE
  5
1C6
330
2
100
AcDbEntity
  8
つぼ
 48
0.1
100
AcDbLine
 10
6449.322076050801
 20
-9732.665878879368
 30
0.0
 11
6449.322076050801
 21
-9731.165878879366
 31
0.0
  0
LINE
  5
1C7
330
2
100
AcDbEntity
  8
つぼ
 48
0.1
100
AcDbLine
 10
6449.322076050801
 20
-9731.665881329437
 30
0.0
 11
6449.322076050801
 21
-9732.665878879366
 31
0.0
  0
ARC
  5
1C8
330
2
100
AcDbEntity
  8
水槽
 48
0.1
100
AcDbCircle
 10
6450.322076050804
 20
-9730.665876429299
 30
0.0
 40
3.0
100
AcDbArc
 50
270.0
 51
0.0000000000005413
  0
ARC
  5
1C9
330
2
100
AcDbEntity
  8
水槽
 48
0.1
100
AcDbCircle
 10
6450.322076050804
 20
-9730.665876429299
 30
0.0
 40
2.0
100
AcDbArc
 50
270.0000000000069
 51
0.000000000000007
  0
LINE
  5
1CA
330
2
100
AcDbEntity
  8
水槽
 48
0.1
100
AcDbLine
 10
6450.322076050804
 20
-9732.665876429297
 30
0.0
 11
6443.838996848521
 21
-9732.665876429297
 31
0.0
  0
LINE
  5
1CB
330
2
100
AcDbEntity
  8
水槽
 48
0.1
100
AcDbLine
 10
6452.322076050805
 20
-9730.665876429299
 30
0.0
 11
6452.322076050805
 21
-9725.806174764919
 31
0.0
  0
LINE
  5
1CC
330
2
100
AcDbEntity
  8
水槽
 48
0.1
100
AcDbLine
 10
6453.322076050804
 20
-9707.665881329436
 30
0.0
 11
6453.322076050804
 21
-9725.789436941644
 31
0.0
  0
LINE
  5
1CD
330
2
100
AcDbEntity
  8
トップリング
 48
0.1
100
AcDbLine
 10
6462.322076050805
 20
-9675.665881329436
 30
0.0
 11
6461.322076050802
 21
-9675.665881329436
 31
0.0
  0
ARC
  5
1CE
330
2
100
AcDbEntity
  8
トップリング
 48
0.1
100
AcDbCircle
 10
6465.322076050805
 20
-9674.665881329438
 30
0.0
 40
3.0
100
AcDbArc
 50
90.00000000000868
 51
179.999999999987
  0
ARC
  5
1CF
330
2
100
AcDbEntity
  8
トップリング
 48
0.1
100
AcDbCircle
 10
6465.3220760508
 20
-9674.665881329437
 30
0.0
 40
4.0
100
AcDbArc
 50
90.00000000000325
 51
180.0
  0
ARC
  5
1D0
330
2
100
AcDbEntity
  8
トップリング
 48
0.1
100
AcDbCircle
 10
6466.314828269656
 20
-9690.665881329437
 30
0.0
 40
19.0
100
AcDbArc
 50
73.49623870752488
 51
90.0
  0
ARC
  5
1D1
330
2
100
AcDbEntity
  8
トップリング
 48
0.1
100
AcDbCircle
 10
6484.822076050808
 20
-9681.022083428111
 30
0.0
 40
3.0
100
AcDbArc
 50
359.9999999999435
 51
62.10914497440322
  0
ARC
  5
1D2
330
2
100
AcDbEntity
  8
トップリング
 48
0.1
100
AcDbCircle
 10
6449.270131009372
 20
-9748.193946613309
 30
0.0
 40
79.0
100
AcDbArc
 50
62.10914497440221
 51
73.49623870752478
  0
ARC
  5
1D3
330
2
100
AcDbEntity
  8
トップリング
 48
0.1
100
AcDbCircle
 10
6466.314828269656
 20
-9690.665881329437
 30
0.0
 40
20.0
100
AcDbArc
 50
73.49623870752468
 51
90.0
  0
ARC
  5
1D4
330
2
100
AcDbEntity
  8
トップリング
 48
0.1
100
AcDbCircle
 10
6449.270131009372
 20
-9748.193946613309
 30
0.0
 40
80.0
100
AcDbArc
 50
62.1119633967019
 51
73.49623870752473
  0
ARC
  5
1D5
330
2
100
AcDbEntity
  8
トップリング
 48
0.1
100
AcDbCircle
 10
6484.818771773544
 20
-9681.02033468258
 30
0.0
 40
4.0
100
AcDbArc
 50
0.000000000000007
 51
62.11196339670556
  0
LINE
  5
1D6
330
2
100
AcDbEntity
  8
トップリング
 48
0.1
100
AcDbLine
 10
6466.314828269656
 20
-9671.665881329436
 30
0.0
 11
6465.322076050805
 21
-9671.665881329436
 31
0.0
  0
LINE
  5
1D7
330
2
100
AcDbEntity
  8
トップリング
 48
0.1
100
AcDbLine
 10
6466.314828269656
 20
-9670.665881329437
 30
0.0
 11
6465.3220760508
 21
-9670.665881329437
 31
0.0
  0
LINE
  5
1D8
330
2
100
AcDbEntity
  8
JISSEN
 48
0.1
100
AcDbLine
 10
6488.81657204108
 20
-9678.665881329436
 30
0.0
 11
6488.725498250045
 21
-9678.628507173744
 31
0.0
  0
LINE
  5
1D9
330
2
100
AcDbEntity
  8
JISSEN
 48
0.1
100
AcDbLine
 10
6488.81657204108
 20
-9678.74092503469
 30
0.0
 11
6488.81657204108
 21
-9678.665881329436
 31
0.0
  0
LINE
  5
1DA
330
2
100
AcDbEntity
  8
JISSEN
100
AcDbLine
 10
6502.322076050806
 20
-9678.665881329438
 30
0.0
 11
6502.322076050806
 21
-9679.665881329377
 31
0.0
  0
LINE
  5
1DB
330
2
100
AcDbEntity
  8
JISSEN
100
AcDbLine
 10
6502.322076050806
 20
-9678.665881329438
 30
0.0
 11
6495.322076050823
 21
-9678.665881329436
 31
0.0
  0
LINE
  5
1DC
330
2
100
AcDbEntity
  8
JISSEN
100
AcDbLine
 10
6502.322076050806
 20
-9679.665881329363
 30
0.0
 11
6495.322076050822
 21
-9679.665881329343
 31
0.0
  0
ARC
  5
1DD
330
2
100
AcDbEntity
  8
JISSEN
100
AcDbCircle
 10
6495.322076050818
 20
-9683.665881329439
 30
0.0
 40
5.0
100
AcDbArc
 50
89.99999999997129
 51
179.9999999999712
  0
ARC
  5
1DE
330
2
100
AcDbEntity
  8
JISSEN
100
AcDbCircle
 10
6495.32207605082
 20
-9683.66588132944
 30
0.0
 40
4.000000000000909
100
AcDbArc
 50
89.99999999998697
 51
179.9999999999479
  0
LINE
  5
1DF
330
2
100
AcDbEntity
  8
JISSEN
100
AcDbLine
 10
6132.822076050785
 20
-9689.603785794473
 30
0.0
 11
6132.822076050794
 21
-9680.903460406662
 31
0.0
  0
LINE
  5
1E0
330
2
100
AcDbEntity
  8
JISSEN
100
AcDbLine
 10
6131.822076050794
 20
-9680.903460406662
 30
0.0
 11
6131.822076050784
 21
-9689.603785794473
 31
0.0
  0
LINE
  5
1E1
330
2
100
AcDbEntity
  8
トップリング
 48
0.1
100
AcDbLine
 10
6132.822076050801
 20
-9689.603785794473
 30
0.0
 11
6132.822076050794
 21
-9681.022083428114
 31
0.0
  0
LINE
  5
1E2
330
2
100
AcDbEntity
  8
トップリング
 48
0.1
100
AcDbLine
 10
6131.822076050784
 20
-9689.603785794473
 30
0.0
 11
6131.826231086265
 21
-9681.346645400161
 31
0.0
  0
LINE
  5
1E3
330
2
100
AcDbEntity
  8
トップリング
 48
0.1
100
AcDbLine
 10
6131.827580060523
 20
-9689.603785794473
 30
0.0
 11
6131.825832344046
 21
-9680.903460406662
 31
0.0
  0
LINE
  5
1E4
330
2
100
AcDbEntity
  8
トップリング
 48
0.1
100
AcDbLine
 10
6158.322076050797
 20
-9674.665881329437
 30
0.0
 11
6158.322076050797
 21
-9709.665881329437
 31
0.0
  0
LINE
  5
1E5
330
2
100
AcDbEntity
  8
トップリング
 48
0.1
100
AcDbLine
 10
6159.322076050801
 20
-9709.665881329437
 30
0.0
 11
6159.322076050801
 21
-9674.665881329437
 31
0.0
  0
LINE
  5
1E6
330
2
100
AcDbEntity
  8
JISSEN
100
AcDbLine
 10
6129.322076050783
 20
-9683.665881329435
 30
0.0
 11
6129.322076050785
 21
-9687.665881329435
 31
0.0
  0
LINE
  5
1E7
330
2
100
AcDbEntity
  8
JISSEN
100
AcDbLine
 10
6130.322076050784
 20
-9687.665881329435
 30
0.0
 11
6130.322076050783
 21
-9683.665881329435
 31
0.0
  0
ARC
  5
1E8
330
2
100
AcDbEntity
  8
つぼ
 48
0.1
100
AcDbCircle
 10
6035.77553349761
 20
-9892.703112921921
 30
0.0
 40
217.4352180105752
100
AcDbArc
 50
15.48091373985244
 51
47.67391449213025
  0
ARC
  5
1E9
330
2
100
AcDbEntity
  8
つぼ
 48
0.1
100
AcDbCircle
 10
6035.77553349761
 20
-9892.703112921921
 30
0.0
 40
215.9352180105752
100
AcDbArc
 50
15.53492066719398
 51
47.62209960649784
  0
LINE
  5
1EA
330
2
100
AcDbEntity
  8
さん
 48
0.1
100
AcDbLine
 10
6379.545376590782
 20
-9814.665878879367
 30
0.0
 11
6310.021725252618
 21
-9814.665878879367
 31
0.0
  0
LINE
  5
1EC
330
2
100
AcDbEntity
  8
さん
 48
0.1
100
AcDbLine
 10
6376.862617028546
 20
-9814.665878879367
 30
0.0
 11
6310.021725252618
 21
-9814.665878879367
 31
0.0
  0
LINE
  5
1ED
330
2
100
AcDbEntity
  8
さん
 48
0.1
100
AcDbLine
 10
6376.862617028546
 20
-9809.665878879366
 30
0.0
 11
6310.021725252618
 21
-9809.665878879366
 31
0.0
  0
LINE
  5
1EE
330
2
100
AcDbEntity
  8
つぼ
 48
0.1
100
AcDbLine
 10
6376.822076050801
 20
-9834.870124853361
 30
0.0
 11
6376.822076050801
 21
-9846.263955090721
 31
0.0
  0
LINE
  5
1EF
330
2
100
AcDbEntity
  8
つぼ
 48
0.1
100
AcDbLine
 10
6375.322076050801
 20
-9834.665878879366
 30
0.0
 11
6375.322076050801
 21
-9846.665878879367
 31
0.0
  0
LINE
  5
1F0
330
2
100
AcDbEntity
  8
つぼ
 48
0.1
100
AcDbLine
 10
6380.157384555263
 20
-9854.540878879367
 30
0.0
 11
6381.239916309994
 21
-9853.915878879368
 31
0.0
  0
LINE
  5
1F1
330
2
100
AcDbEntity
  8
つぼ
 48
0.1
100
AcDbLine
 10
6381.239916309994
 20
-9853.915878879368
 30
0.0
 11
6376.822076050801
 21
-9846.263955090721
 31
0.0
  0
LINE
  5
1F2
330
2
100
AcDbEntity
  8
つぼ
 48
0.1
100
AcDbLine
 10
6379.940878204317
 20
-9854.665878879366
 30
0.0
 11
6375.322076050801
 21
-9846.665878879367
 31
0.0
  0
LINE
  5
1F3
330
2
100
AcDbEntity
  8
つぼ
 48
0.1
100
AcDbLine
 10
6379.940878204317
 20
-9854.665878879366
 30
0.0
 11
6380.806903608101
 21
-9854.165878879367
 31
0.0
  0
LINE
  5
1F4
330
2
100
AcDbEntity
  8
つぼ
 48
0.1
100
AcDbLine
 10
6379.940878204317
 20
-9854.665878879366
 30
0.0
 11
6380.373890906208
 21
-9854.415878879366
 31
0.0
  0
LINE
  5
1F5
330
2
100
AcDbEntity
  8
さん
 48
0.1
100
AcDbLine
 10
6389.487641563861
 20
-9797.445370803679
 30
0.0
 11
6379.545376590782
 21
-9814.665878879367
 31
0.0
  0
LINE
  5
1F6
330
2
100
AcDbEntity
  8
さん
 48
0.1
100
AcDbLine
 10
6385.157514544941
 20
-9794.945370803679
 30
0.0
 11
6389.487641563861
 21
-9797.445370803679
 31
0.0
  0
LINE
  5
1F7
330
2
100
AcDbEntity
  8
さん
 48
0.1
100
AcDbLine
 10
6385.157514544941
 20
-9794.945370803679
 30
0.0
 11
6376.658625244834
 21
-9809.665878879366
 31
0.0
  0
LINE
  5
1F8
330
2
100
AcDbEntity
  8
つぼ
 48
0.1
100
AcDbLine
 10
6245.322076050801
 20
-9834.665878879366
 30
0.0
 11
6245.322076050801
 21
-9846.665878879367
 31
0.0
  0
LINE
  5
1F9
330
2
100
AcDbEntity
  8
つぼ
 48
0.1
100
AcDbLine
 10
6243.8220760508
 20
-9834.870124853361
 30
0.0
 11
6243.8220760508
 21
-9846.263955090721
 31
0.0
  0
LINE
  5
1FA
330
2
100
AcDbEntity
  8
つぼ
 48
0.1
100
AcDbLine
 10
6240.703273897285
 20
-9854.665878879366
 30
0.0
 11
6240.270261195394
 21
-9854.415878879366
 31
0.0
  0
LINE
  5
1FB
330
2
100
AcDbEntity
  8
つぼ
 48
0.1
100
AcDbLine
 10
6240.703273897285
 20
-9854.665878879366
 30
0.0
 11
6239.8372484935
 21
-9854.165878879367
 31
0.0
  0
LINE
  5
1FC
330
2
100
AcDbEntity
  8
つぼ
 48
0.1
100
AcDbLine
 10
6240.703273897285
 20
-9854.665878879366
 30
0.0
 11
6245.322076050801
 21
-9846.665878879367
 31
0.0
  0
LINE
  5
1FD
330
2
100
AcDbEntity
  8
つぼ
 48
0.1
100
AcDbLine
 10
6239.404235791607
 20
-9853.915878879368
 30
0.0
 11
6243.8220760508
 21
-9846.263955090721
 31
0.0
  0
LINE
  5
1FE
330
2
100
AcDbEntity
  8
つぼ
 48
0.1
100
AcDbLine
 10
6240.48676754634
 20
-9854.540878879367
 30
0.0
 11
6239.404235791607
 21
-9853.915878879368
 31
0.0
  0
LINE
  5
1FF
330
2
100
AcDbEntity
  8
さん
 48
0.1
100
AcDbLine
 10
6243.781535073056
 20
-9809.665878879366
 30
0.0
 11
6310.021725252618
 21
-9809.665878879366
 31
0.0
  0
LINE
  5
200
330
2
100
AcDbEntity
  8
さん
 48
0.1
100
AcDbLine
 10
6243.781535073056
 20
-9814.665878879367
 30
0.0
 11
6310.021725252618
 21
-9814.665878879367
 31
0.0
  0
LINE
  5
201
330
2
100
AcDbEntity
  8
さん
 48
0.1
100
AcDbLine
 10
6241.09877551082
 20
-9814.665878879367
 30
0.0
 11
6310.021725252618
 21
-9814.665878879367
 31
0.0
  0
LINE
  5
202
330
2
100
AcDbEntity
  8
さん
 48
0.1
100
AcDbLine
 10
6243.781535073056
 20
-9809.665878879366
 30
0.0
 11
6310.021725252618
 21
-9809.665878879366
 31
0.0
  0
LINE
  5
203
330
2
100
AcDbEntity
  8
さん
 48
0.1
100
AcDbLine
 10
6243.781535073056
 20
-9814.665878879367
 30
0.0
 11
6310.021725252618
 21
-9814.665878879367
 31
0.0
  0
LINE
  5
204
330
2
100
AcDbEntity
  8
さん
 48
0.1
100
AcDbLine
 10
6241.09877551082
 20
-9814.665878879367
 30
0.0
 11
6310.021725252618
 21
-9814.665878879367
 31
0.0
  0
LINE
  5
205
330
2
100
AcDbEntity
  8
さん
 48
0.1
100
AcDbLine
 10
6231.156510537741
 20
-9797.445370803679
 30
0.0
 11
6241.09877551082
 21
-9814.665878879367
 31
0.0
  0
LINE
  5
206
330
2
100
AcDbEntity
  8
さん
 48
0.1
100
AcDbLine
 10
6235.486637556661
 20
-9794.945370803679
 30
0.0
 11
6231.156510537741
 21
-9797.445370803679
 31
0.0
  0
LINE
  5
207
330
2
100
AcDbEntity
  8
さん
 48
0.1
100
AcDbLine
 10
6235.486637556661
 20
-9794.945370803679
 30
0.0
 11
6243.985526856768
 21
-9809.665878879366
 31
0.0
  0
LINE
  5
208
330
2
100
AcDbEntity
  8
SAISEN
 48
0.1
100
AcDbLine
 10
6395.322076050801
 20
-9786.38528109611
 30
0.0
 11
6395.322076050801
 21
-9785.957101797114
 31
0.0
  0
LINE
  5
209
330
2
100
AcDbEntity
  8
SAISEN
 48
0.1
100
AcDbLine
 10
6395.509145552043
 20
-9786.165878879366
 30
0.0
 11
6395.182767707868
 21
-9786.165878879366
 31
0.0
  0
LINE
  5
20A
330
2
100
AcDbEntity
  8
JISSEN
100
AcDbLine
 10
6131.854383800028
 20
-9789.670574908788
 30
0.0
 11
6146.600879413377
 21
-9875.670574912803
 31
0.0
  0
LINE
  5
20B
330
2
100
AcDbEntity
  8
JISSEN
100
AcDbLine
 10
6133.486691561587
 20
-9789.533803894254
 30
0.0
 11
6148.224434421436
 21
-9875.670574912803
 31
0.0
  0
LINE
  5
20C
330
2
100
AcDbEntity
  8
JISSEN
100
AcDbLine
 10
6146.600879413377
 20
-9875.670574912803
 30
0.0
 11
6146.860792147187
 21
-9877.179745625246
 31
0.0
  0
LINE
  5
20D
330
2
100
AcDbEntity
  8
JISSEN
100
AcDbLine
 10
6149.817267275021
 20
-9879.670574908788
 30
0.0
 11
6153.289768301576
 21
-9879.670574908788
 31
0.0
  0
ARC
  5
20E
330
2
100
AcDbEntity
  8
JISSEN
100
AcDbCircle
 10
6149.817267275021
 20
-9876.670574908787
 30
0.0
 40
3.000000000000332
100
AcDbArc
 50
189.7717473520272
 51
270.0
  0
ARC
  5
20F
330
2
100
AcDbEntity
  8
JISSEN
100
AcDbCircle
 10
6153.289768301574
 20
-9887.670574908788
 30
0.0
 40
8.000000000002728
100
AcDbArc
 50
0.0
 51
89.99999999998046
  0
ARC
  5
210
330
2
100
AcDbEntity
  8
JISSEN
100
AcDbCircle
 10
6133.322076050786
 20
-9692.665881329435
 30
0.0
 40
2.0
100
AcDbArc
 50
0.0000000000287592
 51
90.0000000000287
  0
ARC
  5
211
330
2
100
AcDbEntity
  8
JISSEN
100
AcDbCircle
 10
6133.322076050786
 20
-9692.665881329435
 30
0.0
 40
3.0
100
AcDbArc
 50
0.0000000000287592
 51
90.00000000002549
  0
LINE
  5
212
330
2
100
AcDbEntity
  8
ITTEN
 48
0.1
100
AcDbLine
 10
6133.57779573157
 20
-9701.665881329343
 30
0.0
 11
6137.654314500534
 21
-9701.665881329343
 31
0.0
  0
ARC
  5
213
330
2
100
AcDbEntity
  8
つぼ
 48
0.1
100
AcDbCircle
 10
6180.165312032594
 20
-9734.165878879352
 30
0.0
 40
3.0
100
AcDbArc
 50
47.6739144919483
 51
90.00000000005643
  0
ARC
  5
214
330
2
100
AcDbEntity
  8
つぼ
 48
0.1
100
AcDbCircle
 10
6179.971615834864
 20
-9734.665878879368
 30
0.0
 40
2.0
100
AcDbArc
 50
47.62209960649974
 51
90.0000000000065
  0
LINE
  5
215
330
2
100
AcDbEntity
  8
水槽
 48
0.1
100
AcDbLine
 10
6172.153534684116
 20
-9733.665877477818
 30
0.0
 11
6175.569079559977
 21
-9733.665877477818
 31
0.0
  0
LINE
  5
216
330
2
100
AcDbEntity
  8
つぼ
 48
0.1
100
AcDbLine
 10
6171.322076050802
 20
-9732.665876429297
 30
0.0
 11
6179.971615834864
 21
-9732.665878879368
 31
0.0
  0
LINE
  5
217
330
2
100
AcDbEntity
  8
つぼ
 48
0.1
100
AcDbLine
 10
6171.322076050802
 20
-9732.665876429297
 30
0.0
 11
6179.971615834864
 21
-9732.665878879368
 31
0.0
  0
LINE
  5
218
330
2
100
AcDbEntity
  8
水槽
 48
0.1
100
AcDbLine
 10
6178.196182187537
 20
-9732.665878412118
 30
0.0
 11
6178.322076334062
 21
-9732.665878412118
 31
0.0
  0
LINE
  5
219
330
2
100
AcDbEntity
  8
水槽
 48
0.1
100
AcDbLine
 10
6178.196182187537
 20
-9732.665878412118
 30
0.0
 11
6178.425390111412
 21
-9732.665878412118
 31
0.0
  0
LINE
  5
21A
330
2
100
AcDbEntity
  8
水槽
 48
0.1
100
AcDbLine
 10
6178.322076334062
 20
-9732.552274901296
 30
0.0
 11
6178.322076334062
 21
-9732.775512106055
 31
0.0
  0
LINE
  5
21B
330
2
100
AcDbEntity
  8
水槽
 48
0.1
100
AcDbLine
 10
6178.196182187537
 20
-9732.665878412118
 30
0.0
 11
6178.322076334062
 21
-9732.665878412118
 31
0.0
  0
LINE
  5
21C
330
2
100
AcDbEntity
  8
水槽
 48
0.1
100
AcDbLine
 10
6178.196182187537
 20
-9732.665878412118
 30
0.0
 11
6178.425390111412
 21
-9732.665878412118
 31
0.0
  0
LINE
  5
21D
330
2
100
AcDbEntity
  8
水槽
 48
0.1
100
AcDbLine
 10
6178.322076334062
 20
-9732.552274901296
 30
0.0
 11
6178.322076334062
 21
-9732.775512106055
 31
0.0
  0
ARC
  5
21E
330
2
100
AcDbEntity
  8
水槽
 48
0.1
100
AcDbCircle
 10
6175.569079573268
 20
-9735.665877632305
 30
0.0
 40
3.0
100
AcDbArc
 50
4.916936788553042
 51
89.99998377038821
  0
ARC
  5
21F
330
2
100
AcDbEntity
  8
水槽
 48
0.1
100
AcDbCircle
 10
6175.569079559977
 20
-9735.665877477817
 30
0.0
 40
2.0
100
AcDbArc
 50
4.916936788553144
 51
90.0
  0
LINE
  5
220
330
2
100
AcDbEntity
  8
水槽
 48
0.1
100
AcDbLine
 10
6168.322076050798
 20
-9730.665876429299
 30
0.0
 11
6168.322076050798
 21
-9725.806174764919
 31
0.0
  0
LINE
  5
221
330
2
100
AcDbEntity
  8
水槽
 48
0.1
100
AcDbLine
 10
6170.322076050798
 20
-9732.665876429297
 30
0.0
 11
6176.805155253081
 21
-9732.665876429297
 31
0.0
  0
ARC
  5
222
330
2
100
AcDbEntity
  8
水槽
 48
0.1
100
AcDbCircle
 10
6170.322076050798
 20
-9730.665876429299
 30
0.0
 40
2.0
100
AcDbArc
 50
180.0
 51
269.9999999999931
  0
ARC
  5
223
330
2
100
AcDbEntity
  8
水槽
 48
0.1
100
AcDbCircle
 10
6170.322076050798
 20
-9730.665876429299
 30
0.0
 40
3.0
100
AcDbArc
 50
179.9999999999994
 51
270.0
  0
LINE
  5
224
330
2
100
AcDbEntity
  8
つぼ
 48
0.1
100
AcDbLine
 10
6171.322076050802
 20
-9731.665881329437
 30
0.0
 11
6171.322076050802
 21
-9732.665878879366
 31
0.0
  0
LINE
  5
225
330
2
100
AcDbEntity
  8
つぼ
 48
0.1
100
AcDbLine
 10
6171.322076050802
 20
-9732.665878879368
 30
0.0
 11
6171.322076050802
 21
-9731.165878879366
 31
0.0
  0
LINE
  5
226
330
2
100
AcDbEntity
  8
つぼ
 48
0.1
100
AcDbLine
 10
6171.322076050802
 20
-9731.165878879366
 30
0.0
 11
6180.16531203259
 21
-9731.165878879366
 31
0.0
  0
LINE
  5
227
330
2
100
AcDbEntity
  8
水槽
 48
0.1
100
AcDbLine
 10
6168.322076050798
 20
-9725.806174764919
 30
0.0
 11
6168.322076050798
 21
-9730.665876429299
 31
0.0
  0
LINE
  5
228
330
2
100
AcDbEntity
  8
水槽
 48
0.1
100
AcDbLine
 10
6167.322076050798
 20
-9725.806174764919
 30
0.0
 11
6167.322076050798
 21
-9730.665876429299
 31
0.0
  0
LINE
  5
229
330
2
100
AcDbEntity
  8
水槽
 48
0.1
100
AcDbLine
 10
6167.322076050798
 20
-9725.806174764919
 30
0.0
 11
6167.322076050798
 21
-9730.665876429299
 31
0.0
  0
LINE
  5
22A
330
2
100
AcDbEntity
  8
水槽
 48
0.1
100
AcDbLine
 10
6168.322076050798
 20
-9730.730974959366
 30
0.0
 11
6168.322076050798
 21
-9725.789436941644
 31
0.0
  0
LINE
  5
22B
330
2
100
AcDbEntity
  8
水槽
 48
0.1
100
AcDbLine
 10
6167.322076050798
 20
-9729.806174764918
 30
0.0
 11
6167.322076050798
 21
-9725.789436941644
 31
0.0
  0
LINE
  5
22C
330
2
100
AcDbEntity
  8
つぼ
 48
0.1
100
AcDbLine
 10
6171.322076050802
 20
-9732.665876429297
 30
0.0
 11
6179.971615834864
 21
-9732.665878879368
 31
0.0
  0
LINE
  5
22D
330
2
100
AcDbEntity
  8
水槽
 48
0.1
100
AcDbLine
 10
6170.322076050798
 20
-9732.665876429297
 30
0.0
 11
6176.479676661098
 21
-9732.665876429297
 31
0.0
  0
LINE
  5
22E
330
2
100
AcDbEntity
  8
つぼ
 48
0.1
100
AcDbLine
 10
6171.322076050802
 20
-9732.665876429297
 30
0.0
 11
6179.971615834864
 21
-9732.665878879368
 31
0.0
  0
LINE
  5
22F
330
2
100
AcDbEntity
  8
水槽
 48
0.1
100
AcDbLine
 10
6178.196182187537
 20
-9732.665878412118
 30
0.0
 11
6178.322076334062
 21
-9732.665878412118
 31
0.0
  0
LINE
  5
230
330
2
100
AcDbEntity
  8
水槽
 48
0.1
100
AcDbLine
 10
6178.196182187537
 20
-9732.665878412118
 30
0.0
 11
6178.425390111412
 21
-9732.665878412118
 31
0.0
  0
LINE
  5
231
330
2
100
AcDbEntity
  8
水槽
 48
0.1
100
AcDbLine
 10
6178.322076334062
 20
-9732.552274901296
 30
0.0
 11
6178.322076334062
 21
-9732.775512106055
 31
0.0
  0
LINE
  5
232
330
2
100
AcDbEntity
  8
水槽
 48
0.1
100
AcDbLine
 10
6170.322076050798
 20
-9732.665876429297
 30
0.0
 11
6176.483274777882
 21
-9732.665876429299
 31
0.0
  0
LINE
  5
233
330
2
100
AcDbEntity
  8
水槽
 48
0.1
100
AcDbLine
 10
6178.196182187537
 20
-9732.665878412118
 30
0.0
 11
6178.322076334062
 21
-9732.665878412118
 31
0.0
  0
LINE
  5
234
330
2
100
AcDbEntity
  8
水槽
 48
0.1
100
AcDbLine
 10
6178.196182187537
 20
-9732.665878412118
 30
0.0
 11
6178.425390111412
 21
-9732.665878412118
 31
0.0
  0
LINE
  5
235
330
2
100
AcDbEntity
  8
水槽
 48
0.1
100
AcDbLine
 10
6178.322076334062
 20
-9732.552274901296
 30
0.0
 11
6178.322076334062
 21
-9732.775512106055
 31
0.0
  0
LINE
  5
236
330
2
100
AcDbEntity
  8
つぼ
 48
0.1
100
AcDbLine
 10
6171.322076050802
 20
-9732.665876429297
 30
0.0
 11
6175.569080423048
 21
-9732.665877632307
 31
0.0
  0
LINE
  5
237
330
2
100
AcDbEntity
  8
水槽
 48
0.1
100
AcDbLine
 10
6172.153534684116
 20
-9733.665877477818
 30
0.0
 11
6175.569079559977
 21
-9733.665877477818
 31
0.0
  0
LINE
  5
238
330
2
100
AcDbEntity
  8
水槽
 48
0.1
100
AcDbLine
 10
6170.322076050798
 20
-9733.665876429299
 30
0.0
 11
6172.153534684116
 21
-9733.665877477818
 31
0.0
  0
LINE
  5
239
330
2
100
AcDbEntity
  8
水槽
 48
0.1
100
AcDbLine
 10
6167.322076050798
 20
-9713.66588132944
 30
0.0
 11
6168.322076050798
 21
-9713.665881329436
 31
0.0
  0
LINE
  5
23A
330
2
100
AcDbEntity
  8
JISSEN
 48
0.1
100
AcDbLine
 10
6167.322076050798
 20
-9709.665881329437
 30
0.0
 11
6167.322076050798
 21
-9709.665881329437
 31
0.0
  0
LINE
  5
23B
330
2
100
AcDbEntity
  8
JISSEN
 48
0.1
100
AcDbLine
 10
6165.822076050798
 20
-9708.665881329437
 30
0.0
 11
6167.322076050798
 21
-9708.665881329437
 31
0.0
  0
LINE
  5
23C
330
2
100
AcDbEntity
  8
水槽
 48
0.1
100
AcDbLine
 10
6167.322076050798
 20
-9707.665881329436
 30
0.0
 11
6167.322076050798
 21
-9725.789436941644
 31
0.0
  0
LINE
  5
23D
330
2
100
AcDbEntity
  8
水槽
 48
0.1
100
AcDbLine
 10
6168.322076050798
 20
-9706.665881329437
 30
0.0
 11
6168.322076050798
 21
-9725.789436941644
 31
0.0
  0
LINE
  5
23E
330
2
100
AcDbEntity
  8
水槽
 48
0.1
100
AcDbLine
 10
6167.322076050798
 20
-9706.665881329437
 30
0.0
 11
6167.322076050798
 21
-9725.789436941644
 31
0.0
  0
LINE
  5
23F
330
2
100
AcDbEntity
  8
水槽
 48
0.1
100
AcDbLine
 10
6167.322076050798
 20
-9702.665881329437
 30
0.0
 11
6167.322076050798
 21
-9705.665881329437
 31
0.0
  0
LINE
  5
240
330
2
100
AcDbEntity
  8
水槽
 48
0.1
100
AcDbLine
 10
6168.322076050798
 20
-9702.665881329437
 30
0.0
 11
6168.322076050798
 21
-9705.665881329437
 31
0.0
  0
LINE
  5
241
330
2
100
AcDbEntity
  8
水槽
 48
0.1
100
AcDbLine
 10
6168.322076050798
 20
-9725.789436941644
 30
0.0
 11
6168.322076050798
 21
-9707.66588132944
 31
0.0
  0
LINE
  5
242
330
2
100
AcDbEntity
  8
水槽
 48
0.1
100
AcDbLine
 10
6167.322076050798
 20
-9705.665881329437
 30
0.0
 11
6167.322076050798
 21
-9706.665881329437
 31
0.0
  0
LINE
  5
243
330
2
100
AcDbEntity
  8
水槽
 48
0.1
100
AcDbLine
 10
6168.322076050798
 20
-9705.665881329437
 30
0.0
 11
6168.322076050798
 21
-9706.665881329437
 31
0.0
  0
ARC
  5
244
330
2
100
AcDbEntity
  8
水槽
 48
0.1
100
AcDbCircle
 10
6164.322076050797
 20
-9702.665881329437
 30
0.0
 40
3.0
100
AcDbArc
 50
0.000000000000007
 51
90.0
  0
ARC
  5
245
330
2
100
AcDbEntity
  8
水槽
 48
0.1
100
AcDbCircle
 10
6164.322076050797
 20
-9702.665881329437
 30
0.0
 40
4.0
100
AcDbArc
 50
0.000000000000007
 51
90.0
  0
LINE
  5
246
330
2
100
AcDbEntity
  8
JISSEN
 48
0.1
100
AcDbLine
 10
6165.822076050798
 20
-9708.665881329437
 30
0.0
 11
6165.822076050798
 21
-9702.665881329437
 31
0.0
  0
LINE
  5
247
330
2
100
AcDbEntity
  8
JISSEN
 48
0.1
100
AcDbLine
 10
6167.322076050798
 20
-9702.665881329437
 30
0.0
 11
6167.322076050798
 21
-9702.665881329437
 31
0.0
  0
LINE
  5
248
330
2
100
AcDbEntity
  8
JISSEN
 48
0.1
100
AcDbLine
 10
6167.322076050798
 20
-9708.665881329437
 30
0.0
 11
6167.322076050798
 21
-9702.665881329437
 31
0.0
  0
LINE
  5
249
330
2
100
AcDbEntity
  8
JISSEN
 48
0.1
100
AcDbLine
 10
6167.322076050798
 20
-9702.665881329437
 30
0.0
 11
6165.822076050798
 21
-9702.665881329437
 31
0.0
  0
LINE
  5
24A
330
2
100
AcDbEntity
  8
JISSEN
 48
0.1
100
AcDbLine
 10
6167.322076050798
 20
-9708.665881329437
 30
0.0
 11
6167.322076050798
 21
-9702.665881329437
 31
0.0
  0
LINE
  5
24B
330
2
100
AcDbEntity
  8
水槽
 48
0.1
100
AcDbLine
 10
6160.822076050801
 20
-9699.665881329437
 30
0.0
 11
6160.822076050801
 21
-9698.665881329437
 31
0.0
  0
LINE
  5
24C
330
2
100
AcDbEntity
  8
水槽
 48
0.1
100
AcDbLine
 10
6160.822076050801
 20
-9698.665881329437
 30
0.0
 11
6164.322076050797
 21
-9698.665881329439
 31
0.0
  0
LINE
  5
24D
330
2
100
AcDbEntity
  8
水槽
 48
0.1
100
AcDbLine
 10
6160.822076050801
 20
-9699.665881329437
 30
0.0
 11
6164.322076050797
 21
-9699.665881329437
 31
0.0
  0
LINE
  5
24E
330
2
100
AcDbEntity
  8
水槽
 48
0.1
100
AcDbLine
 10
6160.822076050801
 20
-9698.665881329437
 30
0.0
 11
6164.322076050797
 21
-9698.665881329437
 31
0.0
  0
LINE
  5
24F
330
2
100
AcDbEntity
  8
水槽
 48
0.1
100
AcDbLine
 10
6160.822076050801
 20
-9699.665881329437
 30
0.0
 11
6164.322076050797
 21
-9699.665881329437
 31
0.0
  0
LINE
  5
250
330
2
100
AcDbEntity
  8
トップリング
 48
0.1
100
AcDbLine
 10
6158.322076050797
 20
-9724.665881329439
 30
0.0
 11
6159.322076050801
 21
-9724.665881329439
 31
0.0
  0
LINE
  5
251
330
2
100
AcDbEntity
  8
トップリング
 48
0.1
100
AcDbLine
 10
6158.322076050797
 20
-9696.665881329437
 30
0.0
 11
6158.322076050797
 21
-9724.665881329439
 31
0.0
  0
LINE
  5
252
330
2
100
AcDbEntity
  8
トップリング
 48
0.1
100
AcDbLine
 10
6159.322076050801
 20
-9724.665881329439
 30
0.0
 11
6159.322076050801
 21
-9696.665881329437
 31
0.0
  0
LINE
  5
253
330
2
100
AcDbEntity
  8
TENSEN
 48
0.1
100
AcDbLine
 10
6136.322076050805
 20
-9704.165881329345
 30
0.0
 11
6135.322076050805
 21
-9704.165881329345
 31
0.0
  0
LINE
  5
254
330
2
100
AcDbEntity
  8
TENSEN
 48
0.1
100
AcDbLine
 10
6136.322076050805
 20
-9699.165881329344
 30
0.0
 11
6135.322076050805
 21
-9699.165881329344
 31
0.0
  0
LINE
  5
255
330
2
100
AcDbEntity
  8
JISSEN
100
AcDbLine
 10
6136.322076050805
 20
-9728.665881329344
 30
0.0
 11
6135.322076050805
 21
-9728.665881329344
 31
0.0
  0
LINE
  5
256
330
2
100
AcDbEntity
  8
JISSEN
100
AcDbLine
 10
6135.322076050805
 20
-9728.665881329344
 30
0.0
 11
6135.322076050787
 21
-9693.665881329431
 31
0.0
  0
LINE
  5
257
330
2
100
AcDbEntity
  8
JISSEN
100
AcDbLine
 10
6136.322076050786
 20
-9693.665881329431
 30
0.0
 11
6136.322076050805
 21
-9728.665881329344
 31
0.0
  0
LINE
  5
258
330
2
100
AcDbEntity
  8
JISSEN
100
AcDbLine
 10
6135.322076050787
 20
-9692.665881329432
 30
0.0
 11
6135.322076050805
 21
-9728.665881329344
 31
0.0
  0
LINE
  5
259
330
2
100
AcDbEntity
  8
JISSEN
100
AcDbLine
 10
6136.322076050805
 20
-9728.665881329344
 30
0.0
 11
6136.322076050786
 21
-9692.665881329432
 31
0.0
  0
LINE
  5
25A
330
2
100
AcDbEntity
  8
JISSEN
 48
0.1
100
AcDbLine
 10
6131.822076038468
 20
-9742.170574908788
 30
0.0
 11
6131.822076038468
 21
-9709.665881329343
 31
0.0
  0
LINE
  5
25B
330
2
100
AcDbEntity
  8
JISSEN
 48
0.1
100
AcDbLine
 10
6133.486691561587
 20
-9709.665881329343
 30
0.0
 11
6133.486691561587
 21
-9789.533803894254
 31
0.0
  0
LINE
  5
25C
330
2
100
AcDbEntity
  8
JISSEN
100
AcDbLine
 10
6131.822076038468
 20
-9713.270574908788
 30
0.0
 11
6131.822076038468
 21
-9789.670574908788
 31
0.0
  0
LINE
  5
25D
330
2
100
AcDbEntity
  8
JISSEN
100
AcDbLine
 10
6133.486691561587
 20
-9713.270574908788
 30
0.0
 11
6133.486691561587
 21
-9789.533803894254
 31
0.0
  0
LINE
  5
25E
330
2
100
AcDbEntity
  8
JISSEN
 48
0.1
100
AcDbLine
 10
6131.822076038468
 20
-9709.665881329343
 30
0.0
 11
6133.486691561587
 21
-9709.665881329343
 31
0.0
  0
ARC
  5
25F
330
2
100
AcDbEntity
  8
JISSEN
100
AcDbCircle
 10
6132.322076050785
 20
-9687.665881329435
 30
0.0
 40
3.0
100
AcDbArc
 50
180.0000000000287
 51
270.0000000000319
  0
ARC
  5
260
330
2
100
AcDbEntity
  8
JISSEN
100
AcDbCircle
 10
6132.322076050785
 20
-9687.665881329435
 30
0.0
 40
2.0
100
AcDbArc
 50
180.0000000000287
 51
270.0000000000287
  0
LINE
  5
261
330
2
100
AcDbEntity
  8
JISSEN
100
AcDbLine
 10
6132.322076050787
 20
-9690.665881329433
 30
0.0
 11
6133.322076050786
 21
-9690.665881329433
 31
0.0
  0
LINE
  5
262
330
2
100
AcDbEntity
  8
JISSEN
100
AcDbLine
 10
6133.322076050784
 20
-9689.665881329432
 30
0.0
 11
6132.322076050785
 21
-9689.665881329432
 31
0.0
  0
LINE
  5
263
330
2
100
AcDbEntity
  8
JISSEN
100
AcDbLine
 10
6132.822076050801
 20
-9689.603785794473
 30
0.0
 11
6131.822076050801
 21
-9689.603785794473
 31
0.0
  0
ARC
  5
264
330
2
100
AcDbEntity
  8
トップリング
 48
0.1
100
AcDbCircle
 10
6135.825380328059
 20
-9681.02033468258
 30
0.0
 40
4.0
100
AcDbArc
 50
117.8880366032944
 51
180.0
  0
ARC
  5
265
330
2
100
AcDbEntity
  8
トップリング
 48
0.1
100
AcDbCircle
 10
6135.822076050794
 20
-9681.022083428111
 30
0.0
 40
3.0
100
AcDbArc
 50
117.8908550255968
 51
180.0000000000564
  0
ARC
  5
266
330
2
100
AcDbEntity
  8
トップリング
 48
0.1
100
AcDbCircle
 10
6171.37402109223
 20
-9748.193946613309
 30
0.0
 40
80.0
100
AcDbArc
 50
106.5037612924752
 51
117.8880366032981
  0
LINE
  5
267
330
2
100
AcDbEntity
  8
トップリング
 48
0.1
100
AcDbLine
 10
6154.329323831945
 20
-9670.665881329437
 30
0.0
 11
6155.322076050801
 21
-9670.665881329437
 31
0.0
  0
LINE
  5
268
330
2
100
AcDbEntity
  8
トップリング
 48
0.1
100
AcDbLine
 10
6154.329323831945
 20
-9671.665881329436
 30
0.0
 11
6155.322076050797
 21
-9671.665881329436
 31
0.0
  0
ARC
  5
269
330
2
100
AcDbEntity
  8
トップリング
 48
0.1
100
AcDbCircle
 10
6154.329323831945
 20
-9690.665881329437
 30
0.0
 40
20.0
100
AcDbArc
 50
90.0
 51
106.5037612924753
  0
ARC
  5
26A
330
2
100
AcDbEntity
  8
トップリング
 48
0.1
100
AcDbCircle
 10
6171.37402109223
 20
-9748.193946613309
 30
0.0
 40
79.0
100
AcDbArc
 50
106.5037612924752
 51
117.8908550255978
  0
ARC
  5
26B
330
2
100
AcDbEntity
  8
トップリング
 48
0.1
100
AcDbCircle
 10
6154.329323831945
 20
-9690.665881329437
 30
0.0
 40
19.0
100
AcDbArc
 50
90.0
 51
106.5037612924751
  0
ARC
  5
26C
330
2
100
AcDbEntity
  8
トップリング
 48
0.1
100
AcDbCircle
 10
6155.322076050801
 20
-9674.665881329437
 30
0.0
 40
4.0
100
AcDbArc
 50
0.000000000000007
 51
89.99999999999676
  0
ARC
  5
26D
330
2
100
AcDbEntity
  8
トップリング
 48
0.1
100
AcDbCircle
 10
6155.322076050797
 20
-9674.665881329438
 30
0.0
 40
3.0
100
AcDbArc
 50
0.0000000000130346
 51
89.99999999999133
  0
LINE
  5
26E
330
2
100
AcDbEntity
  8
トップリング
 48
0.1
100
AcDbLine
 10
6158.322076050797
 20
-9675.665881329436
 30
0.0
 11
6159.322076050801
 21
-9675.665881329436
 31
0.0
  0
LINE
  5
26F
330
2
100
AcDbEntity
  8
JISSEN
 48
0.1
100
AcDbLine
 10
6131.827580060523
 20
-9678.74092503469
 30
0.0
 11
6131.827580060523
 21
-9678.665881329436
 31
0.0
  0
LINE
  5
270
330
2
100
AcDbEntity
  8
JISSEN
 48
0.1
100
AcDbLine
 10
6131.827580060523
 20
-9678.665881329436
 30
0.0
 11
6131.918653851556
 21
-9678.628507173744
 31
0.0
  0
ARC
  5
271
330
2
100
AcDbEntity
  8
JISSEN
100
AcDbCircle
 10
6125.322076050783
 20
-9683.665881329439
 30
0.0
 40
4.0
100
AcDbArc
 50
0.0000000000287592
 51
90.0000000000287
  0
ARC
  5
272
330
2
100
AcDbEntity
  8
JISSEN
100
AcDbCircle
 10
6125.322076050783
 20
-9683.665881329439
 30
0.0
 40
5.0
100
AcDbArc
 50
0.0000000000287592
 51
90.0000000000287
  0
LINE
  5
273
330
2
100
AcDbEntity
  8
JISSEN
100
AcDbLine
 10
6118.322076050798
 20
-9679.665881329363
 30
0.0
 11
6125.322076050782
 21
-9679.665881329343
 31
0.0
  0
LINE
  5
274
330
2
100
AcDbEntity
  8
JISSEN
100
AcDbLine
 10
6118.322076050798
 20
-9678.665881329438
 30
0.0
 11
6125.322076050779
 21
-9678.665881329436
 31
0.0
  0
LINE
  5
275
330
2
100
AcDbEntity
  8
JISSEN
100
AcDbLine
 10
6118.322076050798
 20
-9678.665881329438
 30
0.0
 11
6118.322076050798
 21
-9679.665881329377
 31
0.0
  0
CIRCLE
  5
276
330
2
100
AcDbEntity
  8
JISSEN
 48
0.1
100
AcDbCircle
 10
6549.545825260306
 20
-9851.835756291459
 30
0.0
 40
21.43476681099617
  0
LINE
  5
277
330
2
100
AcDbEntity
  8
JISSEN
 48
0.1
100
AcDbLine
 10
6497.809587735516
 20
-9849.399323765043
 30
0.0
 11
6503.591032192439
 21
-9849.401452894142
 31
0.0
  0
LINE
  5
278
330
2
100
AcDbEntity
  8
外釜カバ
 48
0.1
100
AcDbLine
 10
6497.791604302989
 20
-9859.89149247753
 30
0.0
 11
6497.901299259538
 21
-9795.891586485282
 31
0.0
  0
LINE
  5
27A
330
2
100
AcDbEntity
  8
外釜カバ
 48
0.1
100
AcDbLine
 10
6496.899586744712
 20
-9796.889871032716
 30
0.0
 11
6496.793319755555
 21
-9858.889779962705
 31
0.0
  0
LINE
  5
27B
330
2
100
AcDbEntity
  8
外釜カバ
 48
0.1
100
AcDbLine
 10
6496.793319755555
 20
-9858.889779962705
 30
0.0
 11
6496.892730809928
 21
-9800.88986515723
 31
0.0
  0
LINE
  5
27C
330
2
100
AcDbEntity
  8
外釜カバ
 48
0.1
100
AcDbLine
 10
6477.393215405299
 20
-9859.856529920177
 30
0.0
 11
6497.791604302989
 21
-9859.89149247753
 31
0.0
  0
LINE
  5
27D
330
2
100
AcDbEntity
  8
外釜カバ
 48
0.1
100
AcDbLine
 10
6496.793319755555
 20
-9858.889779962705
 30
0.0
 11
6477.394929388994
 21
-9858.856531389049
 31
0.0
  0
LINE
  5
27E
330
2
100
AcDbEntity
  8
外釜カバ
 48
0.1
100
AcDbLine
 10
6488.3511804409
 20
-9796.875219182162
 30
0.0
 11
6496.899586744712
 21
-9796.889871032716
 31
0.0
  0
LINE
  5
27F
330
2
100
AcDbEntity
  8
外釜カバ
 48
0.1
100
AcDbLine
 10
6488.352894424595
 20
-9795.875220651033
 30
0.0
 11
6497.901299259538
 21
-9795.891586485282
 31
0.0
  0
LINE
  5
280
330
2
100
AcDbEntity
  8
水槽額縁
 48
0.1
100
AcDbLine
 10
6456.322076050802
 20
-9801.070574908791
 30
0.0
 11
6456.322076050802
 21
-9800.07057490879
 31
0.0
  0
LINE
  5
282
330
2
100
AcDbEntity
  8
水槽額縁
 48
0.1
100
AcDbLine
 10
6447.322076050801
 20
-9810.674117869446
 30
0.0
 11
6447.322076050801
 21
-9801.070574908791
 31
0.0
  0
LINE
  5
283
330
2
100
AcDbEntity
  8
外釜額縁
 48
0.1
100
AcDbLine
 10
6450.322076050801
 20
-9803.07057490879
 30
0.0
 11
6450.322076050801
 21
-9804.070574908791
 31
0.0
  0
LINE
  5
285
330
2
100
AcDbEntity
  8
外釜額縁
 48
0.1
100
AcDbLine
 10
6450.322076050801
 20
-9803.07057490879
 30
0.0
 11
6486.481990523796
 21
-9803.07057490879
 31
0.0
  0
LINE
  5
286
330
2
100
AcDbEntity
  8
外釜額縁
 48
0.1
100
AcDbLine
 10
6450.322076050801
 20
-9804.070574908791
 30
0.0
 11
6486.481990523796
 21
-9804.070574908791
 31
0.0
  0
LINE
  5
287
330
2
100
AcDbEntity
  8
水槽額縁
 48
0.1
100
AcDbLine
 10
6436.523382876313
 20
-9801.070574908791
 30
0.0
 11
6456.322076050802
 21
-9801.070574908791
 31
0.0
  0
LINE
  5
288
330
2
100
AcDbEntity
  8
水槽額縁
 48
0.1
100
AcDbLine
 10
6456.322076050802
 20
-9800.07057490879
 30
0.0
 11
6436.523382876313
 21
-9800.070574908794
 31
0.0
  0
LINE
  5
289
330
2
100
AcDbEntity
  8
水槽額縁
 48
0.1
100
AcDbLine
 10
6447.3220760508
 20
-9852.059030473828
 30
0.0
 11
6447.322076050801
 21
-9806.07057490879
 31
0.0
  0
LINE
  5
28A
330
2
100
AcDbEntity
  8
水槽額縁
 48
0.1
100
AcDbLine
 10
6432.050918739841
 20
-9851.059030473827
 30
0.0
 11
6447.3220760508
 21
-9851.059030473827
 31
0.0
  0
LINE
  5
28B
330
2
100
AcDbEntity
  8
水槽額縁
 48
0.1
100
AcDbLine
 10
6447.3220760508
 20
-9852.059030473828
 30
0.0
 11
6432.050918739841
 21
-9852.059030473828
 31
0.0
  0
LINE
  5
28C
330
2
100
AcDbEntity
  8
外釜額縁
 48
0.1
100
AcDbLine
 10
6439.3220760508
 20
-9854.059030473827
 30
0.0
 11
6477.528423176484
 21
-9854.059030473827
 31
0.0
  0
LINE
  5
28D
330
2
100
AcDbEntity
  8
外釜額縁
 48
0.1
100
AcDbLine
 10
6477.528423176484
 20
-9855.059030473828
 30
0.0
 11
6439.3220760508
 21
-9855.059030473828
 31
0.0
  0
CIRCLE
  5
28E
330
2
100
AcDbEntity
  8
JISSEN
100
AcDbCircle
 10
6549.545825260306
 20
-9851.835756291459
 30
0.0
 40
2.775939191660259
  0
ARC
  5
28F
330
2
100
AcDbEntity
  8
JISSEN
100
AcDbCircle
 10
6549.279568396158
 20
-9851.902448131793
 30
0.0
 40
43.40669517799071
100
AcDbArc
 50
180.4454727086952
 51
76.61448348432479
  0
ARC
  5
290
330
2
100
AcDbEntity
  8
JISSEN
100
AcDbCircle
 10
6509.941914914995
 20
-10022.28202394398
 30
0.0
 40
218.2677161324314
100
AcDbArc
 50
76.92271196955184
 51
89.50753448260527
  0
LINE
  5
291
330
2
100
AcDbEntity
  8
JISSEN
100
AcDbLine
 10
6511.817934426112
 20
-9804.022370190793
 30
0.0
 11
6497.887404132758
 21
-9803.998493453924
 31
0.0
  0
ARC
  5
292
330
2
100
AcDbEntity
  8
JISSEN
100
AcDbCircle
 10
6502.922251615013
 20
-9852.276867415151
 30
0.0
 40
2.952164651296468
100
AcDbArc
 50
0.716896553865842
 51
76.90660360750488
  0
LINE
  5
293
330
2
100
AcDbEntity
  8
TENSEN
 48
0.5
100
AcDbLine
 10
6429.084400569671
 20
-9939.149757475387
 30
0.0
 11
6429.040440293909
 21
-10005.14974283307
 31
0.0
  0
LINE
  5
294
330
2
100
AcDbEntity
  8
TENSEN
 48
0.5
100
AcDbLine
 10
6407.084405451573
 20
-9939.135104050132
 30
0.0
 11
6407.040445175811
 21
-10005.13508940782
 31
0.0
  0
HATCH
  5
295
330
2
100
AcDbEntity
  8
HATCH
100
AcDbHatch
 10
0.0
 20
0.0
 30
0.0
210
0.0
220
0.0
230
1.0
  2
AR-CONC
 70
     0
 71
     1
 91
        1
 92
        7
 72
     1
 73
     1
 93
       10
 10
6191.322076038468
 20
-10005.07057490878
 42
0.0
 10
6191.322076038468
 20
-10016.07057490878
 42
0.0
 10
6213.322076036633
 20
-10016.07057490878
 42
0.0
 10
6213.322076036633
 20
-10005.07057490878
 42
0.0
 10
6213.322076036633
 20
-9939.0705749109
 42
0.0
 10
6213.322076036633
 20
-9930.070574908086
 42
0.4142135624148968
 10
6211.322076036347
 20
-9928.070574908085
 42
0.0
 10
6193.322076038183
 20
-9928.070574910654
 42
0.414213562331307
 10
6191.322076038468
 20
-9930.070574910653
 42
0.0
 10
6191.322076038468
 20
-9939.0705749109
 42
0.0
 97
       10
330
162
330
15A
330
161
330
15E
330
163
330
136
330
12C
330
127
330
129
330
137
 75
     0
 76
     1
 52
0.0
 41
2.0
 77
     0
 78
    13
 53
130.0
 43
12625.08805786952
 44
4440.488361209954
 45
-14.34520365201507
 46
-1.255042699651902
 79
     2
 49
1.5
 49
-16.5
 53
185.0
 43
12625.08805786952
 44
4440.488361209954
 45
2.77502667226
 46
15.04384267400024
 79
     2
 49
1.199999999999999
 49
-13.2
 53
79.54860000000002
 43
12623.89262426952
 44
4440.383774409954
 45
-11.57018763428043
 46
13.78879084121907
 79
     2
 49
1.274803799999999
 49
-14.02284223999999
 53
133.8158
 43
12625.08805786952
 44
4444.488361209955
 45
-21.34482097251289
 46
-3.310380286580361
 79
     2
 49
2.25
 49
-24.75
 53
83.36440000000001
 43
12623.30932296952
 44
4444.212495069954
 45
-18.69325411097406
 46
19.48235741800883
 79
     2
 49
1.912205759999999
 49
-21.03425999999999
 53
188.8158
 43
12625.08805786952
 44
4444.488361209955
 45
-18.69323890267254
 46
19.48237201850649
 79
     2
 49
1.799999999999999
 49
-19.8
 53
159.0
 43
12623.08805786952
 44
4443.488361209954
 45
-11.93814104236923
 46
-8.052377813306776
 79
     2
 49
1.5
 49
-16.5
 53
214.0
 43
12623.08805786952
 44
4443.488361209954
 45
-4.866306638431634
 46
14.50300090093706
 79
     2
 49
1.199999999999999
 49
-13.2
 53
108.5486
 43
12622.09321320952
 44
4442.817329089955
 45
-16.8044525716298
 46
6.450609934199047
 79
     2
 49
1.274803799999999
 49
-14.02284223999999
 53
142.5
 43
12625.08805786952
 44
4440.488361209954
 45
-0.2431971063458134
 46
6.657877076626229
 79
     6
 49
0.0
 49
-13.04
 49
0.0
 49
-13.4
 49
0.0
 49
-13.25
 53
172.5
 43
12625.08805786952
 44
4440.488361209954
 45
-5.261390748842972
 46
7.888234237647204
 79
     6
 49
0.0
 49
-7.639999999999999
 49
0.0
 49
-12.74
 49
0.0
 49
-5.049999999999999
 53
212.5
 43
12629.54805786952
 44
4440.488361209954
 45
-10.67644872344818
 46
-0.451097434687596
 79
     6
 49
0.0
 49
-4.999999999999999
 49
0.0
 49
-15.6
 49
0.0
 49
-20.7
 53
222.5
 43
12631.54805786952
 44
4440.488361209954
 45
-11.66372338684772
 46
2.002099646646352
 79
     6
 49
0.0
 49
-6.5
 49
0.0
 49
-10.36
 49
0.0
 49
-14.7
 47
0.4648634258687344
 98
        6
 10
6202.16281306912
 20
-9950.19370075024
 10
6419.65863951122
 20
-9959.25226550346
 10
6419.65863951122
 20
-9959.25226550346
 10
6419.65863951122
 20
-9959.25226550346
 10
6419.65863951122
 20
-9959.25226550346
 10
6197.631647092054
 20
-9940.229330143379
  0
HATCH
  5
297
330
2
100
AcDbEntity
  8
HATCH
100
AcDbHatch
 10
0.0
 20
0.0
 30
0.0
210
0.0
220
0.0
230
1.0
  2
AR-CONC
 70
     0
 71
     0
 91
        1
 92
        7
 72
     1
 73
     1
 93
       10
 10
6429.084400569671
 20
-9939.149757475389
 42
0.0
 10
6429.090395152731
 20
-9930.149759471532
 42
0.414213562331307
 10
6427.091727726228
 20
-9928.148427785606
 42
0.0
 10
6409.091731720846
 20
-9928.136438616919
 42
0.4142135624148968
 10
6407.090400034633
 20
-9930.135106043708
 42
0.0
 10
6407.084405451573
 20
-9939.135104050135
 42
0.0
 10
6407.040445175809
 20
-10005.13508940782
 42
0.0
 10
6407.033118463181
 20
-10016.13508696779
 42
0.0
 10
6429.033113581279
 20
-10016.14974039304
 42
0.0
 10
6429.040440293907
 20
-10005.14974283307
 42
0.0
 97
        0
 75
     0
 76
     1
 52
0.0
 41
2.0
 77
     0
 78
    13
 53
49.96183729615383
 43
4.897563705682841
 44
4444.691293905955
 45
14.3443645302001
 46
-1.26459725623351
 79
     2
 49
1.499999999999999
 49
-16.49999999999999
 53
354.9618372961538
 43
4.897563705682841
 44
4444.691293905955
 45
-2.765005882874172
 46
15.04568768449937
 79
     2
 49
1.199999999999999
 49
-13.2
 53
100.4132372961538
 43
6.092927378926106
 44
4444.585910892931
 45
11.57936929576567
 46
13.78108128804202
 79
     2
 49
1.274803799999999
 49
-14.02284223999999
 53
46.14603729615383
 43
4.90022796481935
 44
4448.691293018669
 45
21.34261131004803
 46
-3.324596585845547
 79
     2
 49
2.25
 49
-24.75
 53
96.5974372961538
 43
6.678778725537995
 44
4448.414242187186
 45
18.70622647660638
 46
19.4699021781416
 79
     2
 49
1.912205759999999
 49
-21.03426
 53
351.1460372961539
 43
4.90022796481935
 44
4448.691293018669
 45
18.70621127803311
 46
19.46991678876573
 79
     2
 49
1.8
 49
-19.8
 53
20.96183729615382
 43
6.899561456393712
 44
4447.689961110923
 45
11.93277498894522
 46
-8.060327602457572
 79
     2
 49
1.5
 49
-16.5
 53
325.9618372961539
 43
6.899561456393712
 44
4447.689961110923
 45
4.875965497149011
 46
14.49975640838277
 79
     2
 49
1.199999999999999
 49
-13.2
 53
71.41323729615383
 43
7.893958944850965
 44
4447.018266508777
 45
16.80874536816104
 46
6.439415649239275
 79
     2
 49
1.2748038
 49
-14.02284224
 53
37.46183729615384
 43
4.897563705682841
 44
4444.691293905955
 45
0.2476316298586862
 46
6.657713614739938
 79
     6
 49
0.0
 49
-13.04
 49
0.0
 49
-13.4
 49
0.0
 49
-13.25
 53
7.461837296153824
 43
4.897563705682841
 44
4444.691293905955
 45
5.266643656791349
 46
7.884728060775427
 79
     6
 49
0.0
 49
-7.639999999999999
 49
0.0
 49
-12.74
 49
0.0
 49
-5.049999999999999
 53
327.4618372961538
 43
0.4375646950047667
 44
4444.694264554892
 45
10.67614589507025
 46
-0.4582085411410301
 79
     6
 49
0.0
 49
-4.999999999999997
 49
0.0
 49
-15.59999999999999
 49
0.0
 49
-20.69999999999999
 53
317.4618372961538
 43
-1.562434861352812
 44
4444.695596684462
 45
11.66505432765627
 46
1.994330407136112
 79
     6
 49
0.0
 49
-6.499999999999997
 49
0.0
 49
-10.35999999999999
 49
0.0
 49
-14.69999999999999
 47
0.4648634258687344
 98
        6
 10
6418.236257221312
 20
-9950.26566021421
 10
6200.734445433411
 20
-9959.179356647316
 10
6200.734445433411
 20
-9959.179356647316
 10
6200.734445433411
 20
-9959.179356647316
 10
6200.734445433411
 20
-9959.179356647316
 10
6422.774059109627
 20
-9940.304309867748
  0
LINE
  5
298
330
2
100
AcDbEntity
  8
JISSEN
100
AcDbLine
 10
6125.294679031952
 20
-9679.665881329343
 30
0.0
 11
6125.279033131926
 21
-9724.665881329343
 31
0.0
  0
LINE
  5
299
330
2
100
AcDbEntity
  8
JISSEN
100
AcDbLine
 10
6495.349473069649
 20
-9679.665881329343
 30
0.0
 11
6495.364459528961
 21
-9724.665881329343
 31
0.0
  0
LINE
  5
29A
330
2
100
AcDbEntity
  8
HATCH
100
AcDbLine
 10
6429.349417642986
 20
-9883.461600834905
 30
0.0
 11
6191.260030672755
 21
-9883.05819989662
 31
0.0
  0
LINE
  5
29B
330
2
100
AcDbEntity
  8
HATCH
100
AcDbLine
 10
6377.275733843689
 20
-9886.473344567455
 30
0.0
 11
6352.031197989894
 21
-9886.473344567455
 31
0.0
  0
LINE
  5
29C
330
2
100
AcDbEntity
  8
HATCH
100
AcDbLine
 10
6370.869457333622
 20
-9890.023856848126
 30
0.0
 11
6357.295763940605
 21
-9890.023856848126
 31
0.0
  0
LINE
  5
29D
330
2
100
AcDbEntity
  8
HATCH
100
AcDbLine
 10
6367.254075676782
 20
-9893.637784282303
 30
0.0
 11
6359.262031532456
 21
-9893.637784282303
 31
0.0
  0
LWPOLYLINE
  5
29E
330
2
100
AcDbEntity
  8
NITEN
 48
0.5
100
AcDbPolyline
 90
        7
 70
     0
 43
0.0
 10
6310.021725252618
 20
-10190.43956487411
 42
0.4257563465615513
 10
6387.021725252618
 20
-10192.37142711402
 10
6387.021725252618
 20
-10113.67057490878
 10
6233.021725252618
 20
-10113.67057490878
 10
6233.021725252618
 20
-10192.37142711402
 42
0.4893903750578956
 10
6310.021725252613
 20
-10190.43956487411
 42
0.3803965017308584
 10
6233.021725252618
 20
-10192.37142711402
  0
POINT
  5
2A1
330
2
100
AcDbEntity
  8
DEFPOINTS
  6
ByBlock
 62
     0
100
AcDbPoint
 10
6387.021725252618
 20
-10113.67057490878
 30
0.0
  0
POINT
  5
2A2
330
2
100
AcDbEntity
  8
DEFPOINTS
  6
ByBlock
 62
     0
100
AcDbPoint
 10
6383.225152778457
 20
-10133.67057490878
 30
0.0
  0
LINE
  5
2AA
330
2
100
AcDbEntity
  8
JISSEN
100
AcDbLine
 10
6777.823945400562
 20
-9737.004139559235
 30
0.0
 11
6775.421182902227
 21
-9756.859283285145
 31
0.0
  0
LINE
  5
2AB
330
2
100
AcDbEntity
  8
JISSEN
100
AcDbLine
 10
6767.30590635443
 20
-9735.765602889957
 30
0.0
 11
6765.18729219334
 21
-9755.653073167405
 31
0.0
  0
LINE
  5
2AC
330
2
100
AcDbEntity
  8
JISSEN
100
AcDbLine
 10
6755.97885714682
 20
-9734.632225789685
 30
0.0
 11
6754.211010550007
 21
-9754.55394708363
 31
0.0
  0
LINE
  5
2AD
330
2
100
AcDbEntity
  8
JISSEN
100
AcDbLine
 10
6743.769308592551
 20
-9733.69801420271
 30
0.0
 11
6742.869848632008
 21
-9753.677778259863
 31
0.0
  0
LINE
  5
2AE
330
2
100
AcDbEntity
  8
JISSEN
100
AcDbLine
 10
6733.416671206395
 20
-9733.328092363944
 30
0.0
 11
6733.156071274959
 21
-9753.326433475747
 31
0.0
  0
LINE
  5
2AF
330
2
100
AcDbEntity
  8
JISSEN
100
AcDbLine
 10
6722.089036248997
 20
-9733.58724957653
 30
0.0
 11
6723.529264962047
 21
-9753.535325705673
 31
0.0
  0
LINE
  5
2B0
330
2
100
AcDbEntity
  8
JISSEN
100
AcDbLine
 10
6710.573632651025
 20
-9734.703281084769
 30
0.0
 11
6712.642537328604
 21
-9754.595984104462
 31
0.0
  0
LINE
  5
2B1
330
2
100
AcDbEntity
  8
JISSEN
100
AcDbLine
 10
6699.382871618222
 20
-9735.882239520982
 30
0.0
 11
6701.496271996306
 21
-9755.770264532396
 31
0.0
  0
LINE
  5
2B2
330
2
100
AcDbEntity
  8
JISSEN
100
AcDbLine
 10
6688.325503975758
 20
-9737.067435992235
 30
0.0
 11
6690.469236297161
 21
-9756.952214385185
 31
0.0
  0
LINE
  5
2B3
330
2
100
AcDbEntity
  8
JISSEN
100
AcDbLine
 10
6677.151555001554
 20
-9738.203242549634
 30
0.0
 11
6678.915293751929
 21
-9758.125322031519
 31
0.0
  0
LINE
  5
2B4
330
2
100
AcDbEntity
  8
JISSEN
100
AcDbLine
 10
6667.474726960387
 20
-9738.936789442128
 30
0.0
 11
6668.75722186764
 21
-9758.895627254304
 31
0.0
  0
LINE
  5
2B5
330
2
100
AcDbEntity
  8
JISSEN
100
AcDbLine
 10
6657.051337164718
 20
-9739.494822112192
 30
0.0
 11
6657.924945935565
 21
-9759.475733465919
 31
0.0
  0
LINE
  5
2B6
330
2
100
AcDbEntity
  8
JISSEN
100
AcDbLine
 10
6648.767193721401
 20
-9739.803650225725
 30
0.0
 11
6649.451698654925
 21
-9759.791933118361
 31
0.0
  0
LINE
  5
2B7
330
2
100
AcDbEntity
  8
JISSEN
100
AcDbLine
 10
6640.176752578719
 20
-9740.009831545693
 30
0.0
 11
6640.593861581024
 21
-9760.005481574633
 31
0.0
  0
LINE
  5
2B8
330
2
100
AcDbEntity
  8
JISSEN
100
AcDbLine
 10
6629.810599163184
 20
-9740.213673805108
 30
0.0
 11
6630.175309117077
 21
-9760.210348194881
 31
0.0
  0
LINE
  5
2B9
330
2
100
AcDbEntity
  8
JISSEN
100
AcDbLine
 10
6621.262738348338
 20
-9740.35479536932
 30
0.0
 11
6621.592952360514
 21
-9760.356156833015
 31
0.0
  0
LINE
  5
2BA
330
2
100
AcDbEntity
  8
JISSEN
100
AcDbLine
 10
6613.07806465568
 20
-9740.444956368678
 30
0.0
 11
6613.239698935338
 21
-9760.444303217001
 31
0.0
  0
LWPOLYLINE
  5
2BB
330
2
100
AcDbEntity
  8
JISSEN
100
AcDbPolyline
 90
       33
 70
     0
 43
0.0
 10
6779.794338917735
 20
-9757.388499060086
 10
6767.4131307432
 20
-9755.890191966642
 10
6758.344882454392
 20
-9754.92415058617
 10
6750.077138645622
 20
-9754.183743581092
 10
6742.627255932902
 20
-9753.666857088877
 10
6736.020054078688
 20
-9753.369410457267
 10
6730.292088471232
 20
-9753.283456494225
 10
6725.498974839164
 20
-9753.393114862731
 10
6721.376223617109
 20
-9753.690772874877
 10
6717.151592055504
 20
-9754.127028004994
 10
6712.649875818076
 20
-9754.595220878107
 10
6708.170533284293
 20
-9755.064427710575
 10
6703.713566485568
 20
-9755.534647967786
 10
6699.278977507043
 20
-9756.005881097005
 10
6694.866768463163
 20
-9756.478126535055
 10
6690.476941517324
 20
-9756.951383703082
 10
6686.034891290664
 20
-9757.43375377602
 10
6681.36961436766
 20
-9757.908658073946
 10
6676.460973136198
 20
-9758.341985989098
 10
6671.384423897172
 20
-9758.726811151136
 10
6666.13808098458
 20
-9759.063925372437
 10
6660.720291108316
 20
-9759.35397532833
 10
6655.129600762814
 20
-9759.597491603509
 10
6649.364728529881
 20
-9759.794911437206
 10
6643.459405570465
 20
-9759.945706363888
 10
6637.763086427106
 20
-9760.064531507921
 10
6632.553810245505
 20
-9760.166967829725
 10
6627.793775894677
 20
-9760.253783860973
 10
6623.481166461477
 20
-9760.324983217397
 10
6619.613230234181
 20
-9760.380561860282
 10
6616.185587554392
 20
-9760.420494610226
 10
6613.19080919268
 20
-9760.444698342821
 10
6610.622426848985
 20
-9760.452694523751
  0
POLYLINE
  5
2BC
330
2
100
AcDbEntity
  8
JISSEN
100
AcDb2dPolyline
 66
     1
 10
0.0
 20
0.0
 30
0.0
 70
     4
 75
     5
  0
VERTEX
  5
2BD
330
2BC
100
AcDbEntity
  8
JISSEN
100
AcDbVertex
100
AcDb2dVertex
 10
6779.794338917735
 20
-9737.242585964629
 30
0.0
 70
    16
  0
VERTEX
  5
2BE
330
2BC
100
AcDbEntity
  8
JISSEN
100
AcDbVertex
100
AcDb2dVertex
 10
6779.794338917735
 20
-9737.242585964629
 30
0.0
 70
     8
  0
VERTEX
  5
2BF
330
2BC
100
AcDbEntity
  8
JISSEN
100
AcDbVertex
100
AcDb2dVertex
 10
6769.673934635574
 20
-9736.017869175226
 30
0.0
 70
     8
  0
VERTEX
  5
2C0
330
2BC
100
AcDbEntity
  8
JISSEN
100
AcDbVertex
100
AcDb2dVertex
 10
6760.296294820657
 20
-9735.018868285104
 30
0.0
 70
     8
  0
VERTEX
  5
2C1
330
2BC
100
AcDbEntity
  8
JISSEN
100
AcDbVertex
100
AcDb2dVertex
 10
6751.661419472982
 20
-9734.245583294265
 30
0.0
 70
     8
  0
VERTEX
  5
2C2
330
2BC
100
AcDbEntity
  8
JISSEN
100
AcDbVertex
100
AcDb2dVertex
 10
6743.769308592551
 20
-9733.69801420271
 30
0.0
 70
     8
  0
VERTEX
  5
2C3
330
2BC
100
AcDbEntity
  8
JISSEN
100
AcDbVertex
100
AcDb2dVertex
 10
6736.619962179365
 20
-9733.376161010438
 30
0.0
 70
     8
  0
VERTEX
  5
2C4
330
2BC
100
AcDbEntity
  8
JISSEN
100
AcDbVertex
100
AcDb2dVertex
 10
6730.213380233424
 20
-9733.280023717449
 30
0.0
 70
     8
  0
VERTEX
  5
2C5
330
2BC
100
AcDbEntity
  8
JISSEN
100
AcDbVertex
100
AcDb2dVertex
 10
6724.549562754726
 20
-9733.409602323742
 30
0.0
 70
     8
  0
VERTEX
  5
2C6
330
2BC
100
AcDbEntity
  8
JISSEN
100
AcDbVertex
100
AcDb2dVertex
 10
6719.62850974327
 20
-9733.764896829319
 30
0.0
 70
     8
  0
VERTEX
  5
2C7
330
2BC
100
AcDbEntity
  8
JISSEN
100
AcDbVertex
100
AcDb2dVertex
 10
6715.089955081301
 20
-9734.233569120789
 30
0.0
 70
     8
  0
VERTEX
  5
2C8
330
2BC
100
AcDbEntity
  8
JISSEN
100
AcDbVertex
100
AcDb2dVertex
 10
6710.573632651058
 20
-9734.703281084765
 30
0.0
 70
     8
  0
VERTEX
  5
2C9
330
2BC
100
AcDbEntity
  8
JISSEN
100
AcDbVertex
100
AcDb2dVertex
 10
6706.079542452542
 20
-9735.174032721246
 30
0.0
 70
     8
  0
VERTEX
  5
2CA
330
2BC
100
AcDbEntity
  8
JISSEN
100
AcDbVertex
100
AcDb2dVertex
 10
6701.607684485752
 20
-9735.645824030235
 30
0.0
 70
     8
  0
VERTEX
  5
2CB
330
2BC
100
AcDbEntity
  8
JISSEN
100
AcDbVertex
100
AcDb2dVertex
 10
6697.158058750691
 20
-9736.118655011729
 30
0.0
 70
     8
  0
VERTEX
  5
2CC
330
2BC
100
AcDbEntity
  8
JISSEN
100
AcDbVertex
100
AcDb2dVertex
 10
6692.730665247355
 20
-9736.592525665729
 30
0.0
 70
     8
  0
VERTEX
  5
2CD
330
2BC
100
AcDbEntity
  8
JISSEN
100
AcDbVertex
100
AcDb2dVertex
 10
6688.325503975746
 20
-9737.067435992235
 30
0.0
 70
     8
  0
VERTEX
  5
2CE
330
2BC
100
AcDbEntity
  8
JISSEN
100
AcDbVertex
100
AcDb2dVertex
 10
6683.942574935864
 20
-9737.543385991244
 30
0.0
 70
     8
  0
VERTEX
  5
2CF
330
2BC
100
AcDbEntity
  8
JISSEN
100
AcDbVertex
100
AcDb2dVertex
 10
6679.477441792532
 20
-9737.997916548707
 30
0.0
 70
     8
  0
VERTEX
  5
2D0
330
2BC
100
AcDbEntity
  8
JISSEN
100
AcDbVertex
100
AcDb2dVertex
 10
6674.825668210575
 20
-9738.408568550561
 30
0.0
 70
     8
  0
VERTEX
  5
2D1
330
2BC
100
AcDbEntity
  8
JISSEN
100
AcDbVertex
100
AcDb2dVertex
 10
6669.98725418999
 20
-9738.775341996806
 30
0.0
 70
     8
  0
VERTEX
  5
2D2
330
2BC
100
AcDbEntity
  8
JISSEN
100
AcDbVertex
100
AcDb2dVertex
 10
6664.962199730782
 20
-9739.098236887446
 30
0.0
 70
     8
  0
VERTEX
  5
2D3
330
2BC
100
AcDbEntity
  8
JISSEN
100
AcDbVertex
100
AcDb2dVertex
 10
6659.750504832948
 20
-9739.37725322248
 30
0.0
 70
     8
  0
VERTEX
  5
2D4
330
2BC
100
AcDbEntity
  8
JISSEN
100
AcDbVertex
100
AcDb2dVertex
 10
6654.352169496488
 20
-9739.612391001905
 30
0.0
 70
     8
  0
VERTEX
  5
2D5
330
2BC
100
AcDbEntity
  8
JISSEN
100
AcDbVertex
100
AcDb2dVertex
 10
6648.767193721401
 20
-9739.803650225725
 30
0.0
 70
     8
  0
VERTEX
  5
2D6
330
2BC
100
AcDbEntity
  8
JISSEN
100
AcDbVertex
100
AcDb2dVertex
 10
6642.995577507689
 20
-9739.951030893941
 30
0.0
 70
     8
  0
VERTEX
  5
2D7
330
2BC
100
AcDbEntity
  8
JISSEN
100
AcDbVertex
100
AcDb2dVertex
 10
6637.357927649749
 20
-9740.068632197449
 30
0.0
 70
     8
  0
VERTEX
  5
2D8
330
2BC
100
AcDbEntity
  8
JISSEN
100
AcDbVertex
100
AcDb2dVertex
 10
6632.174850941982
 20
-9740.170553327157
 30
0.0
 70
     8
  0
VERTEX
  5
2D9
330
2BC
100
AcDbEntity
  8
JISSEN
100
AcDbVertex
100
AcDb2dVertex
 10
6627.446347384386
 20
-9740.256794283062
 30
0.0
 70
     8
  0
VERTEX
  5
2DA
330
2BC
100
AcDbEntity
  8
JISSEN
100
AcDbVertex
100
AcDb2dVertex
 10
6623.172416976963
 20
-9740.327355065169
 30
0.0
 70
     8
  0
VERTEX
  5
2DB
330
2BC
100
AcDbEntity
  8
JISSEN
100
AcDbVertex
100
AcDb2dVertex
 10
6619.353059719711
 20
-9740.382235673473
 30
0.0
 70
     8
  0
VERTEX
  5
2DC
330
2BC
100
AcDbEntity
  8
JISSEN
100
AcDbVertex
100
AcDb2dVertex
 10
6615.988275612631
 20
-9740.421436107977
 30
0.0
 70
     8
  0
VERTEX
  5
2DD
330
2BC
100
AcDbEntity
  8
JISSEN
100
AcDbVertex
100
AcDb2dVertex
 10
6613.078064655723
 20
-9740.444956368678
 30
0.0
 70
     8
  0
VERTEX
  5
2DE
330
2BC
100
AcDbEntity
  8
JISSEN
100
AcDbVertex
100
AcDb2dVertex
 10
6610.622426848985
 20
-9740.452796455578
 30
0.0
 70
     8
  0
VERTEX
  5
2DF
330
2BC
100
AcDbEntity
  8
JISSEN
100
AcDbVertex
100
AcDb2dVertex
 10
6737.827192854601
 20
-9731.892287008447
 30
0.0
 70
    16
  0
VERTEX
  5
2E0
330
2BC
100
AcDbEntity
  8
JISSEN
100
AcDbVertex
100
AcDb2dVertex
 10
6701.429826631938
 20
-9735.63750665019
 30
0.0
 70
    16
  0
VERTEX
  5
2E1
330
2BC
100
AcDbEntity
  8
JISSEN
100
AcDbVertex
100
AcDb2dVertex
 10
6666.455323239787
 20
-9739.4492653323
 30
0.0
 70
    16
  0
VERTEX
  5
2E2
330
2BC
100
AcDbEntity
  8
JISSEN
100
AcDbVertex
100
AcDb2dVertex
 10
6619.535831775589
 20
-9740.452796455578
 30
0.0
 70
    16
  0
VERTEX
  5
2E3
330
2BC
100
AcDbEntity
  8
JISSEN
100
AcDbVertex
100
AcDb2dVertex
 10
6610.622426848985
 20
-9740.452796455578
 30
0.0
 70
    16
  0
SEQEND
  5
2E4
330
2BC
100
AcDbEntity
  8
JISSEN
  0
TEXT
  5
2E5
330
2
100
AcDbEntity
  8
TEXT
100
AcDbText
 10
7092.239229523388
 20
-10398.52338709883
 30
0.0
 40
30.0
  1
FL
  7
K
100
AcDbText
  0
POINT
  5
2E6
330
2
100
AcDbEntity
  8
DEFPOINTS
  6
ByBlock
 62
     0
100
AcDbPoint
 10
5926.511678563675
 20
-10133.67057490878
 30
0.0
  0
POINT
  5
2E7
330
2
100
AcDbEntity
  8
DEFPOINTS
  6
ByBlock
 62
     0
100
AcDbPoint
 10
6010.622426848982
 20
-10379.67057490878
 30
0.0
  0
MTEXT
  5
2E8
330
2
100
AcDbEntity
  8
SUNPOU
  6
ByBlock
 62
     3
100
AcDbMText
 10
5906.511678563674
 20
-10039.86105109926
 30
0.0
 40
20.0
 41
0.0
 71
     5
 72
     1
  1
\A1;FVD 下端
 11
0.0000000000000001
 21
1.0
 31
0.0
 73
     1
 44
1.0
1001
ACAD
1000
MTEXTBEGIN
1070
    73
1070
     1
1070
    44
1040
1.0
1070
    74
1070
     0
1000
MTEXTEND
  0
LINE
  5
2E9
330
2
100
AcDbEntity
  8
SUNPOU
  6
ByBlock
 62
     3
100
AcDbLine
 10
5926.511678563675
 20
-10133.67057490878
 30
0.0
 11
5926.511678563675
 21
-9976.05152728974
 31
0.0
  0
POINT
  5
2EA
330
2
100
AcDbEntity
  8
DEFPOINTS
  6
ByBlock
 62
     0
100
AcDbPoint
 10
5859.870094691462
 20
-10379.67057490878
 30
0.0
  0
POINT
  5
2EB
330
2
100
AcDbEntity
  8
DEFPOINTS
  6
ByBlock
 62
     0
100
AcDbPoint
 10
6010.622426848982
 20
-10379.67057490878
 30
0.0
  0
MTEXT
  5
2EC
330
2
100
AcDbEntity
  8
SUNPOU
  6
ByBlock
 62
     3
100
AcDbMText
 10
5839.870094691462
 20
-10005.67057490878
 30
0.0
 40
20.0
 41
0.0
 71
     5
 72
     1
  1
\A1;ダクト立上げ
 11
0.0000000000000001
 21
1.0
 31
0.0
 73
     1
 44
1.0
1001
ACAD
1000
MTEXTBEGIN
1070
    73
1070
     1
1070
    44
1040
1.0
1070
    74
1070
     0
1000
MTEXTEND
  0
LINE
  5
2ED
330
2
100
AcDbEntity
  8
SUNPOU
  6
ByBlock
 62
     3
100
AcDbLine
 10
5859.870094691462
 20
-10113.67057490878
 30
0.0
 11
5859.870094691462
 21
-9927.670574908788
 31
0.0
  0
DIMENSION
  5
2EE
330
2
100
AcDbEntity
  8
SUNPOU
100
AcDbDimension
  2
*D2
 10
5859.870094691462
 20
-10379.67057490878
 30
0.0
 11
5859.870094691462
 21
-10257.35150371067
 31
0.0
 12
12.9961291756772
 22
-3264.786527797511
 32
0.0
 70
   128
 71
     5
 42
-1.0
  3
IMCADLT
100
AcDbAlignedDimension
 13
6233.622426848985
 23
-10113.67057490878
 33
0.0
 14
6010.622426848982
 24
-10379.67057490878
 34
0.0
 50
90.0
100
AcDbRotatedDimension
1001
ACAD
1000
DSTYLE
1002
{
1070
   288
1070
     1
1070
   284
1070
     0
1070
   140
1040
2.0
1070
    47
1040
495.0
1070
   174
1070
     1
1070
   146
1040
1.0
1070
   272
1070
     1
1070
    77
1070
     1
1070
   271
1070
     1
1070
     5
1000
ARROW
1070
    41
1040
1.5
1002
}
  0
TEXT
  5
2FB
330
2
100
AcDbEntity
  8
TEXT
100
AcDbText
 10
8947.564159924745
 20
-10936.60616328382
 30
0.0
 40
30.72
  1
CHU 039
  7
K
100
AcDbText
  0
TEXT
  5
2FC
330
2
100
AcDbEntity
  8
TEXT
100
AcDbText
 10
8907.617125340488
 20
-10766.35428644398
 30
0.0
 40
23.04
  1
承認図
  7
K
100
AcDbText
  0
TEXT
  5
2FD
330
2
100
AcDbEntity
  8
TEXT
100
AcDbText
 10
8630.975165634184
 20
-10766.35428644398
 30
0.0
 40
30.72
  1
CHU-14T
  7
K
100
AcDbText
  0
TEXT
  5
2FE
330
2
100
AcDbEntity
  8
TEXT
100
AcDbText
 10
9074.343019241181
 20
-10855.30972493985
 30
0.0
 40
19.2
  1
Free
  7
K
100
AcDbText
  0
LINE
  5
2FF
330
2
100
AcDbEntity
  8
WAKU
 62
     3
100
AcDbLine
 10
9144.218236665132
 20
-10784.76356638703
 30
0.0
 11
9241.164193435853
 21
-10784.76356638703
 31
0.0
  0
LINE
  5
300
330
2
100
AcDbEntity
  8
WAKU
 62
     3
100
AcDbLine
 10
9144.218236665132
 20
-10723.32356638703
 30
0.0
 11
9241.164193435853
 21
-10723.32356638703
 31
0.0
  0
LINE
  5
306
330
2
100
AcDbEntity
  8
WAKU
 62
     3
100
AcDbLine
 10
8230.238587994616
 20
-10809.76112761893
 30
0.0
 11
8452.267685297814
 21
-10809.76112761893
 31
0.0
  0
LINE
  5
307
330
2
100
AcDbEntity
  8
WAKU
 62
     3
100
AcDbLine
 10
8230.238587994616
 20
-10762.67134394893
 30
0.0
 11
8452.267685297814
 21
-10762.67134394893
 31
0.0
  0
LINE
  5
308
330
2
100
AcDbEntity
  8
WAKU
 62
     3
100
AcDbLine
 10
8230.238587994616
 20
-10715.58156027895
 30
0.0
 11
8452.267685297814
 21
-10715.58156027895
 31
0.0
  0
LINE
  5
309
330
2
100
AcDbEntity
  8
WAKU
 62
     3
100
AcDbLine
 10
7956.248158271844
 20
-10689.55428644398
 30
0.0
 11
7956.248158271844
 21
-11065.87428644398
 31
0.0
  0
TEXT
  5
30B
330
2
100
AcDbEntity
  8
WAKU
 62
     3
100
AcDbText
 10
9154.814391036296
 20
-10855.30972493985
 30
0.0
 40
19.2
  1
(単位mm)
  7
K
100
AcDbText
  0
LINE
  5
30C
330
2
100
AcDbEntity
  8
WAKU
 62
     3
100
AcDbLine
 10
9100.568158271846
 20
-10689.55428644398
 30
0.0
 11
9100.568158271846
 21
-10812.43428644398
 31
0.0
  0
TEXT
  5
30D
330
2
100
AcDbEntity
  8
WAKU
 62
     3
100
AcDbText
 10
9008.408158271846
 20
-10850.83428644398
 30
0.0
 40
23.04
  1
尺度
  7
K
100
AcDbText
  0
LINE
  5
30E
330
2
100
AcDbEntity
  8
WAKU
 62
     3
100
AcDbLine
 10
9016.088158271847
 20
-10689.55428644398
 30
0.0
 11
9016.088158271847
 21
-10812.43428644398
 31
0.0
  0
TEXT
  5
30F
330
2
100
AcDbEntity
  8
WAKU
 62
     3
100
AcDbText
 10
9023.768158271845
 20
-10735.63428644398
 30
0.0
 40
23.04
  1
材 質
  7
K
100
AcDbText
  0
TEXT
  5
310
330
2
100
AcDbEntity
  8
WAKU
 62
     3
100
AcDbText
 10
9023.768158271845
 20
-10797.07428644398
 30
0.0
 40
23.04
  1
板 厚
  7
K
100
AcDbText
  0
LINE
  5
311
330
2
100
AcDbEntity
  8
WAKU
 62
     3
100
AcDbLine
 10
9069.848158271845
 20
-10866.19428644398
 30
0.0
 11
9069.848158271845
 21
-10812.43428644398
 31
0.0
  0
LINE
  5
312
330
2
100
AcDbEntity
  8
WAKU
 62
     3
100
AcDbLine
 10
8916.248158271844
 20
-10866.19428644398
 30
0.0
 11
8916.248158271844
 21
-10966.03428644398
 31
0.0
  0
LINE
  5
313
330
2
100
AcDbEntity
  8
WAKU
 62
     3
100
AcDbLine
 10
9000.728158271845
 20
-10812.43428644398
 30
0.0
 11
9000.728158271845
 21
-10866.19428644398
 31
0.0
  0
LINE
  5
314
330
2
100
AcDbEntity
  8
WAKU
 62
     3
100
AcDbLine
 10
8824.088158271846
 20
-10966.03428644398
 30
0.0
 11
8824.088158271846
 21
-10866.19428644398
 31
0.0
  0
LINE
  5
318
330
2
100
AcDbEntity
  8
WAKU
 62
     3
100
AcDbLine
 10
8824.088158271846
 20
-10866.19428644398
 30
0.0
 11
8824.088158271846
 21
-10812.43428644398
 31
0.0
  0
LINE
  5
31E
330
2
100
AcDbEntity
  8
WAKU
 62
     3
100
AcDbLine
 10
8824.088158271846
 20
-11065.87428644398
 30
0.0
 11
8824.088158271846
 21
-10966.03428644398
 31
0.0
  0
LINE
  5
31F
330
2
100
AcDbEntity
  8
WAKU
 62
     3
100
AcDbLine
 10
8701.208158271844
 20
-10812.43428644398
 30
0.0
 11
8701.208158271844
 21
-11065.87428644398
 31
0.0
  0
TEXT
  5
320
330
2
100
AcDbEntity
  8
WAKU
 62
     3
100
AcDbText
 10
8863.312033916061
 20
-10850.83428644398
 30
0.0
 40
23.04
  1
三 角 法
  7
K
100
AcDbText
  0
TEXT
  5
321
330
2
100
AcDbEntity
  8
WAKU
 62
     3
100
AcDbText
 10
8844.824158271846
 20
-10927.63428644398
 30
0.0
 40
23.04
  1
図番
  7
K
 72
     4
 11
8870.168158271845
 21
-10916.11428644398
 31
0.0
100
AcDbText
  0
LINE
  5
322
330
2
100
AcDbEntity
  8
WAKU
 62
     3
100
AcDbLine
 10
8824.088158271846
 20
-10966.03428644398
 30
0.0
 11
9284.888158271845
 21
-10966.03428644398
 31
0.0
  0
LINE
  5
323
330
2
100
AcDbEntity
  8
WAKU
 62
     3
100
AcDbLine
 10
9284.888158271845
 20
-10866.19428644398
 30
0.0
 11
8824.088158271846
 21
-10866.19428644398
 31
0.0
  0
LINE
  5
324
330
2
100
AcDbEntity
  8
WAKU
 62
     3
100
AcDbLine
 10
8824.088158271846
 20
-10812.43428644398
 30
0.0
 11
9284.888158271845
 21
-10812.43428644398
 31
0.0
  0
TEXT
  5
325
330
2
100
AcDbEntity
  8
WAKU
 62
     3
100
AcDbText
 10
8852.1108875003
 20
-11035.15428644398
 30
0.0
 40
26.88000000000001
  1
株式会社　中部コーポレーション
 41
0.8
  7
K
100
AcDbText
  0
LINE
  5
326
330
2
100
AcDbEntity
  8
WAKU
 62
     3
100
AcDbLine
 10
9284.888158271845
 20
-10689.55428644398
 30
0.0
 11
9016.088158271847
 21
-10689.55428644398
 31
0.0
  0
LINE
  5
327
330
2
100
AcDbEntity
  8
WAKU
 62
     3
100
AcDbLine
 10
9016.088158271847
 20
-10750.99428644398
 30
0.0
 11
9284.888158271845
 21
-10750.99428644398
 31
0.0
  0
LINE
  5
328
330
2
100
AcDbEntity
  8
WAKU
 62
     3
100
AcDbLine
 10
8609.048158271844
 20
-10689.55428644398
 30
0.0
 11
8609.048158271844
 21
-10812.43428644398
 31
0.0
  0
LINE
  5
329
330
2
100
AcDbEntity
  8
WAKU
 62
     3
100
AcDbLine
 10
8539.928158271846
 20
-10812.43428644398
 30
0.0
 11
8539.928158271846
 21
-10689.55428644398
 31
0.0
  0
TEXT
  5
32A
330
2
100
AcDbEntity
  8
WAKU
 62
     3
100
AcDbText
 10
8547.608158271847
 20
-10766.35428644398
 30
0.0
 40
23.04
  1
品名
  7
K
100
AcDbText
  0
TEXT
  5
32B
330
2
100
AcDbEntity
  8
WAKU
 62
     3
100
AcDbText
 10
8547.608158271847
 20
-10987.15428644398
 30
0.0
 40
23.04
  1
検図
  7
K
100
AcDbText
  0
TEXT
  5
32C
330
2
100
AcDbEntity
  8
WAKU
 62
     3
100
AcDbText
 10
8547.608158271847
 20
-10923.79428644398
 30
0.0
 40
23.04
  1
製図
  7
K
100
AcDbText
  0
TEXT
  5
32D
330
2
100
AcDbEntity
  8
WAKU
 62
     3
100
AcDbText
 10
8547.608158271847
 20
-10860.43428644398
 30
0.0
 40
23.04
  1
設計
  7
K
100
AcDbText
  0
TEXT
  5
32E
330
2
100
AcDbEntity
  8
WAKU
 62
     3
100
AcDbText
 10
8497.688158271845
 20
-11028.94629023182
 30
0.0
 40
15.36
  1
2
 41
0.8
  7
K
 11
8497.688158271845
 21
-11021.26629023182
 31
0.0
100
AcDbText
 73
     2
  0
TEXT
  5
32F
330
2
100
AcDbEntity
  8
WAKU
 62
     3
100
AcDbText
 10
8390.168158271846
 20
-10939.73029780753
 30
0.0
 40
15.36
  1
0.1
 41
0.8
  7
K
 11
8390.168158271846
 21
-10932.05029780753
 31
0.0
100
AcDbText
 73
     2
  0
TEXT
  5
330
330
2
100
AcDbEntity
  8
WAKU
 62
     3
100
AcDbText
 10
8390.168158271846
 20
-10880.25296952465
 30
0.0
 40
15.36
  1
0.05
 41
0.8
  7
K
 11
8390.168158271846
 21
-10872.57296952465
 31
0.0
100
AcDbText
 73
     2
  0
TEXT
  5
331
330
2
100
AcDbEntity
  8
WAKU
 62
     3
100
AcDbText
 10
8390.168158271846
 20
-10909.99163366609
 30
0.0
 40
15.36
  1
0.05
 41
0.8
  7
K
 11
8390.168158271846
 21
-10902.31163366609
 31
0.0
100
AcDbText
 73
     2
  0
TEXT
  5
332
330
2
100
AcDbEntity
  8
WAKU
 62
     3
100
AcDbText
 10
8390.168158271846
 20
-11028.94629023182
 30
0.0
 40
15.36
  1
0.3
 41
0.8
  7
K
 11
8390.168158271846
 21
-11021.26629023182
 31
0.0
100
AcDbText
 73
     2
  0
TEXT
  5
333
330
2
100
AcDbEntity
  8
WAKU
 62
     3
100
AcDbText
 10
8390.168158271846
 20
-10999.20762609039
 30
0.0
 40
15.36
  1
0.2
 41
0.8
  7
K
 11
8390.168158271846
 21
-10991.52762609039
 31
0.0
100
AcDbText
 73
     2
  0
TEXT
  5
334
330
2
100
AcDbEntity
  8
WAKU
 62
     3
100
AcDbText
 10
8390.168158271846
 20
-10969.46896194896
 30
0.0
 40
15.36
  1
0.15
 41
0.8
  7
K
 11
8390.168158271846
 21
-10961.78896194896
 31
0.0
100
AcDbText
 73
     2
  0
TEXT
  5
335
330
2
100
AcDbEntity
  8
WAKU
 62
     3
100
AcDbText
 10
8443.928158271846
 20
-10880.25296952465
 30
0.0
 40
15.36
  1
0.1
 41
0.8
  7
K
 11
8443.928158271846
 21
-10872.57296952465
 31
0.0
100
AcDbText
 73
     2
  0
TEXT
  5
336
330
2
100
AcDbEntity
  8
WAKU
 62
     3
100
AcDbText
 10
8443.928158271846
 20
-10909.99163366609
 30
0.0
 40
15.36
  1
0.1
 41
0.8
  7
K
 11
8443.928158271846
 21
-10902.31163366609
 31
0.0
100
AcDbText
 73
     2
  0
TEXT
  5
337
330
2
100
AcDbEntity
  8
WAKU
 62
     3
100
AcDbText
 10
8443.928158271846
 20
-10939.73029780753
 30
0.0
 40
15.36
  1
0.2
 41
0.8
  7
K
 11
8443.928158271846
 21
-10932.05029780753
 31
0.0
100
AcDbText
 73
     2
  0
TEXT
  5
338
330
2
100
AcDbEntity
  8
WAKU
 62
     3
100
AcDbText
 10
8443.928158271846
 20
-10969.46896194896
 30
0.0
 40
15.36
  1
0.3
 41
0.8
  7
K
 11
8443.928158271846
 21
-10961.78896194896
 31
0.0
100
AcDbText
 73
     2
  0
TEXT
  5
339
330
2
100
AcDbEntity
  8
WAKU
 62
     3
100
AcDbText
 10
8443.928158271846
 20
-10999.20762609039
 30
0.0
 40
15.36
  1
0.5
 41
0.8
  7
K
 11
8443.928158271846
 21
-10991.52762609039
 31
0.0
100
AcDbText
 73
     2
  0
TEXT
  5
33A
330
2
100
AcDbEntity
  8
WAKU
 62
     3
100
AcDbText
 10
8443.928158271846
 20
-11028.94629023182
 30
0.0
 40
15.36
  1
0.8
 41
0.8
  7
K
 11
8443.928158271846
 21
-11021.26629023182
 31
0.0
100
AcDbText
 73
     2
  0
TEXT
  5
33B
330
2
100
AcDbEntity
  8
WAKU
 62
     3
100
AcDbText
 10
8398.616158271847
 20
-10854.63163745393
 30
0.0
 40
20.736
  1
J
  7
K
 72
     1
 11
8405.528158271847
 21
-10844.26363745393
 31
0.0
100
AcDbText
 73
     2
  0
TEXT
  5
33C
330
2
100
AcDbEntity
  8
WAKU
 62
     3
100
AcDbText
 10
8448.42644398613
 20
-10854.63163745393
 30
0.0
 40
20.736
  1
K
  7
K
 72
     1
 11
8459.288158271846
 21
-10844.26363745393
 31
0.0
100
AcDbText
 73
     2
  0
TEXT
  5
33D
330
2
100
AcDbEntity
  8
WAKU
 62
     3
100
AcDbText
 10
8503.173872557558
 20
-10854.63163745393
 30
0.0
 40
20.736
  1
L
  7
K
 72
     1
 11
8513.048158271846
 21
-10844.26363745393
 31
0.0
100
AcDbText
 73
     2
  0
TEXT
  5
33E
330
2
100
AcDbEntity
  8
WAKU
 62
     3
100
AcDbText
 10
8497.688158271845
 20
-10909.99163366609
 30
0.0
 40
15.36
  1
0.2
 41
0.8
  7
K
 11
8497.688158271845
 21
-10902.31163366609
 31
0.0
100
AcDbText
 73
     2
  0
TEXT
  5
33F
330
2
100
AcDbEntity
  8
WAKU
 62
     3
100
AcDbText
 10
8497.688158271845
 20
-10939.73029780753
 30
0.0
 40
15.36
  1
0.5
 41
0.8
  7
K
 11
8497.688158271845
 21
-10932.05029780753
 31
0.0
100
AcDbText
 73
     2
  0
TEXT
  5
340
330
2
100
AcDbEntity
  8
WAKU
 62
     3
100
AcDbText
 10
8497.688158271845
 20
-10969.46896194896
 30
0.0
 40
15.36
  1
0.8
 41
0.8
  7
K
 11
8497.688158271845
 21
-10961.78896194896
 31
0.0
100
AcDbText
 73
     2
  0
TEXT
  5
341
330
2
100
AcDbEntity
  8
WAKU
 62
     3
100
AcDbText
 10
8497.688158271845
 20
-10999.20762609039
 30
0.0
 40
15.36
  1
1.2
 41
0.8
  7
K
 11
8497.688158271845
 21
-10991.52762609039
 31
0.0
100
AcDbText
 73
     2
  0
LINE
  5
342
330
2
100
AcDbEntity
  8
WAKU
 62
     3
100
AcDbLine
 10
8497.688158271845
 20
-10872.57296952465
 30
0.0
 11
8525.382493703736
 21
-10872.57296952465
 31
0.0
  0
TEXT
  5
343
330
2
100
AcDbEntity
  8
WAKU
 62
     3
100
AcDbText
 10
8497.688158271845
 20
-11058.68495437326
 30
0.0
 40
15.36
  1
3
 41
0.8
  7
K
 11
8497.688158271845
 21
-11051.00495437326
 31
0.0
100
AcDbText
 73
     2
  0
TEXT
  5
344
330
2
100
AcDbEntity
  8
WAKU
 62
     3
100
AcDbText
 10
8390.168158271846
 20
-11058.68495437326
 30
0.0
 40
15.36
  1
0.5
 41
0.8
  7
K
 11
8390.168158271846
 21
-11051.00495437326
 31
0.0
100
AcDbText
 73
     2
  0
TEXT
  5
345
330
2
100
AcDbEntity
  8
WAKU
 62
     3
100
AcDbText
 10
8443.928158271846
 20
-11058.68495437326
 30
0.0
 40
15.36
  1
1.2
 41
0.8
  7
K
 11
8443.928158271846
 21
-11051.00495437326
 31
0.0
100
AcDbText
 73
     2
  0
LINE
  5
346
330
2
100
AcDbEntity
  8
WAKU
 62
     3
100
AcDbLine
 10
8539.928158271846
 20
-11065.87428644398
 30
0.0
 11
8539.928158271846
 21
-10812.43428644398
 31
0.0
  0
LINE
  5
347
330
2
100
AcDbEntity
  8
WAKU
 62
     3
100
AcDbLine
 10
8609.048158271844
 20
-10812.43428644398
 30
0.0
 11
8609.048158271844
 21
-11065.87428644398
 31
0.0
  0
TEXT
  5
348
330
2
100
AcDbEntity
  8
WAKU
 62
     3
100
AcDbText
 10
8547.608158271847
 20
-11050.51428644398
 30
0.0
 40
23.04
  1
承認
  7
K
100
AcDbText
  0
LINE
  5
349
330
2
100
AcDbEntity
  8
WAKU
 62
     3
100
AcDbLine
 10
8432.408158271845
 20
-11065.87428644398
 30
0.0
 11
8432.408158271845
 21
-10830.82363745393
 31
0.0
  0
LINE
  5
34A
330
2
100
AcDbEntity
  8
WAKU
 62
     3
100
AcDbLine
 10
8486.168158271844
 20
-10830.82363745393
 30
0.0
 11
8486.168158271844
 21
-11065.87428644398
 31
0.0
  0
TEXT
  5
34B
330
2
100
AcDbEntity
  8
WAKU
 62
     3
100
AcDbText
 10
8333.567727490352
 20
-10880.25296952465
 30
0.0
 40
15.36
  1
3以下
 41
0.8
  7
K
 72
     2
 11
8371.484984633209
 21
-10872.57296952465
 31
0.0
100
AcDbText
 73
     2
  0
TEXT
  5
34C
330
2
100
AcDbEntity
  8
WAKU
 62
     3
100
AcDbText
 10
8333.567727490352
 20
-10909.99163366609
 30
0.0
 40
15.36
  1
6以下
 41
0.8
  7
K
 72
     2
 11
8371.484984633209
 21
-10902.31163366609
 31
0.0
100
AcDbText
 73
     2
  0
TEXT
  5
34D
330
2
100
AcDbEntity
  8
WAKU
 62
     3
100
AcDbText
 10
8321.864870347495
 20
-10939.73029780753
 30
0.0
 40
15.36
  1
30以下
 41
0.8
  7
K
 72
     2
 11
8371.484984633209
 21
-10932.05029780753
 31
0.0
100
AcDbText
 73
     2
  0
TEXT
  5
34E
330
2
100
AcDbEntity
  8
WAKU
 62
     3
100
AcDbText
 10
8310.162013204637
 20
-10969.46896194896
 30
0.0
 40
15.36
  1
120以下
 41
0.8
  7
K
 72
     2
 11
8371.484984633209
 21
-10961.78896194896
 31
0.0
100
AcDbText
 73
     2
  0
TEXT
  5
34F
330
2
100
AcDbEntity
  8
WAKU
 62
     3
100
AcDbText
 10
8298.459156061781
 20
-11028.94629023182
 30
0.0
 40
15.36
  1
1000以下
 41
0.8
  7
K
 72
     2
 11
8371.484984633209
 21
-11021.26629023182
 31
0.0
100
AcDbText
 73
     2
  0
TEXT
  5
350
330
2
100
AcDbEntity
  8
WAKU
 62
     3
100
AcDbText
 10
8310.162013204637
 20
-10999.20762609039
 30
0.0
 40
15.36
  1
315以下
 41
0.8
  7
K
 72
     2
 11
8371.484984633209
 21
-10991.52762609039
 31
0.0
100
AcDbText
 73
     2
  0
TEXT
  5
351
330
2
100
AcDbEntity
  8
WAKU
 62
     3
100
AcDbText
 10
8206.796858315341
 20
-11026.23086321733
 30
0.0
 40
15.36
  1
)
  7
K
 11
8206.796858315341
 21
-11018.55086321733
 31
0.0
100
AcDbText
 73
     2
  0
TEXT
  5
352
330
2
100
AcDbEntity
  8
WAKU
 62
     3
100
AcDbText
 10
8180.979586843275
 20
-11018.55086321733
 30
0.0
 40
15.36
  1
±
  7
K
 72
     1
 11
8190.488158271845
 21
-11018.55086321733
 31
0.0
100
AcDbText
  0
TEXT
  5
353
330
2
100
AcDbEntity
  8
WAKU
 62
     3
100
AcDbText
 10
8163.242443986131
 20
-11026.23086321733
 30
0.0
 40
15.36
  1
(
  7
K
 72
     2
 11
8171.288158271845
 21
-11018.55086321733
 31
0.0
100
AcDbText
 73
     2
  0
TEXT
  5
354
330
2
100
AcDbEntity
  8
WAKU
 62
     3
100
AcDbText
 10
8180.811358271846
 20
-10895.31118622217
 30
0.0
 40
20.736
  1
普
  7
K
 72
     1
 11
8190.488158271845
 21
-10895.31118622217
 31
0.0
100
AcDbText
  0
TEXT
  5
355
330
2
100
AcDbEntity
  8
WAKU
 62
     3
100
AcDbText
 10
8180.811358271846
 20
-10919.11918622216
 30
0.0
 40
20.736
  1
通
  7
K
 72
     1
 11
8190.488158271845
 21
-10919.11918622216
 31
0.0
100
AcDbText
  0
TEXT
  5
356
330
2
100
AcDbEntity
  8
WAKU
 62
     3
100
AcDbText
 10
8180.811358271846
 20
-10942.92718622216
 30
0.0
 40
20.736
  1
寸
  7
K
 72
     1
 11
8190.488158271845
 21
-10942.92718622216
 31
0.0
100
AcDbText
  0
TEXT
  5
357
330
2
100
AcDbEntity
  8
WAKU
 62
     3
100
AcDbText
 10
8180.811358271846
 20
-10966.73518622216
 30
0.0
 40
20.736
  1
法
  7
K
 72
     1
 11
8190.488158271845
 21
-10966.73518622216
 31
0.0
100
AcDbText
  0
TEXT
  5
358
330
2
100
AcDbEntity
  8
WAKU
 62
     3
100
AcDbText
 10
8180.811358271846
 20
-10990.54318622217
 30
0.0
 40
20.736
  1
差
  7
K
 72
     1
 11
8190.488158271845
 21
-10990.54318622217
 31
0.0
100
AcDbText
  0
TEXT
  5
359
330
2
100
AcDbEntity
  8
WAKU
 62
     3
100
AcDbText
 10
8174.031015414703
 20
-11033.28452023181
 30
0.0
 40
11.52
  1
mm
  7
K
 72
     1
 11
8190.488158271845
 21
-11033.28452023181
 31
0.0
100
AcDbText
  0
LINE
  5
35A
330
2
100
AcDbEntity
  8
WAKU
 62
     3
100
AcDbLine
 10
8163.608158271847
 20
-10689.55428644398
 30
0.0
 11
8163.608158271847
 21
-10875.79428644398
 31
0.0
  0
TEXT
  5
35B
330
2
100
AcDbEntity
  8
WAKU
 62
     3
100
AcDbText
 10
8232.344158271846
 20
-10854.63163745393
 30
0.0
 40
20.736
  1
呼 ビ 寸 法
  7
K
 72
     1
 11
8298.008158271846
 21
-10844.26363745393
 31
0.0
100
AcDbText
 73
     2
  0
TEXT
  5
35C
330
2
100
AcDbEntity
  8
WAKU
 62
     3
100
AcDbText
 10
8235.031191115117
 20
-11028.94629023182
 30
0.0
 40
15.36
  1
315ｦｺｴ
 41
0.8
  7
K
 72
     2
 11
8289.800562543689
 21
-11021.26629023182
 31
0.0
100
AcDbText
 73
     2
  0
TEXT
  5
35D
330
2
100
AcDbEntity
  8
WAKU
 62
     3
100
AcDbText
 10
8235.031191115117
 20
-10999.20762609039
 30
0.0
 40
15.36
  1
120ｦｺｴ
 41
0.8
  7
K
 72
     2
 11
8289.800562543689
 21
-10991.52762609039
 31
0.0
100
AcDbText
 73
     2
  0
TEXT
  5
35E
330
2
100
AcDbEntity
  8
WAKU
 62
     3
100
AcDbText
 10
8246.734048257975
 20
-10969.46896194896
 30
0.0
 40
15.36
  1
30ｦｺｴ
 41
0.8
  7
K
 72
     2
 11
8289.800562543689
 21
-10961.78896194896
 31
0.0
100
AcDbText
 73
     2
  0
TEXT
  5
35F
330
2
100
AcDbEntity
  8
WAKU
 62
     3
100
AcDbText
 10
8258.436905400833
 20
-10939.73029780753
 30
0.0
 40
15.36
  1
6ｦｺｴ
 41
0.8
  7
K
 72
     2
 11
8289.800562543689
 21
-10932.05029780753
 31
0.0
100
AcDbText
 73
     2
  0
TEXT
  5
360
330
2
100
AcDbEntity
  8
WAKU
 62
     3
100
AcDbText
 10
8258.436905400833
 20
-10909.99163366609
 30
0.0
 40
15.36
  1
3ｦｺｴ
 41
0.8
  7
K
 72
     2
 11
8289.800562543689
 21
-10902.31163366609
 31
0.0
100
AcDbText
 73
     2
  0
TEXT
  5
361
330
2
100
AcDbEntity
  8
WAKU
 62
     3
100
AcDbText
 10
8234.329019686546
 20
-10880.25296952465
 30
0.0
 40
15.36
  1
0.5以上
 41
0.8
  7
K
 72
     2
 11
8289.800562543689
 21
-10872.57296952465
 31
0.0
100
AcDbText
 73
     2
  0
TEXT
  5
362
330
2
100
AcDbEntity
  8
WAKU
 62
     3
100
AcDbText
 10
8298.459156061781
 20
-11058.68495437326
 30
0.0
 40
15.36
  1
2000以下
 41
0.8
  7
K
 72
     2
 11
8371.484984633209
 21
-11051.00495437326
 31
0.0
100
AcDbText
 73
     2
  0
TEXT
  5
363
330
2
100
AcDbEntity
  8
WAKU
 62
     3
100
AcDbText
 10
8223.32833397226
 20
-11058.68495437326
 30
0.0
 40
15.36
  1
1000ｦｺｴ
 41
0.8
  7
K
 72
     2
 11
8289.800562543689
 21
-11051.00495437326
 31
0.0
100
AcDbText
 73
     2
  0
LINE
  5
364
330
2
100
AcDbEntity
  8
WAKU
 62
     3
100
AcDbLine
 10
8163.608158271847
 20
-10875.79428644398
 30
0.0
 11
8163.608158271847
 21
-11065.87428644398
 31
0.0
  0
LINE
  5
365
330
2
100
AcDbEntity
  8
WAKU
 62
     3
100
AcDbLine
 10
8217.368158271845
 20
-10830.82363745393
 30
0.0
 11
8217.368158271845
 21
-11065.87428644398
 31
0.0
  0
LINE
  5
366
330
2
100
AcDbEntity
  8
WAKU
 62
     3
100
AcDbLine
 10
8378.648158271845
 20
-10830.82363745393
 30
0.0
 11
8378.648158271845
 21
-11065.87428644398
 31
0.0
  0
LINE
  5
367
330
2
100
AcDbEntity
  8
WAKU
 62
     3
100
AcDbLine
 10
8217.368158271845
 20
-10857.70363745393
 30
0.0
 11
8539.928158271846
 21
-10857.70363745393
 31
0.0
  0
LINE
  5
368
330
2
100
AcDbEntity
  8
WAKU
 62
     3
100
AcDbLine
 10
8217.368158271845
 20
-10887.44230159537
 30
0.0
 11
8539.928158271846
 21
-10887.44230159537
 31
0.0
  0
LINE
  5
369
330
2
100
AcDbEntity
  8
WAKU
 62
     3
100
AcDbLine
 10
8539.928158271846
 20
-10917.18096573681
 30
0.0
 11
8217.368158271845
 21
-10917.18096573681
 31
0.0
  0
LINE
  5
36A
330
2
100
AcDbEntity
  8
WAKU
 62
     3
100
AcDbLine
 10
8217.368158271845
 20
-10946.91962987825
 30
0.0
 11
8539.928158271846
 21
-10946.91962987825
 31
0.0
  0
LINE
  5
36B
330
2
100
AcDbEntity
  8
WAKU
 62
     3
100
AcDbLine
 10
8539.928158271846
 20
-10976.65829401968
 30
0.0
 11
8217.368158271845
 21
-10976.65829401968
 31
0.0
  0
LINE
  5
36C
330
2
100
AcDbEntity
  8
WAKU
 62
     3
100
AcDbLine
 10
8217.368158271845
 20
-11006.3969581611
 30
0.0
 11
8539.928158271846
 21
-11006.3969581611
 31
0.0
  0
LINE
  5
36D
330
2
100
AcDbEntity
  8
WAKU
 62
     3
100
AcDbLine
 10
8539.928158271846
 20
-11036.13562230254
 30
0.0
 11
8217.368158271845
 21
-11036.13562230254
 31
0.0
  0
TEXT
  5
36E
330
2
100
AcDbEntity
  8
WAKU
 62
     3
100
AcDbText
 10
7967.768158271844
 20
-11001.07800146199
 30
0.0
 40
15.36
  1
▽▽
  7
K
 11
7967.768158271844
 21
-10993.39800146199
 31
0.0
100
AcDbText
 73
     2
  0
TEXT
  5
36F
330
2
100
AcDbEntity
  8
WAKU
 62
     3
100
AcDbText
 10
7967.768158271844
 20
-11030.06851545479
 30
0.0
 40
15.36
  1
▽
  7
K
 11
7967.768158271844
 21
-11022.38851545479
 31
0.0
100
AcDbText
 73
     2
  0
TEXT
  5
370
330
2
100
AcDbEntity
  8
WAKU
 62
     3
100
AcDbText
 10
7979.793398289477
 20
-10724.61917827897
 30
0.0
 40
23.04
  1
表面処理
  7
K
 11
7979.793398289477
 21
-10713.09917827897
 31
0.0
100
AcDbText
 73
     2
  0
TEXT
  5
371
330
2
100
AcDbEntity
  8
WAKU
 62
     3
100
AcDbText
 10
7979.793398289477
 20
-10771.70896194896
 30
0.0
 40
23.04
  1
色調
  7
K
 11
7979.793398289477
 21
-10760.18896194896
 31
0.0
100
AcDbText
 73
     2
  0
TEXT
  5
372
330
2
100
AcDbEntity
  8
WAKU
 62
     3
100
AcDbText
 10
7967.768158271844
 20
-10943.09697347639
 30
0.0
 40
15.36
  1
▽▽▽▽
  7
K
 11
7967.768158271844
 21
-10935.41697347639
 31
0.0
100
AcDbText
 73
     2
  0
TEXT
  5
373
330
2
100
AcDbEntity
  8
WAKU
 62
     3
100
AcDbText
 10
7967.768158271844
 20
-10972.08748746919
 30
0.0
 40
15.36
  1
▽▽▽
  7
K
 11
7967.768158271844
 21
-10964.40748746919
 31
0.0
100
AcDbText
 73
     2
  0
TEXT
  5
374
330
2
100
AcDbEntity
  8
WAKU
 62
     3
100
AcDbText
 10
7967.768158271844
 20
-11059.05902944758
 30
0.0
 40
15.36
  1
～
  7
K
 11
7967.768158271844
 21
-11051.37902944758
 31
0.0
100
AcDbText
 73
     2
  0
LINE
  5
375
330
2
100
AcDbEntity
  8
WAKU
 62
     3
100
AcDbLine
 10
8539.928158271846
 20
-10689.55428644398
 30
0.0
 11
7956.248158271844
 21
-10689.55428644398
 31
0.0
  0
LINE
  5
376
330
2
100
AcDbEntity
  8
WAKU
 62
     3
100
AcDbLine
 10
8539.928158271846
 20
-10830.82363745393
 30
0.0
 11
7956.248158271844
 21
-10830.82363745393
 31
0.0
  0
LINE
  5
377
330
2
100
AcDbEntity
  8
WAKU
 62
     3
100
AcDbLine
 10
7956.248158271844
 20
-10736.64407011397
 30
0.0
 11
8539.928158271846
 21
-10736.64407011397
 31
0.0
  0
LINE
  5
378
330
2
100
AcDbEntity
  8
WAKU
 62
     3
100
AcDbLine
 10
8539.928158271846
 20
-10783.73385378396
 30
0.0
 11
7956.248158271844
 21
-10783.73385378396
 31
0.0
  0
TEXT
  5
379
330
2
100
AcDbEntity
  8
WAKU
 62
     3
100
AcDbText
 10
7979.793398289477
 20
-10818.79874561894
 30
0.0
 40
23.04
  1
適用規格など
  7
K
 11
7979.793398289477
 21
-10807.27874561894
 31
0.0
100
AcDbText
 73
     2
  0
LINE
  5
37A
330
2
100
AcDbEntity
  8
WAKU
 62
     3
100
AcDbLine
 10
7956.248158271844
 20
-10876.30911977402
 30
0.0
 11
8163.608158271847
 21
-10876.30911977402
 31
0.0
  0
LINE
  5
37B
330
2
100
AcDbEntity
  8
WAKU
 62
     3
100
AcDbLine
 10
7956.248158271844
 20
-10920.92171648
 30
0.0
 11
8163.608158271847
 21
-10920.92171648
 31
0.0
  0
TEXT
  5
37C
330
2
100
AcDbEntity
  8
WAKU
 62
     3
100
AcDbText
 10
7967.768158271848
 20
-10865.08637861398
 30
0.0
 40
23.04
  1
標準加工アラサ
  7
K
 72
     4
 11
8059.928158271848
 21
-10853.56637861398
 31
0.0
100
AcDbText
  0
TEXT
  5
37D
330
2
100
AcDbEntity
  8
WAKU
 62
     3
100
AcDbText
 10
7970.225758271848
 20
-10908.23228717628
 30
0.0
 40
23.04
  1
(標準外ﾊ指定ﾉｺﾄ)
 41
0.8
  7
K
 72
     4
 11
8059.928158271848
 21
-10898.35800146199
 31
0.0
100
AcDbText
  0
TEXT
  5
37E
330
2
100
AcDbEntity
  8
WAKU
 62
     3
100
AcDbText
 10
8103.082443986133
 20
-10943.09697347639
 30
0.0
 40
15.36
  1
0.8Z
  7
K
 72
     2
 11
8152.088158271848
 21
-10935.41697347639
 31
0.0
100
AcDbText
 73
     2
  0
TEXT
  5
37F
330
2
100
AcDbEntity
  8
WAKU
 62
     3
100
AcDbText
 10
8125.025301128991
 20
-10972.08748746919
 30
0.0
 40
15.36
  1
6Z
  7
K
 72
     2
 11
8152.088158271848
 21
-10964.40748746919
 31
0.0
100
AcDbText
 73
     2
  0
TEXT
  5
380
330
2
100
AcDbEntity
  8
WAKU
 62
     3
100
AcDbText
 10
8110.396729700418
 20
-11001.07800146199
 30
0.0
 40
15.36
  1
18Z
  7
K
 72
     2
 11
8152.088158271848
 21
-10993.39800146199
 31
0.0
100
AcDbText
 73
     2
  0
TEXT
  5
381
330
2
100
AcDbEntity
  8
WAKU
 62
     3
100
AcDbText
 10
8110.396729700418
 20
-11030.06851545479
 30
0.0
 40
15.36
  1
50Z
  7
K
 72
     2
 11
8152.088158271848
 21
-11022.38851545479
 31
0.0
100
AcDbText
 73
     2
  0
LINE
  5
382
330
2
100
AcDbEntity
  8
WAKU
 62
     3
100
AcDbLine
 10
8539.928158271846
 20
-10689.55428644398
 30
0.0
 11
9016.088158271847
 21
-10689.55428644398
 31
0.0
  0
LINE
  5
383
330
2
100
AcDbEntity
  8
WAKU
 62
     3
100
AcDbLine
 10
8539.928158271846
 20
-10812.43428644398
 30
0.0
 11
8824.088158271846
 21
-10812.43428644398
 31
0.0
  0
LINE
  5
384
330
2
100
AcDbEntity
  8
WAKU
 62
     3
100
AcDbLine
 10
8539.928158271846
 20
-10939.15428644398
 30
0.0
 11
8824.088158271846
 21
-10939.15428644398
 31
0.0
  0
LINE
  5
385
330
2
100
AcDbEntity
  8
WAKU
 62
     3
100
AcDbLine
 10
8824.088158271846
 20
-11002.51428644398
 30
0.0
 11
8539.928158271846
 21
-11002.51428644398
 31
0.0
  0
LINE
  5
386
330
2
100
AcDbEntity
  8
WAKU
 62
     3
100
AcDbLine
 10
8824.088158271846
 20
-10875.79428644398
 30
0.0
 11
8539.928158271846
 21
-10875.79428644398
 31
0.0
  0
LINE
  5
387
330
2
100
AcDbEntity
  8
WAKU
 62
     3
100
AcDbLine
 10
9284.888158271845
 20
-8155.154286443982
 30
0.0
 11
9284.888158271845
 21
-11065.87428644398
 31
0.0
  0
LINE
  5
388
330
2
100
AcDbEntity
  8
WAKU
 62
     3
100
AcDbLine
 10
5813.528158271846
 20
-10881.55428644398
 30
0.0
 11
5813.528158271846
 21
-11065.87428644398
 31
0.0
  0
LINE
  5
389
330
2
100
AcDbEntity
  8
WAKU
 62
     3
100
AcDbLine
 10
5744.408158271847
 20
-11065.87428644398
 30
0.0
 11
5744.408158271847
 21
-10881.55428644398
 31
0.0
  0
LINE
  5
38A
330
2
100
AcDbEntity
  8
WAKU
 62
     3
100
AcDbLine
 10
5675.288158271846
 20
-10881.55428644398
 30
0.0
 11
5675.288158271846
 21
-11065.87428644398
 31
0.0
  0
LINE
  5
38B
330
2
100
AcDbEntity
  8
WAKU
 62
     3
100
AcDbLine
 10
5560.088158271846
 20
-11065.87428644398
 30
0.0
 11
5560.088158271846
 21
-10881.55428644398
 31
0.0
  0
LINE
  5
38C
330
2
100
AcDbEntity
  8
WAKU
 62
     3
100
AcDbLine
 10
5406.488158271846
 20
-10881.55428644398
 30
0.0
 11
5406.488158271846
 21
-11065.87428644398
 31
0.0
  0
TEXT
  5
38D
330
2
100
AcDbEntity
  8
WAKU
 62
     3
100
AcDbText
 10
5431.064158271845
 20
-11054.35428644398
 30
0.0
 40
23.04
  1
設変番号
  7
K
 72
     4
 11
5483.288158271846
 21
-11042.83428644398
 31
0.0
100
AcDbText
  0
TEXT
  5
38E
330
2
100
AcDbEntity
  8
WAKU
 62
     3
100
AcDbText
 10
5159.960158271847
 20
-11054.35428644398
 30
0.0
 40
23.04
  1
変更内容・理由
  7
K
 72
     4
 11
5252.888158271846
 21
-11042.83428644398
 31
0.0
100
AcDbText
  0
TEXT
  5
38F
330
2
100
AcDbEntity
  8
WAKU
 62
     3
100
AcDbText
 10
5553.176158271845
 20
-11054.35428644398
 30
0.0
 40
23.04
  1
 年 月 日
  7
K
 72
     4
 11
5617.688158271845
 21
-11042.83428644398
 31
0.0
100
AcDbText
  0
TEXT
  5
390
330
2
100
AcDbEntity
  8
WAKU
 62
     3
100
AcDbText
 10
5755.160158271846
 20
-11054.35428644398
 30
0.0
 40
23.04
  1
検図
  7
K
 72
     4
 11
5778.968158271846
 21
-11042.83428644398
 31
0.0
100
AcDbText
  0
TEXT
  5
391
330
2
100
AcDbEntity
  8
WAKU
 62
     3
100
AcDbText
 10
5685.76587255756
 20
-11054.35428644398
 30
0.0
 40
23.04
  1
担当
  7
K
 72
     4
 11
5709.848158271845
 21
-11042.83428644398
 31
0.0
100
AcDbText
  0
LINE
  5
392
330
2
100
AcDbEntity
  8
WAKU
 62
     3
100
AcDbLine
 10
5057.048158271846
 20
-10927.63428644398
 30
0.0
 11
5022.488158271847
 21
-10973.71428644398
 31
0.0
  0
LINE
  5
393
330
2
100
AcDbEntity
  8
WAKU
 62
     3
100
AcDbLine
 10
5091.608158271847
 20
-10927.63428644398
 30
0.0
 11
5022.488158271847
 21
-10927.63428644398
 31
0.0
  0
LINE
  5
394
330
2
100
AcDbEntity
  8
WAKU
 62
     3
100
AcDbLine
 10
5022.488158271847
 20
-10973.71428644398
 30
0.0
 11
5091.608158271847
 21
-10973.71428644398
 31
0.0
  0
LINE
  5
395
330
2
100
AcDbEntity
  8
WAKU
 62
     3
100
AcDbLine
 10
5091.608158271847
 20
-10973.71428644398
 30
0.0
 11
5022.488158271847
 21
-10973.71428644398
 31
0.0
  0
LINE
  5
396
330
2
100
AcDbEntity
  8
WAKU
 62
     3
100
AcDbLine
 10
5091.608158271847
 20
-10927.63428644398
 30
0.0
 11
5022.488158271847
 21
-10927.63428644398
 31
0.0
  0
LINE
  5
397
330
2
100
AcDbEntity
  8
WAKU
 62
     3
100
AcDbLine
 10
5057.048158271846
 20
-10927.63428644398
 30
0.0
 11
5091.608158271847
 21
-10973.71428644398
 31
0.0
  0
LINE
  5
398
330
2
100
AcDbEntity
  8
WAKU
 62
     3
100
AcDbLine
 10
5091.608158271847
 20
-11019.79428644398
 30
0.0
 11
5022.488158271847
 21
-11019.79428644398
 31
0.0
  0
LINE
  5
399
330
2
100
AcDbEntity
  8
WAKU
 62
     3
100
AcDbLine
 10
5091.608158271847
 20
-11019.79428644398
 30
0.0
 11
5022.488158271847
 21
-11019.79428644398
 31
0.0
  0
LINE
  5
39A
330
2
100
AcDbEntity
  8
WAKU
 62
     3
100
AcDbLine
 10
5057.048158271846
 20
-10973.71428644398
 30
0.0
 11
5022.488158271847
 21
-11019.79428644398
 31
0.0
  0
LINE
  5
39B
330
2
100
AcDbEntity
  8
WAKU
 62
     3
100
AcDbLine
 10
5057.048158271846
 20
-10973.71428644398
 30
0.0
 11
5091.608158271847
 21
-11019.79428644398
 31
0.0
  0
LINE
  5
39C
330
2
100
AcDbEntity
  8
WAKU
 62
     3
100
AcDbLine
 10
5057.048158271846
 20
-10881.55428644398
 30
0.0
 11
5022.488158271847
 21
-10927.63428644398
 31
0.0
  0
LINE
  5
39D
330
2
100
AcDbEntity
  8
WAKU
 62
     3
100
AcDbLine
 10
5091.608158271847
 20
-10927.63428644398
 30
0.0
 11
5057.048158271846
 21
-10881.55428644398
 31
0.0
  0
LINE
  5
39E
330
2
100
AcDbEntity
  8
WAKU
 62
     3
100
AcDbLine
 10
5099.288158271845
 20
-11065.87428644398
 30
0.0
 11
5099.288158271845
 21
-10881.55428644398
 31
0.0
  0
LINE
  5
39F
330
2
100
AcDbEntity
  8
WAKU
 62
     3
100
AcDbLine
 10
5091.608158271847
 20
-10881.55428644398
 30
0.0
 11
5091.608158271847
 21
-11065.87428644398
 31
0.0
  0
LINE
  5
3A0
330
2
100
AcDbEntity
  8
WAKU
 62
     3
100
AcDbLine
 10
5091.608158271847
 20
-11065.87428644398
 30
0.0
 11
5091.608158271847
 21
-10881.55428644398
 31
0.0
  0
LINE
  5
3A1
330
2
100
AcDbEntity
  8
WAKU
 62
     3
100
AcDbLine
 10
5099.288158271845
 20
-10881.55428644398
 30
0.0
 11
5099.288158271845
 21
-11065.87428644398
 31
0.0
  0
TEXT
  5
3A2
330
2
100
AcDbEntity
  8
WAKU
 62
     3
100
AcDbText
 10
5032.472158271846
 20
-11054.35428644398
 30
0.0
 40
23.04
  1
記号
  7
K
 72
     4
 11
5057.048158271846
 21
-11042.83428644398
 31
0.0
100
AcDbText
  0
LINE
  5
3A3
330
2
100
AcDbEntity
  8
WAKU
 62
     3
100
AcDbLine
 10
5813.528158271846
 20
-10881.55428644398
 30
0.0
 11
5022.488158271847
 21
-10881.55428644398
 31
0.0
  0
LINE
  5
3A4
330
2
100
AcDbEntity
  8
WAKU
 62
     3
100
AcDbLine
 10
5813.528158271846
 20
-11019.79428644398
 30
0.0
 11
5099.288158271845
 21
-11019.79428644398
 31
0.0
  0
LINE
  5
3A5
330
2
100
AcDbEntity
  8
WAKU
 62
     3
100
AcDbLine
 10
5099.288158271845
 20
-10973.71428644398
 30
0.0
 11
5813.528158271846
 21
-10973.71428644398
 31
0.0
  0
LINE
  5
3A6
330
2
100
AcDbEntity
  8
WAKU
 62
     3
100
AcDbLine
 10
5813.528158271846
 20
-10927.63428644398
 30
0.0
 11
5099.288158271845
 21
-10927.63428644398
 31
0.0
  0
LINE
  5
3A7
330
2
100
AcDbEntity
  8
WAKU
 62
     3
100
AcDbLine
 10
5099.288158271845
 20
-11019.79428644398
 30
0.0
 11
5813.528158271846
 21
-11019.79428644398
 31
0.0
  0
LINE
  5
3A8
330
2
100
AcDbEntity
  8
WAKU
 62
     3
100
AcDbLine
 10
5813.528158271846
 20
-10973.71428644398
 30
0.0
 11
5099.288158271845
 21
-10973.71428644398
 31
0.0
  0
LINE
  5
3A9
330
2
100
AcDbEntity
  8
WAKU
 62
     3
100
AcDbLine
 10
5099.288158271845
 20
-10927.63428644398
 30
0.0
 11
5813.528158271846
 21
-10927.63428644398
 31
0.0
  0
LINE
  5
3AA
330
2
100
AcDbEntity
  8
WAKU
 62
     3
100
AcDbLine
 10
5022.488158271847
 20
-11065.87428644398
 30
0.0
 11
5022.488158271847
 21
-8155.154286443982
 31
0.0
  0
LINE
  5
3AB
330
2
100
AcDbEntity
  8
WAKU
 62
     3
100
AcDbLine
 10
9284.888158271845
 20
-11065.87428644398
 30
0.0
 11
5022.488158271847
 21
-11065.87428644398
 31
0.0
  0
LINE
  5
3AC
330
2
100
AcDbEntity
  8
WAKU
 62
     3
100
AcDbLine
 10
5022.488158271847
 20
-8155.154286443982
 30
0.0
 11
9284.888158271845
 21
-8155.154286443982
 31
0.0
  0
TEXT
  5
3AD
330
2
100
AcDbEntity
  8
TEXT
100
AcDbText
 10
8013.641647385476
 20
-10104.81116557169
 30
0.0
 40
30.0
  1
6.0 m /min
  7
K
100
AcDbText
  0
TEXT
  5
3AE
330
2
100
AcDbEntity
  8
TEXT
100
AcDbText
 10
8144.340414672068
 20
-10085.23193461388
 30
0.0
 40
12.0
  1
3
  7
K
100
AcDbText
  0
LINE
  5
3AF
330
2
100
AcDbEntity
  8
SUNPOU
100
AcDbLine
 10
7733.195270281372
 20
-9908.1836323013
 30
0.0
 11
8552.534509250561
 21
-9908.1836323013
 31
0.0
  0
TEXT
  5
3B0
330
2
100
AcDbEntity
  8
TEXT
100
AcDbText
 10
7758.058252744696
 20
-9966.487991400001
 30
0.0
 40
30.0
  1
ドレンパン水量
 41
0.8
  7
K
100
AcDbText
  0
TEXT
  5
3B1
330
2
100
AcDbEntity
  8
TEXT
100
AcDbText
 10
8013.641647385476
 20
-9962.27038474519
 30
0.0
 40
30.0
  1
1500 cc （最大 3000cc）
 41
0.8
  7
K
100
AcDbText
  0
TEXT
  5
3B2
330
2
100
AcDbEntity
  8
TEXT
100
AcDbText
 10
7770.361716766551
 20
-10254.81116557169
 30
0.0
 40
30.0
  1
冷房負荷
  7
K
100
AcDbText
  0
LINE
  5
3B3
330
2
100
AcDbEntity
  8
SUNPOU
100
AcDbLine
 10
7733.195270281372
 20
-10433.1836323013
 30
0.0
 11
8552.534509250561
 21
-10433.1836323013
 31
0.0
  0
LINE
  5
3B4
330
2
100
AcDbEntity
  8
SUNPOU
100
AcDbLine
 10
7733.195270281372
 20
-10208.1836323013
 30
0.0
 11
8552.534509250561
 21
-10208.1836323013
 31
0.0
  0
TEXT
  5
3B5
330
2
100
AcDbEntity
  8
TEXT
100
AcDbText
 10
7770.361716766548
 20
-10329.81116557169
 30
0.0
 40
30.0
  1
安全装置
  7
K
100
AcDbText
  0
TEXT
  5
3B6
330
2
100
AcDbEntity
  8
TEXT
100
AcDbText
 10
8013.641647385474
 20
-10404.81116557169
 30
0.0
 40
30.0
  1
自動消火装置（オプション）
  7
K
100
AcDbText
  0
TEXT
  5
3B7
330
2
100
AcDbEntity
  8
TEXT
100
AcDbText
 10
8013.641647385474
 20
-10329.81116557169
 30
0.0
 40
30.0
  1
ダクト遮断装置
  7
K
100
AcDbText
  0
LINE
  5
3B8
330
2
100
AcDbEntity
  8
SUNPOU
100
AcDbLine
 10
7976.791020078831
 20
-9833.183632301299
 30
0.0
 11
7976.791020078831
 21
-10433.1836323013
 31
0.0
  0
LINE
  5
3B9
330
2
100
AcDbEntity
  8
SUNPOU
100
AcDbLine
 10
8552.534509250561
 20
-9833.183632301299
 30
0.0
 11
8552.534509250561
 21
-10433.1836323013
 31
0.0
  0
LINE
  5
3BA
330
2
100
AcDbEntity
  8
SUNPOU
100
AcDbLine
 10
7968.913238287962
 20
-9833.183632301299
 30
0.0
 11
7968.913238287962
 21
-10433.1836323013
 31
0.0
  0
LINE
  5
3BB
330
2
100
AcDbEntity
  8
SUNPOU
100
AcDbLine
 10
7733.195270281372
 20
-9833.183632301299
 30
0.0
 11
7733.195270281372
 21
-10433.1836323013
 31
0.0
  0
LINE
  5
3BC
330
2
100
AcDbEntity
  8
SUNPOU
100
AcDbLine
 10
7733.195270281372
 20
-10283.1836323013
 30
0.0
 11
8552.534509250561
 21
-10283.1836323013
 31
0.0
  0
LINE
  5
3BD
330
2
100
AcDbEntity
  8
SUNPOU
100
AcDbLine
 10
7733.195270281372
 20
-10058.1836323013
 30
0.0
 11
8552.534509250561
 21
-10058.1836323013
 31
0.0
  0
LINE
  5
3BE
330
2
100
AcDbEntity
  8
SUNPOU
100
AcDbLine
 10
7733.195270281372
 20
-10133.1836323013
 30
0.0
 11
8552.534509250561
 21
-10133.1836323013
 31
0.0
  0
LINE
  5
3BF
330
2
100
AcDbEntity
  8
SUNPOU
100
AcDbLine
 10
7733.195270281372
 20
-9983.183632301299
 30
0.0
 11
8552.534509250561
 21
-9983.183632301299
 31
0.0
  0
LINE
  5
3C0
330
2
100
AcDbEntity
  8
SUNPOU
100
AcDbLine
 10
7733.195270281372
 20
-9833.183632301299
 30
0.0
 11
8552.534509250561
 21
-9833.183632301299
 31
0.0
  0
TEXT
  5
3C1
330
2
100
AcDbEntity
  8
TEXT
100
AcDbText
 10
8013.641647385476
 20
-10254.81116557169
 30
0.0
 40
30.0
  1
3600 kcal/h
  7
K
100
AcDbText
  0
TEXT
  5
3C2
330
2
100
AcDbEntity
  8
TEXT
100
AcDbText
 10
8144.340414672068
 20
-10010.23193461388
 30
0.0
 40
12.0
  1
3
  7
K
100
AcDbText
  0
TEXT
  5
3C3
330
2
100
AcDbEntity
  8
TEXT
100
AcDbText
 10
8013.641647385476
 20
-9879.811165571695
 30
0.0
 40
30.0
  1
8W （ AC100V ）
  7
K
100
AcDbText
  0
TEXT
  5
3C4
330
2
100
AcDbEntity
  8
TEXT
100
AcDbText
 10
8013.641647385476
 20
-10029.81116557169
 30
0.0
 40
30.0
  1
6.0 m /min
  7
K
100
AcDbText
  0
TEXT
  5
3C5
330
2
100
AcDbEntity
  8
TEXT
100
AcDbText
 10
8013.641647385476
 20
-10179.81116557169
 30
0.0
 40
30.0
  1
16 mmAq
  7
K
100
AcDbText
  0
TEXT
  5
3C6
330
2
100
AcDbEntity
  8
TEXT
100
AcDbText
 10
7770.361716766551
 20
-10179.81116557169
 30
0.0
 40
30.0
  1
必要静圧
  7
K
100
AcDbText
  0
TEXT
  5
3C7
330
2
100
AcDbEntity
  8
TEXT
100
AcDbText
 10
7770.361716766551
 20
-10104.81116557169
 30
0.0
 40
30.0
  1
必要排気量
  7
K
100
AcDbText
  0
TEXT
  5
3C8
330
2
100
AcDbEntity
  8
TEXT
100
AcDbText
 10
7770.361716766551
 20
-10029.81116557169
 30
0.0
 40
30.0
  1
必要給気量
  7
K
100
AcDbText
  0
TEXT
  5
3C9
330
2
100
AcDbEntity
  8
TEXT
100
AcDbText
 10
7770.361716766551
 20
-9879.811165571695
 30
0.0
 40
30.0
  1
消費電力
  7
K
100
AcDbText
  0
TEXT
  5
3CA
330
2
100
AcDbEntity
  8
TEXT
100
AcDbText
 10
7770.361716766551
 20
-9807.876015926991
 30
0.0
 40
30.0
  1
製品仕様
  7
K
100
AcDbText
  0
MTEXT
  5
3CB
102
{ACAD_REACTORS
330
3CC
102
}
330
2
100
AcDbEntity
  8
SUNPOU
100
AcDbMText
 10
6181.04735653671
 20
-10265.08444251096
 30
0.0
 40
20.0
 41
0.0
 71
     6
 72
     1
  1
\A1;FVD
 73
     1
 44
1.0
1001
ACAD
1000
MTEXTBEGIN
1070
    73
1070
     1
1070
    44
1040
1.0
1070
    74
1070
     0
1000
MTEXTEND
  0
LEADER
  5
3CC
330
2
100
AcDbEntity
  8
SUNPOU
100
AcDbLeader
  3
IMCADLT
 73
     0
 75
     1
 41
47.61904761904761
 76
     3
 10
6293.853135776251
 20
-10133.67057490878
 30
0.0
 10
6206.047356536711
 20
-10285.08444251096
 30
0.0
 10
6191.04735653671
 20
-10285.08444251096
 30
0.0
340
3CB
1001
ACAD
1000
DSTYLE
1002
{
1070
   288
1070
     1
1070
   284
1070
     0
1070
   140
1040
2.0
1070
    47
1040
495.0
1070
   174
1070
     1
1070
   146
1040
1.0
1070
   272
1070
     1
1070
    77
1070
     1
1070
   271
1070
     1
1070
     5
1000
ARROW
1070
    41
1040
1.5
1002
}
  0
MTEXT
  5
3CD
102
{ACAD_REACTORS
330
3CE
102
}
330
2
100
AcDbEntity
  8
SUNPOU
100
AcDbMText
 10
6887.821477759597
 20
-9949.589221783519
 30
0.0
 40
20.0
 41
0.0
 71
     4
 72
     1
  1
\A1;操作部
 73
     1
 44
1.0
1001
ACAD
1000
MTEXTBEGIN
1070
    73
1070
     1
1070
    44
1040
1.0
1070
    74
1070
     0
1000
MTEXTEND
  0
LEADER
  5
3CE
330
2
100
AcDbEntity
  8
SUNPOU
100
AcDbLeader
  3
IMCADLT
 73
     0
 74
     0
 75
     1
 41
66.28571428571428
 76
     3
 10
6829.996508772584
 20
-9787.66588132456
 30
0.0
 10
6862.821477759597
 20
-9969.589221783518
 30
0.0
 10
6877.821477759596
 20
-9969.589221783518
 30
0.0
340
3CD
1001
ACAD
1000
DSTYLE
1002
{
1070
   288
1070
     1
1070
   284
1070
     0
1070
   140
1040
2.0
1070
    47
1040
495.0
1070
   174
1070
     1
1070
   146
1040
1.0
1070
   272
1070
     1
1070
    77
1070
     1
1070
   271
1070
     1
1070
     5
1000
ARROW
1070
    41
1040
1.5
1002
}
  0
DIMENSION
  5
3CF
330
2
100
AcDbEntity
  8
SUNPOU
100
AcDbDimension
  2
*D3
 10
7622.526008752693
 20
-8531.267889357318
 30
0.0
 11
7678.71648494317
 21
-8531.267889357318
 31
0.0
 12
12.9961291756772
 22
-3264.786527797511
 32
0.0
 70
   128
 71
     5
 42
-1.0
  3
IMCADLT
100
AcDbAlignedDimension
 13
7587.526008752694
 23
-8640.462711884804
 33
0.0
 14
7622.526008752693
 24
-8680.462711884805
 34
0.0
 50
180.0
100
AcDbRotatedDimension
1001
ACAD
1000
DSTYLE
1002
{
1070
   288
1070
     1
1070
   284
1070
     0
1070
   140
1040
2.0
1070
    47
1040
495.0
1070
   174
1070
     1
1070
   146
1040
1.0
1070
   272
1070
     1
1070
    77
1070
     1
1070
   271
1070
     1
1070
     5
1000
ARROW
1070
    41
1040
1.5
1002
}
  0
DIMENSION
  5
3DE
330
2
100
AcDbEntity
  8
SUNPOU
100
AcDbDimension
  2
*D4
 10
7587.526008752694
 20
-8471.713114710336
 30
0.0
 11
7842.213203397396
 21
-8471.713114710336
 31
0.0
 12
12.9961291756772
 22
-3264.786527797511
 32
0.0
 70
   128
 71
     5
 42
-1.0
  3
IMCADLT
100
AcDbAlignedDimension
 13
8107.526008752692
 23
-8680.462711884805
 33
0.0
 14
7587.526008752694
 24
-8640.462711884804
 34
0.0
 50
180.0
100
AcDbRotatedDimension
1001
ACAD
1000
DSTYLE
1002
{
1070
   288
1070
     1
1070
   284
1070
     0
1070
   140
1040
2.0
1070
    47
1040
495.0
1070
   174
1070
     1
1070
   146
1040
1.0
1070
   272
1070
     1
1070
    77
1070
     1
1070
   271
1070
     1
1070
     5
1000
ARROW
1070
    41
1040
1.5
1002
}
  0
DIMENSION
  5
3EB
330
2
100
AcDbEntity
  8
SUNPOU
100
AcDbDimension
  2
*D5
 10
7321.423848536702
 20
-8640.462711884804
 30
0.0
 11
7321.423848536702
 21
-8840.462711884802
 31
0.0
 12
12.9961291756772
 22
-3264.786527797511
 32
0.0
 70
   128
 71
     5
 42
-1.0
  3
IMCADLT
100
AcDbAlignedDimension
 13
7452.526008755369
 23
-9040.462711884805
 33
0.0
 14
7452.526008755369
 24
-8640.462711884804
 34
0.0
 50
90.0
100
AcDbRotatedDimension
1001
ACAD
1000
DSTYLE
1002
{
1070
   288
1070
     1
1070
   284
1070
     0
1070
   140
1040
2.0
1070
    47
1040
495.0
1070
   174
1070
     1
1070
   146
1040
1.0
1070
   272
1070
     1
1070
    77
1070
     1
1070
   271
1070
     1
1070
     5
1000
ARROW
1070
    41
1040
1.5
1002
}
  0
DIMENSION
  5
3F8
330
2
100
AcDbEntity
  8
SUNPOU
100
AcDbDimension
  2
*D6
 10
8230.123513273065
 20
-8680.462711884805
 30
0.0
 11
8230.123513273065
 21
-8840.462711884804
 31
0.0
 12
12.9961291756772
 22
-3264.786527797511
 32
0.0
 70
   128
 71
     5
 42
-1.0
  3
IMCADLT
100
AcDbAlignedDimension
 13
8107.526008752692
 23
-9000.462711884804
 33
0.0
 14
8107.526008752692
 24
-8680.462711884805
 34
0.0
 50
90.0
100
AcDbRotatedDimension
1001
ACAD
1000
DSTYLE
1002
{
1070
   288
1070
     1
1070
   284
1070
     0
1070
   140
1040
2.0
1070
    47
1040
495.0
1070
   174
1070
     1
1070
   146
1040
1.0
1070
   272
1070
     1
1070
    77
1070
     1
1070
   271
1070
     1
1070
     5
1000
ARROW
1070
    41
1040
1.5
1002
}
  0
MTEXT
  5
405
102
{ACAD_REACTORS
330
406
102
}
330
2
100
AcDbEntity
  8
SUNPOU
100
AcDbMText
 10
6653.578456247905
 20
-10475.5938517535
 30
0.0
 40
20.0
 41
0.0
 71
     4
 72
     1
  1
\A1;AC100V用コンセント
 73
     1
 44
1.0
1001
ACAD
1000
MTEXTBEGIN
1070
    73
1070
     1
1070
    44
1040
1.0
1070
    74
1070
     0
1000
MTEXTEND
  0
LEADER
  5
406
330
2
100
AcDbEntity
  8
SUNPOU
100
AcDbLeader
  3
IMCADLT
 73
     0
 74
     0
 75
     1
 41
245.1428571428574
 76
     3
 10
6517.587488676643
 20
-10319.29518906845
 30
0.0
 10
6628.578456247905
 20
-10495.5938517535
 30
0.0
 10
6643.578456247905
 20
-10495.5938517535
 30
0.0
340
405
1001
ACAD
1000
DSTYLE
1002
{
1070
   288
1070
     1
1070
   284
1070
     0
1070
   140
1040
2.0
1070
    47
1040
495.0
1070
   174
1070
     1
1070
   146
1040
1.0
1070
   272
1070
     1
1070
    77
1070
     1
1070
   271
1070
     1
1070
     5
1000
ARROW
1070
    41
1040
1.5
1002
}
  0
MTEXT
  5
407
102
{ACAD_REACTORS
330
408
102
}
330
2
100
AcDbEntity
  8
SUNPOU
100
AcDbMText
 10
6680.35812472869
 20
-10231.52638299867
 30
0.0
 40
20.0
 41
0.0
 71
     4
 72
     1
  1
\A1;L=500
 73
     1
 44
1.0
1001
ACAD
1000
MTEXTBEGIN
1070
    73
1070
     1
1070
    44
1040
1.0
1070
    74
1070
     0
1000
MTEXTEND
  0
LEADER
  5
408
330
2
100
AcDbEntity
  8
SUNPOU
100
AcDbLeader
  3
IMCADLT
 73
     0
 74
     0
 75
     1
 41
91.42857142857142
 76
     3
 10
6568.657621752092
 20
-10167.9783440847
 30
0.0
 10
6655.35812472869
 20
-10251.52638299867
 30
0.0
 10
6670.358124728689
 20
-10251.52638299867
 30
0.0
340
407
1001
ACAD
1000
DSTYLE
1002
{
1070
   288
1070
     1
1070
   284
1070
     0
1070
   140
1040
2.0
1070
    47
1040
495.0
1070
   174
1070
     1
1070
   146
1040
1.0
1070
   272
1070
     1
1070
    77
1070
     1
1070
   271
1070
     1
1070
     5
1000
ARROW
1070
    41
1040
1.5
1002
}
  0
MTEXT
  5
409
102
{ACAD_REACTORS
330
40A
102
}
330
2
100
AcDbEntity
  8
SUNPOU
100
AcDbMText
 10
6627.615760082855
 20
-9337.520242239149
 30
0.0
 40
20.0
 41
0.0
 71
     4
 72
     1
  1
\A1;AC100V用コンセント
 73
     1
 44
1.0
1001
ACAD
1000
MTEXTBEGIN
1070
    73
1070
     1
1070
    44
1040
1.0
1070
    74
1070
     0
1000
MTEXTEND
  0
LEADER
  5
40A
330
2
100
AcDbEntity
  8
SUNPOU
100
AcDbLeader
  3
IMCADLT
 73
     0
 74
     0
 75
     1
 41
245.1428571428574
 76
     3
 10
6525.963351475752
 20
-8959.553823748521
 30
0.0
 10
6602.615760082855
 20
-9357.520242239148
 30
0.0
 10
6617.615760082856
 20
-9357.520242239148
 30
0.0
340
409
1001
ACAD
1000
DSTYLE
1002
{
1070
   288
1070
     1
1070
   284
1070
     0
1070
   140
1040
2.0
1070
    47
1040
495.0
1070
   174
1070
     1
1070
   146
1040
1.0
1070
   272
1070
     1
1070
    77
1070
     1
1070
   271
1070
     1
1070
     5
1000
ARROW
1070
    41
1040
1.5
1002
}
  0
DIMENSION
  5
40B
330
2
100
AcDbEntity
  8
SUNPOU
100
AcDbDimension
  2
*D7
 10
6384.339768276911
 20
-10475.57227865332
 30
0.0
 11
6133.161526657168
 21
-10475.57227865332
 31
0.0
 12
12.9961291756772
 22
-3264.786527797511
 32
0.0
 70
   128
  1
外径φ<>
 71
     5
 42
-1.0
  3
IMCADLT
100
AcDbAlignedDimension
 13
6236.304383800026
 23
-10133.67057490878
 33
0.0
 14
6384.339768276911
 24
-10133.67057490878
 34
0.0
100
AcDbRotatedDimension
1001
ACAD
1000
DSTYLE
1002
{
1070
   288
1070
     1
1070
   284
1070
     0
1070
   140
1040
2.0
1070
    47
1040
495.0
1070
   174
1070
     1
1070
   146
1040
1.0
1070
   272
1070
     1
1070
    77
1070
     1
1070
   271
1070
     1
1070
     5
1000
ARROW
1070
    41
1040
1.5
1002
}
  0
DIMENSION
  5
41A
330
2
100
AcDbEntity
  8
SUNPOU
100
AcDbDimension
  2
*D8
 10
5926.511678563675
 20
-10379.67057490878
 30
0.0
 11
5926.511678563675
 21
-10253.263739185
 31
0.0
 12
12.9961291756772
 22
-3264.786527797511
 32
0.0
 70
   128
 71
     5
 42
-1.0
  3
IMCADLT
100
AcDbAlignedDimension
 13
6236.354383800026
 23
-10133.67057490878
 33
0.0
 14
6010.622426848982
 24
-10379.67057490878
 34
0.0
 50
90.0
100
AcDbRotatedDimension
1001
ACAD
1000
DSTYLE
1002
{
1070
   288
1070
     1
1070
   284
1070
     0
1070
   140
1040
2.0
1070
    47
1040
495.0
1070
   174
1070
     1
1070
   146
1040
1.0
1070
   272
1070
     1
1070
    77
1070
     1
1070
   271
1070
     1
1070
     5
1000
ARROW
1070
    41
1040
1.5
1002
}
  0
DIMENSION
  5
427
330
2
100
AcDbEntity
  8
SUNPOU
100
AcDbDimension
  2
*D9
 10
7068.591431026838
 20
-10379.67057490878
 30
0.0
 11
7068.591431026838
 21
-10024.12375858727
 31
0.0
 12
12.9961291756772
 22
-3264.786527797511
 32
0.0
 70
   128
 71
     5
 42
-1.0
  3
IMCADLT
100
AcDbAlignedDimension
 13
6909.794338919303
 23
-9679.665881329343
 33
0.0
 14
6610.622426848985
 24
-10379.67057490878
 34
0.0
 50
90.0
100
AcDbRotatedDimension
1001
ACAD
1000
DSTYLE
1002
{
1070
   288
1070
     1
1070
   284
1070
     0
1070
   140
1040
2.0
1070
    47
1040
495.0
1070
   174
1070
     1
1070
   146
1040
1.0
1070
   272
1070
     1
1070
    77
1070
     1
1070
   271
1070
     1
1070
     5
1000
ARROW
1070
    41
1040
1.5
1002
}
  0
DIMENSION
  5
434
330
2
100
AcDbEntity
  8
SUNPOU
100
AcDbDimension
  2
*D10
 10
7000.280522250567
 20
-9724.665881329343
 30
0.0
 11
7000.280522250567
 21
-9818.284928948392
 31
0.0
 12
12.9961291756772
 22
-3264.786527797511
 32
0.0
 70
   128
  1
天板厚<>
 71
     5
 42
-1.0
  3
IMCADLT
100
AcDbAlignedDimension
 13
6909.794338919304
 23
-9679.665881329343
 33
0.0
 14
6909.794338919303
 24
-9724.665881329343
 34
0.0
 50
90.0
100
AcDbRotatedDimension
1001
ACAD
1000
DSTYLE
1002
{
1070
   288
1070
     1
1070
   284
1070
     0
1070
   140
1040
2.0
1070
    47
1040
495.0
1070
   174
1070
     1
1070
   146
1040
1.0
1070
   272
1070
     1
1070
    77
1070
     1
1070
   271
1070
     1
1070
     5
1000
ARROW
1070
    41
1040
1.5
1002
}
  0
DIMENSION
  5
443
330
2
100
AcDbEntity
  8
SUNPOU
100
AcDbDimension
  2
*D11
 10
6610.622426848983
 20
-10596.43866198134
 30
0.0
 11
6310.796620506513
 21
-10596.43866198134
 31
0.0
 12
12.9961291756772
 22
-3264.786527797511
 32
0.0
 70
   128
 71
     5
 42
-1.0
  3
IMCADLT
100
AcDbAlignedDimension
 13
6010.622426848982
 23
-10379.67057490878
 33
0.0
 14
6610.622426848983
 24
-10379.67057490878
 34
0.0
100
AcDbRotatedDimension
1001
ACAD
1000
DSTYLE
1002
{
1070
   288
1070
     1
1070
   284
1070
     0
1070
   140
1040
2.0
1070
    47
1040
495.0
1070
   174
1070
     1
1070
   146
1040
1.0
1070
   272
1070
     1
1070
    77
1070
     1
1070
   271
1070
     1
1070
     5
1000
ARROW
1070
    41
1040
1.5
1002
}
  0
DIMENSION
  5
450
330
2
100
AcDbEntity
  8
SUNPOU
100
AcDbDimension
  2
*D12
 10
5709.794338856731
 20
-9405.108288650978
 30
0.0
 11
6309.484745422011
 21
-9405.108288650978
 31
0.0
 12
12.9961291756772
 22
-3264.786527797511
 32
0.0
 70
   128
 71
     5
 42
-1.0
  3
IMCADLT
100
AcDbAlignedDimension
 13
6909.794338919304
 23
-9240.462711966294
 33
0.0
 14
5709.794338856731
 24
-9240.462711966294
 34
0.0
100
AcDbRotatedDimension
1001
ACAD
1000
DSTYLE
1002
{
1070
   288
1070
     1
1070
   284
1070
     0
1070
   140
1040
2.0
1070
    47
1040
495.0
1070
   174
1070
     1
1070
   146
1040
1.0
1070
   272
1070
     1
1070
    77
1070
     1
1070
   271
1070
     1
1070
     5
1000
ARROW
1070
    41
1040
1.5
1002
}
  0
DIMENSION
  5
45D
330
2
100
AcDbEntity
  8
SUNPOU
100
AcDbDimension
  2
*D13
 10
7070.842055268437
 20
-9240.462711966294
 30
0.0
 11
7070.842055268437
 21
-8840.462711884804
 31
0.0
 12
12.9961291756772
 22
-3264.786527797511
 32
0.0
 70
   128
 71
     5
 42
-1.0
  3
IMCADLT
100
AcDbAlignedDimension
 13
6909.794338919304
 23
-8440.462711803313
 33
0.0
 14
6909.794338919304
 24
-9240.462711966294
 34
0.0
 50
90.0
100
AcDbRotatedDimension
1001
ACAD
1000
DSTYLE
1002
{
1070
   288
1070
     1
1070
   284
1070
     0
1070
   140
1040
2.0
1070
    47
1040
495.0
1070
   174
1070
     1
1070
   146
1040
1.0
1070
   272
1070
     1
1070
    77
1070
     1
1070
   271
1070
     1
1070
     5
1000
ARROW
1070
    41
1040
1.5
1002
}
  0
LINE
  5
46A
330
2
100
AcDbEntity
  8
JISSEN
100
AcDbLine
 10
6310.622426848986
 20
-10379.67057490878
 30
0.0
 11
6610.622426848985
 21
-10379.67057490878
 31
0.0
  0
LINE
  5
46B
330
2
100
AcDbEntity
  8
JISSEN
100
AcDbLine
 10
6610.622426848985
 20
-10379.67057490878
 30
0.0
 11
6610.622426848985
 21
-9724.665881329343
 31
0.0
  0
LINE
  5
46C
330
2
100
AcDbEntity
  8
JISSEN
100
AcDbLine
 10
5710.849813182298
 20
-9724.665881329343
 30
0.0
 11
5710.849813182298
 21
-9679.665881329343
 31
0.0
  0
LINE
  5
46D
330
2
100
AcDbEntity
  8
JISSEN
100
AcDbLine
 10
6125.294679031952
 20
-9679.665881329343
 30
0.0
 11
5710.849813182299
 21
-9679.665881329343
 31
0.0
  0
LINE
  5
46E
330
2
100
AcDbEntity
  8
JISSEN
100
AcDbLine
 10
6125.279692572643
 20
-9724.665881329343
 30
0.0
 11
5710.849813182298
 21
-9724.665881329343
 31
0.0
  0
LINE
  5
46F
330
2
100
AcDbEntity
  8
JISSEN
100
AcDbLine
 10
6010.622426848982
 20
-10379.67057490878
 30
0.0
 11
6010.622426848982
 21
-9724.665881329343
 31
0.0
  0
LINE
  5
470
330
2
100
AcDbEntity
  8
JISSEN
100
AcDbLine
 10
6310.622426848983
 20
-10379.67057490878
 30
0.0
 11
6010.622426848982
 21
-10379.67057490878
 31
0.0
  0
LINE
  5
471
330
2
100
AcDbEntity
  8
JISSEN
100
AcDbLine
 10
6495.365118969677
 20
-9724.665881329343
 30
0.0
 11
6909.794338919304
 21
-9724.665881329343
 31
0.0
  0
LINE
  5
472
330
2
100
AcDbEntity
  8
JISSEN
100
AcDbLine
 10
6495.349473069649
 20
-9679.665881329343
 30
0.0
 11
6909.794338919303
 21
-9679.665881329343
 31
0.0
  0
LINE
  5
473
330
2
100
AcDbEntity
  8
JISSEN
100
AcDbLine
 10
6909.794338919304
 20
-9724.665881329343
 30
0.0
 11
6909.794338919304
 21
-9679.665881329343
 31
0.0
  0
LINE
  5
474
330
2
100
AcDbEntity
  8
JISSEN
100
AcDbLine
 10
5709.794338856731
 20
-9240.462711966294
 30
0.0
 11
6909.794338919304
 21
-9240.462711966294
 31
0.0
  0
LINE
  5
475
330
2
100
AcDbEntity
  8
JISSEN
100
AcDbLine
 10
6909.794338919304
 20
-9240.462711966294
 30
0.0
 11
6909.794338919304
 21
-8440.462711803313
 31
0.0
  0
LINE
  5
476
330
2
100
AcDbEntity
  8
JISSEN
100
AcDbLine
 10
6909.794338919304
 20
-8440.462711803313
 30
0.0
 11
5709.794338856731
 21
-8440.462711803313
 31
0.0
  0
LINE
  5
477
330
2
100
AcDbEntity
  8
JISSEN
100
AcDbLine
 10
5709.794338856731
 20
-8440.462711803313
 30
0.0
 11
5709.794338856731
 21
-9240.462711966294
 31
0.0
  0
LINE
  5
478
330
2
100
AcDbEntity
  8
JISSEN
100
AcDbLine
 10
7398.526008755429
 20
-8685.462711884804
 30
0.0
 11
7398.526008755429
 21
-8840.462711884804
 31
0.0
  0
ARC
  5
479
330
2
100
AcDbEntity
  8
トップリング
 48
0.1
100
AcDbCircle
 10
7476.054074039301
 20
-8701.514656926233
 30
0.0
 40
80.0
100
AcDbArc
 50
152.1119633967019
 51
163.4962387075247
  0
ARC
  5
47A
330
2
100
AcDbEntity
  8
トップリング
 48
0.1
100
AcDbCircle
 10
7418.526008755428
 20
-8684.469959665948
 30
0.0
 40
20.0
100
AcDbArc
 50
163.4962387075247
 51
180.0
  0
LINE
  5
47B
330
2
100
AcDbEntity
  8
トップリング
 48
0.1
100
AcDbLine
 10
7398.526008755429
 20
-8684.469959665948
 30
0.0
 11
7398.526008755429
 21
-8685.462711884804
 31
0.0
  0
ARC
  5
47C
330
2
100
AcDbEntity
  8
トップリング
 48
0.1
100
AcDbCircle
 10
7408.880462108573
 20
-8665.966016162059
 30
0.0
 40
4.0
100
AcDbArc
 50
109.7924136514011
 51
152.1119633967055
  0
LINE
  5
47D
330
2
100
AcDbEntity
  8
JISSEN
100
AcDbLine
 10
7406.526008755431
 20
-8648.462711884802
 30
0.0
 11
7406.526008755429
 21
-8662.732357335302
 31
0.0
  0
LINE
  5
47E
330
2
100
AcDbEntity
  8
JISSEN
100
AcDbLine
 10
7406.526008755431
 20
-8648.462711884802
 30
0.0
 11
7407.526008755368
 21
-8648.462711884802
 31
0.0
  0
LINE
  5
47F
330
2
100
AcDbEntity
  8
JISSEN
100
AcDbLine
 10
7398.526008755429
 20
-8995.462711884803
 30
0.0
 11
7398.526008755429
 21
-8840.462711884804
 31
0.0
  0
LINE
  5
480
330
2
100
AcDbEntity
  8
JISSEN
100
AcDbLine
 10
7406.526008755431
 20
-9032.462711884805
 30
0.0
 11
7407.526008755368
 21
-9032.462711884805
 31
0.0
  0
LINE
  5
481
330
2
100
AcDbEntity
  8
JISSEN
100
AcDbLine
 10
7406.526008755431
 20
-9032.462711884805
 30
0.0
 11
7406.526008755429
 21
-9018.193066434301
 31
0.0
  0
ARC
  5
482
330
2
100
AcDbEntity
  8
トップリング
 48
0.1
100
AcDbCircle
 10
7408.880462108573
 20
-9014.959407607545
 30
0.0
 40
4.0
100
AcDbArc
 50
207.8880366032944
 51
250.2075863485989
  0
LINE
  5
483
330
2
100
AcDbEntity
  8
トップリング
 48
0.1
100
AcDbLine
 10
7398.526008755429
 20
-8996.455464103657
 30
0.0
 11
7398.526008755429
 21
-8995.462711884803
 31
0.0
  0
ARC
  5
484
330
2
100
AcDbEntity
  8
トップリング
 48
0.1
100
AcDbCircle
 10
7418.526008755428
 20
-8996.455464103656
 30
0.0
 40
20.0
100
AcDbArc
 50
180.0
 51
196.5037612924753
  0
ARC
  5
485
330
2
100
AcDbEntity
  8
トップリング
 48
0.1
100
AcDbCircle
 10
7476.054074039301
 20
-8979.410766843372
 30
0.0
 40
80.0
100
AcDbArc
 50
196.5037612924753
 51
207.8880366032981
  0
LINE
  5
486
330
2
100
AcDbEntity
  8
NITEN
 48
0.3
100
AcDbLine
 10
8107.526008752692
 20
-8933.497650057143
 30
0.0
 11
7986.77523707202
 21
-8933.497650057143
 31
0.0
  0
LINE
  5
487
330
2
100
AcDbEntity
  8
NITEN
 48
0.3
100
AcDbLine
 10
7986.77523707202
 20
-8933.497650057143
 30
0.0
 11
7986.77523707202
 21
-8940.462711884803
 31
0.0
  0
LINE
  5
488
330
2
100
AcDbEntity
  8
NITEN
 48
0.3
100
AcDbLine
 10
7986.77523707202
 20
-8933.497650057143
 30
0.0
 11
7986.77523707202
 21
-8928.651389677172
 31
0.0
  0
LINE
  5
489
330
2
100
AcDbEntity
  8
NITEN
 48
0.3
100
AcDbLine
 10
7986.77523707202
 20
-8928.651389677172
 30
0.0
 11
7973.688826574501
 21
-8928.651389677172
 31
0.0
  0
LINE
  5
48A
330
2
100
AcDbEntity
  8
NITEN
 48
0.3
100
AcDbLine
 10
7973.688826574501
 20
-8928.651389677172
 30
0.0
 11
7973.688826574501
 21
-8940.462711884803
 31
0.0
  0
LINE
  5
48B
330
2
100
AcDbEntity
  8
NITEN
 48
0.3
100
AcDbLine
 10
7973.688826574501
 20
-8952.274034092431
 30
0.0
 11
7973.688826574501
 21
-8940.462711884803
 31
0.0
  0
LINE
  5
48C
330
2
100
AcDbEntity
  8
NITEN
 48
0.3
100
AcDbLine
 10
7986.77523707202
 20
-8952.274034092431
 30
0.0
 11
7973.688826574501
 21
-8952.274034092431
 31
0.0
  0
LINE
  5
48D
330
2
100
AcDbEntity
  8
NITEN
 48
0.3
100
AcDbLine
 10
7986.77523707202
 20
-8947.42777371246
 30
0.0
 11
7986.77523707202
 21
-8952.274034092431
 31
0.0
  0
LINE
  5
48E
330
2
100
AcDbEntity
  8
NITEN
 48
0.3
100
AcDbLine
 10
7986.77523707202
 20
-8947.42777371246
 30
0.0
 11
7986.77523707202
 21
-8940.462711884803
 31
0.0
  0
LINE
  5
48F
330
2
100
AcDbEntity
  8
NITEN
 48
0.3
100
AcDbLine
 10
8107.526008752692
 20
-8947.42777371246
 30
0.0
 11
7986.77523707202
 21
-8947.42777371246
 31
0.0
  0
LINE
  5
490
330
2
100
AcDbEntity
  8
JISSEN
100
AcDbLine
 10
6896.997958528809
 20
-9768.321943705288
 30
0.0
 11
6882.66913397735
 21
-9769.046303066035
 31
0.0
  0
LINE
  5
491
330
2
100
AcDbEntity
  8
JISSEN
100
AcDbLine
 10
6896.997958528809
 20
-9767.263269595552
 30
0.0
 11
6882.66913397735
 21
-9767.263269595552
 31
0.0
  0
LINE
  5
492
330
2
100
AcDbEntity
  8
JISSEN
100
AcDbLine
 10
6896.997958528809
 20
-9765.870280736821
 30
0.0
 11
6882.66913397735
 21
-9765.870280736821
 31
0.0
  0
LINE
  5
493
330
2
100
AcDbEntity
  8
JISSEN
100
AcDbLine
 10
6896.997958528809
 20
-9764.310134503595
 30
0.0
 11
6882.66913397735
 21
-9764.310134503595
 31
0.0
  0
LINE
  5
494
330
2
100
AcDbEntity
  8
JISSEN
100
AcDbLine
 10
6896.997958528809
 20
-9762.582830895876
 30
0.0
 11
6882.66913397735
 21
-9762.582830895876
 31
0.0
  0
LINE
  5
495
330
2
100
AcDbEntity
  8
JISSEN
100
AcDbLine
 10
6896.997958528809
 20
-9761.022652448858
 30
0.0
 11
6882.66913397735
 21
-9761.022652448858
 31
0.0
  0
LINE
  5
496
330
2
100
AcDbEntity
  8
JISSEN
100
AcDbLine
 10
6896.997958528809
 20
-9759.17638943252
 30
0.0
 11
6882.66913397735
 21
-9759.17638943252
 31
0.0
  0
LINE
  5
497
330
2
100
AcDbEntity
  8
JISSEN
100
AcDbLine
 10
6896.997958528809
 20
-9757.330126416183
 30
0.0
 11
6882.66913397735
 21
-9757.330126416183
 31
0.0
  0
LINE
  5
498
330
2
100
AcDbEntity
  8
JISSEN
100
AcDbLine
 10
6896.997958528809
 20
-9755.769947969163
 30
0.0
 11
6882.66913397735
 21
-9755.769947969163
 31
0.0
  0
LINE
  5
499
330
2
100
AcDbEntity
  8
JISSEN
100
AcDbLine
 10
6896.997958528809
 20
-9754.042644361444
 30
0.0
 11
6882.66913397735
 21
-9754.042644361444
 31
0.0
  0
LINE
  5
49A
330
2
100
AcDbEntity
  8
JISSEN
100
AcDbLine
 10
6896.997958528809
 20
-9752.482498128218
 30
0.0
 11
6882.66913397735
 21
-9752.482498128218
 31
0.0
  0
LINE
  5
49B
330
2
100
AcDbEntity
  8
JISSEN
100
AcDbLine
 10
6896.997958528809
 20
-9751.089509269489
 30
0.0
 11
6882.66913397735
 21
-9751.089509269489
 31
0.0
  0
LINE
  5
49C
330
2
100
AcDbEntity
  8
JISSEN
100
AcDbLine
 10
6896.997958528809
 20
-9750.030835159751
 30
0.0
 11
6882.66913397735
 21
-9749.306475799004
 31
0.0
  0
LINE
  5
49D
330
2
100
AcDbEntity
  8
JISSEN
100
AcDbLine
 10
6882.66913397735
 20
-9761.298165193279
 30
0.0
 11
6879.794338919302
 21
-9761.298165193279
 31
0.0
  0
LINE
  5
49E
330
2
100
AcDbEntity
  8
JISSEN
100
AcDbLine
 10
6882.66913397735
 20
-9757.054613671762
 30
0.0
 11
6879.794338919302
 21
-9757.054613671762
 31
0.0
  0
LINE
  5
49F
330
2
100
AcDbEntity
  8
TENSEN
100
AcDbLine
 10
6549.794338797068
 20
-9040.46271188351
 30
0.0
 11
6549.794338797068
 21
-9060.462711883507
 31
0.0
  0
INSERT
  5
4A0
330
2
100
AcDbEntity
  8
ITTEN
100
AcDbBlockReference
  2
BATU2
 10
6523.79433879465
 20
-9059.462711886467
 30
0.0
 41
6.749593386224887
 42
9.402449171779153
 43
6.749593386224887
  0
CIRCLE
  5
4A6
330
2
100
AcDbEntity
  8
JISSEN
100
AcDbCircle
 10
6523.79433879465
 20
-9059.462711886467
 30
0.0
 40
3.0
  0
ARC
  5
4A7
330
2
100
AcDbEntity
  8
TENSEN
100
AcDbCircle
 10
6539.794338797069
 20
-9060.462711883507
 30
0.0
 40
10.0
100
AcDbArc
 50
270.0
 51
0.0
  0
INSERT
  5
4A8
330
2
100
AcDbEntity
  8
ITTEN
100
AcDbBlockReference
  2
BATU2
 10
6309.794338794651
 20
-9059.462711886467
 30
0.0
 41
10.8540324204971
 42
9.402449171779153
 43
10.8540324204971
  0
CIRCLE
  5
4A9
330
2
100
AcDbEntity
  8
JISSEN
100
AcDbCircle
 10
6309.794338794651
 20
-9059.462711886467
 30
0.0
 40
3.0
  0
LINE
  5
4AA
330
2
100
AcDbEntity
  8
TENSEN
100
AcDbLine
 10
6539.794338797069
 20
-9070.462711883509
 30
0.0
 11
6079.794338797069
 21
-9070.462711883509
 31
0.0
  0
LINE
  5
4AB
330
2
100
AcDbEntity
  8
TENSEN
100
AcDbLine
 10
6069.794338797069
 20
-9060.462711883507
 30
0.0
 11
6069.794338797069
 21
-9040.46271188351
 31
0.0
  0
CIRCLE
  5
4AC
330
2
100
AcDbEntity
  8
JISSEN
100
AcDbCircle
 10
6095.794338799485
 20
-9059.462711886467
 30
0.0
 40
3.0
  0
INSERT
  5
4AD
330
2
100
AcDbEntity
  8
ITTEN
100
AcDbBlockReference
  2
BATU2
 10
6095.794338799485
 20
-9059.462711886467
 30
0.0
 41
-6.749593386224887
 42
9.402449171779153
 43
6.749593386224887
  0
ARC
  5
4AE
330
2
100
AcDbEntity
  8
TENSEN
100
AcDbCircle
 10
6079.794338797069
 20
-9060.462711883507
 30
0.0
 40
10.0
100
AcDbArc
 50
180.0
 51
270.0
  0
ARC
  5
4AF
330
2
100
AcDbEntity
  8
TENSEN
100
AcDbCircle
 10
6079.794338797069
 20
-8620.4627118861
 30
0.0
 40
10.0
100
AcDbArc
 50
90.0
 51
180.0
  0
ARC
  5
4B0
330
2
100
AcDbEntity
  8
TENSEN
100
AcDbCircle
 10
6539.794338797069
 20
-8620.4627118861
 30
0.0
 40
10.0
100
AcDbArc
 50
0.0
 51
90.0
  0
LINE
  5
4B1
330
2
100
AcDbEntity
  8
TENSEN
100
AcDbLine
 10
6779.794338917735
 20
-8884.462711884806
 30
0.0
 11
6864.38012535693
 21
-8884.462711884806
 31
0.0
  0
LINE
  5
4B2
330
2
100
AcDbEntity
  8
TENSEN
100
AcDbLine
 10
6819.794338917735
 20
-8892.462711884807
 30
0.0
 11
6819.794338917735
 21
-8884.462711884806
 31
0.0
  0
LINE
  5
4B3
330
2
100
AcDbEntity
  8
TENSEN
100
AcDbLine
 10
6814.794338917735
 20
-8897.462711884806
 30
0.0
 11
6794.794338917736
 21
-8897.462711884806
 31
0.0
  0
LINE
  5
4B4
330
2
100
AcDbEntity
  8
TENSEN
100
AcDbLine
 10
6868.38012535693
 20
-8884.462711884806
 30
0.0
 11
6864.38012535693
 21
-8884.462711884806
 31
0.0
  0
LINE
  5
4B5
330
2
100
AcDbEntity
  8
TENSEN
100
AcDbLine
 10
6789.794338917736
 20
-8892.462711884807
 30
0.0
 11
6789.794338917736
 21
-8884.462711884806
 31
0.0
  0
LINE
  5
4B6
330
2
100
AcDbEntity
  8
TENSEN
100
AcDbLine
 10
6869.38012535693
 20
-8884.462711884806
 30
0.0
 11
6868.38012535693
 21
-8884.462711884806
 31
0.0
  0
LINE
  5
4B7
330
2
100
AcDbEntity
  8
TENSEN
100
AcDbLine
 10
6869.794338919303
 20
-8885.462711884805
 30
0.0
 11
6879.794338919303
 21
-8875.462711884805
 31
0.0
  0
LINE
  5
4B8
330
2
100
AcDbEntity
  8
TENSEN
100
AcDbLine
 10
6869.38012535693
 20
-8884.462711884806
 30
0.0
 11
6878.794338919303
 21
-8875.048498322433
 31
0.0
  0
CIRCLE
  5
4B9
330
2
100
AcDbEntity
  8
TENSEN
100
AcDbCircle
 10
6804.794338917734
 20
-8892.462711884807
 30
0.0
 40
3.0
  0
LINE
  5
4BA
330
2
100
AcDbEntity
  8
ITTEN
100
AcDbLine
 10
6795.96098647316
 20
-8892.462711884803
 30
0.0
 11
6813.62769136231
 21
-8892.462711884803
 31
0.0
  0
LINE
  5
4BB
330
2
100
AcDbEntity
  8
ITTEN
100
AcDbLine
 10
6804.794338917734
 20
-8905.100514602514
 30
0.0
 11
6804.794338917734
 21
-8879.824909167096
 31
0.0
  0
ARC
  5
4BC
330
2
100
AcDbEntity
  8
TENSEN
100
AcDbCircle
 10
6794.794338917736
 20
-8892.462711884807
 30
0.0
 40
5.0
100
AcDbArc
 50
180.0
 51
269.9999999999999
  0
ARC
  5
4BD
330
2
100
AcDbEntity
  8
TENSEN
100
AcDbCircle
 10
6814.794338917735
 20
-8892.462711884807
 30
0.0
 40
5.0
100
AcDbArc
 50
269.9999999999998
 51
0.0
  0
LINE
  5
4BE
330
2
100
AcDbEntity
  8
TENSEN
100
AcDbLine
 10
6784.794338917736
 20
-8867.962711884805
 30
0.0
 11
6859.794338919304
 21
-8867.962711884805
 31
0.0
  0
LINE
  5
4BF
330
2
100
AcDbEntity
  8
TENSEN
100
AcDbLine
 10
6864.794338919303
 20
-8884.462711884806
 30
0.0
 11
6864.794338919303
 21
-8872.962711884806
 31
0.0
  0
ARC
  5
4C0
330
2
100
AcDbEntity
  8
TENSEN
100
AcDbCircle
 10
6859.794338919304
 20
-8872.962711884806
 30
0.0
 40
5.0
100
AcDbArc
 50
0.0
 51
90.00000000000003
  0
LINE
  5
4C1
330
2
100
AcDbEntity
  8
TENSEN
100
AcDbLine
 10
6779.794338917735
 20
-8885.462711884805
 30
0.0
 11
6779.794338917735
 21
-8872.962711884806
 31
0.0
  0
ARC
  5
4C2
330
2
100
AcDbEntity
  8
TENSEN
100
AcDbCircle
 10
6784.794338917736
 20
-8872.962711884806
 30
0.0
 40
5.0
100
AcDbArc
 50
90.00000000000003
 51
180.0
  0
LINE
  5
4C3
330
2
100
AcDbEntity
  8
TENSEN
100
AcDbLine
 10
6779.794338917735
 20
-8885.462711884805
 30
0.0
 11
6869.794338919303
 21
-8885.462711884805
 31
0.0
  0
INSERT
  5
4C4
330
2
100
AcDbEntity
  8
ITTEN
100
AcDbBlockReference
  2
BATU2
 10
6095.794338799485
 20
-8621.46271188314
 30
0.0
 41
6.749593386224887
 42
9.402449171779153
 43
6.749593386224887
 50
180.0
  0
CIRCLE
  5
4C5
330
2
100
AcDbEntity
  8
JISSEN
100
AcDbCircle
 10
6095.794338799485
 20
-8621.46271188314
 30
0.0
 40
3.0
  0
CIRCLE
  5
4C6
330
2
100
AcDbEntity
  8
JISSEN
100
AcDbCircle
 10
6309.794338794651
 20
-8621.46271188314
 30
0.0
 40
3.0
  0
INSERT
  5
4C7
330
2
100
AcDbEntity
  8
ITTEN
100
AcDbBlockReference
  2
BATU2
 10
6309.794338794651
 20
-8621.46271188314
 30
0.0
 41
-10.8540324204971
 42
9.402449171779153
 43
10.8540324204971
 50
180.0
  0
CIRCLE
  5
4C8
330
2
100
AcDbEntity
  8
JISSEN
100
AcDbCircle
 10
6523.79433879465
 20
-8621.46271188314
 30
0.0
 40
3.0
  0
INSERT
  5
4C9
330
2
100
AcDbEntity
  8
ITTEN
100
AcDbBlockReference
  2
BATU2
 10
6523.79433879465
 20
-8621.46271188314
 30
0.0
 41
-6.749593386224887
 42
9.402449171779153
 43
6.749593386224887
 50
180.0
  0
POLYLINE
  5
4CA
330
2
100
AcDbEntity
  8
JISSEN
100
AcDb2dPolyline
 66
     1
 10
0.0
 20
0.0
 30
0.0
 70
     4
 75
     5
  0
VERTEX
  5
4CB
330
4CA
100
AcDbEntity
  8
JISSEN
100
AcDbVertex
100
AcDb2dVertex
 10
7810.395936517462
 20
-8967.00066880345
 30
0.0
 70
    16
  0
VERTEX
  5
4CC
330
4CA
100
AcDbEntity
  8
JISSEN
100
AcDbVertex
100
AcDb2dVertex
 10
7810.395936517462
 20
-8967.00066880345
 30
0.0
 70
     8
  0
VERTEX
  5
4CD
330
4CA
100
AcDbEntity
  8
JISSEN
100
AcDbVertex
100
AcDb2dVertex
 10
7809.241258858659
 20
-8964.678442811452
 30
0.0
 70
     8
  0
VERTEX
  5
4CE
330
4CA
100
AcDbEntity
  8
JISSEN
100
AcDbVertex
100
AcDb2dVertex
 10
7808.327856707489
 20
-8962.470441866782
 30
0.0
 70
     8
  0
VERTEX
  5
4CF
330
4CA
100
AcDbEntity
  8
JISSEN
100
AcDbVertex
100
AcDb2dVertex
 10
7807.655730063951
 20
-8960.376665969441
 30
0.0
 70
     8
  0
VERTEX
  5
4D0
330
4CA
100
AcDbEntity
  8
JISSEN
100
AcDbVertex
100
AcDb2dVertex
 10
7807.224878928046
 20
-8958.397115119426
 30
0.0
 70
     8
  0
VERTEX
  5
4D1
330
4CA
100
AcDbEntity
  8
JISSEN
100
AcDbVertex
100
AcDb2dVertex
 10
7807.035303299771
 20
-8956.531789316736
 30
0.0
 70
     8
  0
VERTEX
  5
4D2
330
4CA
100
AcDbEntity
  8
JISSEN
100
AcDbVertex
100
AcDb2dVertex
 10
7807.087003179131
 20
-8954.780688561374
 30
0.0
 70
     8
  0
VERTEX
  5
4D3
330
4CA
100
AcDbEntity
  8
JISSEN
100
AcDbVertex
100
AcDb2dVertex
 10
7807.379978566124
 20
-8953.143812853339
 30
0.0
 70
     8
  0
VERTEX
  5
4D4
330
4CA
100
AcDbEntity
  8
JISSEN
100
AcDbVertex
100
AcDb2dVertex
 10
7807.914229460746
 20
-8951.621162192633
 30
0.0
 70
     8
  0
VERTEX
  5
4D5
330
4CA
100
AcDbEntity
  8
JISSEN
100
AcDbVertex
100
AcDb2dVertex
 10
7808.485103160364
 20
-8950.150236946779
 30
0.0
 70
     8
  0
VERTEX
  5
4D6
330
4CA
100
AcDbEntity
  8
JISSEN
100
AcDbVertex
100
AcDb2dVertex
 10
7808.88794696234
 20
-8948.668537483301
 30
0.0
 70
     8
  0
VERTEX
  5
4D7
330
4CA
100
AcDbEntity
  8
JISSEN
100
AcDbVertex
100
AcDb2dVertex
 10
7809.122760866674
 20
-8947.176063802201
 30
0.0
 70
     8
  0
VERTEX
  5
4D8
330
4CA
100
AcDbEntity
  8
JISSEN
100
AcDbVertex
100
AcDb2dVertex
 10
7809.189544873365
 20
-8945.672815903485
 30
0.0
 70
     8
  0
VERTEX
  5
4D9
330
4CA
100
AcDbEntity
  8
JISSEN
100
AcDbVertex
100
AcDb2dVertex
 10
7809.088298982413
 20
-8944.158793787144
 30
0.0
 70
     8
  0
VERTEX
  5
4DA
330
4CA
100
AcDbEntity
  8
JISSEN
100
AcDbVertex
100
AcDb2dVertex
 10
7808.819023193819
 20
-8942.63399745318
 30
0.0
 70
     8
  0
VERTEX
  5
4DB
330
4CA
100
AcDbEntity
  8
JISSEN
100
AcDbVertex
100
AcDb2dVertex
 10
7808.381717507582
 20
-8941.098426901595
 30
0.0
 70
     8
  0
VERTEX
  5
4DC
330
4CA
100
AcDbEntity
  8
JISSEN
100
AcDbVertex
100
AcDb2dVertex
 10
7807.776381923702
 20
-8939.55208213239
 30
0.0
 70
     8
  0
VERTEX
  5
4DD
330
4CA
100
AcDbEntity
  8
JISSEN
100
AcDbVertex
100
AcDb2dVertex
 10
7805.294674866988
 20
-8957.483314740809
 30
0.0
 70
    16
  0
VERTEX
  5
4DE
330
4CA
100
AcDbEntity
  8
JISSEN
100
AcDbVertex
100
AcDb2dVertex
 10
7810.533784054506
 20
-8945.759009644456
 30
0.0
 70
    16
  0
VERTEX
  5
4DF
330
4CA
100
AcDbEntity
  8
JISSEN
100
AcDbVertex
100
AcDb2dVertex
 10
7807.776381923702
 20
-8939.55208213239
 30
0.0
 70
    16
  0
SEQEND
  5
4E0
330
4CA
100
AcDbEntity
  8
JISSEN
  0
LWPOLYLINE
  5
4E1
330
2
100
AcDbEntity
  8
JISSEN
100
AcDbPolyline
 90
        6
 70
     1
 43
0.0
 10
6562.611696266154
 20
-10215.57546756939
 10
6562.611696266154
 20
-10235.05698232474
 10
6545.263867885798
 20
-10235.05698232474
 10
6545.263867885802
 20
-10215.57546756939
 10
6549.263867885802
 20
-10211.57546756939
 10
6558.611696266154
 20
-10211.57546756939
  0
LWPOLYLINE
  5
4E2
330
2
100
AcDbEntity
  8
JISSEN
100
AcDbPolyline
 90
       15
 70
     0
 43
0.0
 10
6553.937782075976
 20
-10211.57546756939
 10
6554.732441411856
 20
-10200.38466828551
 10
6556.548712775468
 20
-10190.69305128332
 10
6560.78681467157
 20
-10182.21290252662
 10
6564.419519855997
 20
-10171.91555140166
 10
6572.895723648187
 20
-10164.04113676773
 10
6580.16105278844
 20
-10148.29230749987
 10
6583.188280032591
 20
-10134.36055163837
 10
6584.399154684529
 20
-10121.64039298431
 10
6584.399154684529
 20
-10108.31437124555
 10
6584.399154684529
 20
-10093.17127610046
 10
6585.004551396202
 20
-10078.02805199345
 10
6586.21542604814
 20
-10065.30789333936
 10
6586.21542604814
 20
-10055.0105422144
 10
6585.622426848982
 20
-10049.67057490878
  0
LWPOLYLINE
  5
4E3
330
2
100
AcDbEntity
  8
JISSEN
100
AcDbPolyline
 90
       14
 70
     0
 43
0.0
 10
6552.940293795444
 20
-10211.50463586609
 10
6553.739007938645
 20
-10200.2567347112
 10
6555.591613024597
 20
-10190.37124110651
 10
6559.864481828714
 20
-10181.82152617158
 10
6563.55843131736
 20
-10171.35057050873
 10
6572.070417294326
 20
-10163.44291413517
 10
6579.207121226493
 20
-10147.97290175263
 10
6582.198428213484
 20
-10134.20645632633
 10
6583.399154684528
 20
-10121.59290364572
 10
6583.399154684528
 20
-10093.15129505128
 10
6584.006447370761
 20
-10077.96064556674
 10
6585.215426048144
 20
-10065.26040400075
 10
6585.215426048144
 20
-10055.06589668999
 10
6584.616138852125
 20
-10049.66930587173
  0
LWPOLYLINE
  5
4E4
330
2
100
AcDbEntity
  8
JISSEN
100
AcDbPolyline
 90
        4
 70
     1
 43
0.0
 10
6558.575284969156
 20
-10235.05698232474
 10
6558.575284969156
 20
-10250.26030268493
 10
6557.53734599401
 20
-10250.26030268493
 10
6557.53734599401
 20
-10235.05698232474
  0
LWPOLYLINE
  5
4E5
330
2
100
AcDbEntity
  8
JISSEN
100
AcDbPolyline
 90
        4
 70
     1
 43
0.0
 10
6550.444708844771
 20
-10235.05698232474
 10
6550.444708844771
 20
-10250.26030268493
 10
6549.406769869624
 20
-10250.26030268493
 10
6549.406769869624
 20
-10235.05698232474
  0
LINE
  5
4E6
330
2
100
AcDbEntity
  8
JISSEN
100
AcDbLine
 10
6547.339177235925
 20
-10230.89525231077
 30
0.0
 11
6559.770482502448
 21
-10230.89525231077
 31
0.0
  0
LINE
  5
4E7
330
2
100
AcDbEntity
  8
JISSEN
100
AcDbLine
 10
6559.770482502448
 20
-10227.72949517954
 30
0.0
 11
6547.339177235925
 21
-10227.72949517954
 31
0.0
  0
LINE
  5
4E8
330
2
100
AcDbEntity
  8
JISSEN
100
AcDbLine
 10
6547.339177235925
 20
-10224.78980828826
 30
0.0
 11
6559.770482502448
 21
-10224.78980828826
 31
0.0
  0
POLYLINE
  5
4E9
330
2
100
AcDbEntity
  8
JISSEN
100
AcDb2dPolyline
 66
     1
 10
0.0
 20
0.0
 30
0.0
 70
     4
 75
     6
  0
VERTEX
  5
4EA
330
4E9
100
AcDbEntity
  8
JISSEN
100
AcDbVertex
100
AcDb2dVertex
 10
6583.399154684528
 20
-10104.86215319751
 30
0.0
 70
    16
  0
VERTEX
  5
4EB
330
4E9
100
AcDbEntity
  8
JISSEN
100
AcDbVertex
100
AcDb2dVertex
 10
6583.399154684528
 20
-10104.86215319751
 30
0.0
 70
     8
  0
VERTEX
  5
4EC
330
4E9
100
AcDbEntity
  8
JISSEN
100
AcDbVertex
100
AcDb2dVertex
 10
6578.865050021294
 20
-10099.95888623706
 30
0.0
 70
     8
  0
VERTEX
  5
4ED
330
4E9
100
AcDbEntity
  8
JISSEN
100
AcDbVertex
100
AcDb2dVertex
 10
6574.475708079365
 20
-10096.49942133433
 30
0.0
 70
     8
  0
VERTEX
  5
4EE
330
4E9
100
AcDbEntity
  8
JISSEN
100
AcDbVertex
100
AcDb2dVertex
 10
6570.257926752123
 20
-10094.33723139415
 30
0.0
 70
     8
  0
VERTEX
  5
4EF
330
4E9
100
AcDbEntity
  8
JISSEN
100
AcDbVertex
100
AcDb2dVertex
 10
6566.238503932957
 20
-10093.32578932135
 30
0.0
 70
     8
  0
VERTEX
  5
4F0
330
4E9
100
AcDbEntity
  8
JISSEN
100
AcDbVertex
100
AcDb2dVertex
 10
6562.444237515252
 20
-10093.31856802077
 30
0.0
 70
     8
  0
VERTEX
  5
4F1
330
4E9
100
AcDbEntity
  8
JISSEN
100
AcDbVertex
100
AcDb2dVertex
 10
6558.901925392389
 20
-10094.16904039723
 30
0.0
 70
     8
  0
VERTEX
  5
4F2
330
4E9
100
AcDbEntity
  8
JISSEN
100
AcDbVertex
100
AcDb2dVertex
 10
6555.638365457757
 20
-10095.73067935557
 30
0.0
 70
     8
  0
VERTEX
  5
4F3
330
4E9
100
AcDbEntity
  8
JISSEN
100
AcDbVertex
100
AcDb2dVertex
 10
6552.680355604747
 20
-10097.85695780061
 30
0.0
 70
     8
  0
VERTEX
  5
4F4
330
4E9
100
AcDbEntity
  8
JISSEN
100
AcDbVertex
100
AcDb2dVertex
 10
6550.049351963529
 20
-10100.41626365153
 30
0.0
 70
     8
  0
VERTEX
  5
4F5
330
4E9
100
AcDbEntity
  8
JISSEN
100
AcDbVertex
100
AcDb2dVertex
 10
6547.745443611491
 20
-10103.33664488493
 30
0.0
 70
     8
  0
VERTEX
  5
4F6
330
4E9
100
AcDbEntity
  8
JISSEN
100
AcDbVertex
100
AcDb2dVertex
 10
6545.763377862815
 20
-10106.56106449174
 30
0.0
 70
     8
  0
VERTEX
  5
4F7
330
4E9
100
AcDbEntity
  8
JISSEN
100
AcDbVertex
100
AcDb2dVertex
 10
6544.097902031676
 20
-10110.0324854629
 30
0.0
 70
     8
  0
VERTEX
  5
4F8
330
4E9
100
AcDbEntity
  8
JISSEN
100
AcDbVertex
100
AcDb2dVertex
 10
6542.743763432257
 20
-10113.69387078935
 30
0.0
 70
     8
  0
VERTEX
  5
4F9
330
4E9
100
AcDbEntity
  8
JISSEN
100
AcDbVertex
100
AcDb2dVertex
 10
6541.695709378737
 20
-10117.48818346203
 30
0.0
 70
     8
  0
VERTEX
  5
4FA
330
4E9
100
AcDbEntity
  8
JISSEN
100
AcDbVertex
100
AcDb2dVertex
 10
6540.948487185295
 20
-10121.35838647187
 30
0.0
 70
     8
  0
VERTEX
  5
4FB
330
4E9
100
AcDbEntity
  8
JISSEN
100
AcDbVertex
100
AcDb2dVertex
 10
6540.496844166113
 20
-10125.24744280982
 30
0.0
 70
     8
  0
VERTEX
  5
4FC
330
4E9
100
AcDbEntity
  8
JISSEN
100
AcDbVertex
100
AcDb2dVertex
 10
6540.336005147435
 20
-10129.10129856689
 30
0.0
 70
     8
  0
VERTEX
  5
4FD
330
4E9
100
AcDbEntity
  8
JISSEN
100
AcDbVertex
100
AcDb2dVertex
 10
6540.463105003787
 20
-10132.87783223439
 30
0.0
 70
     8
  0
VERTEX
  5
4FE
330
4E9
100
AcDbEntity
  8
JISSEN
100
AcDbVertex
100
AcDb2dVertex
 10
6540.875756121756
 20
-10136.53790540371
 30
0.0
 70
     8
  0
VERTEX
  5
4FF
330
4E9
100
AcDbEntity
  8
JISSEN
100
AcDbVertex
100
AcDb2dVertex
 10
6541.571570887935
 20
-10140.04237966623
 30
0.0
 70
     8
  0
VERTEX
  5
500
330
4E9
100
AcDbEntity
  8
JISSEN
100
AcDbVertex
100
AcDb2dVertex
 10
6542.548161688907
 20
-10143.35211661334
 30
0.0
 70
     8
  0
VERTEX
  5
501
330
4E9
100
AcDbEntity
  8
JISSEN
100
AcDbVertex
100
AcDb2dVertex
 10
6543.803140911268
 20
-10146.42797783643
 30
0.0
 70
     8
  0
VERTEX
  5
502
330
4E9
100
AcDbEntity
  8
JISSEN
100
AcDbVertex
100
AcDb2dVertex
 10
6545.334120941605
 20
-10149.23082492689
 30
0.0
 70
     8
  0
VERTEX
  5
503
330
4E9
100
AcDbEntity
  8
JISSEN
100
AcDbVertex
100
AcDb2dVertex
 10
6547.138714166509
 20
-10151.7215194761
 30
0.0
 70
     8
  0
VERTEX
  5
504
330
4E9
100
AcDbEntity
  8
JISSEN
100
AcDbVertex
100
AcDb2dVertex
 10
6549.225742263445
 20
-10153.85566585664
 30
0.0
 70
     8
  0
VERTEX
  5
505
330
4E9
100
AcDbEntity
  8
JISSEN
100
AcDbVertex
100
AcDb2dVertex
 10
6551.648864073391
 20
-10155.56783956589
 30
0.0
 70
     8
  0
VERTEX
  5
506
330
4E9
100
AcDbEntity
  8
JISSEN
100
AcDbVertex
100
AcDb2dVertex
 10
6554.472947728197
 20
-10156.78735888242
 30
0.0
 70
     8
  0
VERTEX
  5
507
330
4E9
100
AcDbEntity
  8
JISSEN
100
AcDbVertex
100
AcDb2dVertex
 10
6557.762861359721
 20
-10157.44354208479
 30
0.0
 70
     8
  0
VERTEX
  5
508
330
4E9
100
AcDbEntity
  8
JISSEN
100
AcDbVertex
100
AcDb2dVertex
 10
6561.583473099812
 20
-10157.46570745158
 30
0.0
 70
     8
  0
VERTEX
  5
509
330
4E9
100
AcDbEntity
  8
JISSEN
100
AcDbVertex
100
AcDb2dVertex
 10
6565.999651080321
 20
-10156.78317326135
 30
0.0
 70
     8
  0
VERTEX
  5
50A
330
4E9
100
AcDbEntity
  8
JISSEN
100
AcDbVertex
100
AcDb2dVertex
 10
6571.076263433106
 20
-10155.32525779267
 30
0.0
 70
     8
  0
VERTEX
  5
50B
330
4E9
100
AcDbEntity
  8
JISSEN
100
AcDbVertex
100
AcDb2dVertex
 10
6576.878178290016
 20
-10153.02127932412
 30
0.0
 70
     8
  0
VERTEX
  5
50C
330
4E9
100
AcDbEntity
  8
JISSEN
100
AcDbVertex
100
AcDb2dVertex
 10
6571.13901230384
 20
-10089.73145891919
 30
0.0
 70
    16
  0
VERTEX
  5
50D
330
4E9
100
AcDbEntity
  8
JISSEN
100
AcDbVertex
100
AcDb2dVertex
 10
6549.135310538081
 20
-10093.39709229091
 30
0.0
 70
    16
  0
VERTEX
  5
50E
330
4E9
100
AcDbEntity
  8
JISSEN
100
AcDbVertex
100
AcDb2dVertex
 10
6537.400028289437
 20
-10125.65473540668
 30
0.0
 70
    16
  0
VERTEX
  5
50F
330
4E9
100
AcDbEntity
  8
JISSEN
100
AcDbVertex
100
AcDb2dVertex
 10
6544.245641300844
 20
-10155.46862294129
 30
0.0
 70
    16
  0
VERTEX
  5
510
330
4E9
100
AcDbEntity
  8
JISSEN
100
AcDbVertex
100
AcDb2dVertex
 10
6560.381674771107
 20
-10160.35613410359
 30
0.0
 70
    16
  0
VERTEX
  5
511
330
4E9
100
AcDbEntity
  8
JISSEN
100
AcDbVertex
100
AcDb2dVertex
 10
6576.878178290016
 20
-10153.02127932412
 30
0.0
 70
    16
  0
SEQEND
  5
512
330
4E9
100
AcDbEntity
  8
JISSEN
  0
LWPOLYLINE
  5
513
330
2
100
AcDbEntity
  8
JISSEN
100
AcDbPolyline
 90
       33
 70
     0
 43
0.0
 10
6582.664949465552
 20
-10105.54108080516
 10
6578.184257583778
 20
-10100.69557544177
 10
6573.933034469058
 20
-10097.34496905165
 10
6569.903260955874
 20
-10095.27915883642
 10
6566.113678836298
 20
-10094.32555356361
 10
6562.56166214203
 20
-10094.31879331606
 10
6559.238188918861
 20
-10095.11672474395
 10
6556.15001496059
 20
-10096.59444014062
 10
6553.324365046908
 20
-10098.62557553341
 10
6550.793740023165
 20
-10101.08723819641
 10
6548.56674849271
 20
-10103.910121436
 10
6546.642505902887
 20
-10107.04047447246
 10
6545.01965468111
 20
-10110.42305118656
 10
6543.696380009851
 20
-10114.00098513392
 10
6542.670106253781
 20
-10117.71644571079
 10
6541.937477093253
 20
-10121.51106477728
 10
6541.494432888646
 20
-10125.32607751686
 10
6541.336707181471
 20
-10129.10533537129
 10
6541.461216107535
 20
-10132.80488440846
 10
6541.864767343607
 20
-10136.3842447622
 10
6542.543564392513
 20
-10139.80300921361
 10
6543.493052305311
 20
-10143.02089250998
 10
6544.707757279039
 20
-10145.99804452941
 10
6546.181236324757
 20
-10148.69562148946
 10
6547.905233213436
 20
-10151.0750771996
 10
6549.877101428745
 20
-10153.0914637642
 10
6552.140900054221
 20
-10154.69105998494
 10
6554.772281954544
 20
-10155.82736522545
 10
6557.864486927228
 20
-10156.44411483916
 10
6561.509536828859
 20
-10156.46526167991
 10
6565.784410905644
 20
-10155.80456645222
 10
6570.752933630349
 20
-10154.37769245961
 10
6576.509107015599
 20
-10152.09187822965
  0
LINE
  5
514
330
2
100
AcDbEntity
  8
JISSEN
100
AcDbLine
 10
6560.622426848983
 20
-10049.67057490878
 30
0.0
 11
6610.622426848983
 21
-10049.67057490878
 31
0.0
  0
LINE
  5
515
330
2
100
AcDbEntity
  8
JISSEN
100
AcDbLine
 10
6560.622426848983
 20
-9929.670574908785
 30
0.0
 11
6560.622426848983
 21
-10049.67057490878
 31
0.0
  0
LINE
  5
516
330
2
100
AcDbEntity
  8
JISSEN
100
AcDbLine
 10
6610.622426848983
 20
-9929.670574908785
 30
0.0
 11
6560.622426848983
 21
-9929.670574908785
 31
0.0
  0
LWPOLYLINE
  5
517
330
2
100
AcDbEntity
  8
JISSEN
100
AcDbPolyline
 90
        4
 70
     1
 43
0.0
 10
6882.66913397735
 20
-9747.539644276907
 10
6896.997958528807
 20
-9748.939644276909
 10
6896.997958528807
 20
-9769.41313458813
 10
6882.66913397735
 20
-9770.813134588133
  0
DIMENSION
  5
518
330
2
100
AcDbEntity
  8
SUNPOU
100
AcDbDimension
  2
*D14
 10
6742.25573871925
 20
-8940.462711884805
 30
0.0
 11
6742.25573871925
 21
-9036.891283313376
 31
0.0
 12
12.9961291756772
 22
-3264.786527797511
 32
0.0
 70
   128
 71
     5
 42
-1.0
  3
IMCADLT
100
AcDbAlignedDimension
 13
6713.592946452871
 23
-8840.462711884805
 33
0.0
 14
6552.817696069699
 24
-8940.462711884805
 34
0.0
 50
90.0
100
AcDbRotatedDimension
1001
ACAD
1000
DSTYLE
1002
{
1070
   288
1070
     1
1070
   284
1070
     0
1070
   140
1040
2.0
1070
    47
1040
495.0
1070
   174
1070
     1
1070
   146
1040
1.0
1070
   272
1070
     1
1070
    77
1070
     1
1070
   271
1070
     1
1070
     5
1000
ARROW
1070
    41
1040
1.5
1002
}
  0
DIMENSION
  5
527
330
2
100
AcDbEntity
  8
SUNPOU
100
AcDbDimension
  2
*D15
 10
6509.822426848981
 20
-9183.63031281863
 30
0.0
 11
6412.201030027178
 21
-9183.63031281863
 31
0.0
 12
12.9961291756772
 22
-3264.786527797511
 32
0.0
 70
   128
 71
     5
 42
-1.0
  3
IMCADLT
100
AcDbAlignedDimension
 13
6309.794338797068
 23
-9159.269370832076
 33
0.0
 14
6509.822426848981
 24
-8985.499098962176
 34
0.0
100
AcDbRotatedDimension
1001
ACAD
1000
DSTYLE
1002
{
1070
   288
1070
     1
1070
   284
1070
     0
1070
   140
1040
2.0
1070
    47
1040
495.0
1070
   174
1070
     1
1070
   146
1040
1.0
1070
   272
1070
     1
1070
    77
1070
     1
1070
   271
1070
     1
1070
     5
1000
ARROW
1070
    41
1040
1.5
1002
}
  0
LINE
  5
534
330
2
100
AcDbEntity
  8
NITEN
 48
0.3
100
AcDbLine
 10
6503.657365021325
 20
-10379.67057490878
 30
0.0
 11
6503.657365021325
 21
-10258.91980322811
 31
0.0
  0
LINE
  5
535
330
2
100
AcDbEntity
  8
NITEN
 48
0.3
100
AcDbLine
 10
6503.657365021325
 20
-10258.91980322811
 30
0.0
 11
6510.622426848982
 21
-10258.91980322811
 31
0.0
  0
LINE
  5
536
330
2
100
AcDbEntity
  8
NITEN
 48
0.3
100
AcDbLine
 10
6503.657365021325
 20
-10258.91980322811
 30
0.0
 11
6498.811104641354
 21
-10258.91980322811
 31
0.0
  0
LINE
  5
537
330
2
100
AcDbEntity
  8
NITEN
 48
0.3
100
AcDbLine
 10
6498.811104641354
 20
-10258.91980322811
 30
0.0
 11
6498.811104641354
 21
-10245.83339273059
 31
0.0
  0
LINE
  5
538
330
2
100
AcDbEntity
  8
NITEN
 48
0.3
100
AcDbLine
 10
6498.811104641354
 20
-10245.83339273059
 30
0.0
 11
6510.622426848982
 21
-10245.83339273059
 31
0.0
  0
LINE
  5
539
330
2
100
AcDbEntity
  8
ITTEN
100
AcDbLine
 10
6510.622426848982
 20
-10425.01875412309
 30
0.0
 11
6510.622426848982
 21
-10218.23347916535
 31
0.0
  0
LINE
  5
53A
330
2
100
AcDbEntity
  8
NITEN
 48
0.3
100
AcDbLine
 10
6522.433749056614
 20
-10245.83339273059
 30
0.0
 11
6510.622426848982
 21
-10245.83339273059
 31
0.0
  0
LINE
  5
53B
330
2
100
AcDbEntity
  8
NITEN
 48
0.3
100
AcDbLine
 10
6522.433749056614
 20
-10258.91980322811
 30
0.0
 11
6522.433749056614
 21
-10245.83339273059
 31
0.0
  0
LINE
  5
53C
330
2
100
AcDbEntity
  8
NITEN
 48
0.3
100
AcDbLine
 10
6517.587488676643
 20
-10258.91980322811
 30
0.0
 11
6522.433749056614
 21
-10258.91980322811
 31
0.0
  0
LINE
  5
53D
330
2
100
AcDbEntity
  8
NITEN
 48
0.3
100
AcDbLine
 10
6517.587488676643
 20
-10258.91980322811
 30
0.0
 11
6510.622426848982
 21
-10258.91980322811
 31
0.0
  0
LINE
  5
53E
330
2
100
AcDbEntity
  8
NITEN
 48
0.3
100
AcDbLine
 10
6517.587488676643
 20
-10379.67057490878
 30
0.0
 11
6517.587488676643
 21
-10258.91980322811
 31
0.0
  0
LINE
  5
53F
330
2
100
AcDbEntity
  8
JISSEN
100
AcDbLine
 10
7937.951924441223
 20
-8916.450526069658
 30
0.0
 11
7937.951924441223
 21
-8928.881831336182
 31
0.0
  0
LINE
  5
540
330
2
100
AcDbEntity
  8
JISSEN
100
AcDbLine
 10
7940.891611332498
 20
-8928.881831336182
 30
0.0
 11
7940.891611332498
 21
-8916.450526069658
 31
0.0
  0
LINE
  5
541
330
2
100
AcDbEntity
  8
JISSEN
100
AcDbLine
 10
7944.057368463737
 20
-8916.450526069658
 30
0.0
 11
7944.057368463737
 21
-8928.881831336182
 31
0.0
  0
LWPOLYLINE
  5
542
330
2
100
AcDbEntity
  8
JISSEN
100
AcDbPolyline
 90
        4
 70
     1
 43
0.0
 10
7948.219098477699
 20
-8919.556057678503
 10
7963.422418837888
 20
-8919.556057678503
 10
7963.422418837888
 20
-8918.518118703357
 10
7948.219098477699
 20
-8918.518118703357
  0
LWPOLYLINE
  5
543
330
2
100
AcDbEntity
  8
JISSEN
100
AcDbPolyline
 90
        4
 70
     1
 43
0.0
 10
7948.219098477699
 20
-8927.686633802888
 10
7963.422418837888
 20
-8927.686633802888
 10
7963.422418837888
 20
-8926.648694827742
 10
7948.219098477699
 20
-8926.648694827742
  0
LWPOLYLINE
  5
544
330
2
100
AcDbEntity
  8
JISSEN
100
AcDbPolyline
 90
       10
 70
     0
 43
0.0
 10
7924.666752019056
 20
-8922.051642629176
 10
7913.418850864161
 20
-8922.850356772379
 10
7903.533357259473
 20
-8924.702961858329
 10
7894.983642324543
 20
-8928.975830662446
 10
7884.512686661693
 20
-8932.669780151092
 10
7876.605030288136
 20
-8941.181766128059
 10
7861.135017905596
 20
-8948.318470060225
 10
7847.368572479296
 20
-8951.309777047216
 10
7834.755019798679
 20
-8952.51050351826
 10
7807.526008752692
 20
-8952.51050351826
  0
LWPOLYLINE
  5
545
330
2
100
AcDbEntity
  8
JISSEN
100
AcDbPolyline
 90
       11
 70
     0
 43
0.0
 10
7924.737583722354
 20
-8923.049130909708
 10
7913.54678443847
 20
-8923.843790245589
 10
7903.855167436285
 20
-8925.6600616092
 10
7895.375018679583
 20
-8929.898163505303
 10
7885.077667554624
 20
-8933.530868689729
 10
7877.203252920693
 20
-8942.007072481919
 10
7861.454423652833
 20
-8949.272401622172
 10
7847.522667791333
 20
-8952.299628866324
 10
7834.802509137272
 20
-8953.510503518261
 10
7821.476487398513
 20
-8953.510503518261
 10
7807.526008752692
 20
-8953.510503518261
  0
LWPOLYLINE
  5
546
330
2
100
AcDbEntity
  8
JISSEN
100
AcDbPolyline
 90
        6
 70
     1
 43
0.0
 10
7928.737583722353
 20
-8931.723045099886
 10
7948.219098477699
 20
-8931.723045099886
 10
7948.219098477699
 20
-8914.37521671953
 10
7928.737583722353
 20
-8914.375216719534
 10
7924.737583722354
 20
-8918.375216719535
 10
7924.737583722354
 20
-8927.723045099886
  0
LINE
  5
547
330
2
100
AcDbEntity
  8
ITTEN
100
AcDbLine
 10
8152.874187967006
 20
-8940.462711884803
 30
0.0
 11
7946.088913009262
 21
-8940.462711884803
 31
0.0
  0
LINE
  5
548
330
2
100
AcDbEntity
  8
ITTEN
100
AcDbLine
 10
6509.822426848981
 20
-8895.426324807436
 30
0.0
 11
6509.822426848981
 21
-8985.499098962176
 31
0.0
  0
LINE
  5
549
330
2
100
AcDbEntity
  8
ITTEN
100
AcDbLine
 10
6556.228854045173
 20
-8940.462711884805
 30
0.0
 11
6463.415999652792
 21
-8940.462711884805
 31
0.0
  0
CIRCLE
  5
54A
330
2
100
AcDbEntity
  8
JISSEN
100
AcDbCircle
 10
6509.822426848981
 20
-8940.462711884805
 30
0.0
 40
25.0
  0
CIRCLE
  5
54B
330
2
100
AcDbEntity
  8
JISSEN
100
AcDbCircle
 10
7485.9617023314
 20
-8840.462711884802
 30
0.0
 40
16.86580628573884
  0
LINE
  5
54C
330
2
100
AcDbEntity
  8
JISSEN
100
AcDbLine
 10
7452.526008755369
 20
-8795.462711884804
 30
0.0
 11
7515.526008752693
 21
-8795.462711884804
 31
0.0
  0
LINE
  5
54D
330
2
100
AcDbEntity
  8
JISSEN
100
AcDbLine
 10
7515.526008752693
 20
-8885.462711884803
 30
0.0
 11
7452.526008755369
 21
-8885.462711884803
 31
0.0
  0
LINE
  5
54E
330
2
100
AcDbEntity
  8
JISSEN
100
AcDbLine
 10
6779.794338917735
 20
-9787.66588132456
 30
0.0
 11
6779.794338917735
 21
-9724.665881329343
 31
0.0
  0
LWPOLYLINE
  5
54F
330
2
100
AcDbEntity
  8
JISSEN
100
AcDbPolyline
 90
        5
 70
     0
 43
0.0
 10
7407.526008755368
 20
-9240.462711884804
 10
7452.526008755369
 20
-9240.462711884804
 10
7452.526008755369
 20
-8440.462711884809
 10
7407.526008755368
 20
-8440.462711884809
 10
7407.526008755368
 20
-9240.462711884807
  0
LINE
  5
550
330
2
100
AcDbEntity
  8
JISSEN
100
AcDbLine
 10
7452.526008755369
 20
-8640.462711884804
 30
0.0
 11
7587.526008752694
 21
-8640.462711884804
 31
0.0
  0
LINE
  5
551
330
2
100
AcDbEntity
  8
JISSEN
100
AcDbLine
 10
7587.526008752694
 20
-8640.462711884804
 30
0.0
 11
7622.526008752693
 21
-8680.462711884805
 31
0.0
  0
LINE
  5
552
330
2
100
AcDbEntity
  8
JISSEN
100
AcDbLine
 10
7622.526008752693
 20
-8680.462711884805
 30
0.0
 11
8107.526008752692
 21
-8680.462711884805
 31
0.0
  0
LINE
  5
553
330
2
100
AcDbEntity
  8
JISSEN
100
AcDbLine
 10
8107.526008752692
 20
-8680.462711884805
 30
0.0
 11
8107.526008752692
 21
-8840.462711884804
 31
0.0
  0
LINE
  5
554
330
2
100
AcDbEntity
  8
JISSEN
100
AcDbLine
 10
7452.526008755369
 20
-8700.462711884803
 30
0.0
 11
8107.526008752692
 21
-8700.462711884803
 31
0.0
  0
LINE
  5
555
330
2
100
AcDbEntity
  8
ITTEN
100
AcDbLine
 10
7277.0583218265
 20
-8840.462711884804
 30
0.0
 11
8257.787982819595
 21
-8840.462711884804
 31
0.0
  0
LINE
  5
556
330
2
100
AcDbEntity
  8
JISSEN
100
AcDbLine
 10
7452.526008755369
 20
-8980.462711884804
 30
0.0
 11
8107.526008752692
 21
-8980.462711884804
 31
0.0
  0
LINE
  5
557
330
2
100
AcDbEntity
  8
JISSEN
100
AcDbLine
 10
8107.526008752692
 20
-9000.462711884804
 30
0.0
 11
8107.526008752692
 21
-8840.462711884804
 31
0.0
  0
LINE
  5
558
330
2
100
AcDbEntity
  8
JISSEN
100
AcDbLine
 10
7622.526008752693
 20
-9000.462711884804
 30
0.0
 11
8107.526008752692
 21
-9000.462711884804
 31
0.0
  0
LINE
  5
559
330
2
100
AcDbEntity
  8
JISSEN
100
AcDbLine
 10
7587.526008752694
 20
-9040.462711884805
 30
0.0
 11
7622.526008752693
 21
-9000.462711884804
 31
0.0
  0
LINE
  5
55A
330
2
100
AcDbEntity
  8
JISSEN
100
AcDbLine
 10
7452.526008755369
 20
-9040.462711884805
 30
0.0
 11
7587.526008752694
 21
-9040.462711884805
 31
0.0
  0
LINE
  5
55B
330
2
100
AcDbEntity
  8
JISSEN
100
AcDbLine
 10
7515.526008752693
 20
-8795.462711884804
 30
0.0
 11
7515.526008752693
 21
-8840.462711884804
 31
0.0
  0
LINE
  5
55C
330
2
100
AcDbEntity
  8
JISSEN
100
AcDbLine
 10
7515.526008752693
 20
-8885.462711884803
 30
0.0
 11
7515.526008752693
 21
-8840.462711884804
 31
0.0
  0
LWPOLYLINE
  5
55D
330
2
100
AcDbEntity
  8
JISSEN
100
AcDbPolyline
 90
        4
 70
     1
 43
0.0
 10
7477.917496828329
 20
-8869.258931814012
 10
7493.72384311104
 20
-8869.258931814012
 10
7493.72384311104
 20
-8878.629706112802
 10
7477.917496828329
 20
-8878.629706112802
  0
LWPOLYLINE
  5
55E
330
2
100
AcDbEntity
  8
JISSEN
100
AcDbPolyline
 90
        4
 70
     1
 43
0.0
 10
7478.750332886376
 20
-8870.140586974146
 10
7492.953295658715
 20
-8870.140586974146
 10
7492.953295658715
 20
-8877.612317971962
 10
7478.750332886376
 20
-8877.612317971962
  0
LINE
  5
55F
330
2
100
AcDbEntity
  8
NITEN
100
AcDbLine
 10
8107.526008752692
 20
-8740.462711884804
 30
0.0
 11
8107.526008752692
 21
-8733.497650057147
 31
0.0
  0
LINE
  5
560
330
2
100
AcDbEntity
  8
NITEN
100
AcDbLine
 10
8107.526008752692
 20
-8740.462711884804
 30
0.0
 11
8107.526008752692
 21
-8747.427773712464
 31
0.0
  0
LINE
  5
561
330
2
100
AcDbEntity
  8
JISSEN
100
AcDbLine
 10
6310.622426848983
 20
-10379.67057490878
 30
0.0
 11
6610.622426848983
 21
-10379.67057490878
 31
0.0
  0
LINE
  5
562
330
2
100
AcDbEntity
  8
JISSEN
100
AcDbLine
 10
6779.794338917735
 20
-9787.66588132456
 30
0.0
 11
6879.794338919302
 21
-9787.66588132456
 31
0.0
  0
LINE
  5
563
330
2
100
AcDbEntity
  8
JISSEN
100
AcDbLine
 10
6879.794338919302
 20
-9787.66588132456
 30
0.0
 11
6879.794338919302
 21
-9724.665881324561
 31
0.0
  0
LINE
  5
564
330
2
100
AcDbEntity
  8
JISSEN
100
AcDbLine
 10
6869.794338919303
 20
-9724.665881324913
 30
0.0
 11
6869.794338919303
 21
-9787.66588132456
 31
0.0
  0
LINE
  5
565
330
2
100
AcDbEntity
  8
ITTEN
100
AcDbLine
 10
7186.449750345278
 20
-8840.462711884804
 30
0.0
 11
5433.138927248858
 21
-8840.462711884805
 31
0.0
  0
CIRCLE
  5
566
330
2
100
AcDbEntity
  8
JISSEN
100
AcDbCircle
 10
6309.794338797068
 20
-8840.462711886099
 30
0.0
 40
120.0
  0
CIRCLE
  5
567
330
2
100
AcDbEntity
  8
JISSEN
100
AcDbCircle
 10
6309.794338797068
 20
-8840.462711886099
 30
0.0
 40
139.0
  0
CIRCLE
  5
568
330
2
100
AcDbEntity
  8
JISSEN
100
AcDbCircle
 10
6309.794338797068
 20
-8840.462711886099
 30
0.0
 40
151.0
  0
CIRCLE
  5
569
330
2
100
AcDbEntity
  8
JISSEN
100
AcDbCircle
 10
6309.794338797068
 20
-8840.462711886099
 30
0.0
 40
165.0
  0
LINE
  5
56A
330
2
100
AcDbEntity
  8
ITTEN
100
AcDbLine
 10
6309.794338797068
 20
-9317.982795100517
 30
0.0
 11
6309.794338797068
 21
-8362.94262866909
 31
0.0
  0
CIRCLE
  5
56B
330
2
100
AcDbEntity
  8
JISSEN
100
AcDbCircle
 10
6309.794338797068
 20
-8840.462711886099
 30
0.0
 40
165.0
  0
LINE
  5
56C
330
2
100
AcDbEntity
  8
TENSEN
100
AcDbLine
 10
6549.794338797068
 20
-9040.462711886098
 30
0.0
 11
6609.794338797069
 21
-8980.462711886099
 31
0.0
  0
LINE
  5
56D
330
2
100
AcDbEntity
  8
TENSEN
100
AcDbLine
 10
6609.794338797069
 20
-8980.462711886099
 30
0.0
 11
6609.794338797069
 21
-8700.4627118861
 31
0.0
  0
LINE
  5
56E
330
2
100
AcDbEntity
  8
TENSEN
100
AcDbLine
 10
6609.794338797069
 20
-8700.4627118861
 30
0.0
 11
6549.794338797068
 21
-8640.462711886099
 31
0.0
  0
LINE
  5
56F
330
2
100
AcDbEntity
  8
TENSEN
100
AcDbLine
 10
6549.794338797068
 20
-8640.462711886099
 30
0.0
 11
6549.794338797068
 21
-8620.4627118861
 31
0.0
  0
LINE
  5
570
330
2
100
AcDbEntity
  8
TENSEN
100
AcDbLine
 10
6549.380125234695
 20
-8641.462711886099
 30
0.0
 11
6608.794338797068
 21
-8700.876925448472
 31
0.0
  0
LINE
  5
571
330
2
100
AcDbEntity
  8
TENSEN
100
AcDbLine
 10
6608.794338797068
 20
-8700.876925448472
 30
0.0
 11
6608.794338797068
 21
-8980.048498323725
 31
0.0
  0
LINE
  5
572
330
2
100
AcDbEntity
  8
TENSEN
100
AcDbLine
 10
6608.794338797068
 20
-8980.048498323725
 30
0.0
 11
6549.380125234695
 21
-9039.4627118861
 31
0.0
  0
LINE
  5
573
330
2
100
AcDbEntity
  8
TENSEN
100
AcDbLine
 10
6069.794338797069
 20
-8620.4627118861
 30
0.0
 11
6069.794338797069
 21
-8640.462711886099
 31
0.0
  0
LINE
  5
574
330
2
100
AcDbEntity
  8
TENSEN
100
AcDbLine
 10
6069.794338797068
 20
-8640.462711886099
 30
0.0
 11
6009.794338797068
 21
-8700.4627118861
 31
0.0
  0
LINE
  5
575
330
2
100
AcDbEntity
  8
TENSEN
100
AcDbLine
 10
6009.794338797068
 20
-8700.4627118861
 30
0.0
 11
6009.794338797068
 21
-8980.462711886099
 31
0.0
  0
LINE
  5
576
330
2
100
AcDbEntity
  8
TENSEN
100
AcDbLine
 10
6009.794338797068
 20
-8980.462711886099
 30
0.0
 11
6069.794338797068
 21
-9040.462711886098
 31
0.0
  0
LINE
  5
577
330
2
100
AcDbEntity
  8
TENSEN
100
AcDbLine
 10
6070.208552359441
 20
-9039.4627118861
 30
0.0
 11
6010.794338797069
 21
-8980.048498323725
 31
0.0
  0
LINE
  5
578
330
2
100
AcDbEntity
  8
TENSEN
100
AcDbLine
 10
6010.794338797069
 20
-8980.048498323725
 30
0.0
 11
6010.794338797069
 21
-8700.876925448472
 31
0.0
  0
LINE
  5
579
330
2
100
AcDbEntity
  8
TENSEN
100
AcDbLine
 10
6010.794338797069
 20
-8700.876925448472
 30
0.0
 11
6070.208552359441
 21
-8641.462711886099
 31
0.0
  0
LINE
  5
57A
330
2
100
AcDbEntity
  8
TENSEN
100
AcDbLine
 10
6549.794338797068
 20
-9040.462711886098
 30
0.0
 11
6069.794338797068
 21
-9040.462711886098
 31
0.0
  0
LINE
  5
57B
330
2
100
AcDbEntity
  8
TENSEN
100
AcDbLine
 10
6069.708552359442
 20
-9038.962711886098
 30
0.0
 11
6549.880125234695
 21
-9038.962711886098
 31
0.0
  0
LINE
  5
57C
330
2
100
AcDbEntity
  8
TENSEN
100
AcDbLine
 10
6549.880125234695
 20
-8641.962711886099
 30
0.0
 11
6069.708552359442
 21
-8641.962711886099
 31
0.0
  0
LINE
  5
57D
330
2
100
AcDbEntity
  8
TENSEN
100
AcDbLine
 10
6069.794338797068
 20
-8640.462711886099
 30
0.0
 11
6549.794338797068
 21
-8640.462711886099
 31
0.0
  0
LINE
  5
57E
330
2
100
AcDbEntity
  8
TENSEN
100
AcDbLine
 10
6539.794338797069
 20
-8610.462711886098
 30
0.0
 11
6079.794338797069
 21
-8610.462711886098
 31
0.0
  0
LINE
  5
57F
330
2
100
AcDbEntity
  8
ITTEN
100
AcDbLine
 10
6886.794338919303
 20
-8834.826915661819
 30
0.0
 11
6886.794338919303
 21
-8846.098508107791
 31
0.0
  0
CIRCLE
  5
580
330
2
100
AcDbEntity
  8
TENSEN
100
AcDbCircle
 10
6886.794338919303
 20
-8840.462711884805
 30
0.0
 40
3.0
  0
ARC
  5
581
330
2
100
AcDbEntity
  8
TENSEN
100
AcDbCircle
 10
6886.794338919303
 20
-8850.462711884807
 30
0.0
 40
5.0
100
AcDbArc
 50
270.0
 51
0.0
  0
ARC
  5
582
330
2
100
AcDbEntity
  8
TENSEN
100
AcDbCircle
 10
6886.794338919303
 20
-8830.462711884806
 30
0.0
 40
5.0
100
AcDbArc
 50
0.0
 51
90.0
  0
LINE
  5
583
330
2
100
AcDbEntity
  8
TENSEN
100
AcDbLine
 10
6891.794338919304
 20
-8850.462711884807
 30
0.0
 11
6891.794338919304
 21
-8830.462711884806
 31
0.0
  0
LINE
  5
584
330
2
100
AcDbEntity
  8
TENSEN
100
AcDbLine
 10
6878.794338919303
 20
-8855.462711884806
 30
0.0
 11
6886.794338919303
 21
-8855.462711884806
 31
0.0
  0
LINE
  5
585
330
2
100
AcDbEntity
  8
TENSEN
100
AcDbLine
 10
6878.794338919303
 20
-8825.462711884807
 30
0.0
 11
6886.794338919303
 21
-8825.462711884807
 31
0.0
  0
LINE
  5
586
330
2
100
AcDbEntity
  8
TENSEN
100
AcDbLine
 10
6879.794338919303
 20
-8805.462711884805
 30
0.0
 11
6879.794338919303
 21
-8855.462711884806
 31
0.0
  0
LINE
  5
587
330
2
100
AcDbEntity
  8
TENSEN
100
AcDbLine
 10
6879.794338919303
 20
-8855.462711884806
 30
0.0
 11
6879.794338919303
 21
-8875.462711884805
 31
0.0
  0
LINE
  5
588
330
2
100
AcDbEntity
  8
TENSEN
100
AcDbLine
 10
6779.794338917735
 20
-8795.462711884805
 30
0.0
 11
6869.794338919303
 21
-8795.462711884805
 31
0.0
  0
ARC
  5
589
330
2
100
AcDbEntity
  8
TENSEN
100
AcDbCircle
 10
6784.794338917736
 20
-8807.962711884805
 30
0.0
 40
5.0
100
AcDbArc
 50
180.0
 51
270.0
  0
LINE
  5
58A
330
2
100
AcDbEntity
  8
TENSEN
100
AcDbLine
 10
6779.794338917735
 20
-8795.462711884805
 30
0.0
 11
6779.794338917735
 21
-8807.962711884805
 31
0.0
  0
ARC
  5
58B
330
2
100
AcDbEntity
  8
TENSEN
100
AcDbCircle
 10
6859.794338919304
 20
-8807.962711884805
 30
0.0
 40
5.0
100
AcDbArc
 50
270.0
 51
0.0
  0
LINE
  5
58C
330
2
100
AcDbEntity
  8
TENSEN
100
AcDbLine
 10
6864.794338919303
 20
-8796.462711884805
 30
0.0
 11
6864.794338919303
 21
-8807.962711884805
 31
0.0
  0
LINE
  5
58D
330
2
100
AcDbEntity
  8
TENSEN
100
AcDbLine
 10
6784.794338917736
 20
-8812.962711884805
 30
0.0
 11
6859.794338919304
 21
-8812.962711884805
 31
0.0
  0
ARC
  5
58E
330
2
100
AcDbEntity
  8
TENSEN
100
AcDbCircle
 10
6814.794338917735
 20
-8788.462711884806
 30
0.0
 40
5.0
100
AcDbArc
 50
0.0
 51
90.00000000000024
  0
ARC
  5
58F
330
2
100
AcDbEntity
  8
TENSEN
100
AcDbCircle
 10
6794.794338917736
 20
-8788.462711884806
 30
0.0
 40
5.0
100
AcDbArc
 50
90.00000000000007
 51
180.0
  0
LINE
  5
590
330
2
100
AcDbEntity
  8
ITTEN
100
AcDbLine
 10
6804.794338917734
 20
-8775.824909167099
 30
0.0
 11
6804.794338917734
 21
-8801.100514602515
 31
0.0
  0
LINE
  5
591
330
2
100
AcDbEntity
  8
ITTEN
100
AcDbLine
 10
6795.96098647316
 20
-8788.462711884807
 30
0.0
 11
6813.62769136231
 21
-8788.462711884807
 31
0.0
  0
CIRCLE
  5
592
330
2
100
AcDbEntity
  8
TENSEN
100
AcDbCircle
 10
6804.794338917734
 20
-8788.462711884806
 30
0.0
 40
3.0
  0
LINE
  5
593
330
2
100
AcDbEntity
  8
TENSEN
100
AcDbLine
 10
6879.794338919303
 20
-8875.462711884805
 30
0.0
 11
6869.794338919303
 21
-8885.462711884805
 31
0.0
  0
LINE
  5
594
330
2
100
AcDbEntity
  8
TENSEN
100
AcDbLine
 10
6869.38012535693
 20
-8796.462711884805
 30
0.0
 11
6878.794338919303
 21
-8805.876925447179
 31
0.0
  0
LINE
  5
595
330
2
100
AcDbEntity
  8
TENSEN
100
AcDbLine
 10
6869.794338919303
 20
-8795.462711884805
 30
0.0
 11
6879.794338919303
 21
-8805.462711884805
 31
0.0
  0
LINE
  5
596
330
2
100
AcDbEntity
  8
TENSEN
100
AcDbLine
 10
6869.38012535693
 20
-8796.462711884805
 30
0.0
 11
6868.38012535693
 21
-8796.462711884805
 31
0.0
  0
LINE
  5
597
330
2
100
AcDbEntity
  8
TENSEN
100
AcDbLine
 10
6789.794338917736
 20
-8788.462711884806
 30
0.0
 11
6789.794338917736
 21
-8796.462711884805
 31
0.0
  0
LINE
  5
598
330
2
100
AcDbEntity
  8
TENSEN
100
AcDbLine
 10
6868.38012535693
 20
-8796.462711884805
 30
0.0
 11
6864.38012535693
 21
-8796.462711884805
 31
0.0
  0
LINE
  5
599
330
2
100
AcDbEntity
  8
TENSEN
100
AcDbLine
 10
6814.794338917735
 20
-8783.462711884807
 30
0.0
 11
6794.794338917736
 21
-8783.462711884807
 31
0.0
  0
LINE
  5
59A
330
2
100
AcDbEntity
  8
TENSEN
100
AcDbLine
 10
6819.794338917735
 20
-8788.462711884806
 30
0.0
 11
6819.794338917735
 21
-8796.462711884805
 31
0.0
  0
LINE
  5
59B
330
2
100
AcDbEntity
  8
TENSEN
100
AcDbLine
 10
6878.794338919303
 20
-8805.876925447179
 30
0.0
 11
6878.794338919303
 21
-8875.048498322433
 31
0.0
  0
LINE
  5
59C
330
2
100
AcDbEntity
  8
TENSEN
100
AcDbLine
 10
6779.794338917735
 20
-8796.462711884805
 30
0.0
 11
6864.38012535693
 21
-8796.462711884805
 31
0.0
  0
LINE
  5
59D
330
2
100
AcDbEntity
  8
ITTEN
100
AcDbLine
 10
6310.622426848984
 20
-9582.53993044706
 30
0.0
 11
6310.622426848984
 21
-10529.93254897568
 31
0.0
  0
DIMENSION
  5
59E
330
2
100
AcDbEntity
  8
SUNPOU
100
AcDbDimension
  2
*D16
 10
6909.794338919304
 20
-8746.278873383237
 30
0.0
 11
6965.984815109781
 21
-8746.278873383237
 31
0.0
 12
12.9961291756772
 22
-3264.786527797511
 32
0.0
 70
   128
 71
     5
 42
-1.0
  3
IMCADLT
100
AcDbAlignedDimension
 13
6879.794338919303
 23
-8805.462711884805
 33
0.0
 14
6909.794338919304
 24
-8798.553344133583
 34
0.0
100
AcDbRotatedDimension
1001
ACAD
1000
DSTYLE
1002
{
1070
   288
1070
     1
1070
   284
1070
     0
1070
   140
1040
2.0
1070
    47
1040
495.0
1070
   174
1070
     1
1070
   146
1040
1.0
1070
   272
1070
     1
1070
    77
1070
     1
1070
   271
1070
     1
1070
     5
1000
ARROW
1070
    41
1040
1.5
1002
}
  0
ENDSEC
  0
SECTION
  2
OBJECTS
  0
DICTIONARY
  5
7
330
0
100
AcDbDictionary
281
     1
  3
ACAD_COLOR
350
2A
  3
ACAD_GROUP
350
26
  3
ACAD_LAYOUT
350
B
  3
ACAD_MATERIAL
350
29
  3
ACAD_MLEADERSTYLE
350
5F1
  3
ACAD_MLINESTYLE
350
27
  3
ACAD_PLOTSETTINGS
350
28
  3
ACAD_PLOTSTYLENAME
350
6
  3
ACAD_SCALELIST
350
5CD
  3
ACAD_TABLESTYLE
350
5EF
  3
ACDBHEADERROUNDTRIPXREC
350
609
  3
AcDbVariableDictionary
350
5BC
  3
DWGPROPS
350
608
  0
DICTIONARY
  5
2A
102
{ACAD_REACTORS
330
7
102
}
330
7
100
AcDbDictionary
281
     1
  0
DICTIONARY
  5
26
102
{ACAD_REACTORS
330
7
102
}
330
7
100
AcDbDictionary
281
     1
  0
DICTIONARY
  5
B
102
{ACAD_REACTORS
330
7
102
}
330
7
100
AcDbDictionary
281
     1
  3
Model
350
A
  3
レイアウト1
350
F
  0
DICTIONARY
  5
29
102
{ACAD_REACTORS
330
7
102
}
330
7
100
AcDbDictionary
281
     1
  0
DICTIONARY
  5
5F1
102
{ACAD_REACTORS
330
7
102
}
330
7
100
AcDbDictionary
281
     1
  3
Standard
350
5F2
  0
DICTIONARY
  5
27
102
{ACAD_REACTORS
330
7
102
}
330
7
100
AcDbDictionary
281
     1
  3
STANDARD
350
2D
  0
DICTIONARY
  5
28
102
{ACAD_REACTORS
330
7
102
}
330
7
100
AcDbDictionary
281
     1
  0
ACDBDICTIONARYWDFLT
  5
6
102
{ACAD_REACTORS
330
7
102
}
330
7
100
AcDbDictionary
281
     1
  3
Normal
350
5
100
AcDbDictionaryWithDefault
340
5
  0
DICTIONARY
  5
5CD
102
{ACAD_REACTORS
330
7
102
}
330
7
100
AcDbDictionary
281
     1
  3
A0
350
5CE
  3
A1
350
5CF
  3
A2
350
5D0
  3
A3
350
5D1
  3
A4
350
5D2
  3
A5
350
5D3
  3
A6
350
5D4
  3
A7
350
5D5
  3
A8
350
5D6
  3
A9
350
5D7
  3
B0
350
5D8
  3
B1
350
5D9
  3
B2
350
5DA
  3
B3
350
5DB
  3
B4
350
5DC
  3
B5
350
5DD
  3
B6
350
5DE
  3
B7
350
5DF
  3
B8
350
5E0
  3
B9
350
5E1
  3
C0
350
5E2
  3
C1
350
5E3
  3
C2
350
5E4
  3
C3
350
5E5
  3
C4
350
5E6
  3
C5
350
5E7
  3
C6
350
5E8
  3
C7
350
5E9
  3
C8
350
5EA
  3
C9
350
5EB
  3
D0
350
5EC
  3
D1
350
5ED
  3
D2
350
5EE
  0
DICTIONARY
  5
5EF
102
{ACAD_REACTORS
330
7
102
}
330
7
100
AcDbDictionary
281
     1
  3
Standard
350
5F0
  0
DICTIONARY
  5
609
102
{ACAD_REACTORS
330
7
102
}
330
7
100
AcDbDictionary
281
     1
  0
DICTIONARY
  5
5BC
102
{ACAD_REACTORS
330
7
102
}
330
7
100
AcDbDictionary
281
     1
  3
CMLEADERSTYLE
350
5F9
  3
CTABLESTYLE
350
5F8
  3
DIMASSOC
350
5BE
  3
HIDETEXT
350
5BD
  3
PROJECTNAME
350
5BF
  0
XRECORD
  5
608
102
{ACAD_REACTORS
330
7
102
}
330
7
100
AcDbXrecord
280
     1
  1
DWGPROPS COOKIE
  2

  3

  4

  6

  7

  8
1547nh
  9

300
=
301
=
302
=
303
=
304
=
305
=
306
=
307
=
308
=
309
=
 40
1.289467731481481
 41
2451523.401117476
 42
2460734.4382961
  1

 90
        0
  0
LAYOUT
  5
A
102
{ACAD_XDICTIONARY
360
60A
102
}
102
{ACAD_REACTORS
330
B
102
}
330
B
100
AcDbPlotSettings
  1

  2
NEC MultiWriter2350/2350N
  4
A3
  6

 40
5.873749732971191
 41
6.000761985778808
 42
5.873748779296875
 43
5.873748779296875
 44
297.0953369140625
 45
420.0736694335937
 46
0.0
 47
0.0
 48
5022.488158271847
 49
-11065.87428644398
140
9284.888158271845
141
-8155.154286443982
142
1.0
143
10.44196174706308
 70
 11952
 72
     1
 73
     1
 74
     4
  7
joytec.ctb
 75
     0
147
0.0957674452581922
148
-5022.488158271847
149
11065.87428644398
100
AcDbLayout
  1
Model
 70
     1
 71
     0
 10
0.0
 20
0.0
 11
12.0
 21
9.0
 12
0.0
 22
0.0
 32
0.0
 14
0.0
 24
0.0
 34
0.0
 15
0.0
 25
0.0
 35
0.0
146
0.0
 13
0.0
 23
0.0
 33
0.0
 16
1.0
 26
0.0
 36
0.0
 17
0.0
 27
1.0
 37
0.0
 76
     0
330
2
  0
LAYOUT
  5
F
102
{ACAD_XDICTIONARY
360
60C
102
}
102
{ACAD_REACTORS
330
B
102
}
330
B
100
AcDbPlotSettings
  1

  2
NEC MultiWriter2350/2350N
  4

  6

 40
0.0
 41
0.0
 42
0.0
 43
0.0
 44
0.0
 45
0.0
 46
0.0
 47
0.0
 48
0.0
 49
0.0
140
0.0
141
0.0
142
1.0
143
1.0
 70
   688
 72
     0
 73
     0
 74
     5
  7
joytec.ctb
 75
    16
147
1.0
148
0.0
149
0.0
100
AcDbLayout
  1
レイアウト1
 70
     0
 71
     1
 10
0.0
 20
0.0
 11
12.0
 21
9.0
 12
0.0
 22
0.0
 32
0.0
 14
1.000000000000000E+20
 24
1.000000000000000E+20
 34
1.000000000000000E+20
 15
-1.000000000000000E+20
 25
-1.000000000000000E+20
 35
-1.000000000000000E+20
146
0.0
 13
0.0
 23
0.0
 33
0.0
 16
1.0
 26
0.0
 36
0.0
 17
0.0
 27
1.0
 37
0.0
 76
     0
330
C
  0
MLEADERSTYLE
  5
5F2
102
{ACAD_REACTORS
330
5F1
102
}
330
5F1
100
AcDbMLeaderStyle
170
     2
171
     1
172
     0
 90
        2
 40
0.0
 41
0.0
173
     1
 91
-1056964608
340
15
 92
       -2
290
     1
 42
0.09
291
     1
 43
0.36
  3
Standard
341
0
 44
0.18
300

342
12
174
     1
178
     1
175
     1
176
     0
 93
-1056964608
 45
0.18
292
     0
297
     0
 46
0.18
343
0
 94
-1056964608
 47
1.0
 49
1.0
140
1.0
293
     1
141
0.0
294
     1
177
     0
142
1.0
295
     0
296
     0
143
0.125
1001
ACAD_MLEADERVER
1070
     2
  0
MLINESTYLE
  5
2D
102
{ACAD_REACTORS
330
27
102
}
330
27
100
AcDbMlineStyle
  2
STANDARD
 70
     0
  3

 62
     0
 51
90.0
 52
90.0
 71
     2
 49
0.5
 62
   256
  6
BYLAYER
 49
-0.5
 62
   256
  6
BYLAYER
  0
ACDBPLACEHOLDER
  5
5
102
{ACAD_REACTORS
330
6
102
}
330
6
  0
SCALE
  5
5CE
102
{ACAD_REACTORS
330
5CD
102
}
330
5CD
100
AcDbScale
 70
     0
300
1:1
140
1.0
141
1.0
290
     1
  0
SCALE
  5
5CF
102
{ACAD_REACTORS
330
5CD
102
}
330
5CD
100
AcDbScale
 70
     0
300
1:2
140
1.0
141
2.0
290
     0
  0
SCALE
  5
5D0
102
{ACAD_REACTORS
330
5CD
102
}
330
5CD
100
AcDbScale
 70
     0
300
1:4
140
1.0
141
4.0
290
     0
  0
SCALE
  5
5D1
102
{ACAD_REACTORS
330
5CD
102
}
330
5CD
100
AcDbScale
 70
     0
300
1:5
140
1.0
141
5.0
290
     0
  0
SCALE
  5
5D2
102
{ACAD_REACTORS
330
5CD
102
}
330
5CD
100
AcDbScale
 70
     0
300
1:8
140
1.0
141
8.0
290
     0
  0
SCALE
  5
5D3
102
{ACAD_REACTORS
330
5CD
102
}
330
5CD
100
AcDbScale
 70
     0
300
1:10
140
1.0
141
10.0
290
     0
  0
SCALE
  5
5D4
102
{ACAD_REACTORS
330
5CD
102
}
330
5CD
100
AcDbScale
 70
     0
300
1:16
140
1.0
141
16.0
290
     0
  0
SCALE
  5
5D5
102
{ACAD_REACTORS
330
5CD
102
}
330
5CD
100
AcDbScale
 70
     0
300
1:20
140
1.0
141
20.0
290
     0
  0
SCALE
  5
5D6
102
{ACAD_REACTORS
330
5CD
102
}
330
5CD
100
AcDbScale
 70
     0
300
1:30
140
1.0
141
30.0
290
     0
  0
SCALE
  5
5D7
102
{ACAD_REACTORS
330
5CD
102
}
330
5CD
100
AcDbScale
 70
     0
300
1:40
140
1.0
141
40.0
290
     0
  0
SCALE
  5
5D8
102
{ACAD_REACTORS
330
5CD
102
}
330
5CD
100
AcDbScale
 70
     0
300
1:50
140
1.0
141
50.0
290
     0
  0
SCALE
  5
5D9
102
{ACAD_REACTORS
330
5CD
102
}
330
5CD
100
AcDbScale
 70
     0
300
1:100
140
1.0
141
100.0
290
     0
  0
SCALE
  5
5DA
102
{ACAD_REACTORS
330
5CD
102
}
330
5CD
100
AcDbScale
 70
     0
300
2:1
140
2.0
141
1.0
290
     0
  0
SCALE
  5
5DB
102
{ACAD_REACTORS
330
5CD
102
}
330
5CD
100
AcDbScale
 70
     0
300
4:1
140
4.0
141
1.0
290
     0
  0
SCALE
  5
5DC
102
{ACAD_REACTORS
330
5CD
102
}
330
5CD
100
AcDbScale
 70
     0
300
8:1
140
8.0
141
1.0
290
     0
  0
SCALE
  5
5DD
102
{ACAD_REACTORS
330
5CD
102
}
330
5CD
100
AcDbScale
 70
     0
300
10:1
140
10.0
141
1.0
290
     0
  0
SCALE
  5
5DE
102
{ACAD_REACTORS
330
5CD
102
}
330
5CD
100
AcDbScale
 70
     0
300
100:1
140
100.0
141
1.0
290
     0
  0
SCALE
  5
5DF
102
{ACAD_REACTORS
330
5CD
102
}
330
5CD
100
AcDbScale
 70
     0
300
1/128" = 1'-0"
140
0.0078125
141
12.0
290
     0
  0
SCALE
  5
5E0
102
{ACAD_REACTORS
330
5CD
102
}
330
5CD
100
AcDbScale
 70
     0
300
1/64" = 1'-0"
140
0.015625
141
12.0
290
     0
  0
SCALE
  5
5E1
102
{ACAD_REACTORS
330
5CD
102
}
330
5CD
100
AcDbScale
 70
     0
300
1/32" = 1'-0"
140
0.03125
141
12.0
290
     0
  0
SCALE
  5
5E2
102
{ACAD_REACTORS
330
5CD
102
}
330
5CD
100
AcDbScale
 70
     0
300
1/16" = 1'-0"
140
0.0625
141
12.0
290
     0
  0
SCALE
  5
5E3
102
{ACAD_REACTORS
330
5CD
102
}
330
5CD
100
AcDbScale
 70
     0
300
3/32" = 1'-0"
140
0.09375
141
12.0
290
     0
  0
SCALE
  5
5E4
102
{ACAD_REACTORS
330
5CD
102
}
330
5CD
100
AcDbScale
 70
     0
300
1/8" = 1'-0"
140
0.125
141
12.0
290
     0
  0
SCALE
  5
5E5
102
{ACAD_REACTORS
330
5CD
102
}
330
5CD
100
AcDbScale
 70
     0
300
3/16" = 1'-0"
140
0.1875
141
12.0
290
     0
  0
SCALE
  5
5E6
102
{ACAD_REACTORS
330
5CD
102
}
330
5CD
100
AcDbScale
 70
     0
300
1/4" = 1'-0"
140
0.25
141
12.0
290
     0
  0
SCALE
  5
5E7
102
{ACAD_REACTORS
330
5CD
102
}
330
5CD
100
AcDbScale
 70
     0
300
3/8" = 1'-0"
140
0.375
141
12.0
290
     0
  0
SCALE
  5
5E8
102
{ACAD_REACTORS
330
5CD
102
}
330
5CD
100
AcDbScale
 70
     0
300
1/2" = 1'-0"
140
0.5
141
12.0
290
     0
  0
SCALE
  5
5E9
102
{ACAD_REACTORS
330
5CD
102
}
330
5CD
100
AcDbScale
 70
     0
300
3/4" = 1'-0"
140
0.75
141
12.0
290
     0
  0
SCALE
  5
5EA
102
{ACAD_REACTORS
330
5CD
102
}
330
5CD
100
AcDbScale
 70
     0
300
1" = 1'-0"
140
1.0
141
12.0
290
     0
  0
SCALE
  5
5EB
102
{ACAD_REACTORS
330
5CD
102
}
330
5CD
100
AcDbScale
 70
     0
300
1-1/2" = 1'-0"
140
1.5
141
12.0
290
     0
  0
SCALE
  5
5EC
102
{ACAD_REACTORS
330
5CD
102
}
330
5CD
100
AcDbScale
 70
     0
300
3" = 1'-0"
140
3.0
141
12.0
290
     0
  0
SCALE
  5
5ED
102
{ACAD_REACTORS
330
5CD
102
}
330
5CD
100
AcDbScale
 70
     0
300
6" = 1'-0"
140
6.0
141
12.0
290
     0
  0
SCALE
  5
5EE
102
{ACAD_REACTORS
330
5CD
102
}
330
5CD
100
AcDbScale
 70
     0
300
1'-0" = 1'-0"
140
12.0
141
12.0
290
     0
  0
TABLESTYLE
  5
5F0
102
{ACAD_REACTORS
330
5EF
102
}
330
5EF
100
AcDbTableStyle
  3
Standard
 70
     0
 71
     0
 40
0.06
 41
0.06
280
     0
281
     0
  7
STANDARD
140
0.18
170
     2
 62
     0
 63
   257
283
     0
274
    -2
284
     1
 64
     0
275
    -2
285
     1
 65
     0
276
    -2
286
     1
 66
     0
277
    -2
287
     1
 67
     0
278
    -2
288
     1
 68
     0
279
    -2
289
     1
 69
     0
  7
STANDARD
140
0.25
170
     5
 62
     0
 63
   257
283
     0
274
    -2
284
     1
 64
     0
275
    -2
285
     1
 65
     0
276
    -2
286
     1
 66
     0
277
    -2
287
     1
 67
     0
278
    -2
288
     1
 68
     0
279
    -2
289
     1
 69
     0
  7
STANDARD
140
0.18
170
     5
 62
     0
 63
   257
283
     0
274
    -2
284
     1
 64
     0
275
    -2
285
     1
 65
     0
276
    -2
286
     1
 66
     0
277
    -2
287
     1
 67
     0
278
    -2
288
     1
 68
     0
279
    -2
289
     1
 69
     0
  0
DICTIONARYVAR
  5
5F9
102
{ACAD_REACTORS
330
5BC
102
}
330
5BC
100
DictionaryVariables
280
     0
  1
STANDARD
  0
DICTIONARYVAR
  5
5F8
102
{ACAD_REACTORS
330
5BC
102
}
330
5BC
100
DictionaryVariables
280
     0
  1
STANDARD
  0
DICTIONARYVAR
  5
5BE
102
{ACAD_REACTORS
330
5BC
102
}
330
5BC
100
DictionaryVariables
280
     0
  1
1
  0
DICTIONARYVAR
  5
5BD
102
{ACAD_REACTORS
330
5BC
102
}
330
5BC
100
DictionaryVariables
280
     0
  1
1
  0
DICTIONARYVAR
  5
5BF
102
{ACAD_REACTORS
330
5BC
102
}
330
5BC
100
DictionaryVariables
280
     0
  1

  0
DICTIONARY
  5
60A
330
A
100
AcDbDictionary
280
     1
281
     1
  3
ACAD_XREC_ROUNDTRIP
360
60B
  0
DICTIONARY
  5
60C
330
F
100
AcDbDictionary
280
     1
281
     1
  3
ACAD_XREC_ROUNDTRIP
360
60D
  0
XRECORD
  5
60B
102
{ACAD_REACTORS
330
60A
102
}
330
60A
100
AcDbXrecord
280
     1
102
SHADEPLOT
 70
     0
102
SHADEPLOTRESLEVEL
 70
     2
102
SHADEPLOTCUSTOMDPI
 70
   300
  0
XRECORD
  5
60D
102
{ACAD_REACTORS
330
60C
102
}
330
60C
100
AcDbXrecord
280
     1
102
SHADEPLOT
 70
     0
102
SHADEPLOTRESLEVEL
 70
     2
102
SHADEPLOTCUSTOMDPI
 70
   300
  0
ENDSEC
  0
EOF
