  0
SECTION
  2
HEADER
  9
$ACADVER
  1
AC1015
  9
$ACADMAINTVER
 70
    20
  9
$DWGCODEPAGE
  3
ANSI_932
  9
$INSBASE
 10
0.0
 20
0.0
 30
0.0
  9
$EXTMIN
 10
-335.5590761902127
 20
388.901599979612
 30
-0.0000000100097048
  9
$EXTMAX
 10
1569.584653755339
 20
1704.047473805313
 30
0.0000000100102961
  9
$LIMMIN
 10
0.0
 20
0.0
  9
$LIMMAX
 10
2099.9999916
 20
1485.0
  9
$ORTHOMODE
 70
     0
  9
$REGENMODE
 70
     1
  9
$FILLMODE
 70
     1
  9
$QTEXTMODE
 70
     0
  9
$MIRRTEXT
 70
     0
  9
$LTSCALE
 40
25.0
  9
$ATTMODE
 70
     1
  9
$TEXTSIZE
 40
15.0
  9
$TRACEWID
 40
1.0
  9
$TEXTSTYLE
  7
STANDARD
  9
$CLAYER
  8
SUNPOU
  9
$CELTYPE
  6
BYLAYER
  9
$CECOLOR
 62
   256
  9
$CELTSCALE
 40
1.0
  9
$DISPSILH
 70
     0
  9
$DIMSCALE
 40
5.0
  9
$DIMASZ
 40
2.5
  9
$DIMEXO
 40
1.0
  9
$DIMDLI
 40
6.0
  9
$DIMRND
 40
0.0
  9
$DIMDLE
 40
0.0
  9
$DIMEXE
 40
1.0
  9
$DIMTP
 40
0.0
  9
$DIMTM
 40
0.0
  9
$DIMTXT
 40
3.0
  9
$DIMCEN
 40
0.0
  9
$DIMTSZ
 40
0.0
  9
$DIMTOL
 70
     0
  9
$DIMLIM
 70
     0
  9
$DIMTIH
 70
     0
  9
$DIMTOH
 70
     0
  9
$DIMSE1
 70
     0
  9
$DIMSE2
 70
     0
  9
$DIMTAD
 70
     3
  9
$DIMZIN
 70
     8
  9
$DIMBLK
  1

  9
$DIMASO
 70
     1
  9
$DIMSHO
 70
     1
  9
$DIMPOST
  1

  9
$DIMAPOST
  1

  9
$DIMALT
 70
     0
  9
$DIMALTD
 70
     2
  9
$DIMALTF
 40
25.4
  9
$DIMLFAC
 40
1.0
  9
$DIMTOFL
 70
     1
  9
$DIMTVP
 40
0.0
  9
$DIMTIX
 70
     0
  9
$DIMSOXD
 70
     0
  9
$DIMSAH
 70
     1
  9
$DIMBLK1
  1
ARROW
  9
$DIMBLK2
  1
ARROW
  9
$DIMSTYLE
  2
IMCADLT
  9
$DIMCLRD
 70
     0
  9
$DIMCLRE
 70
     0
  9
$DIMCLRT
 70
     0
  9
$DIMTFAC
 40
0.45
  9
$DIMGAP
 40
1.0
  9
$DIMJUST
 70
     0
  9
$DIMSD1
 70
     0
  9
$DIMSD2
 70
     0
  9
$DIMTOLJ
 70
     1
  9
$DIMTZIN
 70
     8
  9
$DIMALTZ
 70
     0
  9
$DIMALTTZ
 70
     0
  9
$DIMUPT
 70
     0
  9
$DIMDEC
 70
     2
  9
$DIMTDEC
 70
     2
  9
$DIMALTU
 70
     2
  9
$DIMALTTD
 70
     2
  9
$DIMTXSTY
  7
STANDARD
  9
$DIMAUNIT
 70
     0
  9
$DIMADEC
 70
     0
  9
$DIMALTRND
 40
0.0
  9
$DIMAZIN
 70
     0
  9
$DIMDSEP
 70
    46
  9
$DIMATFIT
 70
     1
  9
$DIMFRAC
 70
     0
  9
$DIMLDRBLK
  1
ARROW
  9
$DIMLUNIT
 70
     2
  9
$DIMLWD
 70
    -2
  9
$DIMLWE
 70
    -2
  9
$DIMTMOVE
 70
     0
  9
$LUNITS
 70
     2
  9
$LUPREC
 70
     2
  9
$SKETCHINC
 40
1.0
  9
$FILLETRAD
 40
10.0
  9
$AUNITS
 70
     0
  9
$AUPREC
 70
     2
  9
$MENU
  1
acad
  9
$ELEVATION
 40
0.0
  9
$PELEVATION
 40
0.0
  9
$THICKNESS
 40
0.0
  9
$LIMCHECK
 70
     0
  9
$CHAMFERA
 40
10.0
  9
$CHAMFERB
 40
10.0
  9
$CHAMFERC
 40
20.0
  9
$CHAMFERD
 40
0.0
  9
$SKPOLY
 70
     0
  9
$TDCREATE
 40
2452703.606793553
  9
$TDUCREATE
 40
2452703.231793553
  9
$TDUPDATE
 40
2460733.697511493
  9
$TDUUPDATE
 40
2460733.322511493
  9
$TDINDWG
 40
0.0266091782
  9
$TDUSRTIMER
 40
0.0266091782
  9
$USRTIMER
 70
     1
  9
$ANGBASE
 50
0.0
  9
$ANGDIR
 70
     0
  9
$PDMODE
 70
     3
  9
$PDSIZE
 40
0.0
  9
$PLINEWID
 40
0.0
  9
$SPLFRAME
 70
     0
  9
$SPLINETYPE
 70
     6
  9
$SPLINESEGS
 70
     8
  9
$HANDSEED
  5
1D28
  9
$SURFTAB1
 70
     6
  9
$SURFTAB2
 70
     6
  9
$SURFTYPE
 70
     6
  9
$SURFU
 70
     6
  9
$SURFV
 70
     6
  9
$UCSBASE
  2

  9
$UCSNAME
  2

  9
$UCSORG
 10
0.0
 20
0.0
 30
0.0
  9
$UCSXDIR
 10
1.0
 20
0.0
 30
0.0
  9
$UCSYDIR
 10
0.0
 20
1.0
 30
0.0
  9
$UCSORTHOREF
  2

  9
$UCSORTHOVIEW
 70
     0
  9
$UCSORGTOP
 10
0.0
 20
0.0
 30
0.0
  9
$UCSORGBOTTOM
 10
0.0
 20
0.0
 30
0.0
  9
$UCSORGLEFT
 10
0.0
 20
0.0
 30
0.0
  9
$UCSORGRIGHT
 10
0.0
 20
0.0
 30
0.0
  9
$UCSORGFRONT
 10
0.0
 20
0.0
 30
0.0
  9
$UCSORGBACK
 10
0.0
 20
0.0
 30
0.0
  9
$PUCSBASE
  2

  9
$PUCSNAME
  2

  9
$PUCSORG
 10
0.0
 20
0.0
 30
0.0
  9
$PUCSXDIR
 10
1.0
 20
0.0
 30
0.0
  9
$PUCSYDIR
 10
0.0
 20
1.0
 30
0.0
  9
$PUCSORTHOREF
  2

  9
$PUCSORTHOVIEW
 70
     0
  9
$PUCSORGTOP
 10
0.0
 20
0.0
 30
0.0
  9
$PUCSORGBOTTOM
 10
0.0
 20
0.0
 30
0.0
  9
$PUCSORGLEFT
 10
0.0
 20
0.0
 30
0.0
  9
$PUCSORGRIGHT
 10
0.0
 20
0.0
 30
0.0
  9
$PUCSORGFRONT
 10
0.0
 20
0.0
 30
0.0
  9
$PUCSORGBACK
 10
0.0
 20
0.0
 30
0.0
  9
$USERI1
 70
     3
  9
$USERI2
 70
     1
  9
$USERI3
 70
     5
  9
$USERI4
 70
     1
  9
$USERI5
 70
     0
  9
$USERR1
 40
5.0
  9
$USERR2
 40
3.0
  9
$USERR3
 40
3.0
  9
$USERR4
 40
2.5
  9
$USERR5
 40
6.0
  9
$WORLDVIEW
 70
     1
  9
$SHADEDGE
 70
     3
  9
$SHADEDIF
 70
    70
  9
$TILEMODE
 70
     1
  9
$MAXACTVP
 70
    48
  9
$PINSBASE
 10
0.0
 20
0.0
 30
0.0
  9
$PLIMCHECK
 70
     0
  9
$PEXTMIN
 10
1.000000000000000E+20
 20
1.000000000000000E+20
 30
1.000000000000000E+20
  9
$PEXTMAX
 10
-1.000000000000000E+20
 20
-1.000000000000000E+20
 30
-1.000000000000000E+20
  9
$PLIMMIN
 10
0.0
 20
0.0
  9
$PLIMMAX
 10
420.0
 20
297.0
  9
$UNITMODE
 70
     0
  9
$VISRETAIN
 70
     0
  9
$PLINEGEN
 70
     0
  9
$PSLTSCALE
 70
     1
  9
$TREEDEPTH
 70
  3020
  9
$CMLSTYLE
  2
STANDARD
  9
$CMLJUST
 70
     0
  9
$CMLSCALE
 40
20.0
  9
$PROXYGRAPHICS
 70
     1
  9
$MEASUREMENT
 70
     1
  9
$CELWEIGHT
370
    -1
  9
$ENDCAPS
280
     0
  9
$JOINSTYLE
280
     0
  9
$LWDISPLAY
290
     0
  9
$INSUNITS
 70
     0
  9
$HYPERLINKBASE
  1

  9
$STYLESHEET
  1
yama1.ctb
  9
$XEDIT
290
     1
  9
$CEPSNTYPE
380
     0
  9
$PSTYLEMODE
290
     1
  9
$FINGERPRINTGUID
  2
{47B594C6-ADEF-11D3-A508-004005A036C4}
  9
$VERSIONGUID
  2
{F2F266E1-1E3A-4493-8397-77BC8AA68944}
  9
$EXTNAMES
290
     1
  9
$PSVPSCALE
 40
0.0
  9
$OLESTARTUP
290
     0
  0
ENDSEC
  0
SECTION
  2
CLASSES
  0
CLASS
  1
LWPOLYLINE
  2
AcDbPolyline
  3
ObjectDBX Classes
 90
        0
280
     0
281
     1
  0
CLASS
  1
ACDBDICTIONARYWDFLT
  2
AcDbDictionaryWithDefault
  3
ObjectDBX Classes
 90
        0
280
     0
281
     0
  0
CLASS
  1
ACDBPLACEHOLDER
  2
AcDbPlaceHolder
  3
ObjectDBX Classes
 90
        0
280
     0
281
     0
  0
CLASS
  1
LAYOUT
  2
AcDbLayout
  3
ObjectDBX Classes
 90
        0
280
     0
281
     0
  0
CLASS
  1
LONG_TRANSACTION
  2
AcDbLongTransaction
  3
ObjectDBX Classes
 90
    32768
280
     0
281
     0
  0
CLASS
  1
LWPOLYLINE
  2
AcDbPolyline
  3
ObjectDBX Classes
 90
        0
280
     0
281
     1
  0
CLASS
  1
HATCH
  2
AcDbHatch
  3
ObjectDBX Classes
 90
        0
280
     0
281
     1
  0
CLASS
  1
XRECORD
  2
AcDbXrecord
  3
ObjectDBX Classes
 90
        0
280
     0
281
     0
  0
CLASS
  1
LONG_TRANSACTION
  2
AcDbLongTransaction
  3
ObjectDBX Classes
 90
    32768
280
     0
281
     0
  0
CLASS
  1
LWPOLYLINE
  2
AcDbPolyline
  3
ObjectDBX Classes
 90
        0
280
     0
281
     1
  0
CLASS
  1
HATCH
  2
AcDbHatch
  3
ObjectDBX Classes
 90
        0
280
     0
281
     1
  0
CLASS
  1
XRECORD
  2
AcDbXrecord
  3
ObjectDBX Classes
 90
        0
280
     0
281
     0
  0
CLASS
  1
LONG_TRANSACTION
  2
AcDbLongTransaction
  3
ObjectDBX Classes
 90
    32768
280
     0
281
     0
  0
CLASS
  1
LWPOLYLINE
  2
AcDbPolyline
  3
ObjectDBX Classes
 90
        0
280
     0
281
     1
  0
CLASS
  1
HATCH
  2
AcDbHatch
  3
ObjectDBX Classes
 90
        0
280
     0
281
     1
  0
CLASS
  1
XRECORD
  2
AcDbXrecord
  3
ObjectDBX Classes
 90
        0
280
     0
281
     0
  0
CLASS
  1
LONG_TRANSACTION
  2
AcDbLongTransaction
  3
ObjectDBX Classes
 90
    32768
280
     0
281
     0
  0
CLASS
  1
LWPOLYLINE
  2
AcDbPolyline
  3
ObjectDBX Classes
 90
        0
280
     0
281
     1
  0
CLASS
  1
HATCH
  2
AcDbHatch
  3
ObjectDBX Classes
 90
        0
280
     0
281
     1
  0
CLASS
  1
XRECORD
  2
AcDbXrecord
  3
ObjectDBX Classes
 90
        0
280
     0
281
     0
  0
CLASS
  1
LONG_TRANSACTION
  2
AcDbLongTransaction
  3
ObjectDBX Classes
 90
    32768
280
     0
281
     0
  0
CLASS
  1
LWPOLYLINE
  2
AcDbPolyline
  3
ObjectDBX Classes
 90
        0
280
     0
281
     1
  0
CLASS
  1
HATCH
  2
AcDbHatch
  3
ObjectDBX Classes
 90
        0
280
     0
281
     1
  0
CLASS
  1
XRECORD
  2
AcDbXrecord
  3
ObjectDBX Classes
 90
        0
280
     0
281
     0
  0
CLASS
  1
ACME_DOCUMENT
  2
AcMeDbDoc
  3
AcMeServices
 90
    32768
280
     0
281
     0
  0
CLASS
  1
ACMESCOPE
  2
AcMeScope
  3
AcMeServices
 90
        0
280
     0
281
     0
  0
CLASS
  1
ACMECOMMANDHISTORY
  2
AcMeCommandHistory
  3
AcMeServices
 90
        0
280
     0
281
     0
  0
CLASS
  1
ACIMSYSVARMAN
  2
AcImSysVarManager
  3
AcMeServices
 90
        0
280
     0
281
     0
  0
CLASS
  1
ACIMREALSYSVAR
  2
AcImRealSysVar
  3
AcMeServices
 90
        0
280
     0
281
     0
  0
CLASS
  1
ACIMINTSYSVAR
  2
AcImIntSysVar
  3
AcMeServices
 90
        0
280
     0
281
     0
  0
CLASS
  1
ACMEDRAWINGMAN
  2
AcMeDrawingMan
  3
AcMeServices
 90
        0
280
     0
281
     0
  0
CLASS
  1
ACMEVIEW
  2
AcMeView
  3
AcMeServices
 90
        0
280
     0
281
     0
  0
CLASS
  1
ACDBENTITYCACHE
  2
AcMeEntityCache
  3
AcMeServices
 90
    32768
280
     0
281
     0
  0
CLASS
  1
GSMANAGER
  2
AcMeGSManager
  3
AcMeServices
 90
    32768
280
     0
281
     0
  0
CLASS
  1
AMDTINTERNALREACTOR
  2
AmdtInternalReactor
  3
AcMeServices
 90
    32768
280
     0
281
     0
  0
CLASS
  1
ACMESTATEMGR
  2
AcMeStateMgr
  3
AcMeServices
 90
        0
280
     0
281
     0
  0
CLASS
  1
ACGREFMASTER
  2
AcGrefMaster
  3
AcAttribServices
 90
        0
280
     0
281
     0
  0
CLASS
  1
ACME_DATABASE
  2
AcMeDbDatabase
  3
AcMeServices
 90
    32768
280
     0
281
     0
  0
CLASS
  1
ACRFINSADJUSTERMGR
  2
AcRfInsAdjusterMgr
  3
AcMeServices
 90
    32768
280
     0
281
     0
  0
CLASS
  1
ACGREFACADMASTER
  2
AcGrefacadMaster
  3
AcGrefServices
 90
        0
280
     0
281
     0
  0
CLASS
  1
AMIMASTER
  2
AmiMaster
  3
AmiServices
 90
        0
280
     0
281
     0
  0
CLASS
  1
AMGSETTINGSOBJ
  2
AmgSettingsObj
  3
"AcadM|Product Description: AutoCAD Mechanical 2000|Company: Autodesk"
 90
        0
280
     0
281
     0
  0
CLASS
  1
ACMDATADICTIONARY
  2
AcmDataDictionary
  3
"AcmSymBB|Product Description: AutoCAD Mechanical 2000|Company: Autodesk"
 90
        0
280
     0
281
     0
  0
CLASS
  1
ACMDATAENTRYBLOCK
  2
AcmDataEntryBlock
  3
"AcmSymBB|Product Description: AutoCAD Mechanical 2000|Company: Autodesk"
 90
        0
280
     0
281
     0
  0
CLASS
  1
ACIMSTRSYSVAR
  2
AcImStrSysVar
  3
AcMeServices
 90
        0
280
     0
281
     0
  0
CLASS
  1
ACMSTANDARDISO
  2
AcmStandardISO
  3
"Amdt_StdImp|Product Description: AutoCAD Mechanical 2000|Company: Autodesk"
 90
        0
280
     0
281
     0
  0
CLASS
  1
AMGOBJPROPCFG
  2
AmgObjPropCfg
  3
"AmgLay|Product Description: AutoCAD Mechanical 2000|Company: Autodesk"
 90
        1
280
     0
281
     0
  0
CLASS
  1
AMDTEDGESTANDARDISO
  2
AmdtEdgeStdISO
  3
"Amdt_StdImp|Product Description: AutoCAD Mechanical 2000|Company: Autodesk"
 90
        0
280
     0
281
     0
  0
CLASS
  1
ACMSURFSTANDARDISO
  2
AcmSurfTextStdISO
  3
"Amdt_StdImp|Product Description: AutoCAD Mechanical 2000|Company: Autodesk"
 90
        0
280
     0
281
     0
  0
CLASS
  1
ACMFCFSTANDARDISO
  2
AcmFCFStdISO
  3
"Amdt_StdImp|Product Description: AutoCAD Mechanical 2000|Company: Autodesk"
 90
        0
280
     0
281
     0
  0
CLASS
  1
ACMWELDSTANDARDISO
  2
AcmWeldingStdISO
  3
"Amdt_StdImp|Product Description: AutoCAD Mechanical 2000|Company: Autodesk"
 90
        0
280
     0
281
     0
  0
CLASS
  1
ACMIDSTANDARDISO
  2
AcmIdStdISO
  3
"Amdt_StdImp|Product Description: AutoCAD Mechanical 2000|Company: Autodesk"
 90
        0
280
     0
281
     0
  0
CLASS
  1
ACMDATUMSTANDARDISO
  2
AcmDatumStdISO
  3
"Amdt_StdImp|Product Description: AutoCAD Mechanical 2000|Company: Autodesk"
 90
        0
280
     0
281
     0
  0
CLASS
  1
ACMBOMSTANDARDISO
  2
AcmBOMStdISO
  3
"Amdt_StdImp|Product Description: AutoCAD Mechanical 2000|Company: Autodesk"
 90
        0
280
     0
281
     0
  0
CLASS
  1
ACMDETAILSTANDARDISO
  2
AmdtDetailSymStdISO
  3
"Amdt_StdImp|Product Description: AutoCAD Mechanical 2000|Company: Autodesk"
 90
        0
280
     0
281
     0
  0
CLASS
  1
ACMSECTIONSTANDARDISO
  2
AmdtSectionSymStdISO
  3
"Amdt_StdImp|Product Description: AutoCAD Mechanical 2000|Company: Autodesk"
 90
        0
280
     0
281
     0
  0
CLASS
  1
ACMCENTERLINESTANDARDISO
  2
AmdtCenterLineStdISO
  3
"Amdt_StdImp|Product Description: AutoCAD Mechanical 2000|Company: Autodesk"
 90
        0
280
     0
281
     0
  0
CLASS
  1
ACMNOTESTANDARDISO
  2
AmdtNoteStdISO
  3
"Amdt_StdImp|Product Description: AutoCAD Mechanical 2000|Company: Autodesk"
 90
        0
280
     0
281
     0
  0
CLASS
  1
ACAMGLAYSTD
  2
AcAmgLayStd
  3
"AcAmgLayStd|Product Description: AutoCAD Mechanical 2000|Company: Autodesk"
 90
        0
280
     0
281
     0
  0
CLASS
  1
ACAMGDIMSTD
  2
AcAmgDimStd
  3
"AcAmgDimStd|Product Description: AutoCAD Mechanical 2000|Company: Autodesk"
 90
        0
280
     0
281
     0
  0
CLASS
  1
ACAMGHOLECHARTSTDISO
  2
AcAmgHoleChartStdISO
  3
ACMSYMBB_MODULE_NAME
 90
        0
280
     0
281
     0
  0
CLASS
  1
ACAMGTITLESTD
  2
AcAmgTitleStd
  3
"TITLEAPP"
 90
        0
280
     0
281
     0
  0
CLASS
  1
ACAMGFILTERDAT
  2
AcAmgFilterDat
  3
"AcadM|Product Description: AutoCAD Mechanical 2000|Company: Autodesk"
 90
        0
280
     0
281
     0
  0
CLASS
  1
LAYER_INDEX
  2
AcDbLayerIndex
  3
ObjectDBX Classes
 90
        0
280
     0
281
     0
  0
CLASS
  1
IDBUFFER
  2
AcDbIdBuffer
  3
ObjectDBX Classes
 90
        0
280
     0
281
     0
  0
CLASS
  1
DICTIONARYVAR
  2
AcDbDictionaryVar
  3
ObjectDBX Classes
 90
        0
280
     0
281
     0
  0
CLASS
  1
SCALE
  2
AcDbScale
  3
ObjectDBX Classes
 90
     1153
280
     0
281
     0
  0
CLASS
  1
MATERIAL
  2
AcDbMaterial
  3
ObjectDBX Classes
 90
     1153
280
     0
281
     0
  0
CLASS
  1
TABLESTYLE
  2
AcDbTableStyle
  3
ObjectDBX Classes
 90
     4095
280
     0
281
     0
  0
CLASS
  1
MLEADERSTYLE
  2
AcDbMLeaderStyle
  3
ACDB_MLEADERSTYLE_CLASS
 90
     4095
280
     0
281
     0
  0
CLASS
  1
SORTENTSTABLE
  2
AcDbSortentsTable
  3
ObjectDBX Classes
 90
        0
280
     0
281
     0
  0
ENDSEC
  0
SECTION
  2
TABLES
  0
TABLE
  2
VPORT
  5
8
330
0
100
AcDbSymbolTable
 70
     1
  0
VPORT
  5
1116
330
8
100
AcDbSymbolTableRecord
100
AcDbViewportTableRecord
  2
*Active
 70
     0
 10
0.0
 20
0.0
 11
1.0
 21
1.0
 12
617.0127887825632
 22
1046.474536892462
 13
0.0
 23
0.0
 14
10.0
 24
10.0
 15
10.0
 25
10.0
 16
0.0
 26
0.0
 36
1.0
 17
0.0
 27
0.0
 37
0.0
 40
1324.374967677109
 41
2.228337236533957
 42
50.0
 43
0.0
 44
0.0
 50
0.0
 51
0.0
 71
     0
 72
   100
 73
     1
 74
     0
 75
     0
 76
     0
 77
     0
 78
     0
281
     0
 65
     1
110
0.0
120
0.0
130
0.0
111
1.0
121
0.0
131
0.0
112
0.0
122
1.0
132
0.0
 79
     0
146
0.0
  0
ENDTAB
  0
TABLE
  2
LTYPE
  5
5
330
0
100
AcDbSymbolTable
 70
    15
  0
LTYPE
  5
12
330
5
100
AcDbSymbolTableRecord
100
AcDbLinetypeTableRecord
  2
BYBLOCK
 70
     0
  3

 72
    65
 73
     0
 40
0.0
  0
LTYPE
  5
13
330
5
100
AcDbSymbolTableRecord
100
AcDbLinetypeTableRecord
  2
BYLAYER
 70
     0
  3

 72
    65
 73
     0
 40
0.0
  0
LTYPE
  5
14
330
5
100
AcDbSymbolTableRecord
100
AcDbLinetypeTableRecord
  2
CONTINUOUS
 70
     0
  3
Solid line
 72
    65
 73
     0
 40
0.0
  0
LTYPE
  5
35
330
5
100
AcDbSymbolTableRecord
100
AcDbLinetypeTableRecord
  2
DASHED
 70
     0
  3
Dashed __ __ __ __ __ __ __ __ __ __ __ __ __ _
 72
    65
 73
     2
 40
0.75
 49
0.5
 74
     0
 49
-0.25
 74
     0
  0
LTYPE
  5
36
330
5
100
AcDbSymbolTableRecord
100
AcDbLinetypeTableRecord
  2
CENTER
 70
     0
  3
Center ____ _ ____ _ ____ _ ____ _ ____ _ ____
 72
    65
 73
     4
 40
2.0
 49
1.25
 74
     0
 49
-0.25
 74
     0
 49
0.25
 74
     0
 49
-0.25
 74
     0
  0
LTYPE
  5
37
330
5
100
AcDbSymbolTableRecord
100
AcDbLinetypeTableRecord
  2
PHANTOM
 70
     0
  3
Phantom ______  __  __  ______  __  __  ______
 72
    65
 73
     6
 40
2.5
 49
1.25
 74
     0
 49
-0.25
 74
     0
 49
0.25
 74
     0
 49
-0.25
 74
     0
 49
0.25
 74
     0
 49
-0.25
 74
     0
  0
LTYPE
  5
38
330
5
100
AcDbSymbolTableRecord
100
AcDbLinetypeTableRecord
  2
HIDDEN
 70
     0
  3
Hidden __ __ __ __ __ __ __ __ __ __ __ __ __ _
 72
    65
 73
     2
 40
0.375
 49
0.25
 74
     0
 49
-0.125
 74
     0
  0
LTYPE
  5
1033
330
5
100
AcDbSymbolTableRecord
100
AcDbLinetypeTableRecord
  2
AM_ISO02W050
 70
     0
  3
__ __ __ __ __ __ __ __ __ __ __ __ __ __ __
 72
    65
 73
     2
 40
7.5
 49
6.0
 74
     0
 49
-1.5
 74
     0
  0
LTYPE
  5
1034
330
5
100
AcDbSymbolTableRecord
100
AcDbLinetypeTableRecord
  2
AM_ISO08W050
 70
     0
  3
____ . ____ . ____ . ____ . ____ . ____ . ____
 72
    65
 73
     4
 40
18.0
 49
12.0
 74
     0
 49
-1.5
 74
     0
 49
3.0
 74
     0
 49
-1.5
 74
     0
  0
LTYPE
  5
1035
330
5
100
AcDbSymbolTableRecord
100
AcDbLinetypeTableRecord
  2
AM_ISO09W050
 70
     0
  3
_____ . . _____ . . _____ . . ____ .. ____
 72
    65
 73
     6
 40
22.5
 49
12.0
 74
     0
 49
-1.5
 74
     0
 49
3.0
 74
     0
 49
-1.5
 74
     0
 49
3.0
 74
     0
 49
-1.5
 74
     0
  0
LTYPE
  5
1036
330
5
100
AcDbSymbolTableRecord
100
AcDbLinetypeTableRecord
  2
Amconstr
 70
     0
  3
_______________________
 72
    65
 73
     2
 40
9999.0
 49
9999.0
 74
     0
 49
0.0
 74
     0
  0
LTYPE
  5
1037
330
5
100
AcDbSymbolTableRecord
100
AcDbLinetypeTableRecord
  2
AM_ISO08W050x2
 70
     0
  3
__ . __ . __ . __ . __ . __
 72
    65
 73
     4
 40
9.0
 49
6.0
 74
     0
 49
-0.75
 74
     0
 49
1.5
 74
     0
 49
-0.75
 74
     0
  0
LTYPE
  5
1038
330
5
100
AcDbSymbolTableRecord
100
AcDbLinetypeTableRecord
  2
AM_ISO02W050x2
 70
     0
  3
 _ _ _ _ _ _ _ _ _ _ _ _
 72
    65
 73
     2
 40
3.75
 49
3.0
 74
     0
 49
-0.75
 74
     0
  0
LTYPE
  5
1039
330
5
100
AcDbSymbolTableRecord
100
AcDbLinetypeTableRecord
  2
Amzigzag
 70
     0
  3
/\/-/\/-/\/-/\/-/\/-/\/
 72
    65
 73
     2
 40
11.0001
 49
0.0001
 74
     4
 75
   135
340
34
 46
0.04
 50
0.0
 44
0.0
 45
0.0
 49
-11.0
 74
     0
  0
LTYPE
  5
1047
330
5
100
AcDbSymbolTableRecord
100
AcDbLinetypeTableRecord
  2
ACISOWELD
 70
     0
  3
_ _ _ _ _
 72
    65
 73
     2
 40
2.0
 49
2.0
 74
     0
 49
-1.0
 74
     0
  0
LTYPE
  5
1048
330
5
100
AcDbSymbolTableRecord
100
AcDbLinetypeTableRecord
  2
ACISOTGB
 70
     0
  3
__ . . __ . .
 72
    65
 73
     6
 40
9.0
 49
4.0
 74
     0
 49
-1.0
 74
     0
 49
1.0
 74
     0
 49
-1.0
 74
     0
 49
1.0
 74
     0
 49
-1.0
 74
     0
  0
LTYPE
  5
1049
330
5
100
AcDbSymbolTableRecord
100
AcDbLinetypeTableRecord
  2
ACISOTGL
 70
     0
  3
_ _ _ _ _
 72
    65
 73
     2
 40
3.0
 49
2.0
 74
     0
 49
-1.0
 74
     0
  0
ENDTAB
  0
TABLE
  2
LAYER
  5
2
102
{ACAD_XDICTIONARY
360
1251
102
}
330
0
100
AcDbSymbolTable
 70
    17
  0
LAYER
  5
E
330
2
100
AcDbSymbolTableRecord
100
AcDbLayerTableRecord
  2
0
 70
     0
 62
     7
  6
CONTINUOUS
370
    -3
390
CB
  0
LAYER
  5
39
330
2
100
AcDbSymbolTableRecord
100
AcDbLayerTableRecord
  2
DEFPOINTS
 70
     0
 62
     7
  6
CONTINUOUS
290
     0
370
    -3
390
CB
  0
LAYER
  5
3A
330
2
100
AcDbSymbolTableRecord
100
AcDbLayerTableRecord
  2
HASEN
 70
     0
 62
     2
  6
DASHED
370
    -3
390
CB
  0
LAYER
  5
3B
330
2
100
AcDbSymbolTableRecord
100
AcDbLayerTableRecord
  2
HATCH
 70
     0
 62
     4
  6
CONTINUOUS
370
    -3
390
CB
  0
LAYER
  5
3C
330
2
100
AcDbSymbolTableRecord
100
AcDbLayerTableRecord
  2
HOJO
 70
     0
 62
     6
  6
CONTINUOUS
370
    -3
390
CB
  0
LAYER
  5
3D
330
2
100
AcDbSymbolTableRecord
100
AcDbLayerTableRecord
  2
HOJOORG
 70
     0
 62
     1
  6
CONTINUOUS
370
    -3
390
CB
  0
LAYER
  5
3E
330
2
100
AcDbSymbolTableRecord
100
AcDbLayerTableRecord
  2
ITTEN
 70
     0
 62
     1
  6
CENTER
370
    -3
390
CB
  0
LAYER
  5
3F
330
2
100
AcDbSymbolTableRecord
100
AcDbLayerTableRecord
  2
JISSEN
 70
     0
 62
     7
  6
CONTINUOUS
370
    -3
390
CB
  0
LAYER
  5
40
330
2
100
AcDbSymbolTableRecord
100
AcDbLayerTableRecord
  2
NITEN
 70
     0
 62
     2
  6
PHANTOM
370
    -3
390
CB
  0
LAYER
  5
41
330
2
100
AcDbSymbolTableRecord
100
AcDbLayerTableRecord
  2
POINT
 70
     0
 62
     7
  6
CONTINUOUS
370
    -3
390
CB
  0
LAYER
  5
42
330
2
100
AcDbSymbolTableRecord
100
AcDbLayerTableRecord
  2
SAISEN
 70
     0
 62
     4
  6
CONTINUOUS
370
    -3
390
CB
  0
LAYER
  5
43
330
2
100
AcDbSymbolTableRecord
100
AcDbLayerTableRecord
  2
SUNPOU
 70
     0
 62
     3
  6
CONTINUOUS
370
    -3
390
CB
  0
LAYER
  5
44
330
2
100
AcDbSymbolTableRecord
100
AcDbLayerTableRecord
  2
TENSEN
 70
     0
 62
     2
  6
HIDDEN
370
    -3
390
CB
  0
LAYER
  5
45
330
2
100
AcDbSymbolTableRecord
100
AcDbLayerTableRecord
  2
TEXT
 70
     0
 62
     3
  6
CONTINUOUS
370
    -3
390
CB
  0
LAYER
  5
46
330
2
100
AcDbSymbolTableRecord
100
AcDbLayerTableRecord
  2
WAKU
 70
     0
 62
     5
  6
CONTINUOUS
370
    -3
390
CB
  0
LAYER
  5
24B
330
2
100
AcDbSymbolTableRecord
100
AcDbLayerTableRecord
  2
氷出口(CS)
 70
     0
 62
    22
  6
CONTINUOUS
370
    -3
390
CB
  0
LAYER
  5
106F
330
2
100
AcDbSymbolTableRecord
100
AcDbLayerTableRecord
  2
AM_CL
 70
     0
 62
     1
  6
Amconstr
370
    25
390
CB
  0
ENDTAB
  0
TABLE
  2
STYLE
  5
3
330
0
100
AcDbSymbolTable
 70
     7
  0
STYLE
  5
F
330
3
100
AcDbSymbolTableRecord
100
AcDbTextStyleTableRecord
  2
STANDARD
 70
     0
 40
0.0
 41
1.0
 50
0.0
 71
     0
 42
15.0
  3
romans.shx
  4
extfont.shx
  0
STYLE
  5
34
330
3
100
AcDbSymbolTableRecord
100
AcDbTextStyleTableRecord
  2

 70
     1
 40
0.0
 41
1.0
 50
0.0
 71
     0
 42
2.5
  3
ltypeshp.shx
  4

  0
STYLE
  5
48
330
3
100
AcDbSymbolTableRecord
100
AcDbTextStyleTableRecord
  2
K
 70
     0
 40
0.0
 41
1.0
 50
0.0
 71
     0
 42
1.0
  3
ROMANS
  4
EXTFONT
  0
STYLE
  5
103A
330
3
100
AcDbSymbolTableRecord
100
AcDbTextStyleTableRecord
  2
ACISOTS
 70
     0
 40
1.0
 41
1.0
 50
0.0
 71
     0
 42
15.0
  3
isocp.shx
  4
extfont.shx
  0
STYLE
  5
1046
330
3
100
AcDbSymbolTableRecord
100
AcDbTextStyleTableRecord
  2
ACISOGDT
 70
     0
 40
0.0
 41
1.0
 50
0.0
 71
     0
 42
15.0
  3
amgdt.shx
  4

  0
ENDTAB
  0
TABLE
  2
VIEW
  5
6
330
0
100
AcDbSymbolTable
 70
     0
  0
ENDTAB
  0
TABLE
  2
UCS
  5
7
330
0
100
AcDbSymbolTable
 70
     0
  0
ENDTAB
  0
TABLE
  2
APPID
  5
9
330
0
100
AcDbSymbolTable
 70
     9
  0
APPID
  5
10
330
9
100
AcDbSymbolTableRecord
100
AcDbRegAppTableRecord
  2
ACAD
 70
     0
  0
APPID
  5
24
330
9
100
AcDbSymbolTableRecord
100
AcDbRegAppTableRecord
  2
CONTENTTABDATA
 70
     0
  0
APPID
  5
25
330
9
100
AcDbSymbolTableRecord
100
AcDbRegAppTableRecord
  2
CONTENTCURRENTTAB
 70
     0
  0
APPID
  5
1011
330
9
100
AcDbSymbolTableRecord
100
AcDbRegAppTableRecord
  2
MCAD_NO_VIS
 70
     0
  0
APPID
  5
1012
330
9
100
AcDbSymbolTableRecord
100
AcDbRegAppTableRecord
  2
ACAD_TEMP_GRAPHIC
 70
     0
  0
APPID
  5
1023
330
9
100
AcDbSymbolTableRecord
100
AcDbRegAppTableRecord
  2
ACATTRIBSERVICES
 70
     0
  0
APPID
  5
110C
330
9
100
AcDbSymbolTableRecord
100
AcDbRegAppTableRecord
  2
___LIKI___
 70
     0
  0
APPID
  5
1160
330
9
100
AcDbSymbolTableRecord
100
AcDbRegAppTableRecord
  2
ACAD_OBJECT_CHANGE_GUID
 70
     0
  0
APPID
  5
1D0B
330
9
100
AcDbSymbolTableRecord
100
AcDbRegAppTableRecord
  2
ACAD_MLEADERVER
 70
     0
  0
ENDTAB
  0
TABLE
  2
DIMSTYLE
  5
A
330
0
100
AcDbSymbolTable
 70
    11
100
AcDbDimStyleTable
 71
     1
340
47
  0
DIMSTYLE
105
1D
330
A
100
AcDbSymbolTableRecord
100
AcDbDimStyleTableRecord
  2
STANDARD
 70
     0
340
F
  0
DIMSTYLE
105
47
102
{ACAD_REACTORS
330
87D
330
9E4
330
1BB0
330
1BB1
330
1A4D
330
1A4E
330
1A5F
330
1A64
330
1AC5
330
1B1F
330
1B20
330
1B21
330
1B22
330
1B35
330
1B67
330
1B68
102
}
330
A
100
AcDbSymbolTableRecord
100
AcDbDimStyleTableRecord
  2
IMCADLT
 70
     0
 40
5.0
 41
2.5
 42
1.0
 43
6.0
 44
1.0
 73
     0
 74
     0
 77
     3
 78
     8
140
3.0
141
0.0
146
0.45
147
1.0
172
     1
173
     1
271
     2
272
     2
284
     8
289
     1
340
F
341
49
343
49
344
49
  0
DIMSTYLE
105
104D
330
A
100
AcDbSymbolTableRecord
100
AcDbDimStyleTableRecord
  2
AM_ISO
 70
     0
  4
"
 41
2.5
 42
1.0
 43
10.0
 44
1.0
 47
0.1
 48
0.1
 73
     0
 74
     0
 77
     1
 78
     8
 79
     2
140
3.5
141
0.0
143
0.0393701
146
0.71
147
1.5
172
     1
176
   256
177
   256
178
     2
271
     2
272
     3
274
     4
283
     0
284
     8
340
F
371
    -1
372
    -1
  0
DIMSTYLE
105
104E
330
A
100
AcDbSymbolTableRecord
100
AcDbDimStyleTableRecord
  2
AM_ISO$3
 70
     0
  4
"
 41
2.5
 42
1.0
 43
10.0
 44
1.0
 47
0.1
 48
0.1
 73
     0
 77
     1
 78
     8
 79
     2
140
3.5
141
0.0
143
0.0393701
146
0.71
147
1.5
176
   256
177
   256
178
     2
271
     2
272
     3
274
     4
283
     0
284
     8
289
     0
340
F
371
    -1
372
    -1
  0
DIMSTYLE
105
104F
330
A
100
AcDbSymbolTableRecord
100
AcDbDimStyleTableRecord
  2
AM_ISO$4
 70
     0
  4
"
 41
2.5
 42
1.0
 43
10.0
 44
1.0
 47
0.1
 48
0.1
 73
     0
 77
     1
 78
     8
 79
     2
140
3.5
141
0.0
143
0.0393701
146
0.71
147
1.5
176
   256
177
   256
178
     2
271
     2
272
     3
274
     4
283
     0
284
     8
289
     0
340
F
371
    -1
372
    -1
  0
DIMSTYLE
105
1050
330
A
100
AcDbSymbolTableRecord
100
AcDbDimStyleTableRecord
  2
AM_ISO$6
 70
     0
  4
"
 41
2.5
 42
1.0
 43
10.0
 44
1.0
 47
0.1
 48
0.1
 73
     0
 74
     0
 78
     8
 79
     2
140
3.5
141
0.0
143
0.0393701
146
0.71
147
1.5
172
     1
176
   256
177
   256
178
     2
271
     2
272
     3
274
     4
283
     0
284
     8
340
F
371
    -1
372
    -1
  0
DIMSTYLE
105
1051
330
A
100
AcDbSymbolTableRecord
100
AcDbDimStyleTableRecord
  2
AM_ISO$7
 70
     0
  4
"
 41
2.5
 42
1.0
 43
10.0
 44
1.0
 47
0.1
 48
0.1
 73
     0
 74
     0
 77
     1
 78
     8
 79
     2
140
5.0
141
0.0
143
0.0393701
146
0.71
147
1.5
172
     1
176
   256
177
   256
178
     2
271
     2
272
     3
274
     4
283
     0
284
     8
340
F
371
    -1
372
    -1
  0
DIMSTYLE
105
1052
330
A
100
AcDbSymbolTableRecord
100
AcDbDimStyleTableRecord
  2
AM_ISO$SF
 70
     0
  4
"
 41
2.5
 42
1.0
 43
10.0
 44
1.0
 47
0.1
 48
0.1
 73
     0
 74
     0
 75
     1
 76
     1
 77
     1
 78
     8
 79
     2
140
3.5
141
0.0
143
0.0393701
146
0.71
147
1.5
172
     1
176
   256
177
   256
178
     2
271
     2
272
     3
274
     4
283
     0
284
     8
340
F
371
    -1
372
    -1
  0
DIMSTYLE
105
1057
330
A
100
AcDbSymbolTableRecord
100
AcDbDimStyleTableRecord
  2
AM_ISO$SH
 70
     0
  4
"
 41
2.5
 42
1.0
 43
10.0
 44
1.0
 47
0.1
 48
0.1
 73
     0
 74
     0
 75
     1
 76
     1
 77
     1
 78
     8
 79
     2
140
3.5
141
0.0
143
0.0393701
144
2.0
146
0.71
147
1.5
172
     1
173
     1
176
   256
177
   256
178
     2
271
     2
272
     3
274
     4
283
     0
284
     8
340
F
343
1053
371
    -1
372
    -1
  0
ENDTAB
  0
TABLE
  2
BLOCK_RECORD
  5
1
330
0
100
AcDbSymbolTable
 70
    63
  0
BLOCK_RECORD
  5
18
102
{ACAD_XDICTIONARY
360
E62
102
}
330
1
100
AcDbSymbolTableRecord
100
AcDbBlockTableRecord
  2
*MODEL_SPACE
340
CE
  0
BLOCK_RECORD
  5
15
102
{ACAD_XDICTIONARY
360
E60
102
}
330
1
100
AcDbSymbolTableRecord
100
AcDbBlockTableRecord
  2
*PAPER_SPACE
340
CF
  0
BLOCK_RECORD
  5
49
330
1
100
AcDbSymbolTableRecord
100
AcDbBlockTableRecord
  2
ARROW
340
0
102
{BLKREFS
331
F4D
331
F4E
331
DEC
331
DED
331
DDA
331
DDB
331
DD1
331
DD2
331
DC8
331
DC9
331
DE3
331
DE4
331
DF5
331
DF6
331
DFE
331
DFF
331
F19
331
F1A
331
E34
331
E35
331
E2B
331
E2C
331
F10
331
F11
331
FD1
331
FD2
331
1842
331
1843
331
184E
331
184F
331
185A
331
185B
331
1866
331
1867
331
1872
331
1873
331
187E
331
187F
331
188A
331
188B
331
1895
331
1896
331
18A1
331
18A2
331
18AD
331
18AE
331
18B9
331
18BA
331
18C5
331
18C6
331
18D1
331
18D2
331
18DD
331
18DE
331
1C6E
331
1C6F
331
1C77
331
1C78
331
1C80
331
1C81
331
1C89
331
1C8A
331
1C92
331
1C93
331
1C9B
331
1C9C
331
1CA4
331
1CA5
331
1CAC
331
1CAD
331
1CB5
331
1CB6
331
1CBE
331
1CBF
331
1CC7
331
1CC8
331
1CD0
331
1CD1
102
}
  0
BLOCK_RECORD
  5
52
330
1
100
AcDbSymbolTableRecord
100
AcDbBlockTableRecord
  2
ARROWANG
340
0
  0
BLOCK_RECORD
  5
58
330
1
100
AcDbSymbolTableRecord
100
AcDbBlockTableRecord
  2
BATU
340
0
  0
BLOCK_RECORD
  5
60
330
1
100
AcDbSymbolTableRecord
100
AcDbBlockTableRecord
  2
CENCRS
340
0
  0
BLOCK_RECORD
  5
66
330
1
100
AcDbSymbolTableRecord
100
AcDbBlockTableRecord
  2
CENLINE
340
0
  0
BLOCK_RECORD
  5
6B
330
1
100
AcDbSymbolTableRecord
100
AcDbBlockTableRecord
  2
DOT
340
0
  0
BLOCK_RECORD
  5
71
330
1
100
AcDbSymbolTableRecord
100
AcDbBlockTableRecord
  2
HOJO
340
0
  0
BLOCK_RECORD
  5
76
330
1
100
AcDbSymbolTableRecord
100
AcDbBlockTableRecord
  2
HOJOANG
340
0
  0
BLOCK_RECORD
  5
7B
330
1
100
AcDbSymbolTableRecord
100
AcDbBlockTableRecord
  2
HOJOC
340
0
  0
BLOCK_RECORD
  5
80
330
1
100
AcDbSymbolTableRecord
100
AcDbBlockTableRecord
  2
HOJOCR
340
0
  0
BLOCK_RECORD
  5
86
330
1
100
AcDbSymbolTableRecord
100
AcDbBlockTableRecord
  2
HOJOORG
340
0
102
{BLKREFS
331
91
331
92
102
}
  0
BLOCK_RECORD
  5
8B
330
1
100
AcDbSymbolTableRecord
100
AcDbBlockTableRecord
  2
HOJOORGC
340
0
  0
BLOCK_RECORD
  5
90
330
1
100
AcDbSymbolTableRecord
100
AcDbBlockTableRecord
  2
HOJOORGCR
340
0
  0
BLOCK_RECORD
  5
96
330
1
100
AcDbSymbolTableRecord
100
AcDbBlockTableRecord
  2
WAKU
340
0
  0
BLOCK_RECORD
  5
A5
330
1
100
AcDbSymbolTableRecord
100
AcDbBlockTableRecord
  2
IMCADLT3
340
0
  0
BLOCK_RECORD
  5
E6
330
1
100
AcDbSymbolTableRecord
100
AcDbBlockTableRecord
  2
A$C19783D3A
340
0
  0
BLOCK_RECORD
  5
C3A
330
1
100
AcDbSymbolTableRecord
100
AcDbBlockTableRecord
  2
*D16
340
0
  0
BLOCK_RECORD
  5
C46
330
1
100
AcDbSymbolTableRecord
100
AcDbBlockTableRecord
  2
*D17
340
0
  0
BLOCK_RECORD
  5
C52
330
1
100
AcDbSymbolTableRecord
100
AcDbBlockTableRecord
  2
*D18
340
0
  0
BLOCK_RECORD
  5
C5E
330
1
100
AcDbSymbolTableRecord
100
AcDbBlockTableRecord
  2
*D19
340
0
  0
BLOCK_RECORD
  5
C6A
330
1
100
AcDbSymbolTableRecord
100
AcDbBlockTableRecord
  2
*D20
340
0
  0
BLOCK_RECORD
  5
C76
330
1
100
AcDbSymbolTableRecord
100
AcDbBlockTableRecord
  2
*D21
340
0
  0
BLOCK_RECORD
  5
C82
330
1
100
AcDbSymbolTableRecord
100
AcDbBlockTableRecord
  2
*D22
340
0
  0
BLOCK_RECORD
  5
C8E
330
1
100
AcDbSymbolTableRecord
100
AcDbBlockTableRecord
  2
*D23
340
0
  0
BLOCK_RECORD
  5
C9A
330
1
100
AcDbSymbolTableRecord
100
AcDbBlockTableRecord
  2
*D24
340
0
  0
BLOCK_RECORD
  5
CA6
330
1
100
AcDbSymbolTableRecord
100
AcDbBlockTableRecord
  2
*D25
340
0
  0
BLOCK_RECORD
  5
CB2
330
1
100
AcDbSymbolTableRecord
100
AcDbBlockTableRecord
  2
*D26
340
0
  0
BLOCK_RECORD
  5
CBE
330
1
100
AcDbSymbolTableRecord
100
AcDbBlockTableRecord
  2
*D27
340
0
  0
BLOCK_RECORD
  5
CCA
330
1
100
AcDbSymbolTableRecord
100
AcDbBlockTableRecord
  2
*D28
340
0
  0
BLOCK_RECORD
  5
D4B
330
1
100
AcDbSymbolTableRecord
100
AcDbBlockTableRecord
  2
_IMCADLT3
340
0
102
{BLKREFS
331
D4E
102
}
  0
BLOCK_RECORD
  5
1053
330
1
100
AcDbSymbolTableRecord
100
AcDbBlockTableRecord
  2
GENAXEH
340
0
  0
BLOCK_RECORD
  5
183D
330
1
100
AcDbSymbolTableRecord
100
AcDbBlockTableRecord
  2
*D32
340
0
  0
BLOCK_RECORD
  5
1849
330
1
100
AcDbSymbolTableRecord
100
AcDbBlockTableRecord
  2
*D33
340
0
  0
BLOCK_RECORD
  5
1855
330
1
100
AcDbSymbolTableRecord
100
AcDbBlockTableRecord
  2
*D34
340
0
  0
BLOCK_RECORD
  5
1861
330
1
100
AcDbSymbolTableRecord
100
AcDbBlockTableRecord
  2
*D35
340
0
  0
BLOCK_RECORD
  5
186D
330
1
100
AcDbSymbolTableRecord
100
AcDbBlockTableRecord
  2
*D36
340
0
  0
BLOCK_RECORD
  5
1879
330
1
100
AcDbSymbolTableRecord
100
AcDbBlockTableRecord
  2
*D37
340
0
  0
BLOCK_RECORD
  5
1885
330
1
100
AcDbSymbolTableRecord
100
AcDbBlockTableRecord
  2
*D38
340
0
  0
BLOCK_RECORD
  5
1891
330
1
100
AcDbSymbolTableRecord
100
AcDbBlockTableRecord
  2
*D39
340
0
  0
BLOCK_RECORD
  5
189C
330
1
100
AcDbSymbolTableRecord
100
AcDbBlockTableRecord
  2
*D40
340
0
  0
BLOCK_RECORD
  5
18A8
330
1
100
AcDbSymbolTableRecord
100
AcDbBlockTableRecord
  2
*D41
340
0
  0
BLOCK_RECORD
  5
18B4
330
1
100
AcDbSymbolTableRecord
100
AcDbBlockTableRecord
  2
*D42
340
0
  0
BLOCK_RECORD
  5
18C0
330
1
100
AcDbSymbolTableRecord
100
AcDbBlockTableRecord
  2
*D43
340
0
  0
BLOCK_RECORD
  5
18CC
330
1
100
AcDbSymbolTableRecord
100
AcDbBlockTableRecord
  2
*D44
340
0
  0
BLOCK_RECORD
  5
18D8
330
1
100
AcDbSymbolTableRecord
100
AcDbBlockTableRecord
  2
*D45
340
0
  0
BLOCK_RECORD
  5
1BB2
330
1
100
AcDbSymbolTableRecord
100
AcDbBlockTableRecord
  2
*D47
340
0
  0
BLOCK_RECORD
  5
1BBE
330
1
100
AcDbSymbolTableRecord
100
AcDbBlockTableRecord
  2
*D48
340
0
  0
BLOCK_RECORD
  5
1BCA
330
1
100
AcDbSymbolTableRecord
100
AcDbBlockTableRecord
  2
*D49
340
0
  0
BLOCK_RECORD
  5
1BD6
330
1
100
AcDbSymbolTableRecord
100
AcDbBlockTableRecord
  2
*D50
340
0
  0
BLOCK_RECORD
  5
1BE2
330
1
100
AcDbSymbolTableRecord
100
AcDbBlockTableRecord
  2
*D51
340
0
  0
BLOCK_RECORD
  5
1BEE
330
1
100
AcDbSymbolTableRecord
100
AcDbBlockTableRecord
  2
*D52
340
0
  0
BLOCK_RECORD
  5
1BFA
330
1
100
AcDbSymbolTableRecord
100
AcDbBlockTableRecord
  2
*D53
340
0
  0
BLOCK_RECORD
  5
1C06
330
1
100
AcDbSymbolTableRecord
100
AcDbBlockTableRecord
  2
*D54
340
0
  0
BLOCK_RECORD
  5
1C12
330
1
100
AcDbSymbolTableRecord
100
AcDbBlockTableRecord
  2
*D55
340
0
  0
BLOCK_RECORD
  5
1C1E
330
1
100
AcDbSymbolTableRecord
100
AcDbBlockTableRecord
  2
*D56
340
0
  0
BLOCK_RECORD
  5
1C29
330
1
100
AcDbSymbolTableRecord
100
AcDbBlockTableRecord
  2
*D57
340
0
  0
BLOCK_RECORD
  5
1C35
330
1
100
AcDbSymbolTableRecord
100
AcDbBlockTableRecord
  2
*D58
340
0
  0
BLOCK_RECORD
  5
1C41
330
1
100
AcDbSymbolTableRecord
100
AcDbBlockTableRecord
  2
*D59
340
0
  0
BLOCK_RECORD
  5
1C4D
330
1
100
AcDbSymbolTableRecord
100
AcDbBlockTableRecord
  2
*D60
340
0
  0
ENDTAB
  0
ENDSEC
  0
SECTION
  2
BLOCKS
  0
BLOCK
  5
19
330
18
100
AcDbEntity
  8
0
100
AcDbBlockBegin
  2
*MODEL_SPACE
 70
     0
 10
0.0
 20
0.0
 30
0.0
  3
*MODEL_SPACE
  1

  0
ENDBLK
  5
1A
330
18
100
AcDbEntity
  8
0
100
AcDbBlockEnd
  0
BLOCK
  5
16
330
15
100
AcDbEntity
 67
     1
  8
0
100
AcDbBlockBegin
  2
*PAPER_SPACE
 70
     0
 10
0.0
 20
0.0
 30
0.0
  3
*PAPER_SPACE
  1

  0
ENDBLK
  5
17
330
15
100
AcDbEntity
 67
     1
  8
0
100
AcDbBlockEnd
  0
BLOCK
  5
4D
330
49
100
AcDbEntity
  8
0
100
AcDbBlockBegin
  2
ARROW
 70
     0
 10
0.0
 20
0.0
 30
0.0
  3
ARROW
  1

  0
LINE
  5
4A
330
49
100
AcDbEntity
  8
0
100
AcDbLine
 10
0.0
 20
0.0
 30
0.0
 11
-1.500000000000021
 21
-0.4019237886466982
 31
0.0
  0
LINE
  5
4B
330
49
100
AcDbEntity
  8
0
100
AcDbLine
 10
-1.0
 20
0.0
 30
0.0
 11
0.0
 21
0.0
 31
0.0
  0
LINE
  5
4C
330
49
100
AcDbEntity
  8
0
100
AcDbLine
 10
0.0
 20
0.0
 30
0.0
 11
-1.499999999999957
 21
0.4019237886467409
 31
0.0
  0
ENDBLK
  5
4E
330
49
100
AcDbEntity
  8
0
100
AcDbBlockEnd
  0
BLOCK
  5
55
330
52
100
AcDbEntity
  8
0
100
AcDbBlockBegin
  2
ARROWANG
 70
     0
 10
0.0
 20
0.0
 30
0.0
  3
ARROWANG
  1

  0
LINE
  5
53
330
52
100
AcDbEntity
  8
SUNPOU
100
AcDbLine
 10
0.0
 20
0.0
 30
0.0
 11
-1.499999999999957
 21
0.4019237886467409
 31
0.0
  0
LINE
  5
54
330
52
100
AcDbEntity
  8
SUNPOU
100
AcDbLine
 10
0.0
 20
0.0
 30
0.0
 11
-1.500000000000028
 21
-0.4019237886467124
 31
0.0
  0
ENDBLK
  5
56
330
52
100
AcDbEntity
  8
0
100
AcDbBlockEnd
  0
BLOCK
  5
5D
330
58
100
AcDbEntity
  8
0
100
AcDbBlockBegin
  2
BATU
 70
     0
 10
0.0
 20
0.0
 30
0.0
  3
BATU
  1

  0
LINE
  5
59
330
58
100
AcDbEntity
  8
ITTEN
100
AcDbLine
 10
-1.0
 20
0.0
 30
0.0
 11
0.0
 21
0.0
 31
0.0
  0
LINE
  5
5A
330
58
100
AcDbEntity
  8
ITTEN
100
AcDbLine
 10
0.0
 20
0.0
 30
0.0
 11
1.0
 21
0.0
 31
0.0
  0
LINE
  5
5B
330
58
100
AcDbEntity
  8
ITTEN
100
AcDbLine
 10
0.0
 20
-1.0
 30
0.0
 11
0.0
 21
0.0
 31
0.0
  0
LINE
  5
5C
330
58
100
AcDbEntity
  8
ITTEN
100
AcDbLine
 10
0.0
 20
0.0
 30
0.0
 11
0.0
 21
1.0
 31
0.0
  0
ENDBLK
  5
5E
330
58
100
AcDbEntity
  8
0
100
AcDbBlockEnd
  0
BLOCK
  5
63
330
60
100
AcDbEntity
  8
0
100
AcDbBlockBegin
  2
CENCRS
 70
     0
 10
0.0
 20
0.0
 30
0.0
  3
CENCRS
  1

  0
LINE
  5
61
330
60
100
AcDbEntity
  8
ITTEN
100
AcDbLine
 10
0.0
 20
0.5
 30
0.0
 11
0.0
 21
-0.5
 31
0.0
  0
LINE
  5
62
330
60
100
AcDbEntity
  8
ITTEN
100
AcDbLine
 10
-0.5
 20
0.0
 30
0.0
 11
0.5
 21
0.0
 31
0.0
  0
ENDBLK
  5
64
330
60
100
AcDbEntity
  8
0
100
AcDbBlockEnd
  0
BLOCK
  5
68
330
66
100
AcDbEntity
  8
0
100
AcDbBlockBegin
  2
CENLINE
 70
     0
 10
0.0
 20
0.0
 30
0.0
  3
CENLINE
  1

  0
LINE
  5
67
330
66
100
AcDbEntity
  8
ITTEN
100
AcDbLine
 10
0.0
 20
0.0
 30
0.0
 11
1.0
 21
0.0
 31
0.0
  0
ENDBLK
  5
69
330
66
100
AcDbEntity
  8
0
100
AcDbBlockEnd
  0
BLOCK
  5
6E
330
6B
100
AcDbEntity
  8
0
100
AcDbBlockBegin
  2
DOT
 70
     0
 10
0.0
 20
0.0
 30
0.0
  3
DOT
  1

  0
LWPOLYLINE
  5
6C
330
6B
100
AcDbEntity
  8
JISSEN
  6
ByBlock
 62
     0
100
AcDbPolyline
 90
        2
 70
     1
 43
0.5
 10
-0.25
 20
0.0
 42
1.0
 10
0.25
 20
0.0
 42
1.0
  0
LINE
  5
6D
330
6B
100
AcDbEntity
  8
JISSEN
  6
ByBlock
 62
     0
100
AcDbLine
 10
-0.5
 20
0.0
 30
0.0
 11
-1.0
 21
0.0
 31
0.0
  0
ENDBLK
  5
6F
330
6B
100
AcDbEntity
  8
0
100
AcDbBlockEnd
  0
BLOCK
  5
73
330
71
100
AcDbEntity
  8
0
100
AcDbBlockBegin
  2
HOJO
 70
     0
 10
0.0
 20
0.0
 30
0.0
  3
HOJO
  1

  0
LINE
  5
72
330
71
100
AcDbEntity
  8
HOJO
100
AcDbLine
 10
0.0
 20
0.0
 30
0.0
 11
2.0
 21
0.0
 31
0.0
  0
ENDBLK
  5
74
330
71
100
AcDbEntity
  8
0
100
AcDbBlockEnd
  0
BLOCK
  5
78
330
76
100
AcDbEntity
  8
0
100
AcDbBlockBegin
  2
HOJOANG
 70
     0
 10
0.0
 20
0.0
 30
0.0
  3
HOJOANG
  1

  0
LINE
  5
77
330
76
100
AcDbEntity
  8
HOJO
100
AcDbLine
 10
-1.0
 20
0.0
 30
0.0
 11
1.0
 21
0.0
 31
0.0
  0
ENDBLK
  5
79
330
76
100
AcDbEntity
  8
0
100
AcDbBlockEnd
  0
BLOCK
  5
7D
330
7B
100
AcDbEntity
  8
0
100
AcDbBlockBegin
  2
HOJOC
 70
     0
 10
0.0
 20
0.0
 30
0.0
  3
HOJOC
  1

  0
CIRCLE
  5
7C
330
7B
100
AcDbEntity
  8
HOJO
100
AcDbCircle
 10
0.0
 20
0.0
 30
0.0
 40
1.0
  0
ENDBLK
  5
7E
330
7B
100
AcDbEntity
  8
0
100
AcDbBlockEnd
  0
BLOCK
  5
83
330
80
100
AcDbEntity
  8
0
100
AcDbBlockBegin
  2
HOJOCR
 70
     0
 10
0.0
 20
0.0
 30
0.0
  3
HOJOCR
  1

  0
LINE
  5
81
330
80
100
AcDbEntity
  8
HOJO
100
AcDbLine
 10
-1.0
 20
0.0
 30
0.0
 11
1.0
 21
0.0
 31
0.0
  0
LINE
  5
82
330
80
100
AcDbEntity
  8
HOJO
100
AcDbLine
 10
0.0
 20
-1.0
 30
0.0
 11
0.0
 21
1.0
 31
0.0
  0
ENDBLK
  5
84
330
80
100
AcDbEntity
  8
0
100
AcDbBlockEnd
  0
BLOCK
  5
88
330
86
100
AcDbEntity
  8
0
100
AcDbBlockBegin
  2
HOJOORG
 70
     0
 10
0.0
 20
0.0
 30
0.0
  3
HOJOORG
  1

  0
LINE
  5
87
330
86
100
AcDbEntity
  8
HOJOORG
100
AcDbLine
 10
-1.0
 20
0.0
 30
0.0
 11
1.0
 21
0.0
 31
0.0
  0
ENDBLK
  5
89
330
86
100
AcDbEntity
  8
0
100
AcDbBlockEnd
  0
BLOCK
  5
8D
330
8B
100
AcDbEntity
  8
0
100
AcDbBlockBegin
  2
HOJOORGC
 70
     0
 10
0.0
 20
0.0
 30
0.0
  3
HOJOORGC
  1

  0
CIRCLE
  5
8C
330
8B
100
AcDbEntity
  8
HOJOORG
100
AcDbCircle
 10
0.0
 20
0.0
 30
0.0
 40
1.0
  0
ENDBLK
  5
8E
330
8B
100
AcDbEntity
  8
0
100
AcDbBlockEnd
  0
BLOCK
  5
93
330
90
100
AcDbEntity
  8
0
100
AcDbBlockBegin
  2
HOJOORGCR
 70
     0
 10
0.0
 20
0.0
 30
0.0
  3
HOJOORGCR
  1

  0
INSERT
  5
91
330
90
100
AcDbEntity
  8
JISSEN
100
AcDbBlockReference
  2
HOJOORG
 10
0.0
 20
0.0
 30
0.0
 50
90.0
  0
INSERT
  5
92
330
90
100
AcDbEntity
  8
JISSEN
100
AcDbBlockReference
  2
HOJOORG
 10
0.0
 20
0.0
 30
0.0
  0
ENDBLK
  5
94
330
90
100
AcDbEntity
  8
0
100
AcDbBlockEnd
  0
BLOCK
  5
9B
330
96
100
AcDbEntity
  8
0
100
AcDbBlockBegin
  2
WAKU
 70
     0
 10
0.0
 20
0.0
 30
0.0
  3
WAKU
  1

  0
LINE
  5
97
330
96
100
AcDbEntity
  8
WAKU
100
AcDbLine
 10
0.999999996
 20
0.0
 30
0.0
 11
0.999999996
 21
0.9999999999999998
 31
0.0
  0
LINE
  5
98
330
96
100
AcDbEntity
  8
WAKU
100
AcDbLine
 10
0.0
 20
0.9999999999999998
 30
0.0
 11
0.999999996
 21
0.9999999999999998
 31
0.0
  0
LINE
  5
99
330
96
100
AcDbEntity
  8
WAKU
100
AcDbLine
 10
0.999999996
 20
0.0
 30
0.0
 11
0.0
 21
0.0
 31
0.0
  0
LINE
  5
9A
330
96
100
AcDbEntity
  8
WAKU
100
AcDbLine
 10
0.0
 20
0.0
 30
0.0
 11
0.0
 21
0.9999999999999998
 31
0.0
  0
ENDBLK
  5
9C
330
96
100
AcDbEntity
  8
0
100
AcDbBlockEnd
  0
BLOCK
  5
A6
330
A5
100
AcDbEntity
  8
0
100
AcDbBlockBegin
  2
IMCADLT3
 70
     0
 10
0.0
 20
0.0
 30
0.0
  3
IMCADLT3
  1

  0
ENDBLK
  5
A7
330
A5
100
AcDbEntity
  8
0
100
AcDbBlockEnd
  0
BLOCK
  5
1AD
330
E6
100
AcDbEntity
  8
0
100
AcDbBlockBegin
  2
A$C19783D3A
 70
     0
 10
0.0
 20
0.0
 30
0.0
  3
A$C19783D3A
  1

  0
LINE
  5
E7
330
E6
100
AcDbEntity
  8
JISSEN
 62
     3
100
AcDbLine
 10
31.69552124143361
 20
11.30000058013958
 30
0.0
 11
59.19104228504848
 21
11.30000058013958
 31
0.0
  0
LINE
  5
E8
330
E6
100
AcDbEntity
  8
JISSEN
 62
     3
100
AcDbLine
 10
31.69552124143361
 20
27.80000058013958
 30
0.0
 11
59.19104228504848
 21
27.80000058013958
 31
0.0
  0
LINE
  5
E9
330
E6
100
AcDbEntity
  8
JISSEN
 62
     3
100
AcDbLine
 10
31.69552124143361
 20
22.30000058013958
 30
0.0
 11
59.19104228504848
 21
22.30000058013958
 31
0.0
  0
LINE
  5
EA
330
E6
100
AcDbEntity
  8
JISSEN
 62
     3
100
AcDbLine
 10
31.69552124143361
 20
16.80000058013959
 30
0.0
 11
59.19104228504848
 21
16.80000058013959
 31
0.0
  0
MTEXT
  5
EB
330
E6
100
AcDbEntity
  8
JISSEN
 62
     3
100
AcDbMText
 10
41.76355431159886
 20
8.075389675667807
 30
0.0
 40
3.0
 41
30.0
 71
     5
 72
     5
  1
流用機種名
  7
K
 73
     1
 44
1.0
1001
ACAD
1000
MTEXTBEGIN
1070
    73
1070
     1
1070
    44
1040
1.0
1070
    74
1070
     0
1000
MTEXTEND
  0
MTEXT
  5
EC
330
E6
100
AcDbEntity
  8
JISSEN
 62
     3
100
AcDbMText
 10
55.54014197213582
 20
8.378494138161514
 30
0.0
 40
3.0
 41
10.0
 71
     5
 72
     5
  1
数量
  7
K
 73
     1
 44
1.0
1001
ACAD
1000
MTEXTBEGIN
1070
    73
1070
     1
1070
    44
1040
1.0
1070
    74
1070
     0
1000
MTEXTEND
  0
LINE
  5
ED
330
E6
100
AcDbEntity
  8
JISSEN
 62
     3
100
AcDbLine
 10
51.69552124143361
 20
33.30000058013958
 30
0.0
 11
51.69552124143361
 21
5.800000580139581
 31
0.0
  0
LINE
  5
EE
330
E6
100
AcDbEntity
  8
JISSEN
 62
     3
100
AcDbLine
 10
31.69552124143361
 20
5.800000580139567
 30
0.0
 11
59.19104228504848
 21
5.800000580139567
 31
0.0
  0
LINE
  5
EF
330
E6
100
AcDbEntity
  8
SUNPOU
100
AcDbLine
 10
59.19104228504848
 20
33.30000058013958
 30
0.0
 11
59.19104228504848
 21
5.800000580139567
 31
0.0
  0
LINE
  5
F0
330
E6
100
AcDbEntity
  8
SUNPOU
100
AcDbLine
 10
31.69552124143361
 20
33.30000058013958
 30
0.0
 11
31.69552124143361
 21
5.800000580139567
 31
0.0
  0
LINE
  5
F1
330
E6
100
AcDbEntity
  8
JISSEN
 62
     3
100
AcDbLine
 10
31.69552124143361
 20
33.30000058013958
 30
0.0
 11
59.19104228504848
 21
33.30000058013958
 31
0.0
  0
TEXT
  5
F2
330
E6
100
AcDbEntity
  8
SUNPOU
100
AcDbText
 10
350.14585641555
 20
39.42435143287866
 30
0.0
 40
3.0
  1
寸 法
  7
K
100
AcDbText
  0
TEXT
  5
F3
330
E6
100
AcDbEntity
  8
SUNPOU
100
AcDbText
 10
350.145859233442
 20
43.2605016467578
 30
0.0
 40
3.0
  1
材 料
  7
K
100
AcDbText
  0
LINE
  5
F4
330
E6
100
AcDbEntity
  8
SUNPOU
100
AcDbLine
 10
64.92817834040497
 20
16.80000058013959
 30
0.0
 11
69.42817834040496
 21
11.30000058013958
 31
0.0
  0
LINE
  5
F5
330
E6
100
AcDbEntity
  8
SUNPOU
100
AcDbLine
 10
60.42817834040497
 20
11.30000058013958
 30
0.0
 11
64.92817834040497
 21
16.80000058013959
 31
0.0
  0
LINE
  5
F6
330
E6
100
AcDbEntity
  8
SUNPOU
100
AcDbLine
 10
64.92817834040497
 20
22.30000058013958
 30
0.0
 11
69.42817834040498
 21
16.80000058013959
 31
0.0
  0
LINE
  5
F7
330
E6
100
AcDbEntity
  8
SUNPOU
100
AcDbLine
 10
60.42817834040497
 20
16.80000058013959
 30
0.0
 11
64.92817834040497
 21
22.30000058013958
 31
0.0
  0
LINE
  5
F8
330
E6
100
AcDbEntity
  8
SUNPOU
100
AcDbLine
 10
64.92817834040497
 20
27.8000005801396
 30
0.0
 11
60.42817834040497
 21
22.30000058013958
 31
0.0
  0
LINE
  5
F9
330
E6
100
AcDbEntity
  8
SUNPOU
100
AcDbLine
 10
69.42817834040498
 20
22.30000058013958
 30
0.0
 11
64.92817834040497
 21
27.8000005801396
 31
0.0
  0
LINE
  5
FA
330
E6
100
AcDbEntity
  8
SUNPOU
100
AcDbLine
 10
64.92817834040497
 20
33.30000058013958
 30
0.0
 11
69.428178340405
 21
27.8000005801396
 31
0.0
  0
LINE
  5
FB
330
E6
100
AcDbEntity
  8
SUNPOU
100
AcDbLine
 10
60.42817834040497
 20
27.8000005801396
 30
0.0
 11
64.92817834040497
 21
33.30000058013958
 31
0.0
  0
LINE
  5
FC
330
E6
100
AcDbEntity
  8
SUNPOU
100
AcDbLine
 10
3.000000197818735
 20
33.30000058013958
 30
0.0
 11
3.000000197818735
 21
5.800000580139567
 31
0.0
  0
LINE
  5
FD
330
E6
100
AcDbEntity
  8
SUNPOU
100
AcDbLine
 10
30.49552124143361
 20
33.30000058013958
 30
0.0
 11
30.49552124143361
 21
5.800000580139567
 31
0.0
  0
LINE
  5
FE
330
E6
100
AcDbEntity
  8
JISSEN
 62
     3
100
AcDbLine
 10
3.000000197818735
 20
5.800000580139567
 30
0.0
 11
30.49552124143361
 21
5.800000580139567
 31
0.0
  0
LINE
  5
FF
330
E6
100
AcDbEntity
  8
JISSEN
 62
     3
100
AcDbLine
 10
23.00000019781874
 20
33.30000058013958
 30
0.0
 11
23.00000019781874
 21
5.800000580139581
 31
0.0
  0
MTEXT
  5
100
330
E6
100
AcDbEntity
  8
JISSEN
 62
     3
100
AcDbMText
 10
26.84462092852095
 20
8.378494138161514
 30
0.0
 40
3.0
 41
10.0
 71
     5
 72
     5
  1
数量
  7
K
 73
     1
 44
1.0
1001
ACAD
1000
MTEXTBEGIN
1070
    73
1070
     1
1070
    44
1040
1.0
1070
    74
1070
     0
1000
MTEXTEND
  0
MTEXT
  5
101
330
E6
100
AcDbEntity
  8
JISSEN
 62
     3
100
AcDbMText
 10
13.06803326798399
 20
8.075389675667807
 30
0.0
 40
3.0
 41
30.0
 71
     5
 72
     5
  1
流用機種名
  7
K
 73
     1
 44
1.0
1001
ACAD
1000
MTEXTBEGIN
1070
    73
1070
     1
1070
    44
1040
1.0
1070
    74
1070
     0
1000
MTEXTEND
  0
LINE
  5
102
330
E6
100
AcDbEntity
  8
JISSEN
 62
     3
100
AcDbLine
 10
3.000000197818735
 20
16.80000058013959
 30
0.0
 11
30.49552124143361
 21
16.80000058013959
 31
0.0
  0
LINE
  5
103
330
E6
100
AcDbEntity
  8
JISSEN
 62
     3
100
AcDbLine
 10
3.000000197818735
 20
22.30000058013958
 30
0.0
 11
30.49552124143361
 21
22.30000058013958
 31
0.0
  0
LINE
  5
104
330
E6
100
AcDbEntity
  8
JISSEN
 62
     3
100
AcDbLine
 10
3.000000197818735
 20
27.80000058013958
 30
0.0
 11
30.49552124143361
 21
27.80000058013958
 31
0.0
  0
LINE
  5
105
330
E6
100
AcDbEntity
  8
JISSEN
 62
     3
100
AcDbLine
 10
3.000000197818735
 20
33.30000058013958
 30
0.0
 11
30.49552124143361
 21
33.30000058013958
 31
0.0
  0
LINE
  5
106
330
E6
100
AcDbEntity
  8
JISSEN
 62
     3
100
AcDbLine
 10
3.000000197818735
 20
11.30000058013958
 30
0.0
 11
30.49552124143361
 21
11.30000058013958
 31
0.0
  0
LINE
  5
107
330
E6
100
AcDbEntity
  8
SUNPOU
100
AcDbLine
 10
60.42817834040497
 20
33.30000058013958
 30
0.0
 11
60.42817834040497
 21
5.800000580139567
 31
0.0
  0
LINE
  5
108
330
E6
100
AcDbEntity
  8
SUNPOU
100
AcDbLine
 10
206.6364001978185
 20
33.30000058013958
 30
0.0
 11
206.6364001978185
 21
5.800000580139567
 31
0.0
  0
LINE
  5
109
330
E6
100
AcDbEntity
  8
JISSEN
 62
     3
100
AcDbLine
 10
206.6364001978186
 20
5.800000580139567
 30
0.0
 11
60.42817834040497
 21
5.800000580139567
 31
0.0
  0
LINE
  5
10A
330
E6
100
AcDbEntity
  8
JISSEN
 62
     3
100
AcDbLine
 10
69.42817834040496
 20
5.800000580139581
 30
0.0
 11
69.42817834040496
 21
33.30000058013958
 31
0.0
  0
LINE
  5
10B
330
E6
100
AcDbEntity
  8
SUNPOU
100
AcDbLine
 10
80.58388490205093
 20
33.30000058013958
 30
0.0
 11
80.58388490205093
 21
5.800000580139581
 31
0.0
  0
LINE
  5
10C
330
E6
100
AcDbEntity
  8
JISSEN
 62
     3
100
AcDbLine
 10
60.42817834040497
 20
11.30000058013958
 30
0.0
 11
206.6364001978185
 21
11.30000058013958
 31
0.0
  0
TEXT
  5
10D
330
E6
100
AcDbEntity
  8
JISSEN
 62
     3
100
AcDbText
 10
61.98386765794011
 20
6.90135357766384
 30
0.0
 40
3.0
  1
記号
  7
K
 72
     4
 11
65.18386765794011
 21
8.40135357766384
 31
0.0
100
AcDbText
  0
TEXT
  5
10E
330
E6
100
AcDbEntity
  8
SUNPOU
100
AcDbText
 10
70.06515856796489
 20
6.971257904423296
 30
0.0
 40
3.0
  1
変更数
  7
K
100
AcDbText
  0
TEXT
  5
10F
330
E6
100
AcDbEntity
  8
JISSEN
 62
     3
100
AcDbText
 10
104.1270942561235
 20
7.311125871739832
 30
0.0
 40
3.0
  1
変更内容・理由
  7
K
 72
     4
 11
116.2270942561235
 21
8.811125871739832
 31
0.0
100
AcDbText
  0
TEXT
  5
110
330
E6
100
AcDbEntity
  8
JISSEN
 62
     3
100
AcDbText
 10
156.8364001978185
 20
7.311125871739946
 30
0.0
 40
3.0
  1
設変番号
  7
K
 72
     4
 11
163.6364001978185
 21
8.811125871739946
 31
0.0
100
AcDbText
  0
TEXT
  5
111
330
E6
100
AcDbEntity
  8
JISSEN
 62
     3
100
AcDbText
 10
172.4709071627829
 20
7.04591516153279
 30
0.0
 40
3.0
  1
 年 月 日
  7
K
 72
     4
 11
180.8709071627829
 21
8.545915161532789
 31
0.0
100
AcDbText
  0
TEXT
  5
112
330
E6
100
AcDbEntity
  8
JISSEN
 62
     3
100
AcDbText
 10
190.0006859121043
 20
7.045915161532676
 30
0.0
 40
3.0
  1
担当
  7
K
 72
     4
 11
193.1364001978185
 21
8.545915161532676
 31
0.0
100
AcDbText
  0
TEXT
  5
113
330
E6
100
AcDbEntity
  8
JISSEN
 62
     3
100
AcDbText
 10
199.0364001978186
 20
7.045915161532676
 30
0.0
 40
3.0
  1
検図
  7
K
 72
     4
 11
202.1364001978186
 21
8.545915161532676
 31
0.0
100
AcDbText
  0
LINE
  5
114
330
E6
100
AcDbEntity
  8
JISSEN
 62
     3
100
AcDbLine
 10
206.6364001978186
 20
16.80000058013959
 30
0.0
 11
60.42817834040497
 21
16.80000058013959
 31
0.0
  0
LINE
  5
115
330
E6
100
AcDbEntity
  8
JISSEN
 62
     3
100
AcDbLine
 10
60.42817834040497
 20
22.30000058013958
 30
0.0
 11
206.6364001978185
 21
22.30000058013958
 31
0.0
  0
LINE
  5
116
330
E6
100
AcDbEntity
  8
JISSEN
 62
     3
100
AcDbLine
 10
197.6364001978186
 20
5.800000580139581
 30
0.0
 11
197.6364001978186
 21
33.30000058013958
 31
0.0
  0
LINE
  5
117
330
E6
100
AcDbEntity
  8
JISSEN
 62
     3
100
AcDbLine
 10
188.6364001978185
 20
33.30000058013958
 30
0.0
 11
188.6364001978185
 21
5.800000580139581
 31
0.0
  0
LINE
  5
118
330
E6
100
AcDbEntity
  8
JISSEN
 62
     3
100
AcDbLine
 10
173.6364001978186
 20
5.800000580139581
 30
0.0
 11
173.6364001978186
 21
33.30000058013958
 31
0.0
  0
LINE
  5
119
330
E6
100
AcDbEntity
  8
JISSEN
 62
     3
100
AcDbLine
 10
153.6364001978185
 20
33.30000058013958
 30
0.0
 11
153.6364001978185
 21
5.800000580139581
 31
0.0
  0
LINE
  5
11A
330
E6
100
AcDbEntity
  8
JISSEN
 62
     3
100
AcDbLine
 10
60.42817834040497
 20
27.8000005801396
 30
0.0
 11
206.6364001978185
 21
27.8000005801396
 31
0.0
  0
LINE
  5
11B
330
E6
100
AcDbEntity
  8
JISSEN
 62
     3
100
AcDbLine
 10
60.42817834040497
 20
33.30000058013958
 30
0.0
 11
206.6364001978185
 21
33.30000058013958
 31
0.0
  0
LINE
  5
11C
330
E6
100
AcDbEntity
  8
SUNPOU
100
AcDbLine
 10
331.6400001978187
 20
31.80000058013957
 30
0.0
 11
331.6400001978187
 21
16.80000058013957
 31
0.0
  0
TEXT
  5
11D
330
E6
100
AcDbEntity
  8
SUNPOU
100
AcDbText
 10
251.1951238683839
 20
10.60833342026348
 30
0.0
 40
2.0
  1
1000以下
 41
0.8
  7
K
 72
     2
 11
260.7036952969553
 21
11.60833342026347
 31
0.0
100
AcDbText
 73
     2
  0
TEXT
  5
11E
330
E6
100
AcDbEntity
  8
SUNPOU
100
AcDbText
 10
252.7189333921934
 20
14.48055531367941
 30
0.0
 40
2.0
  1
315以下
 41
0.8
  7
K
 72
     2
 11
260.7036952969553
 21
15.48055531367942
 31
0.0
100
AcDbText
 73
     2
  0
TEXT
  5
11F
330
E6
100
AcDbEntity
  8
SUNPOU
100
AcDbText
 10
242.5864001978187
 20
33.30555383405115
 30
0.0
 40
2.7
  1
呼 ビ 寸 法
  7
K
 72
     1
 11
251.1364001978187
 21
34.65555383405115
 31
0.0
100
AcDbText
 73
     2
  0
TEXT
  5
120
330
E6
100
AcDbEntity
  8
SUNPOU
100
AcDbText
 10
251.1951238683839
 20
6.736111526847537
 30
0.0
 40
2.0
  1
2000以下
 41
0.8
  7
K
 72
     2
 11
260.7036952969553
 21
7.736111526847537
 31
0.0
100
AcDbText
 73
     2
  0
LINE
  5
121
330
E6
100
AcDbEntity
  8
SUNPOU
100
AcDbLine
 10
240.6364001978187
 20
32.90555383405115
 30
0.0
 11
282.6364001978187
 21
32.90555383405115
 31
0.0
  0
LINE
  5
122
330
E6
100
AcDbEntity
  8
SUNPOU
100
AcDbLine
 10
240.6364001978187
 20
29.03333194063521
 30
0.0
 11
282.6364001978187
 21
29.03333194063521
 31
0.0
  0
LINE
  5
123
330
E6
100
AcDbEntity
  8
SUNPOU
100
AcDbLine
 10
282.6364001978187
 20
25.16111004721927
 30
0.0
 11
240.6364001978187
 21
25.16111004721927
 31
0.0
  0
LINE
  5
124
330
E6
100
AcDbEntity
  8
SUNPOU
100
AcDbLine
 10
240.6364001978187
 20
21.28888815380333
 30
0.0
 11
282.6364001978187
 21
21.28888815380333
 31
0.0
  0
LINE
  5
125
330
E6
100
AcDbEntity
  8
SUNPOU
100
AcDbLine
 10
282.6364001978187
 20
17.41666626038739
 30
0.0
 11
240.6364001978187
 21
17.41666626038739
 31
0.0
  0
LINE
  5
126
330
E6
100
AcDbEntity
  8
SUNPOU
100
AcDbLine
 10
240.6364001978187
 20
13.54444436697145
 30
0.0
 11
282.6364001978187
 21
13.54444436697145
 31
0.0
  0
LINE
  5
127
330
E6
100
AcDbEntity
  8
SUNPOU
100
AcDbLine
 10
282.6364001978187
 20
9.672222473555507
 30
0.0
 11
240.6364001978187
 21
9.672222473555507
 31
0.0
  0
LINE
  5
128
330
E6
100
AcDbEntity
  8
SUNPOU
100
AcDbLine
 10
277.1364001978187
 20
30.96944288734318
 30
0.0
 11
280.7424334571796
 21
30.96944288734318
 31
0.0
  0
TEXT
  5
129
330
E6
100
AcDbEntity
  8
SUNPOU
100
AcDbText
 10
277.1364001978187
 20
26.09722099392724
 30
0.0
 40
2.0
  1
0.2
 41
0.8
  7
K
 11
277.1364001978187
 21
27.09722099392724
 31
0.0
100
AcDbText
 73
     2
  0
LINE
  5
12A
330
E6
100
AcDbEntity
  8
WAKU
100
AcDbLine
 10
282.6364001978187
 20
36.40555383405115
 30
0.0
 11
206.6364001978187
 21
36.40555383405115
 31
0.0
  0
LINE
  5
12B
330
E6
100
AcDbEntity
  8
SUNPOU
100
AcDbLine
 10
206.6364001978187
 20
48.66851833144346
 30
0.0
 11
282.6364001978187
 21
48.66851833144346
 31
0.0
  0
LINE
  5
12C
330
E6
100
AcDbEntity
  8
SUNPOU
100
AcDbLine
 10
282.6364001978187
 20
42.53703608274725
 30
0.0
 11
206.6364001978187
 21
42.53703608274725
 31
0.0
  0
TEXT
  5
12D
330
E6
100
AcDbEntity
  8
SUNPOU
100
AcDbText
 10
220.8767110216292
 20
2.800000580139567
 30
0.0
 40
2.6
  1
複写図面配布先： 購買  →発注先　製造部　品質保証部　 開発部
  7
K
100
AcDbText
  0
LINE
  5
12E
330
E6
100
AcDbEntity
  8
SUNPOU
100
AcDbLine
 10
238.0000001978187
 20
54.80000058013956
 30
0.0
 11
238.0000001978187
 21
36.40555383405115
 31
0.0
  0
LINE
  5
12F
330
E6
100
AcDbEntity
  8
WAKU
100
AcDbLine
 10
206.6364001978185
 20
54.80000058013956
 30
0.0
 11
206.6364001978185
 21
5.800000580139567
 31
0.0
  0
TEXT
  5
130
330
E6
100
AcDbEntity
  8
SUNPOU
100
AcDbText
 10
385.1333335311521
 20
134.401342744163
 30
0.0
 40
4.0
  1
は
  7
K
 72
     1
 11
387.0000001978187
 21
136.401342744163
 31
0.0
100
AcDbText
 73
     2
  0
TEXT
  5
131
330
E6
100
AcDbEntity
  8
SUNPOU
100
AcDbText
 10
385.1333335311521
 20
139.401342744163
 30
0.0
 40
4.0
  1
図
  7
K
 72
     1
 11
387.0000001978187
 21
141.401342744163
 31
0.0
100
AcDbText
 73
     2
  0
TEXT
  5
132
330
E6
100
AcDbEntity
  8
SUNPOU
100
AcDbText
 10
385.1333335311521
 20
144.401342744163
 30
0.0
 40
4.0
  1
本
  7
K
 72
     1
 11
387.0000001978187
 21
146.401342744163
 31
0.0
100
AcDbText
 73
     2
  0
TEXT
  5
133
330
E6
100
AcDbEntity
  8
SUNPOU
100
AcDbText
 10
385.2666668644854
 20
129.401342744163
 30
0.0
 40
4.0
  1
用
  7
K
 72
     1
 11
387.0000001978187
 21
131.401342744163
 31
0.0
100
AcDbText
 73
     2
  0
TEXT
  5
134
330
E6
100
AcDbEntity
  8
SUNPOU
100
AcDbText
 10
385.1333335311521
 20
124.401342744163
 30
0.0
 40
4.0
  1
済
  7
K
 72
     1
 11
387.0000001978187
 21
126.401342744163
 31
0.0
100
AcDbText
 73
     2
  0
TEXT
  5
135
330
E6
100
AcDbEntity
  8
SUNPOU
100
AcDbText
 10
387.9256956900239
 20
111.0049708589015
 30
0.0
 40
4.0
  1
、
  7
K
 72
     1
 11
388.4590290233573
 21
113.0049708589015
 31
0.0
100
AcDbText
 73
     2
  0
TEXT
  5
136
330
E6
100
AcDbEntity
  8
SUNPOU
100
AcDbText
 10
385.1333335311521
 20
114.401342744163
 30
0.0
 40
4.0
  1
後
  7
K
 72
     1
 11
387.0000001978187
 21
116.401342744163
 31
0.0
100
AcDbText
 73
     2
  0
TEXT
  5
137
330
E6
100
AcDbEntity
  8
SUNPOU
100
AcDbText
 10
385.2666668644854
 20
119.401342744163
 30
0.0
 40
4.0
  1
み
  7
K
 72
     1
 11
387.0000001978187
 21
121.401342744163
 31
0.0
100
AcDbText
 73
     2
  0
TEXT
  5
138
330
E6
100
AcDbEntity
  8
SUNPOU
100
AcDbText
 10
385.1333335311521
 20
99.40134274416301
 30
0.0
 40
4.0
  1
ず
  7
K
 72
     1
 11
387.0000001978187
 21
101.401342744163
 31
0.0
100
AcDbText
 73
     2
  0
TEXT
  5
139
330
E6
100
AcDbEntity
  8
SUNPOU
100
AcDbText
 10
385.1333335311521
 20
104.401342744163
 30
0.0
 40
4.0
  1
必
  7
K
 72
     1
 11
387.0000001978187
 21
106.401342744163
 31
0.0
100
AcDbText
 73
     2
  0
TEXT
  5
13A
330
E6
100
AcDbEntity
  8
SUNPOU
100
AcDbText
 10
385.1333335311521
 20
89.40134274416299
 30
0.0
 40
4.0
  1
行
  7
K
 72
     1
 11
387.0000001978187
 21
91.401342744163
 31
0.0
100
AcDbText
 73
     2
  0
TEXT
  5
13B
330
E6
100
AcDbEntity
  8
SUNPOU
100
AcDbText
 10
385.1333335311521
 20
94.40134274416299
 30
0.0
 40
4.0
  1
発
  7
K
 72
     1
 11
387.0000001978187
 21
96.401342744163
 31
0.0
100
AcDbText
 73
     2
  0
TEXT
  5
13C
330
E6
100
AcDbEntity
  8
SUNPOU
100
AcDbText
 10
385.2666668644854
 20
79.401342744163
 30
0.0
 40
4.0
  1
へ
  7
K
 72
     1
 11
387.0000001978187
 21
81.401342744163
 31
0.0
100
AcDbText
 73
     2
  0
TEXT
  5
13D
330
E6
100
AcDbEntity
  8
SUNPOU
100
AcDbText
 10
385.1333335311521
 20
69.401342744163
 30
0.0
 40
4.0
  1
却
  7
K
 72
     1
 11
387.0000001978187
 21
71.401342744163
 31
0.0
100
AcDbText
 73
     2
  0
TEXT
  5
13E
330
E6
100
AcDbEntity
  8
SUNPOU
100
AcDbText
 10
385.0346251479263
 20
64.66078995636042
 30
0.0
 40
4.0
  1
の
  7
K
 72
     4
 11
386.9012918145929
 21
66.66078995636041
 31
0.0
100
AcDbText
  0
TEXT
  5
13F
330
E6
100
AcDbEntity
  8
SUNPOU
100
AcDbText
 10
385.1333335311521
 20
74.401342744163
 30
0.0
 40
4.0
  1
返
  7
K
 72
     1
 11
387.0000001978187
 21
76.401342744163
 31
0.0
100
AcDbText
 73
     2
  0
TEXT
  5
140
330
E6
100
AcDbEntity
  8
SUNPOU
100
AcDbText
 10
385.1333335311521
 20
84.40134274416299
 30
0.0
 40
4.0
  1
元
  7
K
 72
     1
 11
387.0000001978187
 21
86.401342744163
 31
0.0
100
AcDbText
 73
     2
  0
TEXT
  5
141
330
E6
100
AcDbEntity
  8
SUNPOU
100
AcDbText
 10
385.1333335311521
 20
55.401342744163
 30
0.0
 40
4.0
  1
と
  7
K
 72
     1
 11
387.0000001978187
 21
57.401342744163
 31
0.0
100
AcDbText
 73
     2
  0
TEXT
  5
142
330
E6
100
AcDbEntity
  8
SUNPOU
100
AcDbText
 10
385.1333335311521
 20
60.401342744163
 30
0.0
 40
4.0
  1
こ
  7
K
 72
     1
 11
387.0000001978187
 21
62.401342744163
 31
0.0
100
AcDbText
 73
     2
  0
TEXT
  5
143
330
E6
100
AcDbEntity
  8
SUNPOU
100
AcDbText
 10
367.0633117556899
 20
33.21726119265634
 30
0.0
 40
2.5
  1
(単位mm)
  7
K
100
AcDbText
  0
TEXT
  5
144
330
E6
100
AcDbEntity
  8
SUNPOU
100
AcDbText
 10
350.0000001978187
 20
48.80000058013957
 30
0.0
 40
3.0
  1
材 質
  7
K
100
AcDbText
  0
LINE
  5
145
330
E6
100
AcDbEntity
  8
SUNPOU
100
AcDbLine
 10
356.0000001978187
 20
31.80000058013957
 30
0.0
 11
356.0000001978187
 21
38.80000058013957
 31
0.0
  0
LINE
  5
146
330
E6
100
AcDbEntity
  8
SUNPOU
100
AcDbLine
 10
347.0000001978188
 20
38.80000058013957
 30
0.0
 11
347.0000001978188
 21
31.80000058013957
 31
0.0
  0
TEXT
  5
147
330
E6
100
AcDbEntity
  8
SUNPOU
100
AcDbText
 10
348.0000001978187
 20
33.80000058013957
 30
0.0
 40
3.0
  1
尺度
  7
K
100
AcDbText
  0
TEXT
  5
148
330
E6
100
AcDbEntity
  8
SUNPOU
100
AcDbText
 10
326.9254756723258
 20
33.80000058013957
 30
0.0
 40
3.0
  1
三 角 法
  7
K
100
AcDbText
  0
LINE
  5
149
330
E6
100
AcDbEntity
  8
SUNPOU
100
AcDbLine
 10
360.0000001978187
 20
54.80000058013956
 30
0.0
 11
360.0000001978187
 21
38.80000058013957
 31
0.0
  0
LINE
  5
14A
330
E6
100
AcDbEntity
  8
WAKU
100
AcDbLine
 10
349.0000001978188
 20
54.80000058013956
 30
0.0
 11
349.0000001978188
 21
38.80000058013957
 31
0.0
  0
LINE
  5
14B
330
E6
100
AcDbEntity
  8
WAKU
100
AcDbLine
 10
384.0000001978187
 20
54.80000058013956
 30
0.0
 11
206.6364001978185
 21
54.80000058013956
 31
0.0
  0
LINE
  5
14C
330
E6
100
AcDbEntity
  8
SUNPOU
100
AcDbLine
 10
349.0000001978188
 20
46.80000058013956
 30
0.0
 11
384.0000001978187
 21
46.80000058013956
 31
0.0
  0
CIRCLE
  5
14D
330
E6
100
AcDbEntity
  8
JISSEN
100
AcDbCircle
 10
314.3030668644855
 20
31.55000058013957
 30
0.0
 40
0.2
  0
CIRCLE
  5
14E
330
E6
100
AcDbEntity
  8
JISSEN
100
AcDbCircle
 10
308.969733531152
 20
31.55000058013957
 30
0.0
 40
0.2
  0
CIRCLE
  5
14F
330
E6
100
AcDbEntity
  8
JISSEN
100
AcDbCircle
 10
314.3030668644855
 20
23.30000058013957
 30
0.0
 40
0.2
  0
CIRCLE
  5
150
330
E6
100
AcDbEntity
  8
JISSEN
100
AcDbCircle
 10
308.969733531152
 20
23.30000058013957
 30
0.0
 40
0.2
  0
TEXT
  5
151
330
E6
100
AcDbEntity
  8
SUNPOU
100
AcDbText
 10
283.6364001978187
 20
44.80000058013956
 30
0.0
 40
3.0
  1
品名
  7
K
100
AcDbText
  0
TEXT
  5
152
330
E6
100
AcDbEntity
  8
SUNPOU
100
AcDbText
 10
283.6364001978187
 20
32.55000058013957
 30
0.0
 40
3.0
  1
設計
  7
K
100
AcDbText
  0
TEXT
  5
153
330
E6
100
AcDbEntity
  8
SUNPOU
100
AcDbText
 10
277.8506859121044
 20
33.30555383405115
 30
0.0
 40
2.7
  1
L
  7
K
 72
     1
 11
279.1364001978187
 21
34.65555383405115
 31
0.0
100
AcDbText
 73
     2
  0
TEXT
  5
154
330
E6
100
AcDbEntity
  8
SUNPOU
100
AcDbText
 10
283.6364001978187
 20
24.30000058013957
 30
0.0
 40
3.0
  1
製図
  7
K
100
AcDbText
  0
TEXT
  5
155
330
E6
100
AcDbEntity
  8
SUNPOU
100
AcDbText
 10
277.1364001978187
 20
22.2249991005113
 30
0.0
 40
2.0
  1
0.5
 41
0.8
  7
K
 11
277.1364001978187
 21
23.2249991005113
 31
0.0
100
AcDbText
 73
     2
  0
TEXT
  5
156
330
E6
100
AcDbEntity
  8
SUNPOU
100
AcDbText
 10
270.1364001978187
 20
29.96944288734318
 30
0.0
 40
2.0
  1
0.1
 41
0.8
  7
K
 11
270.1364001978187
 21
30.96944288734318
 31
0.0
100
AcDbText
 73
     2
  0
TEXT
  5
157
330
E6
100
AcDbEntity
  8
SUNPOU
100
AcDbText
 10
270.722114483533
 20
33.30555383405115
 30
0.0
 40
2.7
  1
K
  7
K
 72
     1
 11
272.1364001978187
 21
34.65555383405115
 31
0.0
100
AcDbText
 73
     2
  0
TEXT
  5
158
330
E6
100
AcDbEntity
  8
SUNPOU
100
AcDbText
 10
264.2364001978187
 20
33.30555383405115
 30
0.0
 40
2.7
  1
J
  7
K
 72
     1
 11
265.1364001978187
 21
34.65555383405115
 31
0.0
100
AcDbText
 73
     2
  0
TEXT
  5
159
330
E6
100
AcDbEntity
  8
SUNPOU
100
AcDbText
 10
263.1364001978187
 20
29.96944288734318
 30
0.0
 40
2.0
  1
0.05
 41
0.8
  7
K
 11
263.1364001978187
 21
30.96944288734318
 31
0.0
100
AcDbText
 73
     2
  0
TEXT
  5
15A
330
E6
100
AcDbEntity
  8
SUNPOU
100
AcDbText
 10
270.1364001978187
 20
26.09722099392724
 30
0.0
 40
2.0
  1
0.1
 41
0.8
  7
K
 11
270.1364001978187
 21
27.09722099392724
 31
0.0
100
AcDbText
 73
     2
  0
TEXT
  5
15B
330
E6
100
AcDbEntity
  8
SUNPOU
100
AcDbText
 10
270.1364001978187
 20
22.2249991005113
 30
0.0
 40
2.0
  1
0.2
 41
0.8
  7
K
 11
270.1364001978187
 21
23.2249991005113
 31
0.0
100
AcDbText
 73
     2
  0
TEXT
  5
15C
330
E6
100
AcDbEntity
  8
SUNPOU
100
AcDbText
 10
263.1364001978187
 20
22.2249991005113
 30
0.0
 40
2.0
  1
0.1
 41
0.8
  7
K
 11
263.1364001978187
 21
23.2249991005113
 31
0.0
100
AcDbText
 73
     2
  0
TEXT
  5
15D
330
E6
100
AcDbEntity
  8
SUNPOU
100
AcDbText
 10
263.1364001978187
 20
26.09722099392724
 30
0.0
 40
2.0
  1
0.05
 41
0.8
  7
K
 11
263.1364001978187
 21
27.09722099392724
 31
0.0
100
AcDbText
 73
     2
  0
LINE
  5
15E
330
E6
100
AcDbEntity
  8
SUNPOU
100
AcDbLine
 10
291.6364001978187
 20
54.80000058013956
 30
0.0
 11
291.6364001978187
 21
38.80000058013957
 31
0.0
  0
LINE
  5
15F
330
E6
100
AcDbEntity
  8
WAKU
100
AcDbLine
 10
282.6364001978187
 20
38.80000058013957
 30
0.0
 11
384.0000001978187
 21
38.80000058013957
 31
0.0
  0
LINE
  5
160
330
E6
100
AcDbEntity
  8
SUNPOU
100
AcDbLine
 10
282.6364001978187
 20
22.30000058013957
 30
0.0
 11
319.6364001978187
 21
22.30000058013957
 31
0.0
  0
LINE
  5
161
330
E6
100
AcDbEntity
  8
SUNPOU
100
AcDbLine
 10
319.6364001978187
 20
30.55000058013957
 30
0.0
 11
282.6364001978187
 21
30.55000058013957
 31
0.0
  0
TEXT
  5
162
330
E6
100
AcDbEntity
  8
SUNPOU
100
AcDbText
 10
322.3364001978187
 20
22.80000058013957
 30
0.0
 40
3.0
  1
図番
  7
K
 72
     4
 11
325.6364001978187
 21
24.30000058013957
 31
0.0
100
AcDbText
  0
LINE
  5
163
330
E6
100
AcDbEntity
  8
WAKU
100
AcDbLine
 10
319.6364001978187
 20
16.80000058013957
 30
0.0
 11
384.0000001978187
 21
16.80000058013957
 31
0.0
  0
LINE
  5
164
330
E6
100
AcDbEntity
  8
WAKU
100
AcDbLine
 10
384.0000001978187
 20
31.80000058013957
 30
0.0
 11
319.6364001978187
 21
31.80000058013957
 31
0.0
  0
TEXT
  5
165
330
E6
100
AcDbEntity
  8
SUNPOU
100
AcDbText
 10
336.2793184982411
 20
9.800000580139567
 30
0.0
 40
3.5
  1
中部コーポレーション
  7
K
100
AcDbText
  0
CIRCLE
  5
166
330
E6
100
AcDbEntity
  8
JISSEN
100
AcDbCircle
 10
314.3030668644855
 20
15.05000058013957
 30
0.0
 40
0.2
  0
CIRCLE
  5
167
330
E6
100
AcDbEntity
  8
JISSEN
100
AcDbCircle
 10
308.969733531152
 20
15.05000058013957
 30
0.0
 40
0.2
  0
CIRCLE
  5
168
330
E6
100
AcDbEntity
  8
JISSEN
100
AcDbCircle
 10
314.3030668644855
 20
6.800000580139567
 30
0.0
 40
0.2
  0
CIRCLE
  5
169
330
E6
100
AcDbEntity
  8
JISSEN
100
AcDbCircle
 10
308.969733531152
 20
6.800000580139567
 30
0.0
 40
0.2
  0
TEXT
  5
16A
330
E6
100
AcDbEntity
  8
SUNPOU
100
AcDbText
 10
283.6364001978187
 20
7.800000580139567
 30
0.0
 40
3.0
  1
承認
  7
K
100
AcDbText
  0
TEXT
  5
16B
330
E6
100
AcDbEntity
  8
SUNPOU
100
AcDbText
 10
277.1364001978187
 20
10.60833342026348
 30
0.0
 40
2.0
  1
2
 41
0.8
  7
K
 11
277.1364001978187
 21
11.60833342026347
 31
0.0
100
AcDbText
 73
     2
  0
TEXT
  5
16C
330
E6
100
AcDbEntity
  8
SUNPOU
100
AcDbText
 10
277.1364001978187
 20
14.48055531367941
 30
0.0
 40
2.0
  1
1.2
 41
0.8
  7
K
 11
277.1364001978187
 21
15.48055531367942
 31
0.0
100
AcDbText
 73
     2
  0
TEXT
  5
16D
330
E6
100
AcDbEntity
  8
SUNPOU
100
AcDbText
 10
277.1364001978187
 20
6.736111526847537
 30
0.0
 40
2.0
  1
3
 41
0.8
  7
K
 11
277.1364001978187
 21
7.736111526847537
 31
0.0
100
AcDbText
 73
     2
  0
TEXT
  5
16E
330
E6
100
AcDbEntity
  8
SUNPOU
100
AcDbText
 10
270.1364001978187
 20
14.48055531367941
 30
0.0
 40
2.0
  1
0.5
 41
0.8
  7
K
 11
270.1364001978187
 21
15.48055531367942
 31
0.0
100
AcDbText
 73
     2
  0
TEXT
  5
16F
330
E6
100
AcDbEntity
  8
SUNPOU
100
AcDbText
 10
270.1364001978187
 20
10.60833342026348
 30
0.0
 40
2.0
  1
0.8
 41
0.8
  7
K
 11
270.1364001978187
 21
11.60833342026347
 31
0.0
100
AcDbText
 73
     2
  0
TEXT
  5
170
330
E6
100
AcDbEntity
  8
SUNPOU
100
AcDbText
 10
263.1364001978187
 20
10.60833342026348
 30
0.0
 40
2.0
  1
0.3
 41
0.8
  7
K
 11
263.1364001978187
 21
11.60833342026347
 31
0.0
100
AcDbText
 73
     2
  0
TEXT
  5
171
330
E6
100
AcDbEntity
  8
SUNPOU
100
AcDbText
 10
263.1364001978187
 20
14.48055531367941
 30
0.0
 40
2.0
  1
0.2
 41
0.8
  7
K
 11
263.1364001978187
 21
15.48055531367942
 31
0.0
100
AcDbText
 73
     2
  0
TEXT
  5
172
330
E6
100
AcDbEntity
  8
SUNPOU
100
AcDbText
 10
270.1364001978187
 20
6.736111526847537
 30
0.0
 40
2.0
  1
1.2
 41
0.8
  7
K
 11
270.1364001978187
 21
7.736111526847537
 31
0.0
100
AcDbText
 73
     2
  0
TEXT
  5
173
330
E6
100
AcDbEntity
  8
SUNPOU
100
AcDbText
 10
263.1364001978187
 20
6.736111526847537
 30
0.0
 40
2.0
  1
0.5
 41
0.8
  7
K
 11
263.1364001978187
 21
7.736111526847537
 31
0.0
100
AcDbText
 73
     2
  0
LINE
  5
174
330
E6
100
AcDbEntity
  8
SUNPOU
100
AcDbLine
 10
319.6364001978187
 20
14.05000058013956
 30
0.0
 11
282.6364001978187
 21
14.05000058013956
 31
0.0
  0
TEXT
  5
175
330
E6
100
AcDbEntity
  8
SUNPOU
100
AcDbText
 10
326.3033674213228
 20
9.800000580139567
 30
0.0
 40
2.0
  1
株式会社
  7
K
100
AcDbText
  0
TEXT
  5
176
330
E6
100
AcDbEntity
  8
SUNPOU
100
AcDbText
 10
277.1364001978187
 20
18.35277720709536
 30
0.0
 40
2.0
  1
0.8
 41
0.8
  7
K
 11
277.1364001978187
 21
19.35277720709535
 31
0.0
100
AcDbText
 73
     2
  0
TEXT
  5
177
330
E6
100
AcDbEntity
  8
SUNPOU
100
AcDbText
 10
270.1364001978187
 20
18.35277720709536
 30
0.0
 40
2.0
  1
0.3
 41
0.8
  7
K
 11
270.1364001978187
 21
19.35277720709535
 31
0.0
100
AcDbText
 73
     2
  0
TEXT
  5
178
330
E6
100
AcDbEntity
  8
SUNPOU
100
AcDbText
 10
263.1364001978187
 20
18.35277720709536
 30
0.0
 40
2.0
  1
0.15
 41
0.8
  7
K
 11
263.1364001978187
 21
19.35277720709535
 31
0.0
100
AcDbText
 73
     2
  0
LINE
  5
179
330
E6
100
AcDbEntity
  8
WAKU
100
AcDbLine
 10
319.6364001978187
 20
5.800000580139567
 30
0.0
 11
319.6364001978187
 21
38.80000058013957
 31
0.0
  0
LINE
  5
17A
330
E6
100
AcDbEntity
  8
SUNPOU
100
AcDbLine
 10
303.6364001978187
 20
38.80000058013957
 30
0.0
 11
303.6364001978187
 21
5.800000580139567
 31
0.0
  0
TEXT
  5
17B
330
E6
100
AcDbEntity
  8
SUNPOU
100
AcDbText
 10
283.6364001978187
 20
16.05000058013956
 30
0.0
 40
3.0
  1
検図
  7
K
100
AcDbText
  0
LINE
  5
17C
330
E6
100
AcDbEntity
  8
WAKU
100
AcDbLine
 10
282.6364001978187
 20
5.800000580139567
 30
0.0
 11
282.6364001978187
 21
54.80000058013956
 31
0.0
  0
LINE
  5
17D
330
E6
100
AcDbEntity
  8
SUNPOU
100
AcDbLine
 10
291.6364001978187
 20
38.80000058013957
 30
0.0
 11
291.6364001978187
 21
5.800000580139567
 31
0.0
  0
LINE
  5
17E
330
E6
100
AcDbEntity
  8
SUNPOU
100
AcDbLine
 10
268.6364001978187
 20
5.800000580139567
 30
0.0
 11
268.6364001978187
 21
36.40555383405115
 31
0.0
  0
LINE
  5
17F
330
E6
100
AcDbEntity
  8
SUNPOU
100
AcDbLine
 10
275.6364001978187
 20
36.40555383405115
 30
0.0
 11
275.6364001978187
 21
5.800000580139567
 31
0.0
  0
LINE
  5
180
330
E6
100
AcDbEntity
  8
SUNPOU
100
AcDbLine
 10
261.6364001978187
 20
36.40555383405115
 30
0.0
 11
261.6364001978187
 21
5.800000580139567
 31
0.0
  0
TEXT
  5
181
330
E6
100
AcDbEntity
  8
SUNPOU
100
AcDbText
 10
242.844845694525
 20
29.96944288734318
 30
0.0
 40
2.0
  1
0.5以上
 41
0.8
  7
K
 72
     2
 11
250.0677028373822
 21
30.96944288734318
 31
0.0
100
AcDbText
 73
     2
  0
TEXT
  5
182
330
E6
100
AcDbEntity
  8
SUNPOU
100
AcDbText
 10
245.9838933135727
 20
22.2249991005113
 30
0.0
 40
2.0
  1
6ｦｺｴ
 41
0.8
  7
K
 72
     2
 11
250.0677028373822
 21
23.2249991005113
 31
0.0
100
AcDbText
 73
     2
  0
TEXT
  5
183
330
E6
100
AcDbEntity
  8
SUNPOU
100
AcDbText
 10
245.9838933135727
 20
26.09722099392724
 30
0.0
 40
2.0
  1
3ｦｺｴ
 41
0.8
  7
K
 72
     2
 11
250.0677028373822
 21
27.09722099392724
 31
0.0
100
AcDbText
 73
     2
  0
TEXT
  5
184
330
E6
100
AcDbEntity
  8
SUNPOU
100
AcDbText
 10
235.8764001978188
 20
24.90873758818833
 30
0.0
 40
2.7
  1
通
  7
K
 72
     1
 11
237.1364001978188
 21
24.90873758818833
 31
0.0
100
AcDbText
  0
TEXT
  5
185
330
E6
100
AcDbEntity
  8
SUNPOU
100
AcDbText
 10
235.8764001978188
 20
21.80873758818831
 30
0.0
 40
2.7
  1
寸
  7
K
 72
     1
 11
237.1364001978188
 21
21.80873758818831
 31
0.0
100
AcDbText
  0
TEXT
  5
186
330
E6
100
AcDbEntity
  8
SUNPOU
100
AcDbText
 10
235.8764001978188
 20
18.70873758818834
 30
0.0
 40
2.7
  1
法
  7
K
 72
     1
 11
237.1364001978188
 21
18.70873758818834
 31
0.0
100
AcDbText
  0
TEXT
  5
187
330
E6
100
AcDbEntity
  8
SUNPOU
100
AcDbText
 10
235.8764001978188
 20
28.0087375881883
 30
0.0
 40
2.7
  1
普
  7
K
 72
     1
 11
237.1364001978188
 21
28.0087375881883
 31
0.0
100
AcDbText
  0
TEXT
  5
188
330
E6
100
AcDbEntity
  8
SUNPOU
100
AcDbText
 10
209.7021866584479
 20
44.10277720709536
 30
0.0
 40
3.0
  1
色調
  7
K
 11
209.7021866584479
 21
45.60277720709535
 31
0.0
100
AcDbText
 73
     2
  0
TEXT
  5
189
330
E6
100
AcDbEntity
  8
SUNPOU
100
AcDbText
 10
209.7021866584479
 20
50.23425945579152
 30
0.0
 40
3.0
  1
表面処理
  7
K
 11
209.7021866584479
 21
51.73425945579151
 31
0.0
100
AcDbText
 73
     2
  0
TEXT
  5
18A
330
E6
100
AcDbEntity
  8
SUNPOU
100
AcDbText
 10
208.1364001978188
 20
21.78662987279364
 30
0.0
 40
2.0
  1
▽▽▽▽
  7
K
 11
208.1364001978188
 21
22.78662987279364
 31
0.0
100
AcDbText
 73
     2
  0
TEXT
  5
18B
330
E6
100
AcDbEntity
  8
SUNPOU
100
AcDbText
 10
209.7021866584479
 20
37.9712949583992
 30
0.0
 40
3.0
  1
適用規格など
  7
K
 11
209.7021866584479
 21
39.4712949583992
 31
0.0
100
AcDbText
 73
     2
  0
LINE
  5
18C
330
E6
100
AcDbEntity
  8
SUNPOU
100
AcDbLine
 10
206.6364001978187
 20
30.4829649902905
 30
0.0
 11
233.6364001978187
 21
30.4829649902905
 31
0.0
  0
LINE
  5
18D
330
E6
100
AcDbEntity
  8
SUNPOU
100
AcDbLine
 10
206.6364001978187
 20
24.674033127533
 30
0.0
 11
233.6364001978187
 21
24.674033127533
 31
0.0
  0
TEXT
  5
18E
330
E6
100
AcDbEntity
  8
SUNPOU
100
AcDbText
 10
208.1364001978188
 20
31.94425941217082
 30
0.0
 40
3.0
  1
標準加工アラサ
  7
K
 72
     4
 11
220.1364001978188
 21
33.44425941217082
 31
0.0
100
AcDbText
  0
TEXT
  5
18F
330
E6
100
AcDbEntity
  8
SUNPOU
100
AcDbText
 10
208.4564001978187
 20
26.326302568122
 30
0.0
 40
3.0
  1
(標準外ﾊ指定ﾉｺﾄ)
 41
0.8
  7
K
 72
     4
 11
220.1364001978188
 21
27.61201685383628
 31
0.0
100
AcDbText
  0
TEXT
  5
190
330
E6
100
AcDbEntity
  8
SUNPOU
100
AcDbText
 10
225.7554478168664
 20
21.78662987279364
 30
0.0
 40
2.0
  1
0.8Z
  7
K
 72
     2
 11
232.1364001978187
 21
22.78662987279364
 31
0.0
100
AcDbText
 73
     2
  0
TEXT
  5
191
330
E6
100
AcDbEntity
  8
SUNPOU
100
AcDbText
 10
242.9362742659536
 20
10.60833342026348
 30
0.0
 40
2.0
  1
315ｦｺｴ
 41
0.8
  7
K
 72
     2
 11
250.0677028373822
 21
11.60833342026347
 31
0.0
100
AcDbText
 73
     2
  0
TEXT
  5
192
330
E6
100
AcDbEntity
  8
SUNPOU
100
AcDbText
 10
242.9362742659536
 20
14.48055531367941
 30
0.0
 40
2.0
  1
120ｦｺｴ
 41
0.8
  7
K
 72
     2
 11
250.0677028373822
 21
15.48055531367942
 31
0.0
100
AcDbText
 73
     2
  0
TEXT
  5
193
330
E6
100
AcDbEntity
  8
SUNPOU
100
AcDbText
 10
239.2599288493162
 20
10.96190464610896
 30
0.0
 40
2.0
  1
)
  7
K
 11
239.2599288493162
 21
11.96190464610896
 31
0.0
100
AcDbText
 73
     2
  0
TEXT
  5
194
330
E6
100
AcDbEntity
  8
SUNPOU
100
AcDbText
 10
236.2030668644854
 20
11.96190464610896
 30
0.0
 40
2.0
  1
±
  7
K
 72
     1
 11
237.1364001978188
 21
11.96190464610896
 31
0.0
100
AcDbText
  0
TEXT
  5
195
330
E6
100
AcDbEntity
  8
SUNPOU
100
AcDbText
 10
234.9935430549616
 20
10.04345972235012
 30
0.0
 40
1.5
  1
mm
  7
K
 72
     1
 11
237.1364001978188
 21
10.04345972235012
 31
0.0
100
AcDbText
  0
TEXT
  5
196
330
E6
100
AcDbEntity
  8
SUNPOU
100
AcDbText
 10
235.8764001978188
 20
15.60873758818832
 30
0.0
 40
2.7
  1
差
  7
K
 72
     1
 11
237.1364001978188
 21
15.60873758818832
 31
0.0
100
AcDbText
  0
TEXT
  5
197
330
E6
100
AcDbEntity
  8
SUNPOU
100
AcDbText
 10
226.7078287692473
 20
14.23701685383628
 30
0.0
 40
2.0
  1
25Z
  7
K
 72
     2
 11
232.1364001978187
 21
15.23701685383628
 31
0.0
100
AcDbText
 73
     2
  0
TEXT
  5
198
330
E6
100
AcDbEntity
  8
SUNPOU
100
AcDbText
 10
233.5887811501997
 20
10.96190464610896
 30
0.0
 40
2.0
  1
(
  7
K
 72
     2
 11
234.6364001978187
 21
11.96190464610896
 31
0.0
100
AcDbText
 73
     2
  0
TEXT
  5
199
330
E6
100
AcDbEntity
  8
SUNPOU
100
AcDbText
 10
241.4124647421441
 20
6.736111526847537
 30
0.0
 40
2.0
  1
1000ｦｺｴ
 41
0.8
  7
K
 72
     2
 11
250.0677028373822
 21
7.736111526847537
 31
0.0
100
AcDbText
 73
     2
  0
TEXT
  5
19A
330
E6
100
AcDbEntity
  8
SUNPOU
100
AcDbText
 10
208.1364001978188
 20
14.23701685383628
 30
0.0
 40
2.0
  1
▽▽
  7
K
 11
208.1364001978188
 21
15.23701685383628
 31
0.0
100
AcDbText
 73
     2
  0
TEXT
  5
19B
330
E6
100
AcDbEntity
  8
SUNPOU
100
AcDbText
 10
208.1364001978188
 20
10.46221034435757
 30
0.0
 40
2.0
  1
▽
  7
K
 11
208.1364001978188
 21
11.46221034435757
 31
0.0
100
AcDbText
 73
     2
  0
TEXT
  5
19C
330
E6
100
AcDbEntity
  8
SUNPOU
100
AcDbText
 10
208.1364001978188
 20
6.687403834878921
 30
0.0
 40
2.0
  1
～
  7
K
 11
208.1364001978188
 21
7.687403834878921
 31
0.0
100
AcDbText
 73
     2
  0
TEXT
  5
19D
330
E6
100
AcDbEntity
  8
SUNPOU
100
AcDbText
 10
220.8767110216292
 20
0.000000580139556
 30
0.0
 40
2.399999999999999
  1
（必要に応じて追加・抹消）
  7
K
100
AcDbText
  0
TEXT
  5
19E
330
E6
100
AcDbEntity
  8
SUNPOU
100
AcDbText
 10
224.8030668644854
 20
10.46221034435757
 30
0.0
 40
2.0
  1
100Z
  7
K
 72
     2
 11
232.1364001978187
 21
11.46221034435757
 31
0.0
100
AcDbText
 73
     2
  0
TEXT
  5
19F
330
E6
100
AcDbEntity
  8
SUNPOU
100
AcDbText
 10
244.4600837897632
 20
18.35277720709536
 30
0.0
 40
2.0
  1
30ｦｺｴ
 41
0.8
  7
K
 72
     2
 11
250.0677028373822
 21
19.35277720709535
 31
0.0
100
AcDbText
 73
     2
  0
TEXT
  5
1A0
330
E6
100
AcDbEntity
  8
SUNPOU
100
AcDbText
 10
225.7554478168664
 20
18.01182336331499
 30
0.0
 40
2.0
  1
6.3Z
  7
K
 72
     2
 11
232.1364001978187
 21
19.01182336331499
 31
0.0
100
AcDbText
 73
     2
  0
TEXT
  5
1A1
330
E6
100
AcDbEntity
  8
SUNPOU
100
AcDbText
 10
208.1364001978188
 20
18.01182336331499
 30
0.0
 40
2.0
  1
▽▽▽
  7
K
 11
208.1364001978188
 21
19.01182336331499
 31
0.0
100
AcDbText
 73
     2
  0
LINE
  5
1A2
330
E6
100
AcDbEntity
  8
SUNPOU
100
AcDbLine
 10
233.6364001978187
 20
36.40555383405115
 30
0.0
 11
233.6364001978187
 21
5.800000580139567
 31
0.0
  0
LINE
  5
1A3
330
E6
100
AcDbEntity
  8
SUNPOU
100
AcDbLine
 10
240.6364001978187
 20
36.40555383405115
 30
0.0
 11
240.6364001978187
 21
5.800000580139567
 31
0.0
  0
TEXT
  5
1A4
330
E6
100
AcDbEntity
  8
SUNPOU
100
AcDbText
 10
255.7665524398125
 20
29.96944288734318
 30
0.0
 40
2.0
  1
3以下
 41
0.8
  7
K
 72
     2
 11
260.7036952969553
 21
30.96944288734318
 31
0.0
100
AcDbText
 73
     2
  0
TEXT
  5
1A5
330
E6
100
AcDbEntity
  8
SUNPOU
100
AcDbText
 10
255.7665524398125
 20
26.09722099392724
 30
0.0
 40
2.0
  1
6以下
 41
0.8
  7
K
 72
     2
 11
260.7036952969553
 21
27.09722099392724
 31
0.0
100
AcDbText
 73
     2
  0
TEXT
  5
1A6
330
E6
100
AcDbEntity
  8
SUNPOU
100
AcDbText
 10
254.2427429160029
 20
22.2249991005113
 30
0.0
 40
2.0
  1
30以下
 41
0.8
  7
K
 72
     2
 11
260.7036952969553
 21
23.2249991005113
 31
0.0
100
AcDbText
 73
     2
  0
TEXT
  5
1A7
330
E6
100
AcDbEntity
  8
SUNPOU
100
AcDbText
 10
252.7189333921934
 20
18.35277720709536
 30
0.0
 40
2.0
  1
120以下
 41
0.8
  7
K
 72
     2
 11
260.7036952969553
 21
19.35277720709535
 31
0.0
100
AcDbText
 73
     2
  0
LINE
  5
1A8
330
E6
100
AcDbEntity
  8
WAKU
100
AcDbLine
 10
3.000000197818735
 20
268.8000005801395
 30
0.0
 11
384.0000001978187
 21
268.8000005801395
 31
0.0
  0
LINE
  5
1A9
330
E6
100
AcDbEntity
  8
WAKU
100
AcDbLine
 10
384.0000001978187
 20
5.800000580139567
 30
0.0
 11
3.000000197818735
 21
5.800000580139567
 31
0.0
  0
LINE
  5
1AA
330
E6
100
AcDbEntity
  8
WAKU
100
AcDbLine
 10
3.000000197818735
 20
5.800000580139567
 30
0.0
 11
3.000000197818735
 21
268.8000005801395
 31
0.0
  0
LINE
  5
1AB
330
E6
100
AcDbEntity
  8
WAKU
100
AcDbLine
 10
3.000000197818735
 20
138.8000005801395
 30
0.0
 11
0.0000001978187356
 21
138.8000005801395
 31
0.0
  0
LINE
  5
1AC
330
E6
100
AcDbEntity
  8
WAKU
100
AcDbLine
 10
384.0000001978187
 20
268.8000005801395
 30
0.0
 11
384.0000001978187
 21
5.800000580139567
 31
0.0
  0
ENDBLK
  5
1AE
330
E6
100
AcDbEntity
  8
0
100
AcDbBlockEnd
  0
BLOCK
  5
C44
330
C3A
100
AcDbEntity
  8
0
100
AcDbBlockBegin
  2
*D16
 70
     1
 10
0.0
 20
0.0
 30
0.0
  3
*D16
  1

  0
LINE
  5
F4A
330
C3A
100
AcDbEntity
  8
SUNPOU
 62
     0
370
    -2
100
AcDbLine
 10
151.4872210997107
 20
1011.503976913221
 30
0.0
 11
151.4872210997107
 21
752.582958772683
 31
0.0
  0
LINE
  5
F4B
330
C3A
100
AcDbEntity
  8
SUNPOU
 62
     0
370
    -2
100
AcDbLine
 10
457.1720389894205
 20
1011.503976913221
 30
0.0
 11
457.1720389894205
 21
752.582958772683
 31
0.0
  0
LINE
  5
F4C
330
C3A
100
AcDbEntity
  8
SUNPOU
 62
     0
370
    -2
100
AcDbLine
 10
163.9872210997107
 20
757.582958772683
 30
0.0
 11
444.6720389894205
 21
757.582958772683
 31
0.0
  0
INSERT
  5
F4D
330
C3A
100
AcDbEntity
  8
SUNPOU
 62
     0
370
    -2
100
AcDbBlockReference
  2
ARROW
 10
151.4872210997107
 20
757.582958772683
 30
0.0
 41
12.5
 42
12.5
 43
12.5
 50
180.0
  0
INSERT
  5
F4E
330
C3A
100
AcDbEntity
  8
SUNPOU
 62
     0
370
    -2
100
AcDbBlockReference
  2
ARROW
 10
457.1720389894205
 20
757.582958772683
 30
0.0
 41
12.5
 42
12.5
 43
12.5
  0
MTEXT
  5
F4F
330
C3A
100
AcDbEntity
  8
SUNPOU
 62
     0
100
AcDbMText
 10
304.3296300445657
 20
770.082958772683
 30
0.0
 40
15.0
 41
0.0
 71
     5
 72
     1
  1
\A1;306
 73
     1
 44
1.0
1001
ACAD
1000
MTEXTBEGIN
1070
    73
1070
     1
1070
    44
1040
1.0
1070
    74
1070
     0
1000
MTEXTEND
  0
POINT
  5
F50
330
C3A
100
AcDbEntity
  8
DEFPOINTS
 62
     0
100
AcDbPoint
 10
151.4872210997107
 20
1016.503976913222
 30
0.0
  0
POINT
  5
F51
330
C3A
100
AcDbEntity
  8
DEFPOINTS
 62
     0
100
AcDbPoint
 10
457.1720389894205
 20
1016.50397691322
 30
0.0
  0
POINT
  5
F52
330
C3A
100
AcDbEntity
  8
DEFPOINTS
 62
     0
100
AcDbPoint
 10
457.1720389894205
 20
757.582958772683
 30
0.0
  0
ENDBLK
  5
C45
330
C3A
100
AcDbEntity
  8
0
100
AcDbBlockEnd
  0
BLOCK
  5
C50
330
C46
100
AcDbEntity
  8
0
100
AcDbBlockBegin
  2
*D17
 70
     1
 10
0.0
 20
0.0
 30
0.0
  3
*D17
  1

  0
LINE
  5
DE9
330
C46
100
AcDbEntity
  8
SUNPOU
 62
     0
370
    -2
100
AcDbLine
 10
154.3296300445652
 20
312.1765076846411
 30
0.0
 11
154.3296300445652
 21
224.6227064300283
 31
0.0
  0
LINE
  5
DEA
330
C46
100
AcDbEntity
  8
SUNPOU
 62
     0
370
    -2
100
AcDbLine
 10
454.3296300445669
 20
312.1765076846411
 30
0.0
 11
454.3296300445669
 21
224.6227064300283
 31
0.0
  0
LINE
  5
DEB
330
C46
100
AcDbEntity
  8
SUNPOU
 62
     0
370
    -2
100
AcDbLine
 10
166.8296300445652
 20
229.6227064300283
 30
0.0
 11
441.8296300445669
 21
229.6227064300283
 31
0.0
  0
INSERT
  5
DEC
330
C46
100
AcDbEntity
  8
SUNPOU
 62
     0
370
    -2
100
AcDbBlockReference
  2
ARROW
 10
154.3296300445652
 20
229.6227064300283
 30
0.0
 41
12.5
 42
12.5
 43
12.5
 50
180.0
  0
INSERT
  5
DED
330
C46
100
AcDbEntity
  8
SUNPOU
 62
     0
370
    -2
100
AcDbBlockReference
  2
ARROW
 10
454.3296300445669
 20
229.6227064300283
 30
0.0
 41
12.5
 42
12.5
 43
12.5
  0
MTEXT
  5
DEE
330
C46
100
AcDbEntity
  8
SUNPOU
 62
     0
100
AcDbMText
 10
304.3296300445661
 20
242.1227064300283
 30
0.0
 40
15.0
 41
0.0
 71
     5
 72
     1
  1
\A1;300
 73
     1
 44
1.0
1001
ACAD
1000
MTEXTBEGIN
1070
    73
1070
     1
1070
    44
1040
1.0
1070
    74
1070
     0
1000
MTEXTEND
  0
POINT
  5
DEF
330
C46
100
AcDbEntity
  8
DEFPOINTS
 62
     0
100
AcDbPoint
 10
154.3296300445652
 20
317.1765076846412
 30
0.0
  0
POINT
  5
DF0
330
C46
100
AcDbEntity
  8
DEFPOINTS
 62
     0
100
AcDbPoint
 10
454.3296300445669
 20
317.1765076846412
 30
0.0
  0
POINT
  5
DF1
330
C46
100
AcDbEntity
  8
DEFPOINTS
 62
     0
100
AcDbPoint
 10
454.3296300445669
 20
229.6227064300283
 30
0.0
  0
ENDBLK
  5
C51
330
C46
100
AcDbEntity
  8
0
100
AcDbBlockEnd
  0
BLOCK
  5
C5C
330
C52
100
AcDbEntity
  8
0
100
AcDbBlockBegin
  2
*D18
 70
     1
 10
0.0
 20
0.0
 30
0.0
  3
*D18
  1

  0
LINE
  5
DD7
330
C52
100
AcDbEntity
  8
SUNPOU
 62
     0
370
    -2
100
AcDbLine
 10
660.3238258550761
 20
643.2543488489002
 30
0.0
 11
660.3238258550761
 21
1076.619598109641
 31
0.0
  0
LINE
  5
DD8
330
C52
100
AcDbEntity
  8
SUNPOU
 62
     0
370
    -2
100
AcDbLine
 10
1089.984163824946
 20
966.7784957821767
 30
0.0
 11
1089.984163824946
 21
1076.619598109641
 31
0.0
  0
LINE
  5
DD9
330
C52
100
AcDbEntity
  8
SUNPOU
 62
     0
370
    -2
100
AcDbLine
 10
672.8238258550761
 20
1071.619598109641
 30
0.0
 11
1077.484163824946
 21
1071.619598109641
 31
0.0
  0
INSERT
  5
DDA
330
C52
100
AcDbEntity
  8
SUNPOU
 62
     0
370
    -2
100
AcDbBlockReference
  2
ARROW
 10
660.3238258550761
 20
1071.619598109641
 30
0.0
 41
12.5
 42
12.5
 43
12.5
 50
180.0
  0
INSERT
  5
DDB
330
C52
100
AcDbEntity
  8
SUNPOU
 62
     0
370
    -2
100
AcDbBlockReference
  2
ARROW
 10
1089.984163824946
 20
1071.619598109641
 30
0.0
 41
12.5
 42
12.5
 43
12.5
  0
MTEXT
  5
DDC
330
C52
100
AcDbEntity
  8
SUNPOU
 62
     0
100
AcDbMText
 10
875.1539948400111
 20
1088.048169538213
 30
0.0
 40
15.0
 41
0.0
 71
     5
 72
     1
  1
\A1;430(ﾌﾀ開時)
 73
     1
 44
1.0
1001
ACAD
1000
MTEXTBEGIN
1070
    73
1070
     1
1070
    44
1040
1.0
1070
    74
1070
     0
1000
MTEXTEND
  0
POINT
  5
DDD
330
C52
100
AcDbEntity
  8
DEFPOINTS
 62
     0
100
AcDbPoint
 10
660.3238258550761
 20
638.2543488489002
 30
0.0
  0
POINT
  5
DDE
330
C52
100
AcDbEntity
  8
DEFPOINTS
 62
     0
100
AcDbPoint
 10
1089.984163824946
 20
961.7784957821768
 30
0.0
  0
POINT
  5
DDF
330
C52
100
AcDbEntity
  8
DEFPOINTS
 62
     0
100
AcDbPoint
 10
1089.984163824946
 20
1071.619598109641
 30
0.0
  0
ENDBLK
  5
C5D
330
C52
100
AcDbEntity
  8
0
100
AcDbBlockEnd
  0
BLOCK
  5
C68
330
C5E
100
AcDbEntity
  8
0
100
AcDbBlockBegin
  2
*D19
 70
     1
 10
0.0
 20
0.0
 30
0.0
  3
*D19
  1

  0
LINE
  5
DCE
330
C5E
100
AcDbEntity
  8
SUNPOU
 62
     0
370
    -2
100
AcDbLine
 10
1081.307465599694
 20
672.676507684687
 30
0.0
 11
1081.307465599694
 21
1038.718979593773
 31
0.0
  0
LINE
  5
DCF
330
C5E
100
AcDbEntity
  8
SUNPOU
 62
     0
370
    -2
100
AcDbLine
 10
660.3238258550761
 20
643.2543488489002
 30
0.0
 11
660.3238258550761
 21
1038.718979593773
 31
0.0
  0
LINE
  5
DD0
330
C5E
100
AcDbEntity
  8
SUNPOU
 62
     0
370
    -2
100
AcDbLine
 10
1068.807465599694
 20
1033.718979593773
 30
0.0
 11
672.8238258550761
 21
1033.718979593773
 31
0.0
  0
INSERT
  5
DD1
330
C5E
100
AcDbEntity
  8
SUNPOU
 62
     0
370
    -2
100
AcDbBlockReference
  2
ARROW
 10
1081.307465599694
 20
1033.718979593773
 30
0.0
 41
12.5
 42
12.5
 43
12.5
  0
INSERT
  5
DD2
330
C5E
100
AcDbEntity
  8
SUNPOU
 62
     0
370
    -2
100
AcDbBlockReference
  2
ARROW
 10
660.3238258550761
 20
1033.718979593773
 30
0.0
 41
12.5
 42
12.5
 43
12.5
 50
180.0
  0
MTEXT
  5
DD3
330
C5E
100
AcDbEntity
  8
SUNPOU
 62
     0
100
AcDbMText
 10
870.8156457273851
 20
1046.218979593773
 30
0.0
 40
15.0
 41
0.0
 71
     5
 72
     1
  1
\A1;421
 73
     1
 44
1.0
1001
ACAD
1000
MTEXTBEGIN
1070
    73
1070
     1
1070
    44
1040
1.0
1070
    74
1070
     0
1000
MTEXTEND
  0
POINT
  5
DD4
330
C5E
100
AcDbEntity
  8
DEFPOINTS
 62
     0
100
AcDbPoint
 10
1081.307465599694
 20
667.676507684687
 30
0.0
  0
POINT
  5
DD5
330
C5E
100
AcDbEntity
  8
DEFPOINTS
 62
     0
100
AcDbPoint
 10
660.3238258550761
 20
638.2543488489002
 30
0.0
  0
POINT
  5
DD6
330
C5E
100
AcDbEntity
  8
DEFPOINTS
 62
     0
100
AcDbPoint
 10
660.3238258550761
 20
1033.718979593773
 30
0.0
  0
ENDBLK
  5
C69
330
C5E
100
AcDbEntity
  8
0
100
AcDbBlockEnd
  0
BLOCK
  5
C74
330
C6A
100
AcDbEntity
  8
0
100
AcDbBlockBegin
  2
*D20
 70
     1
 10
0.0
 20
0.0
 30
0.0
  3
*D20
  1

  0
LINE
  5
DC5
330
C6A
100
AcDbEntity
  8
SUNPOU
 62
     0
370
    -2
100
AcDbLine
 10
704.8074655997886
 20
338.0814952467647
 30
0.0
 11
704.8074655997886
 21
250.222721755933
 31
0.0
  0
LINE
  5
DC6
330
C6A
100
AcDbEntity
  8
SUNPOU
 62
     0
370
    -2
100
AcDbLine
 10
1080.307465599695
 20
312.1765076846405
 30
0.0
 11
1080.307465599695
 21
250.222721755933
 31
0.0
  0
LINE
  5
DC7
330
C6A
100
AcDbEntity
  8
SUNPOU
 62
     0
370
    -2
100
AcDbLine
 10
717.3074655997886
 20
255.222721755933
 30
0.0
 11
1067.807465599695
 21
255.222721755933
 31
0.0
  0
INSERT
  5
DC8
330
C6A
100
AcDbEntity
  8
SUNPOU
 62
     0
370
    -2
100
AcDbBlockReference
  2
ARROW
 10
704.8074655997886
 20
255.222721755933
 30
0.0
 41
12.5
 42
12.5
 43
12.5
 50
180.0
  0
INSERT
  5
DC9
330
C6A
100
AcDbEntity
  8
SUNPOU
 62
     0
370
    -2
100
AcDbBlockReference
  2
ARROW
 10
1080.307465599695
 20
255.222721755933
 30
0.0
 41
12.5
 42
12.5
 43
12.5
  0
MTEXT
  5
DCA
330
C6A
100
AcDbEntity
  8
SUNPOU
 62
     0
100
AcDbMText
 10
892.5574655997419
 20
267.722721755933
 30
0.0
 40
15.0
 41
0.0
 71
     5
 72
     1
  1
\A1;376
 73
     1
 44
1.0
1001
ACAD
1000
MTEXTBEGIN
1070
    73
1070
     1
1070
    44
1040
1.0
1070
    74
1070
     0
1000
MTEXTEND
  0
POINT
  5
DCB
330
C6A
100
AcDbEntity
  8
DEFPOINTS
 62
     0
100
AcDbPoint
 10
704.8074655997886
 20
343.0814952467647
 30
0.0
  0
POINT
  5
DCC
330
C6A
100
AcDbEntity
  8
DEFPOINTS
 62
     0
100
AcDbPoint
 10
1080.307465599695
 20
317.1765076846404
 30
0.0
  0
POINT
  5
DCD
330
C6A
100
AcDbEntity
  8
DEFPOINTS
 62
     0
100
AcDbPoint
 10
1080.307465599695
 20
255.222721755933
 30
0.0
  0
ENDBLK
  5
C75
330
C6A
100
AcDbEntity
  8
0
100
AcDbBlockEnd
  0
BLOCK
  5
C80
330
C76
100
AcDbEntity
  8
0
100
AcDbBlockBegin
  2
*D21
 70
     1
 10
0.0
 20
0.0
 30
0.0
  3
*D21
  1

  0
LINE
  5
DE0
330
C76
100
AcDbEntity
  8
SUNPOU
 62
     0
370
    -2
100
AcDbLine
 10
444.3296300446197
 20
733.1742017013887
 30
0.0
 11
515.4832671349212
 21
733.1742017013887
 31
0.0
  0
LINE
  5
DE1
330
C76
100
AcDbEntity
  8
SUNPOU
 62
     0
370
    -2
100
AcDbLine
 10
443.4036926910046
 20
303.876507684648
 30
0.0
 11
515.4832671349212
 21
303.876507684648
 31
0.0
  0
LINE
  5
DE2
330
C76
100
AcDbEntity
  8
SUNPOU
 62
     0
370
    -2
100
AcDbLine
 10
510.4832671349212
 20
720.6742017013887
 30
0.0
 11
510.4832671349212
 21
316.376507684648
 31
0.0
  0
INSERT
  5
DE3
330
C76
100
AcDbEntity
  8
SUNPOU
 62
     0
370
    -2
100
AcDbBlockReference
  2
ARROW
 10
510.4832671349212
 20
733.1742017013887
 30
0.0
 41
12.5
 42
12.5
 43
12.5
 50
90.0
  0
INSERT
  5
DE4
330
C76
100
AcDbEntity
  8
SUNPOU
 62
     0
370
    -2
100
AcDbBlockReference
  2
ARROW
 10
510.483267134921
 20
303.876507684648
 30
0.0
 41
12.5
 42
12.5
 43
12.5
 50
270.0
  0
MTEXT
  5
DE5
330
C76
100
AcDbEntity
  8
SUNPOU
 62
     0
100
AcDbMText
 10
497.983267134921
 20
518.5253546930185
 30
0.0
 40
15.0
 41
0.0
 71
     5
 72
     1
  1
\A1;429
 11
0.0000000000000001
 21
1.0
 31
0.0
 73
     1
 44
1.0
1001
ACAD
1000
MTEXTBEGIN
1070
    73
1070
     1
1070
    44
1040
1.0
1070
    74
1070
     0
1000
MTEXTEND
  0
POINT
  5
DE6
330
C76
100
AcDbEntity
  8
DEFPOINTS
 62
     0
100
AcDbPoint
 10
439.3296300446198
 20
733.1742017013887
 30
0.0
  0
POINT
  5
DE7
330
C76
100
AcDbEntity
  8
DEFPOINTS
 62
     0
100
AcDbPoint
 10
438.4036926910046
 20
303.876507684648
 30
0.0
  0
POINT
  5
DE8
330
C76
100
AcDbEntity
  8
DEFPOINTS
 62
     0
100
AcDbPoint
 10
510.483267134921
 20
303.876507684648
 30
0.0
  0
ENDBLK
  5
C81
330
C76
100
AcDbEntity
  8
0
100
AcDbBlockEnd
  0
BLOCK
  5
C8C
330
C82
100
AcDbEntity
  8
0
100
AcDbBlockBegin
  2
*D22
 70
     1
 10
0.0
 20
0.0
 30
0.0
  3
*D22
  1

  0
LINE
  5
DF2
330
C82
100
AcDbEntity
  8
SUNPOU
 62
     0
370
    -2
100
AcDbLine
 10
780.2218131689576
 20
550.7643891433579
 30
0.0
 11
560.9518210596649
 21
550.7643891433579
 31
0.0
  0
LINE
  5
DF3
330
C82
100
AcDbEntity
  8
SUNPOU
 62
     0
370
    -2
100
AcDbLine
 10
620.8074655997895
 20
359.6765076846543
 30
0.0
 11
560.9518210596649
 21
359.6765076846543
 31
0.0
  0
LINE
  5
DF4
330
C82
100
AcDbEntity
  8
SUNPOU
 62
     0
370
    -2
100
AcDbLine
 10
565.951821059665
 20
538.264389143358
 30
0.0
 11
565.951821059665
 21
372.1765076846543
 31
0.0
  0
INSERT
  5
DF5
330
C82
100
AcDbEntity
  8
SUNPOU
 62
     0
370
    -2
100
AcDbBlockReference
  2
ARROW
 10
565.951821059665
 20
550.764389143358
 30
0.0
 41
12.5
 42
12.5
 43
12.5
 50
90.0
  0
INSERT
  5
DF6
330
C82
100
AcDbEntity
  8
SUNPOU
 62
     0
370
    -2
100
AcDbBlockReference
  2
ARROW
 10
565.951821059665
 20
359.6765076846543
 30
0.0
 41
12.5
 42
12.5
 43
12.5
 50
270.0
  0
MTEXT
  5
DF7
330
C82
100
AcDbEntity
  8
SUNPOU
 62
     0
100
AcDbMText
 10
553.4518210596648
 20
455.2204484140061
 30
0.0
 40
15.0
 41
0.0
 71
     5
 72
     1
  1
\A1;191
 11
0.0000000000000001
 21
1.0
 31
0.0
 73
     1
 44
1.0
1001
ACAD
1000
MTEXTBEGIN
1070
    73
1070
     1
1070
    44
1040
1.0
1070
    74
1070
     0
1000
MTEXTEND
  0
POINT
  5
DF8
330
C82
100
AcDbEntity
  8
DEFPOINTS
 62
     0
100
AcDbPoint
 10
785.2218131689576
 20
550.7643891433579
 30
0.0
  0
POINT
  5
DF9
330
C82
100
AcDbEntity
  8
DEFPOINTS
 62
     0
100
AcDbPoint
 10
625.8074655997895
 20
359.6765076846543
 30
0.0
  0
POINT
  5
DFA
330
C82
100
AcDbEntity
  8
DEFPOINTS
 62
     0
100
AcDbPoint
 10
565.951821059665
 20
359.6765076846543
 30
0.0
  0
ENDBLK
  5
C8D
330
C82
100
AcDbEntity
  8
0
100
AcDbBlockEnd
  0
BLOCK
  5
C98
330
C8E
100
AcDbEntity
  8
0
100
AcDbBlockBegin
  2
*D23
 70
     1
 10
0.0
 20
0.0
 30
0.0
  3
*D23
  1

  0
LINE
  5
DFB
330
C8E
100
AcDbEntity
  8
SUNPOU
 62
     0
370
    -2
100
AcDbLine
 10
704.8074655997886
 20
338.0814952467647
 30
0.0
 11
704.8074655997886
 21
250.222721755933
 31
0.0
  0
LINE
  5
DFC
330
C8E
100
AcDbEntity
  8
SUNPOU
 62
     0
370
    -2
100
AcDbLine
 10
609.8074655997877
 20
338.0814952467656
 30
0.0
 11
609.8074655997877
 21
250.222721755933
 31
0.0
  0
LINE
  5
DFD
330
C8E
100
AcDbEntity
  8
SUNPOU
 62
     0
370
    -2
100
AcDbLine
 10
692.3074655997886
 20
255.222721755933
 30
0.0
 11
622.3074655997877
 21
255.222721755933
 31
0.0
  0
INSERT
  5
DFE
330
C8E
100
AcDbEntity
  8
SUNPOU
 62
     0
370
    -2
100
AcDbBlockReference
  2
ARROW
 10
704.8074655997886
 20
255.222721755933
 30
0.0
 41
12.5
 42
12.5
 43
12.5
  0
INSERT
  5
DFF
330
C8E
100
AcDbEntity
  8
SUNPOU
 62
     0
370
    -2
100
AcDbBlockReference
  2
ARROW
 10
609.8074655997877
 20
255.222721755933
 30
0.0
 41
12.5
 42
12.5
 43
12.5
 50
180.0
  0
MTEXT
  5
E00
330
C8E
100
AcDbEntity
  8
SUNPOU
 62
     0
100
AcDbMText
 10
657.3074655997881
 20
267.722721755933
 30
0.0
 40
15.0
 41
0.0
 71
     5
 72
     1
  1
\A1;95
 73
     1
 44
1.0
1001
ACAD
1000
MTEXTBEGIN
1070
    73
1070
     1
1070
    44
1040
1.0
1070
    74
1070
     0
1000
MTEXTEND
  0
POINT
  5
E01
330
C8E
100
AcDbEntity
  8
DEFPOINTS
 62
     0
100
AcDbPoint
 10
704.8074655997886
 20
343.0814952467647
 30
0.0
  0
POINT
  5
E02
330
C8E
100
AcDbEntity
  8
DEFPOINTS
 62
     0
100
AcDbPoint
 10
609.8074655997877
 20
343.0814952467656
 30
0.0
  0
POINT
  5
E03
330
C8E
100
AcDbEntity
  8
DEFPOINTS
 62
     0
100
AcDbPoint
 10
609.8074655997877
 20
255.222721755933
 30
0.0
  0
ENDBLK
  5
C99
330
C8E
100
AcDbEntity
  8
0
100
AcDbBlockEnd
  0
BLOCK
  5
CA4
330
C9A
100
AcDbEntity
  8
0
100
AcDbBlockBegin
  2
*D24
 70
     1
 10
0.0
 20
0.0
 30
0.0
  3
*D24
  1

  0
LINE
  5
F16
330
C9A
100
AcDbEntity
  8
SUNPOU
 62
     0
370
    -2
100
AcDbLine
 10
1085.003251087528
 20
975.0309443079951
 30
0.0
 11
1365.10608474356
 21
975.0309443079951
 31
0.0
  0
LINE
  5
F17
330
C9A
100
AcDbEntity
  8
SUNPOU
 62
     0
370
    -2
100
AcDbLine
 10
1059.381456175604
 20
303.8765076846425
 30
0.0
 11
1365.10608474356
 21
303.8765076846425
 31
0.0
  0
LINE
  5
F18
330
C9A
100
AcDbEntity
  8
SUNPOU
 62
     0
370
    -2
100
AcDbLine
 10
1360.10608474356
 20
962.5309443079949
 30
0.0
 11
1360.10608474356
 21
316.3765076846425
 31
0.0
  0
INSERT
  5
F19
330
C9A
100
AcDbEntity
  8
SUNPOU
 62
     0
370
    -2
100
AcDbBlockReference
  2
ARROW
 10
1360.10608474356
 20
975.0309443079949
 30
0.0
 41
12.5
 42
12.5
 43
12.5
 50
90.0
  0
INSERT
  5
F1A
330
C9A
100
AcDbEntity
  8
SUNPOU
 62
     0
370
    -2
100
AcDbBlockReference
  2
ARROW
 10
1360.10608474356
 20
303.8765076846425
 30
0.0
 41
12.5
 42
12.5
 43
12.5
 50
270.0
  0
MTEXT
  5
F1B
330
C9A
100
AcDbEntity
  8
SUNPOU
 62
     0
100
AcDbMText
 10
1343.677513314989
 20
639.4537259963189
 30
0.0
 40
15.0
 41
0.0
 71
     5
 72
     1
  1
\A1;671(ﾌﾀ開時)
 11
0.0000000000000001
 21
1.0
 31
0.0
 73
     1
 44
1.0
1001
ACAD
1000
MTEXTBEGIN
1070
    73
1070
     1
1070
    44
1040
1.0
1070
    74
1070
     0
1000
MTEXTEND
  0
POINT
  5
F1C
330
C9A
100
AcDbEntity
  8
DEFPOINTS
 62
     0
100
AcDbPoint
 10
1080.003251087528
 20
975.0309443079951
 30
0.0
  0
POINT
  5
F1D
330
C9A
100
AcDbEntity
  8
DEFPOINTS
 62
     0
100
AcDbPoint
 10
1054.381456175604
 20
303.8765076846425
 30
0.0
  0
POINT
  5
F1E
330
C9A
100
AcDbEntity
  8
DEFPOINTS
 62
     0
100
AcDbPoint
 10
1360.10608474356
 20
303.8765076846425
 30
0.0
  0
ENDBLK
  5
CA5
330
C9A
100
AcDbEntity
  8
0
100
AcDbBlockEnd
  0
BLOCK
  5
CB0
330
CA6
100
AcDbEntity
  8
0
100
AcDbBlockBegin
  2
*D25
 70
     1
 10
0.0
 20
0.0
 30
0.0
  3
*D25
  1

  0
LINE
  5
E31
330
CA6
100
AcDbEntity
  8
SUNPOU
 62
     0
370
    -2
100
AcDbLine
 10
1080.307465599696
 20
394.4448807591139
 30
0.0
 11
1080.307465599696
 21
464.0344412494869
 31
0.0
  0
LINE
  5
E32
330
CA6
100
AcDbEntity
  8
SUNPOU
 62
     0
370
    -2
100
AcDbLine
 10
1263.314492570523
 20
408.7307724900715
 30
0.0
 11
1263.314492570523
 21
464.0344412494869
 31
0.0
  0
LINE
  5
E33
330
CA6
100
AcDbEntity
  8
SUNPOU
 62
     0
370
    -2
100
AcDbLine
 10
1092.807465599697
 20
459.0344412494869
 30
0.0
 11
1250.814492570523
 21
459.0344412494869
 31
0.0
  0
INSERT
  5
E34
330
CA6
100
AcDbEntity
  8
SUNPOU
 62
     0
370
    -2
100
AcDbBlockReference
  2
ARROW
 10
1080.307465599696
 20
459.0344412494869
 30
0.0
 41
12.5
 42
12.5
 43
12.5
 50
180.0
  0
INSERT
  5
E35
330
CA6
100
AcDbEntity
  8
SUNPOU
 62
     0
370
    -2
100
AcDbBlockReference
  2
ARROW
 10
1263.314492570523
 20
459.0344412494869
 30
0.0
 41
12.5
 42
12.5
 43
12.5
  0
MTEXT
  5
E36
330
CA6
100
AcDbEntity
  8
SUNPOU
 62
     0
100
AcDbMText
 10
1171.81097908511
 20
471.5344412494869
 30
0.0
 40
15.0
 41
0.0
 71
     5
 72
     1
  1
\A1;約1560
 73
     1
 44
1.0
1001
ACAD
1000
MTEXTBEGIN
1070
    73
1070
     1
1070
    44
1040
1.0
1070
    74
1070
     0
1000
MTEXTEND
  0
POINT
  5
E37
330
CA6
100
AcDbEntity
  8
DEFPOINTS
 62
     0
100
AcDbPoint
 10
1080.307465599696
 20
389.4448807591139
 30
0.0
  0
POINT
  5
E38
330
CA6
100
AcDbEntity
  8
DEFPOINTS
 62
     0
100
AcDbPoint
 10
1263.314492570523
 20
403.7307724900715
 30
0.0
  0
POINT
  5
E39
330
CA6
100
AcDbEntity
  8
DEFPOINTS
 62
     0
100
AcDbPoint
 10
1263.314492570523
 20
459.0344412494869
 30
0.0
  0
ENDBLK
  5
CB1
330
CA6
100
AcDbEntity
  8
0
100
AcDbBlockEnd
  0
BLOCK
  5
CBC
330
CB2
100
AcDbEntity
  8
0
100
AcDbBlockBegin
  2
*D26
 70
     1
 10
0.0
 20
0.0
 30
0.0
  3
*D26
  1

  0
LINE
  5
E28
330
CB2
100
AcDbEntity
  8
SUNPOU
 62
     0
370
    -2
100
AcDbLine
 10
1080.307465599696
 20
394.4448807591139
 30
0.0
 11
1080.307465599696
 21
503.1434673361473
 31
0.0
  0
LINE
  5
E29
330
CB2
100
AcDbEntity
  8
SUNPOU
 62
     0
370
    -2
100
AcDbLine
 10
1293.314492570523
 20
378.1765076846423
 30
0.0
 11
1293.314492570523
 21
503.1434673361473
 31
0.0
  0
LINE
  5
E2A
330
CB2
100
AcDbEntity
  8
SUNPOU
 62
     0
370
    -2
100
AcDbLine
 10
1092.807465599697
 20
498.1434673361473
 30
0.0
 11
1280.814492570523
 21
498.1434673361473
 31
0.0
  0
INSERT
  5
E2B
330
CB2
100
AcDbEntity
  8
SUNPOU
 62
     0
370
    -2
100
AcDbBlockReference
  2
ARROW
 10
1080.307465599696
 20
498.1434673361473
 30
0.0
 41
12.5
 42
12.5
 43
12.5
 50
180.0
  0
INSERT
  5
E2C
330
CB2
100
AcDbEntity
  8
SUNPOU
 62
     0
370
    -2
100
AcDbBlockReference
  2
ARROW
 10
1293.314492570523
 20
498.1434673361473
 30
0.0
 41
12.5
 42
12.5
 43
12.5
  0
MTEXT
  5
E2D
330
CB2
100
AcDbEntity
  8
SUNPOU
 62
     0
100
AcDbMText
 10
1186.81097908511
 20
510.6434673361473
 30
0.0
 40
15.0
 41
0.0
 71
     5
 72
     1
  1
\A1;約2030
 73
     1
 44
1.0
1001
ACAD
1000
MTEXTBEGIN
1070
    73
1070
     1
1070
    44
1040
1.0
1070
    74
1070
     0
1000
MTEXTEND
  0
POINT
  5
E2E
330
CB2
100
AcDbEntity
  8
DEFPOINTS
 62
     0
100
AcDbPoint
 10
1080.307465599696
 20
389.4448807591139
 30
0.0
  0
POINT
  5
E2F
330
CB2
100
AcDbEntity
  8
DEFPOINTS
 62
     0
100
AcDbPoint
 10
1293.314492570523
 20
373.1765076846423
 30
0.0
  0
POINT
  5
E30
330
CB2
100
AcDbEntity
  8
DEFPOINTS
 62
     0
100
AcDbPoint
 10
1293.314492570523
 20
498.1434673361473
 30
0.0
  0
ENDBLK
  5
CBD
330
CB2
100
AcDbEntity
  8
0
100
AcDbBlockEnd
  0
BLOCK
  5
CC8
330
CBE
100
AcDbEntity
  8
0
100
AcDbBlockBegin
  2
*D27
 70
     1
 10
0.0
 20
0.0
 30
0.0
  3
*D27
  1

  0
LINE
  5
F0D
330
CBE
100
AcDbEntity
  8
SUNPOU
 62
     0
370
    -2
100
AcDbLine
 10
1281.814492570523
 20
367.1765076846425
 30
0.0
 11
1336.393067317473
 21
367.1765076846425
 31
0.0
  0
LINE
  5
F0E
330
CBE
100
AcDbEntity
  8
SUNPOU
 62
     0
370
    -2
100
AcDbLine
 10
1059.381456175604
 20
303.8765076846425
 30
0.0
 11
1336.393067317473
 21
303.8765076846425
 31
0.0
  0
LINE
  5
F0F
330
CBE
100
AcDbEntity
  8
SUNPOU
 62
     0
370
    -2
100
AcDbLine
 10
1331.393067317472
 20
354.6765076846425
 30
0.0
 11
1331.393067317472
 21
316.3765076846425
 31
0.0
  0
INSERT
  5
F10
330
CBE
100
AcDbEntity
  8
SUNPOU
 62
     0
370
    -2
100
AcDbBlockReference
  2
ARROW
 10
1331.393067317472
 20
367.1765076846425
 30
0.0
 41
12.5
 42
12.5
 43
12.5
 50
90.0
  0
INSERT
  5
F11
330
CBE
100
AcDbEntity
  8
SUNPOU
 62
     0
370
    -2
100
AcDbBlockReference
  2
ARROW
 10
1331.393067317472
 20
303.8765076846425
 30
0.0
 41
12.5
 42
12.5
 43
12.5
 50
270.0
  0
MTEXT
  5
F12
330
CBE
100
AcDbEntity
  8
SUNPOU
 62
     0
100
AcDbMText
 10
1318.893067317473
 20
335.5265076846427
 30
0.0
 40
15.0
 41
0.0
 71
     5
 72
     1
  1
\A1;63
 11
0.0000000000000001
 21
1.0
 31
0.0
 73
     1
 44
1.0
1001
ACAD
1000
MTEXTBEGIN
1070
    73
1070
     1
1070
    44
1040
1.0
1070
    74
1070
     0
1000
MTEXTEND
  0
POINT
  5
F13
330
CBE
100
AcDbEntity
  8
DEFPOINTS
 62
     0
100
AcDbPoint
 10
1276.814492570523
 20
367.1765076846425
 30
0.0
  0
POINT
  5
F14
330
CBE
100
AcDbEntity
  8
DEFPOINTS
 62
     0
100
AcDbPoint
 10
1054.381456175604
 20
303.8765076846425
 30
0.0
  0
POINT
  5
F15
330
CBE
100
AcDbEntity
  8
DEFPOINTS
 62
     0
100
AcDbPoint
 10
1331.393067317472
 20
303.8765076846425
 30
0.0
  0
ENDBLK
  5
CC9
330
CBE
100
AcDbEntity
  8
0
100
AcDbBlockEnd
  0
BLOCK
  5
CD4
330
CCA
100
AcDbEntity
  8
0
100
AcDbBlockBegin
  2
*D28
 70
     1
 10
0.0
 20
0.0
 30
0.0
  3
*D28
  1

  0
LINE
  5
FCE
330
CCA
100
AcDbEntity
  8
SUNPOU
 62
     0
370
    -2
100
AcDbLine
 10
407.3296300445652
 20
1319.000097162533
 30
0.0
 11
407.3296300445652
 21
1313.628034028355
 31
0.0
  0
LINE
  5
FCF
330
CCA
100
AcDbEntity
  8
SUNPOU
 62
     0
370
    -2
100
AcDbLine
 10
304.3296300445652
 20
1220.802474523964
 30
0.0
 11
304.3296300445652
 21
1323.628034028355
 31
0.0
  0
LINE
  5
FD0
330
CCA
100
AcDbEntity
  8
SUNPOU
 62
     0
370
    -2
100
AcDbLine
 10
394.8296300445652
 20
1318.628034028355
 30
0.0
 11
316.8296300445652
 21
1318.628034028355
 31
0.0
  0
INSERT
  5
FD1
330
CCA
100
AcDbEntity
  8
SUNPOU
 62
     0
370
    -2
100
AcDbBlockReference
  2
ARROW
 10
407.3296300445652
 20
1318.628034028355
 30
0.0
 41
12.5
 42
12.5
 43
12.5
  0
INSERT
  5
FD2
330
CCA
100
AcDbEntity
  8
SUNPOU
 62
     0
370
    -2
100
AcDbBlockReference
  2
ARROW
 10
304.3296300445652
 20
1318.628034028355
 30
0.0
 41
12.5
 42
12.5
 43
12.5
 50
180.0
  0
MTEXT
  5
FD3
330
CCA
100
AcDbEntity
  8
SUNPOU
 62
     0
100
AcDbMText
 10
355.8296300445652
 20
1331.128034028355
 30
0.0
 40
15.0
 41
0.0
 71
     5
 72
     1
  1
\A1;103
 73
     1
 44
1.0
1001
ACAD
1000
MTEXTBEGIN
1070
    73
1070
     1
1070
    44
1040
1.0
1070
    74
1070
     0
1000
MTEXTEND
  0
POINT
  5
FD4
330
CCA
100
AcDbEntity
  8
DEFPOINTS
 62
     0
100
AcDbPoint
 10
407.3296300445652
 20
1324.000097162533
 30
0.0
  0
POINT
  5
FD5
330
CCA
100
AcDbEntity
  8
DEFPOINTS
 62
     0
100
AcDbPoint
 10
304.3296300445652
 20
1215.802474523964
 30
0.0
  0
POINT
  5
FD6
330
CCA
100
AcDbEntity
  8
DEFPOINTS
 62
     0
100
AcDbPoint
 10
304.3296300445652
 20
1318.628034028355
 30
0.0
  0
ENDBLK
  5
CD5
330
CCA
100
AcDbEntity
  8
0
100
AcDbBlockEnd
  0
BLOCK
  5
D4C
330
D4B
100
AcDbEntity
  8
0
100
AcDbBlockBegin
  2
_IMCADLT3
 70
     0
 10
0.0
 20
0.0
 30
0.0
  3
_IMCADLT3
  1

  0
ENDBLK
  5
D4D
330
D4B
100
AcDbEntity
  8
0
100
AcDbBlockEnd
  0
BLOCK
  5
1055
330
1053
100
AcDbEntity
  8
0
100
AcDbBlockBegin
  2
GENAXEH
 70
     0
 10
0.0
 20
0.0
 30
0.0
  3
GENAXEH
  1

  0
LINE
  5
1054
330
1053
100
AcDbEntity
  8
0
100
AcDbLine
 10
-1.0
 20
0.0
 30
0.0
 11
1.0
 21
0.0
 31
0.0
  0
ENDBLK
  5
1056
330
1053
100
AcDbEntity
  8
0
100
AcDbBlockEnd
  0
BLOCK
  5
183E
330
183D
100
AcDbEntity
  8
0
100
AcDbBlockBegin
  2
*D32
 70
     1
 10
0.0
 20
0.0
 30
0.0
  3
*D32
  1

  0
LINE
  5
183F
330
183D
100
AcDbEntity
  8
SUNPOU
 62
     0
370
    -2
100
AcDbLine
 10
508.923601382573
 20
525.59257203
 30
0.0
 11
508.923601382573
 21
715.9982657750234
 31
0.0
  0
LINE
  5
1840
330
183D
100
AcDbEntity
  8
SUNPOU
 62
     0
370
    -2
100
AcDbLine
 10
278.9236013757666
 20
525.59257203
 30
0.0
 11
278.9236013757666
 21
715.9982657750234
 31
0.0
  0
LINE
  5
1841
330
183D
100
AcDbEntity
  8
SUNPOU
 62
     0
370
    -2
100
AcDbLine
 10
493.923601382573
 20
710.9982657750233
 30
0.0
 11
293.9236013757666
 21
710.9982657750233
 31
0.0
  0
INSERT
  5
1842
330
183D
100
AcDbEntity
  8
SUNPOU
 62
     0
370
    -2
100
AcDbBlockReference
  2
ARROW
 10
508.923601382573
 20
710.9982657750233
 30
0.0
 41
15.0
 42
15.0
 43
15.0
  0
INSERT
  5
1843
330
183D
100
AcDbEntity
  8
SUNPOU
 62
     0
370
    -2
100
AcDbBlockReference
  2
ARROW
 10
278.9236013757666
 20
710.9982657750233
 30
0.0
 41
15.0
 42
15.0
 43
15.0
 50
180.0
  0
MTEXT
  5
1844
330
183D
100
AcDbEntity
  8
SUNPOU
 62
     0
100
AcDbMText
 10
393.923601382573
 20
725.9982657750233
 30
0.0
 40
15.0
 41
0.0
 71
     5
 72
     5
  1
\A1;230
 73
     1
 44
1.0
1001
ACAD
1000
MTEXTBEGIN
1070
    73
1070
     1
1070
    44
1040
1.0
1070
    74
1070
     0
1000
MTEXTEND
  0
POINT
  5
1845
330
183D
100
AcDbEntity
  8
DEFPOINTS
 62
     0
100
AcDbPoint
 10
508.923601382573
 20
520.59257203
 30
0.0
  0
POINT
  5
1846
330
183D
100
AcDbEntity
  8
DEFPOINTS
 62
     0
100
AcDbPoint
 10
278.9236013757666
 20
520.59257203
 30
0.0
  0
POINT
  5
1847
330
183D
100
AcDbEntity
  8
DEFPOINTS
 62
     0
100
AcDbPoint
 10
278.9236013757666
 20
710.9982657750233
 30
0.0
  0
ENDBLK
  5
1848
330
183D
100
AcDbEntity
  8
0
100
AcDbBlockEnd
  0
BLOCK
  5
184A
330
1849
100
AcDbEntity
  8
0
100
AcDbBlockBegin
  2
*D33
 70
     1
 10
0.0
 20
0.0
 30
0.0
  3
*D33
  1

  0
LINE
  5
184B
330
1849
100
AcDbEntity
  8
SUNPOU
 62
     0
370
    -2
100
AcDbLine
 10
280.9236013757666
 20
250.59257203
 30
0.0
 11
280.9236013757666
 21
123.1665318335153
 31
0.0
  0
LINE
  5
184C
330
1849
100
AcDbEntity
  8
SUNPOU
 62
     0
370
    -2
100
AcDbLine
 10
506.9236013825729
 20
250.59257203
 30
0.0
 11
506.9236013825729
 21
123.1665318335153
 31
0.0
  0
LINE
  5
184D
330
1849
100
AcDbEntity
  8
SUNPOU
 62
     0
370
    -2
100
AcDbLine
 10
295.9236013757666
 20
128.1665318335153
 30
0.0
 11
491.923601382573
 21
128.1665318335153
 31
0.0
  0
INSERT
  5
184E
330
1849
100
AcDbEntity
  8
SUNPOU
 62
     0
370
    -2
100
AcDbBlockReference
  2
ARROW
 10
280.9236013757666
 20
128.1665318335153
 30
0.0
 41
15.0
 42
15.0
 43
15.0
 50
180.0
  0
INSERT
  5
184F
330
1849
100
AcDbEntity
  8
SUNPOU
 62
     0
370
    -2
100
AcDbBlockReference
  2
ARROW
 10
506.9236013825729
 20
128.1665318335153
 30
0.0
 41
15.0
 42
15.0
 43
15.0
  0
MTEXT
  5
1850
330
1849
100
AcDbEntity
  8
SUNPOU
 62
     0
100
AcDbMText
 10
393.923601382573
 20
143.1665318335153
 30
0.0
 40
15.0
 41
0.0
 71
     5
 72
     5
  1
\A1;226
 73
     1
 44
1.0
1001
ACAD
1000
MTEXTBEGIN
1070
    73
1070
     1
1070
    44
1040
1.0
1070
    74
1070
     0
1000
MTEXTEND
  0
POINT
  5
1851
330
1849
100
AcDbEntity
  8
DEFPOINTS
 62
     0
100
AcDbPoint
 10
280.9236013757666
 20
255.59257203
 30
0.0
  0
POINT
  5
1852
330
1849
100
AcDbEntity
  8
DEFPOINTS
 62
     0
100
AcDbPoint
 10
506.9236013825729
 20
255.59257203
 30
0.0
  0
POINT
  5
1853
330
1849
100
AcDbEntity
  8
DEFPOINTS
 62
     0
100
AcDbPoint
 10
506.9236013825729
 20
128.1665318335153
 30
0.0
  0
ENDBLK
  5
1854
330
1849
100
AcDbEntity
  8
0
100
AcDbBlockEnd
  0
BLOCK
  5
1856
330
1855
100
AcDbEntity
  8
0
100
AcDbBlockBegin
  2
*D34
 70
     1
 10
0.0
 20
0.0
 30
0.0
  3
*D34
  1

  0
LINE
  5
1857
330
1855
100
AcDbEntity
  8
SUNPOU
 62
     0
370
    -2
100
AcDbLine
 10
307.9236013791698
 20
235.5925720300001
 30
0.0
 11
307.9236013791698
 21
164.9356575682152
 31
0.0
  0
LINE
  5
1858
330
1855
100
AcDbEntity
  8
SUNPOU
 62
     0
370
    -2
100
AcDbLine
 10
479.9236013791698
 20
235.5925720299999
 30
0.0
 11
479.9236013791698
 21
164.9356575682152
 31
0.0
  0
LINE
  5
1859
330
1855
100
AcDbEntity
  8
SUNPOU
 62
     0
370
    -2
100
AcDbLine
 10
322.9236013791698
 20
169.9356575682152
 30
0.0
 11
464.9236013791697
 21
169.9356575682152
 31
0.0
  0
INSERT
  5
185A
330
1855
100
AcDbEntity
  8
SUNPOU
 62
     0
370
    -2
100
AcDbBlockReference
  2
ARROW
 10
307.9236013791698
 20
169.9356575682152
 30
0.0
 41
15.0
 42
15.0
 43
15.0
 50
180.0
  0
INSERT
  5
185B
330
1855
100
AcDbEntity
  8
SUNPOU
 62
     0
370
    -2
100
AcDbBlockReference
  2
ARROW
 10
479.9236013791698
 20
169.9356575682152
 30
0.0
 41
15.0
 42
15.0
 43
15.0
  0
MTEXT
  5
185C
330
1855
100
AcDbEntity
  8
SUNPOU
 62
     0
100
AcDbMText
 10
391.0339391228017
 20
184.9356575682152
 30
0.0
 40
15.0
 41
0.0
 71
     5
 72
     5
  1
\A1;172
 73
     1
 44
1.0
1001
ACAD
1000
MTEXTBEGIN
1070
    73
1070
     1
1070
    44
1040
1.0
1070
    74
1070
     0
1000
MTEXTEND
  0
POINT
  5
185D
330
1855
100
AcDbEntity
  8
DEFPOINTS
 62
     0
100
AcDbPoint
 10
307.9236013791698
 20
240.59257203
 30
0.0
  0
POINT
  5
185E
330
1855
100
AcDbEntity
  8
DEFPOINTS
 62
     0
100
AcDbPoint
 10
479.9236013791698
 20
240.5925720299999
 30
0.0
  0
POINT
  5
185F
330
1855
100
AcDbEntity
  8
DEFPOINTS
 62
     0
100
AcDbPoint
 10
479.9236013791698
 20
169.9356575682152
 30
0.0
  0
ENDBLK
  5
1860
330
1855
100
AcDbEntity
  8
0
100
AcDbBlockEnd
  0
BLOCK
  5
1862
330
1861
100
AcDbEntity
  8
0
100
AcDbBlockBegin
  2
*D35
 70
     1
 10
0.0
 20
0.0
 30
0.0
  3
*D35
  1

  0
LINE
  5
1863
330
1861
100
AcDbEntity
  8
SUNPOU
 62
     0
370
    -2
100
AcDbLine
 10
294.6459762207854
 20
240.59257203
 30
0.0
 11
146.1022720700084
 21
240.59257203
 31
0.0
  0
LINE
  5
1864
330
1861
100
AcDbEntity
  8
SUNPOU
 62
     0
370
    -2
100
AcDbLine
 10
288.0174486868011
 20
632.592572028571
 30
0.0
 11
146.1022720700084
 21
632.592572028571
 31
0.0
  0
LINE
  5
1865
330
1861
100
AcDbEntity
  8
SUNPOU
 62
     0
370
    -2
100
AcDbLine
 10
151.1022720700084
 20
255.59257203
 30
0.0
 11
151.1022720700084
 21
617.5925720285711
 31
0.0
  0
INSERT
  5
1866
330
1861
100
AcDbEntity
  8
SUNPOU
 62
     0
370
    -2
100
AcDbBlockReference
  2
ARROW
 10
151.1022720700084
 20
240.59257203
 30
0.0
 41
15.0
 42
15.0
 43
15.0
 50
270.0
  0
INSERT
  5
1867
330
1861
100
AcDbEntity
  8
SUNPOU
 62
     0
370
    -2
100
AcDbBlockReference
  2
ARROW
 10
151.1022720700084
 20
632.592572028571
 30
0.0
 41
15.0
 42
15.0
 43
15.0
 50
90.0
  0
MTEXT
  5
1868
330
1861
100
AcDbEntity
  8
SUNPOU
 62
     0
100
AcDbMText
 10
136.1022720700084
 20
448.1019807961786
 30
0.0
 40
15.0
 41
0.0
 71
     5
 72
     5
  1
\A1;392
 11
0.0
 21
1.0
 31
0.0
 73
     1
 44
1.0
1001
ACAD
1000
MTEXTBEGIN
1070
    73
1070
     1
1070
    44
1040
1.0
1070
    74
1070
     0
1000
MTEXTEND
  0
POINT
  5
1869
330
1861
100
AcDbEntity
  8
DEFPOINTS
 62
     0
100
AcDbPoint
 10
299.6459762207854
 20
240.59257203
 30
0.0
  0
POINT
  5
186A
330
1861
100
AcDbEntity
  8
DEFPOINTS
 62
     0
100
AcDbPoint
 10
293.0174486868011
 20
632.592572028571
 30
0.0
  0
POINT
  5
186B
330
1861
100
AcDbEntity
  8
DEFPOINTS
 62
     0
100
AcDbPoint
 10
151.1022720700084
 20
632.592572028571
 30
0.0
  0
ENDBLK
  5
186C
330
1861
100
AcDbEntity
  8
0
100
AcDbBlockEnd
  0
BLOCK
  5
186E
330
186D
100
AcDbEntity
  8
0
100
AcDbBlockBegin
  2
*D36
 70
     1
 10
0.0
 20
0.0
 30
0.0
  3
*D36
  1

  0
LINE
  5
186F
330
186D
100
AcDbEntity
  8
SUNPOU
 62
     0
370
    -2
100
AcDbLine
 10
508.923601382573
 20
525.59257203
 30
0.0
 11
508.923601382573
 21
753.6580430769991
 31
0.0
  0
LINE
  5
1870
330
186D
100
AcDbEntity
  8
SUNPOU
 62
     0
370
    -2
100
AcDbLine
 10
270.9236013791698
 20
454.2898406389913
 30
0.0
 11
270.9236013791698
 21
753.6580430769991
 31
0.0
  0
LINE
  5
1871
330
186D
100
AcDbEntity
  8
SUNPOU
 62
     0
370
    -2
100
AcDbLine
 10
493.923601382573
 20
748.6580430769991
 30
0.0
 11
285.9236013791698
 21
748.6580430769991
 31
0.0
  0
INSERT
  5
1872
330
186D
100
AcDbEntity
  8
SUNPOU
 62
     0
370
    -2
100
AcDbBlockReference
  2
ARROW
 10
508.923601382573
 20
748.6580430769991
 30
0.0
 41
15.0
 42
15.0
 43
15.0
  0
INSERT
  5
1873
330
186D
100
AcDbEntity
  8
SUNPOU
 62
     0
370
    -2
100
AcDbBlockReference
  2
ARROW
 10
270.9236013791698
 20
748.6580430769991
 30
0.0
 41
15.0
 42
15.0
 43
15.0
 50
180.0
  0
MTEXT
  5
1874
330
186D
100
AcDbEntity
  8
SUNPOU
 62
     0
100
AcDbMText
 10
389.9236013808714
 20
763.658043076999
 30
0.0
 40
15.0
 41
0.0
 71
     5
 72
     5
  1
\A1;238
 73
     1
 44
1.0
1001
ACAD
1000
MTEXTBEGIN
1070
    73
1070
     1
1070
    44
1040
1.0
1070
    74
1070
     0
1000
MTEXTEND
  0
POINT
  5
1875
330
186D
100
AcDbEntity
  8
DEFPOINTS
 62
     0
100
AcDbPoint
 10
508.923601382573
 20
520.59257203
 30
0.0
  0
POINT
  5
1876
330
186D
100
AcDbEntity
  8
DEFPOINTS
 62
     0
100
AcDbPoint
 10
270.9236013791698
 20
449.2898406389913
 30
0.0
  0
POINT
  5
1877
330
186D
100
AcDbEntity
  8
DEFPOINTS
 62
     0
100
AcDbPoint
 10
270.9236013791698
 20
748.6580430769991
 30
0.0
  0
ENDBLK
  5
1878
330
186D
100
AcDbEntity
  8
0
100
AcDbBlockEnd
  0
BLOCK
  5
187A
330
1879
100
AcDbEntity
  8
0
100
AcDbBlockBegin
  2
*D37
 70
     1
 10
0.0
 20
0.0
 30
0.0
  3
*D37
  1

  0
LINE
  5
187B
330
1879
100
AcDbEntity
  8
SUNPOU
 62
     0
370
    -2
100
AcDbLine
 10
1120.27990409
 20
298.59257203
 30
0.0
 11
1161.406214800403
 21
298.59257203
 31
0.0
  0
LINE
  5
187C
330
1879
100
AcDbEntity
  8
SUNPOU
 62
     0
370
    -2
100
AcDbLine
 10
976.6634710183845
 20
240.59257203
 30
0.0
 11
1161.406214800403
 21
240.59257203
 31
0.0
  0
LINE
  5
187D
330
1879
100
AcDbEntity
  8
SUNPOU
 62
     0
370
    -2
100
AcDbLine
 10
1156.406214800403
 20
283.59257203
 30
0.0
 11
1156.406214800403
 21
255.59257203
 31
0.0
  0
INSERT
  5
187E
330
1879
100
AcDbEntity
  8
SUNPOU
 62
     0
370
    -2
100
AcDbBlockReference
  2
ARROW
 10
1156.406214800403
 20
298.59257203
 30
0.0
 41
15.0
 42
15.0
 43
15.0
 50
90.0
  0
INSERT
  5
187F
330
1879
100
AcDbEntity
  8
SUNPOU
 62
     0
370
    -2
100
AcDbBlockReference
  2
ARROW
 10
1156.406214800403
 20
240.59257203
 30
0.0
 41
15.0
 42
15.0
 43
15.0
 50
270.0
  0
MTEXT
  5
1880
330
1879
100
AcDbEntity
  8
SUNPOU
 62
     0
100
AcDbMText
 10
1141.406214800404
 20
270.6272193281038
 30
0.0
 40
15.0
 41
0.0
 71
     5
 72
     5
  1
\A1;58
 11
0.0
 21
1.0
 31
0.0
 73
     1
 44
1.0
1001
ACAD
1000
MTEXTBEGIN
1070
    73
1070
     1
1070
    44
1040
1.0
1070
    74
1070
     0
1000
MTEXTEND
  0
POINT
  5
1881
330
1879
100
AcDbEntity
  8
DEFPOINTS
 62
     0
100
AcDbPoint
 10
1115.27990409
 20
298.59257203
 30
0.0
  0
POINT
  5
1882
330
1879
100
AcDbEntity
  8
DEFPOINTS
 62
     0
100
AcDbPoint
 10
971.6634710183845
 20
240.59257203
 30
0.0
  0
POINT
  5
1883
330
1879
100
AcDbEntity
  8
DEFPOINTS
 62
     0
100
AcDbPoint
 10
1156.406214800403
 20
240.59257203
 30
0.0
  0
ENDBLK
  5
1884
330
1879
100
AcDbEntity
  8
0
100
AcDbBlockEnd
  0
BLOCK
  5
1886
330
1885
100
AcDbEntity
  8
0
100
AcDbBlockBegin
  2
*D38
 70
     1
 10
0.0
 20
0.0
 30
0.0
  3
*D38
  1

  0
LINE
  5
1887
330
1885
100
AcDbEntity
  8
SUNPOU
 62
     0
370
    -2
100
AcDbLine
 10
778.38584586
 20
235.59257203
 30
0.0
 11
778.38584586
 21
166.1650069748243
 31
0.0
  0
LINE
  5
1888
330
1885
100
AcDbEntity
  8
SUNPOU
 62
     0
370
    -2
100
AcDbLine
 10
963.38584586
 20
235.59257203
 30
0.0
 11
963.38584586
 21
166.1650069748243
 31
0.0
  0
LINE
  5
1889
330
1885
100
AcDbEntity
  8
SUNPOU
 62
     0
370
    -2
100
AcDbLine
 10
793.38584586
 20
171.1650069748243
 30
0.0
 11
948.3858458600002
 21
171.1650069748243
 31
0.0
  0
INSERT
  5
188A
330
1885
100
AcDbEntity
  8
SUNPOU
 62
     0
370
    -2
100
AcDbBlockReference
  2
ARROW
 10
778.38584586
 20
171.1650069748243
 30
0.0
 41
15.0
 42
15.0
 43
15.0
 50
180.0
  0
INSERT
  5
188B
330
1885
100
AcDbEntity
  8
SUNPOU
 62
     0
370
    -2
100
AcDbBlockReference
  2
ARROW
 10
963.38584586
 20
171.1650069748243
 30
0.0
 41
15.0
 42
15.0
 43
15.0
  0
MTEXT
  5
188C
330
1885
100
AcDbEntity
  8
SUNPOU
 62
     0
100
AcDbMText
 10
866.9942120866135
 20
186.1650069748243
 30
0.0
 40
15.0
 41
0.0
 71
     5
 72
     5
  1
\A1;185
 73
     1
 44
1.0
1001
ACAD
1000
MTEXTBEGIN
1070
    73
1070
     1
1070
    44
1040
1.0
1070
    74
1070
     0
1000
MTEXTEND
  0
POINT
  5
188D
330
1885
100
AcDbEntity
  8
DEFPOINTS
 62
     0
100
AcDbPoint
 10
778.38584586
 20
240.59257203
 30
0.0
  0
POINT
  5
188E
330
1885
100
AcDbEntity
  8
DEFPOINTS
 62
     0
100
AcDbPoint
 10
963.38584586
 20
240.59257203
 30
0.0
  0
POINT
  5
188F
330
1885
100
AcDbEntity
  8
DEFPOINTS
 62
     0
100
AcDbPoint
 10
963.38584586
 20
171.1650069748243
 30
0.0
  0
ENDBLK
  5
1890
330
1885
100
AcDbEntity
  8
0
100
AcDbBlockEnd
  0
BLOCK
  5
1892
330
1891
100
AcDbEntity
  8
0
100
AcDbBlockBegin
  2
*D39
 70
     1
 10
0.0
 20
0.0
 30
0.0
  3
*D39
  1

  0
LINE
  5
1893
330
1891
100
AcDbEntity
  8
SUNPOU
 62
     0
370
    -2
100
AcDbLine
 10
724.3858458600001
 20
248.59257203
 30
0.0
 11
724.3858458600001
 21
166.1650069748243
 31
0.0
  0
LINE
  5
1894
330
1891
100
AcDbEntity
  8
SUNPOU
 62
     0
370
    -2
100
AcDbLine
 10
763.38584586
 20
171.1650069748243
 30
0.0
 11
739.3858458600001
 21
171.1650069748243
 31
0.0
  0
INSERT
  5
1895
330
1891
100
AcDbEntity
  8
SUNPOU
 62
     0
370
    -2
100
AcDbBlockReference
  2
ARROW
 10
778.38584586
 20
171.1650069748243
 30
0.0
 41
15.0
 42
15.0
 43
15.0
  0
INSERT
  5
1896
330
1891
100
AcDbEntity
  8
SUNPOU
 62
     0
370
    -2
100
AcDbBlockReference
  2
ARROW
 10
724.3858458600001
 20
171.1650069748243
 30
0.0
 41
15.0
 42
15.0
 43
15.0
 50
180.0
  0
MTEXT
  5
1897
330
1891
100
AcDbEntity
  8
SUNPOU
 62
     0
100
AcDbMText
 10
751.38584586
 20
186.1650069748243
 30
0.0
 40
15.0
 41
0.0
 71
     5
 72
     5
  1
\A1;54
 73
     1
 44
1.0
1001
ACAD
1000
MTEXTBEGIN
1070
    73
1070
     1
1070
    44
1040
1.0
1070
    74
1070
     0
1000
MTEXTEND
  0
POINT
  5
1898
330
1891
100
AcDbEntity
  8
DEFPOINTS
 62
     0
100
AcDbPoint
 10
778.38584586
 20
240.59257203
 30
0.0
  0
POINT
  5
1899
330
1891
100
AcDbEntity
  8
DEFPOINTS
 62
     0
100
AcDbPoint
 10
724.3858458600001
 20
253.59257203
 30
0.0
  0
POINT
  5
189A
330
1891
100
AcDbEntity
  8
DEFPOINTS
 62
     0
100
AcDbPoint
 10
724.3858458600001
 20
171.1650069748243
 30
0.0
  0
ENDBLK
  5
189B
330
1891
100
AcDbEntity
  8
0
100
AcDbBlockEnd
  0
BLOCK
  5
189D
330
189C
100
AcDbEntity
  8
0
100
AcDbBlockBegin
  2
*D40
 70
     1
 10
0.0
 20
0.0
 30
0.0
  3
*D40
  1

  0
LINE
  5
189E
330
189C
100
AcDbEntity
  8
SUNPOU
 62
     0
370
    -2
100
AcDbLine
 10
724.3858458600001
 20
248.59257203
 30
0.0
 11
724.3858458600001
 21
136.1650069748243
 31
0.0
  0
LINE
  5
189F
330
189C
100
AcDbEntity
  8
SUNPOU
 62
     0
370
    -2
100
AcDbLine
 10
988.38584586
 20
246.59257203
 30
0.0
 11
988.38584586
 21
136.1650069748243
 31
0.0
  0
LINE
  5
18A0
330
189C
100
AcDbEntity
  8
SUNPOU
 62
     0
370
    -2
100
AcDbLine
 10
739.3858458600001
 20
141.1650069748243
 30
0.0
 11
973.38584586
 21
141.1650069748243
 31
0.0
  0
INSERT
  5
18A1
330
189C
100
AcDbEntity
  8
SUNPOU
 62
     0
370
    -2
100
AcDbBlockReference
  2
ARROW
 10
724.3858458600001
 20
141.1650069748243
 30
0.0
 41
15.0
 42
15.0
 43
15.0
 50
180.0
  0
INSERT
  5
18A2
330
189C
100
AcDbEntity
  8
SUNPOU
 62
     0
370
    -2
100
AcDbBlockReference
  2
ARROW
 10
988.38584586
 20
141.1650069748243
 30
0.0
 41
15.0
 42
15.0
 43
15.0
  0
MTEXT
  5
18A3
330
189C
100
AcDbEntity
  8
SUNPOU
 62
     0
100
AcDbMText
 10
856.38584586
 20
156.1650069748243
 30
0.0
 40
15.0
 41
0.0
 71
     5
 72
     5
  1
\A1;264
 73
     1
 44
1.0
1001
ACAD
1000
MTEXTBEGIN
1070
    73
1070
     1
1070
    44
1040
1.0
1070
    74
1070
     0
1000
MTEXTEND
  0
POINT
  5
18A4
330
189C
100
AcDbEntity
  8
DEFPOINTS
 62
     0
100
AcDbPoint
 10
724.3858458600001
 20
253.59257203
 30
0.0
  0
POINT
  5
18A5
330
189C
100
AcDbEntity
  8
DEFPOINTS
 62
     0
100
AcDbPoint
 10
988.38584586
 20
251.59257203
 30
0.0
  0
POINT
  5
18A6
330
189C
100
AcDbEntity
  8
DEFPOINTS
 62
     0
100
AcDbPoint
 10
988.38584586
 20
141.1650069748243
 30
0.0
  0
ENDBLK
  5
18A7
330
189C
100
AcDbEntity
  8
0
100
AcDbBlockEnd
  0
BLOCK
  5
18A9
330
18A8
100
AcDbEntity
  8
0
100
AcDbBlockBegin
  2
*D41
 70
     1
 10
0.0
 20
0.0
 30
0.0
  3
*D41
  1

  0
LINE
  5
18AA
330
18A8
100
AcDbEntity
  8
SUNPOU
 62
     0
370
    -2
100
AcDbLine
 10
988.25415750212
 20
584.0411439666803
 30
0.0
 11
988.25415750212
 21
759.8017198291695
 31
0.0
  0
LINE
  5
18AB
330
18A8
100
AcDbEntity
  8
SUNPOU
 62
     0
370
    -2
100
AcDbLine
 10
713.2541575021199
 20
547.4862712345635
 30
0.0
 11
713.2541575021199
 21
759.8017198291695
 31
0.0
  0
LINE
  5
18AC
330
18A8
100
AcDbEntity
  8
SUNPOU
 62
     0
370
    -2
100
AcDbLine
 10
973.2541575021199
 20
754.8017198291695
 30
0.0
 11
728.2541575021199
 21
754.8017198291695
 31
0.0
  0
INSERT
  5
18AD
330
18A8
100
AcDbEntity
  8
SUNPOU
 62
     0
370
    -2
100
AcDbBlockReference
  2
ARROW
 10
988.25415750212
 20
754.8017198291695
 30
0.0
 41
15.0
 42
15.0
 43
15.0
  0
INSERT
  5
18AE
330
18A8
100
AcDbEntity
  8
SUNPOU
 62
     0
370
    -2
100
AcDbBlockReference
  2
ARROW
 10
713.2541575021199
 20
754.8017198291695
 30
0.0
 41
15.0
 42
15.0
 43
15.0
 50
180.0
  0
MTEXT
  5
18AF
330
18A8
100
AcDbEntity
  8
SUNPOU
 62
     0
100
AcDbMText
 10
858.964845492987
 20
769.8017198291695
 30
0.0
 40
15.0
 41
0.0
 71
     5
 72
     5
  1
\A1;275
 73
     1
 44
1.0
1001
ACAD
1000
MTEXTBEGIN
1070
    73
1070
     1
1070
    44
1040
1.0
1070
    74
1070
     0
1000
MTEXTEND
  0
POINT
  5
18B0
330
18A8
100
AcDbEntity
  8
DEFPOINTS
 62
     0
100
AcDbPoint
 10
988.25415750212
 20
579.0411439666804
 30
0.0
  0
POINT
  5
18B1
330
18A8
100
AcDbEntity
  8
DEFPOINTS
 62
     0
100
AcDbPoint
 10
713.2541575021199
 20
542.4862712345635
 30
0.0
  0
POINT
  5
18B2
330
18A8
100
AcDbEntity
  8
DEFPOINTS
 62
     0
100
AcDbPoint
 10
713.2541575021199
 20
754.8017198291695
 30
0.0
  0
ENDBLK
  5
18B3
330
18A8
100
AcDbEntity
  8
0
100
AcDbBlockEnd
  0
BLOCK
  5
18B5
330
18B4
100
AcDbEntity
  8
0
100
AcDbBlockBegin
  2
*D42
 70
     1
 10
0.0
 20
0.0
 30
0.0
  3
*D42
  1

  0
LINE
  5
18B6
330
18B4
100
AcDbEntity
  8
SUNPOU
 62
     0
370
    -2
100
AcDbLine
 10
1058.31648416
 20
958.087512512081
 30
0.0
 11
1162.987967172059
 21
958.087512512081
 31
0.0
  0
LINE
  5
18B7
330
18B4
100
AcDbEntity
  8
SUNPOU
 62
     0
370
    -2
100
AcDbLine
 10
1120.14821573
 20
898.087512512081
 30
0.0
 11
1162.987967172059
 21
898.087512512081
 31
0.0
  0
LINE
  5
18B8
330
18B4
100
AcDbEntity
  8
SUNPOU
 62
     0
370
    -2
100
AcDbLine
 10
1157.987967172059
 20
943.087512512081
 30
0.0
 11
1157.987967172059
 21
913.0875125120811
 31
0.0
  0
INSERT
  5
18B9
330
18B4
100
AcDbEntity
  8
SUNPOU
 62
     0
370
    -2
100
AcDbBlockReference
  2
ARROW
 10
1157.987967172059
 20
958.087512512081
 30
0.0
 41
15.0
 42
15.0
 43
15.0
 50
90.0
  0
INSERT
  5
18BA
330
18B4
100
AcDbEntity
  8
SUNPOU
 62
     0
370
    -2
100
AcDbBlockReference
  2
ARROW
 10
1157.987967172059
 20
898.087512512081
 30
0.0
 41
15.0
 42
15.0
 43
15.0
 50
270.0
  0
MTEXT
  5
18BB
330
18B4
100
AcDbEntity
  8
SUNPOU
 62
     0
100
AcDbMText
 10
1142.987967172059
 20
929.46090139553
 30
0.0
 40
15.0
 41
0.0
 71
     5
 72
     5
  1
\A1;60
 11
0.0
 21
1.0
 31
0.0
 73
     1
 44
1.0
1001
ACAD
1000
MTEXTBEGIN
1070
    73
1070
     1
1070
    44
1040
1.0
1070
    74
1070
     0
1000
MTEXTEND
  0
POINT
  5
18BC
330
18B4
100
AcDbEntity
  8
DEFPOINTS
 62
     0
100
AcDbPoint
 10
1053.31648416
 20
958.087512512081
 30
0.0
  0
POINT
  5
18BD
330
18B4
100
AcDbEntity
  8
DEFPOINTS
 62
     0
100
AcDbPoint
 10
1115.14821573
 20
898.087512512081
 30
0.0
  0
POINT
  5
18BE
330
18B4
100
AcDbEntity
  8
DEFPOINTS
 62
     0
100
AcDbPoint
 10
1157.987967172059
 20
898.087512512081
 30
0.0
  0
ENDBLK
  5
18BF
330
18B4
100
AcDbEntity
  8
0
100
AcDbBlockEnd
  0
BLOCK
  5
18C1
330
18C0
100
AcDbEntity
  8
0
100
AcDbBlockBegin
  2
*D43
 70
     1
 10
0.0
 20
0.0
 30
0.0
  3
*D43
  1

  0
LINE
  5
18C2
330
18C0
100
AcDbEntity
  8
SUNPOU
 62
     0
370
    -2
100
AcDbLine
 10
988.2541575000001
 20
860.5875125120808
 30
0.0
 11
988.2541575000001
 21
791.0321198389506
 31
0.0
  0
LINE
  5
18C3
330
18C0
100
AcDbEntity
  8
SUNPOU
 62
     0
370
    -2
100
AcDbLine
 10
1115.14821573
 20
888.0875125120811
 30
0.0
 11
1115.14821573
 21
791.0321198389506
 31
0.0
  0
LINE
  5
18C4
330
18C0
100
AcDbEntity
  8
SUNPOU
 62
     0
370
    -2
100
AcDbLine
 10
1003.2541575
 20
796.0321198389506
 30
0.0
 11
1100.14821573
 21
796.0321198389506
 31
0.0
  0
INSERT
  5
18C5
330
18C0
100
AcDbEntity
  8
SUNPOU
 62
     0
370
    -2
100
AcDbBlockReference
  2
ARROW
 10
988.2541575000001
 20
796.0321198389506
 30
0.0
 41
15.0
 42
15.0
 43
15.0
 50
180.0
  0
INSERT
  5
18C6
330
18C0
100
AcDbEntity
  8
SUNPOU
 62
     0
370
    -2
100
AcDbBlockReference
  2
ARROW
 10
1115.14821573
 20
796.0321198389506
 30
0.0
 41
15.0
 42
15.0
 43
15.0
  0
MTEXT
  5
18C7
330
18C0
100
AcDbEntity
  8
SUNPOU
 62
     0
100
AcDbMText
 10
1053.077065996053
 20
811.0321198389506
 30
0.0
 40
15.0
 41
0.0
 71
     5
 72
     5
  1
\A1;約2200
 73
     1
 44
1.0
1001
ACAD
1000
MTEXTBEGIN
1070
    73
1070
     1
1070
    44
1040
1.0
1070
    74
1070
     0
1000
MTEXTEND
  0
POINT
  5
18C8
330
18C0
100
AcDbEntity
  8
DEFPOINTS
 62
     0
100
AcDbPoint
 10
988.2541575000001
 20
865.5875125120807
 30
0.0
  0
POINT
  5
18C9
330
18C0
100
AcDbEntity
  8
DEFPOINTS
 62
     0
100
AcDbPoint
 10
1115.14821573
 20
893.087512512081
 30
0.0
  0
POINT
  5
18CA
330
18C0
100
AcDbEntity
  8
DEFPOINTS
 62
     0
100
AcDbPoint
 10
1115.14821573
 20
796.0321198389506
 30
0.0
  0
ENDBLK
  5
18CB
330
18C0
100
AcDbEntity
  8
0
100
AcDbBlockEnd
  0
BLOCK
  5
18CD
330
18CC
100
AcDbEntity
  8
0
100
AcDbBlockBegin
  2
*D44
 70
     1
 10
0.0
 20
0.0
 30
0.0
  3
*D44
  1

  0
LINE
  5
18CE
330
18CC
100
AcDbEntity
  8
SUNPOU
 62
     0
370
    -2
100
AcDbLine
 10
722.2541575
 20
517.8555284499999
 30
0.0
 11
722.2541575
 21
712.8229144944493
 31
0.0
  0
LINE
  5
18CF
330
18CC
100
AcDbEntity
  8
SUNPOU
 62
     0
370
    -2
100
AcDbLine
 10
988.25415750212
 20
589.0411439666803
 30
0.0
 11
988.25415750212
 21
712.8229144944493
 31
0.0
  0
LINE
  5
18D0
330
18CC
100
AcDbEntity
  8
SUNPOU
 62
     0
370
    -2
100
AcDbLine
 10
737.2541575
 20
707.8229144944494
 30
0.0
 11
973.2541575021199
 21
707.8229144944494
 31
0.0
  0
INSERT
  5
18D1
330
18CC
100
AcDbEntity
  8
SUNPOU
 62
     0
370
    -2
100
AcDbBlockReference
  2
ARROW
 10
722.2541575
 20
707.8229144944494
 30
0.0
 41
15.0
 42
15.0
 43
15.0
 50
180.0
  0
INSERT
  5
18D2
330
18CC
100
AcDbEntity
  8
SUNPOU
 62
     0
370
    -2
100
AcDbBlockReference
  2
ARROW
 10
988.25415750212
 20
707.8229144944494
 30
0.0
 41
15.0
 42
15.0
 43
15.0
  0
MTEXT
  5
18D3
330
18CC
100
AcDbEntity
  8
SUNPOU
 62
     0
100
AcDbMText
 10
858.0968141149842
 20
722.8229144944493
 30
0.0
 40
15.0
 41
0.0
 71
     5
 72
     5
  1
\A1;266
 73
     1
 44
1.0
1001
ACAD
1000
MTEXTBEGIN
1070
    73
1070
     1
1070
    44
1040
1.0
1070
    74
1070
     0
1000
MTEXTEND
  0
POINT
  5
18D4
330
18CC
100
AcDbEntity
  8
DEFPOINTS
 62
     0
100
AcDbPoint
 10
722.2541575
 20
512.8555284499999
 30
0.0
  0
POINT
  5
18D5
330
18CC
100
AcDbEntity
  8
DEFPOINTS
 62
     0
100
AcDbPoint
 10
988.25415750212
 20
584.0411439666803
 30
0.0
  0
POINT
  5
18D6
330
18CC
100
AcDbEntity
  8
DEFPOINTS
 62
     0
100
AcDbPoint
 10
988.25415750212
 20
707.8229144944494
 30
0.0
  0
ENDBLK
  5
18D7
330
18CC
100
AcDbEntity
  8
0
100
AcDbBlockEnd
  0
BLOCK
  5
18D9
330
18D8
100
AcDbEntity
  8
0
100
AcDbBlockBegin
  2
*D45
 70
     1
 10
0.0
 20
0.0
 30
0.0
  3
*D45
  1

  0
LINE
  5
18DA
330
18D8
100
AcDbEntity
  8
SUNPOU
 62
     0
370
    -2
100
AcDbLine
 10
719.38584586
 20
275.74999369
 30
0.0
 11
663.9529103242844
 21
275.74999369
 31
0.0
  0
LINE
  5
18DB
330
18D8
100
AcDbEntity
  8
SUNPOU
 62
     0
370
    -2
100
AcDbLine
 10
737.9446075001671
 20
455.74999369
 30
0.0
 11
663.9529103242844
 21
455.74999369
 31
0.0
  0
LINE
  5
18DC
330
18D8
100
AcDbEntity
  8
SUNPOU
 62
     0
370
    -2
100
AcDbLine
 10
668.9529103242843
 20
290.74999369
 30
0.0
 11
668.9529103242843
 21
440.7499936899999
 31
0.0
  0
INSERT
  5
18DD
330
18D8
100
AcDbEntity
  8
SUNPOU
 62
     0
370
    -2
100
AcDbBlockReference
  2
ARROW
 10
668.9529103242843
 20
275.74999369
 30
0.0
 41
15.0
 42
15.0
 43
15.0
 50
270.0
  0
INSERT
  5
18DE
330
18D8
100
AcDbEntity
  8
SUNPOU
 62
     0
370
    -2
100
AcDbBlockReference
  2
ARROW
 10
668.9529103242843
 20
455.74999369
 30
0.0
 41
15.0
 42
15.0
 43
15.0
 50
90.0
  0
MTEXT
  5
18DF
330
18D8
100
AcDbEntity
  8
SUNPOU
 62
     0
100
AcDbMText
 10
653.9529103242844
 20
369.3089470410809
 30
0.0
 40
15.0
 41
0.0
 71
     5
 72
     5
  1
\A1;180
 11
0.0
 21
1.0
 31
0.0
 73
     1
 44
1.0
1001
ACAD
1000
MTEXTBEGIN
1070
    73
1070
     1
1070
    44
1040
1.0
1070
    74
1070
     0
1000
MTEXTEND
  0
POINT
  5
18E0
330
18D8
100
AcDbEntity
  8
DEFPOINTS
 62
     0
100
AcDbPoint
 10
724.38584586
 20
275.74999369
 30
0.0
  0
POINT
  5
18E1
330
18D8
100
AcDbEntity
  8
DEFPOINTS
 62
     0
100
AcDbPoint
 10
742.9446075001671
 20
455.74999369
 30
0.0
  0
POINT
  5
18E2
330
18D8
100
AcDbEntity
  8
DEFPOINTS
 62
     0
100
AcDbPoint
 10
668.9529103242843
 20
455.74999369
 30
0.0
  0
ENDBLK
  5
18E3
330
18D8
100
AcDbEntity
  8
0
100
AcDbBlockEnd
  0
BLOCK
  5
1BBC
330
1BB2
100
AcDbEntity
  8
0
100
AcDbBlockBegin
  2
*D47
 70
     1
 10
0.0
 20
0.0
 30
0.0
  3
*D47
  1

  0
LINE
  5
1C59
330
1BB2
100
AcDbEntity
  8
SUNPOU
 62
     0
370
    -2
100
AcDbLine
 10
363.5041854048791
 20
1078.309517708227
 30
0.0
 11
363.5041854048791
 21
1273.276903752677
 31
0.0
  0
LINE
  5
1C5A
330
1BB2
100
AcDbEntity
  8
SUNPOU
 62
     0
370
    -2
100
AcDbLine
 10
629.504185406999
 20
1149.495133224908
 30
0.0
 11
629.504185406999
 21
1273.276903752677
 31
0.0
  0
LINE
  5
1C5B
330
1BB2
100
AcDbEntity
  8
SUNPOU
 62
     0
370
    -2
100
AcDbLine
 10
378.5041854048791
 20
1268.276903752677
 30
0.0
 11
614.5041854069989
 21
1268.276903752677
 31
0.0
  0
SOLID
  5
1C5C
330
1BB2
100
AcDbEntity
  8
SUNPOU
 62
     0
100
AcDbTrace
 10
378.5041854048791
 20
1270.776903752677
 30
0.0
 11
378.5041854048791
 21
1265.776903752677
 31
0.0
 12
363.5041854048791
 22
1268.276903752677
 32
0.0
 13
363.5041854048791
 23
1268.276903752677
 33
0.0
  0
SOLID
  5
1C5D
330
1BB2
100
AcDbEntity
  8
SUNPOU
 62
     0
100
AcDbTrace
 10
614.5041854069989
 20
1265.776903752677
 30
0.0
 11
614.5041854069989
 21
1270.776903752677
 31
0.0
 12
629.504185406999
 22
1268.276903752677
 32
0.0
 13
629.504185406999
 23
1268.276903752677
 33
0.0
  0
MTEXT
  5
1C5E
330
1BB2
100
AcDbEntity
  8
SUNPOU
 62
     0
100
AcDbMText
 10
499.3468420198633
 20
1280.776903752677
 30
0.0
 40
15.0
 41
0.0
 71
     5
 72
     5
  1
\A1;266
 73
     1
 44
1.0
1001
ACAD
1000
MTEXTBEGIN
1070
    73
1070
     1
1070
    44
1040
1.0
1070
    74
1070
     0
1000
MTEXTEND
  0
POINT
  5
1C5F
330
1BB2
100
AcDbEntity
  8
DEFPOINTS
 62
     0
100
AcDbPoint
 10
363.5041854048791
 20
1073.309517708227
 30
0.0
  0
POINT
  5
1C60
330
1BB2
100
AcDbEntity
  8
DEFPOINTS
 62
     0
100
AcDbPoint
 10
629.504185406999
 20
1144.495133224908
 30
0.0
  0
POINT
  5
1C61
330
1BB2
100
AcDbEntity
  8
DEFPOINTS
 62
     0
100
AcDbPoint
 10
629.504185406999
 20
1268.276903752677
 30
0.0
  0
ENDBLK
  5
1BBD
330
1BB2
100
AcDbEntity
  8
0
100
AcDbBlockEnd
  0
BLOCK
  5
1BC8
330
1BBE
100
AcDbEntity
  8
0
100
AcDbBlockBegin
  2
*D48
 70
     1
 10
0.0
 20
0.0
 30
0.0
  3
*D48
  1

  0
LINE
  5
1C62
330
1BBE
100
AcDbEntity
  8
SUNPOU
 62
     0
370
    -2
100
AcDbLine
 10
360.6358737648791
 20
836.2039829482274
 30
0.0
 11
305.2029382291635
 21
836.2039829482274
 31
0.0
  0
LINE
  5
1C63
330
1BBE
100
AcDbEntity
  8
SUNPOU
 62
     0
370
    -2
100
AcDbLine
 10
379.1946354050462
 20
1016.203982948227
 30
0.0
 11
305.2029382291635
 21
1016.203982948227
 31
0.0
  0
LINE
  5
1C64
330
1BBE
100
AcDbEntity
  8
SUNPOU
 62
     0
370
    -2
100
AcDbLine
 10
310.2029382291635
 20
851.2039829482274
 30
0.0
 11
310.2029382291635
 21
1001.203982948227
 31
0.0
  0
SOLID
  5
1C65
330
1BBE
100
AcDbEntity
  8
SUNPOU
 62
     0
100
AcDbTrace
 10
307.7029382291635
 20
851.2039829482274
 30
0.0
 11
312.7029382291635
 21
851.2039829482274
 31
0.0
 12
310.2029382291635
 22
836.2039829482274
 32
0.0
 13
310.2029382291635
 23
836.2039829482274
 33
0.0
  0
SOLID
  5
1C66
330
1BBE
100
AcDbEntity
  8
SUNPOU
 62
     0
100
AcDbTrace
 10
312.7029382291635
 20
1001.203982948227
 30
0.0
 11
307.7029382291635
 21
1001.203982948227
 31
0.0
 12
310.2029382291635
 22
1016.203982948227
 32
0.0
 13
310.2029382291635
 23
1016.203982948227
 33
0.0
  0
MTEXT
  5
1C67
330
1BBE
100
AcDbEntity
  8
SUNPOU
 62
     0
100
AcDbMText
 10
297.7029382291635
 20
929.7629362993085
 30
0.0
 40
15.0
 41
0.0
 71
     5
 72
     5
  1
\A1;180
 11
0.0
 21
1.0
 31
0.0
 73
     1
 44
1.0
1001
ACAD
1000
MTEXTBEGIN
1070
    73
1070
     1
1070
    44
1040
1.0
1070
    74
1070
     0
1000
MTEXTEND
  0
POINT
  5
1C68
330
1BBE
100
AcDbEntity
  8
DEFPOINTS
 62
     0
100
AcDbPoint
 10
365.6358737648791
 20
836.2039829482274
 30
0.0
  0
POINT
  5
1C69
330
1BBE
100
AcDbEntity
  8
DEFPOINTS
 62
     0
100
AcDbPoint
 10
384.1946354050461
 20
1016.203982948227
 30
0.0
  0
POINT
  5
1C6A
330
1BBE
100
AcDbEntity
  8
DEFPOINTS
 62
     0
100
AcDbPoint
 10
310.2029382291635
 20
1016.203982948227
 30
0.0
  0
ENDBLK
  5
1BC9
330
1BBE
100
AcDbEntity
  8
0
100
AcDbBlockEnd
  0
BLOCK
  5
1BD4
330
1BCA
100
AcDbEntity
  8
0
100
AcDbBlockBegin
  2
*D49
 70
     1
 10
0.0
 20
0.0
 30
0.0
  3
*D49
  1

  0
LINE
  5
1C6B
330
1BCA
100
AcDbEntity
  8
SUNPOU
 62
     0
370
    -2
100
AcDbLine
 10
150.173629287452
 20
1086.046561288227
 30
0.0
 11
150.173629287452
 21
1276.452255033251
 31
0.0
  0
LINE
  5
1C6C
330
1BCA
100
AcDbEntity
  8
SUNPOU
 62
     0
370
    -2
100
AcDbLine
 10
-79.82637071935432
 20
1086.046561288227
 30
0.0
 11
-79.82637071935432
 21
1276.452255033251
 31
0.0
  0
LINE
  5
1C6D
330
1BCA
100
AcDbEntity
  8
SUNPOU
 62
     0
370
    -2
100
AcDbLine
 10
135.173629287452
 20
1271.452255033251
 30
0.0
 11
-64.82637071935432
 21
1271.452255033251
 31
0.0
  0
INSERT
  5
1C6E
330
1BCA
100
AcDbEntity
  8
SUNPOU
 62
     0
370
    -2
100
AcDbBlockReference
  2
ARROW
 10
150.173629287452
 20
1271.452255033251
 30
0.0
 41
15.0
 42
15.0
 43
15.0
  0
INSERT
  5
1C6F
330
1BCA
100
AcDbEntity
  8
SUNPOU
 62
     0
370
    -2
100
AcDbBlockReference
  2
ARROW
 10
-79.82637071935432
 20
1271.452255033251
 30
0.0
 41
15.0
 42
15.0
 43
15.0
 50
180.0
  0
MTEXT
  5
1C70
330
1BCA
100
AcDbEntity
  8
SUNPOU
 62
     0
100
AcDbMText
 10
35.17362928745206
 20
1283.952255033251
 30
0.0
 40
15.0
 41
0.0
 71
     5
 72
     5
  1
\A1;230
 73
     1
 44
1.0
1001
ACAD
1000
MTEXTBEGIN
1070
    73
1070
     1
1070
    44
1040
1.0
1070
    74
1070
     0
1000
MTEXTEND
  0
POINT
  5
1C71
330
1BCA
100
AcDbEntity
  8
DEFPOINTS
 62
     0
100
AcDbPoint
 10
150.173629287452
 20
1081.046561288228
 30
0.0
  0
POINT
  5
1C72
330
1BCA
100
AcDbEntity
  8
DEFPOINTS
 62
     0
100
AcDbPoint
 10
-79.82637071935432
 20
1081.046561288228
 30
0.0
  0
POINT
  5
1C73
330
1BCA
100
AcDbEntity
  8
DEFPOINTS
 62
     0
100
AcDbPoint
 10
-79.82637071935432
 20
1271.452255033251
 30
0.0
  0
ENDBLK
  5
1BD5
330
1BCA
100
AcDbEntity
  8
0
100
AcDbBlockEnd
  0
BLOCK
  5
1BE0
330
1BD6
100
AcDbEntity
  8
0
100
AcDbBlockBegin
  2
*D50
 70
     1
 10
0.0
 20
0.0
 30
0.0
  3
*D50
  1

  0
LINE
  5
1C74
330
1BD6
100
AcDbEntity
  8
SUNPOU
 62
     0
370
    -2
100
AcDbLine
 10
-77.82637071935432
 20
811.0465612882276
 30
0.0
 11
-77.82637071935432
 21
683.6205210917428
 31
0.0
  0
LINE
  5
1C75
330
1BD6
100
AcDbEntity
  8
SUNPOU
 62
     0
370
    -2
100
AcDbLine
 10
148.173629287452
 20
811.0465612882276
 30
0.0
 11
148.173629287452
 21
683.6205210917428
 31
0.0
  0
LINE
  5
1C76
330
1BD6
100
AcDbEntity
  8
SUNPOU
 62
     0
370
    -2
100
AcDbLine
 10
-62.82637071935432
 20
688.6205210917428
 30
0.0
 11
133.173629287452
 21
688.6205210917428
 31
0.0
  0
INSERT
  5
1C77
330
1BD6
100
AcDbEntity
  8
SUNPOU
 62
     0
370
    -2
100
AcDbBlockReference
  2
ARROW
 10
-77.82637071935432
 20
688.6205210917428
 30
0.0
 41
15.0
 42
15.0
 43
15.0
 50
180.0
  0
INSERT
  5
1C78
330
1BD6
100
AcDbEntity
  8
SUNPOU
 62
     0
370
    -2
100
AcDbBlockReference
  2
ARROW
 10
148.173629287452
 20
688.6205210917428
 30
0.0
 41
15.0
 42
15.0
 43
15.0
  0
MTEXT
  5
1C79
330
1BD6
100
AcDbEntity
  8
SUNPOU
 62
     0
100
AcDbMText
 10
35.17362928745206
 20
701.1205210917428
 30
0.0
 40
15.0
 41
0.0
 71
     5
 72
     5
  1
\A1;226
 73
     1
 44
1.0
1001
ACAD
1000
MTEXTBEGIN
1070
    73
1070
     1
1070
    44
1040
1.0
1070
    74
1070
     0
1000
MTEXTEND
  0
POINT
  5
1C7A
330
1BD6
100
AcDbEntity
  8
DEFPOINTS
 62
     0
100
AcDbPoint
 10
-77.82637071935432
 20
816.0465612882275
 30
0.0
  0
POINT
  5
1C7B
330
1BD6
100
AcDbEntity
  8
DEFPOINTS
 62
     0
100
AcDbPoint
 10
148.173629287452
 20
816.0465612882275
 30
0.0
  0
POINT
  5
1C7C
330
1BD6
100
AcDbEntity
  8
DEFPOINTS
 62
     0
100
AcDbPoint
 10
148.173629287452
 20
688.6205210917428
 30
0.0
  0
ENDBLK
  5
1BE1
330
1BD6
100
AcDbEntity
  8
0
100
AcDbBlockEnd
  0
BLOCK
  5
1BEC
330
1BE2
100
AcDbEntity
  8
0
100
AcDbBlockBegin
  2
*D51
 70
     1
 10
0.0
 20
0.0
 30
0.0
  3
*D51
  1

  0
LINE
  5
1C7D
330
1BE2
100
AcDbEntity
  8
SUNPOU
 62
     0
370
    -2
100
AcDbLine
 10
-50.82637071595115
 20
796.0465612882274
 30
0.0
 11
-50.82637071595115
 21
725.3896468264427
 31
0.0
  0
LINE
  5
1C7E
330
1BE2
100
AcDbEntity
  8
SUNPOU
 62
     0
370
    -2
100
AcDbLine
 10
121.1736292840488
 20
796.0465612882273
 30
0.0
 11
121.1736292840488
 21
725.3896468264427
 31
0.0
  0
LINE
  5
1C7F
330
1BE2
100
AcDbEntity
  8
SUNPOU
 62
     0
370
    -2
100
AcDbLine
 10
-35.82637071595116
 20
730.3896468264427
 30
0.0
 11
106.1736292840488
 21
730.3896468264427
 31
0.0
  0
INSERT
  5
1C80
330
1BE2
100
AcDbEntity
  8
SUNPOU
 62
     0
370
    -2
100
AcDbBlockReference
  2
ARROW
 10
-50.82637071595115
 20
730.3896468264427
 30
0.0
 41
15.0
 42
15.0
 43
15.0
 50
180.0
  0
INSERT
  5
1C81
330
1BE2
100
AcDbEntity
  8
SUNPOU
 62
     0
370
    -2
100
AcDbBlockReference
  2
ARROW
 10
121.1736292840488
 20
730.3896468264427
 30
0.0
 41
15.0
 42
15.0
 43
15.0
  0
MTEXT
  5
1C82
330
1BE2
100
AcDbEntity
  8
SUNPOU
 62
     0
100
AcDbMText
 10
32.28396702768077
 20
742.8896468264427
 30
0.0
 40
15.0
 41
0.0
 71
     5
 72
     5
  1
\A1;172
 73
     1
 44
1.0
1001
ACAD
1000
MTEXTBEGIN
1070
    73
1070
     1
1070
    44
1040
1.0
1070
    74
1070
     0
1000
MTEXTEND
  0
POINT
  5
1C83
330
1BE2
100
AcDbEntity
  8
DEFPOINTS
 62
     0
100
AcDbPoint
 10
-50.82637071595115
 20
801.0465612882274
 30
0.0
  0
POINT
  5
1C84
330
1BE2
100
AcDbEntity
  8
DEFPOINTS
 62
     0
100
AcDbPoint
 10
121.1736292840488
 20
801.0465612882274
 30
0.0
  0
POINT
  5
1C85
330
1BE2
100
AcDbEntity
  8
DEFPOINTS
 62
     0
100
AcDbPoint
 10
121.1736292840488
 20
730.3896468264427
 30
0.0
  0
ENDBLK
  5
1BED
330
1BE2
100
AcDbEntity
  8
0
100
AcDbBlockEnd
  0
BLOCK
  5
1BF8
330
1BEE
100
AcDbEntity
  8
0
100
AcDbBlockBegin
  2
*D52
 70
     1
 10
0.0
 20
0.0
 30
0.0
  3
*D52
  1

  0
LINE
  5
1C86
330
1BEE
100
AcDbEntity
  8
SUNPOU
 62
     0
370
    -2
100
AcDbLine
 10
-64.10399587433551
 20
801.0465612882274
 30
0.0
 11
-212.6477000251125
 21
801.0465612882274
 31
0.0
  0
LINE
  5
1C87
330
1BEE
100
AcDbEntity
  8
SUNPOU
 62
     0
370
    -2
100
AcDbLine
 10
-70.73252340831982
 20
1193.046561286798
 30
0.0
 11
-212.6477000251125
 21
1193.046561286798
 31
0.0
  0
LINE
  5
1C88
330
1BEE
100
AcDbEntity
  8
SUNPOU
 62
     0
370
    -2
100
AcDbLine
 10
-207.6477000251125
 20
816.0465612882275
 30
0.0
 11
-207.6477000251125
 21
1178.046561286798
 31
0.0
  0
INSERT
  5
1C89
330
1BEE
100
AcDbEntity
  8
SUNPOU
 62
     0
370
    -2
100
AcDbBlockReference
  2
ARROW
 10
-207.6477000251125
 20
801.0465612882274
 30
0.0
 41
15.0
 42
15.0
 43
15.0
 50
270.0
  0
INSERT
  5
1C8A
330
1BEE
100
AcDbEntity
  8
SUNPOU
 62
     0
370
    -2
100
AcDbBlockReference
  2
ARROW
 10
-207.6477000251125
 20
1193.046561286798
 30
0.0
 41
15.0
 42
15.0
 43
15.0
 50
90.0
  0
MTEXT
  5
1C8B
330
1BEE
100
AcDbEntity
  8
SUNPOU
 62
     0
100
AcDbMText
 10
-220.1477000251125
 20
1008.555970054406
 30
0.0
 40
15.0
 41
0.0
 71
     5
 72
     5
  1
\A1;392
 11
0.0
 21
1.0
 31
0.0
 73
     1
 44
1.0
1001
ACAD
1000
MTEXTBEGIN
1070
    73
1070
     1
1070
    44
1040
1.0
1070
    74
1070
     0
1000
MTEXTEND
  0
POINT
  5
1C8C
330
1BEE
100
AcDbEntity
  8
DEFPOINTS
 62
     0
100
AcDbPoint
 10
-59.10399587433551
 20
801.0465612882274
 30
0.0
  0
POINT
  5
1C8D
330
1BEE
100
AcDbEntity
  8
DEFPOINTS
 62
     0
100
AcDbPoint
 10
-65.73252340831982
 20
1193.046561286798
 30
0.0
  0
POINT
  5
1C8E
330
1BEE
100
AcDbEntity
  8
DEFPOINTS
 62
     0
100
AcDbPoint
 10
-207.6477000251125
 20
1193.046561286798
 30
0.0
  0
ENDBLK
  5
1BF9
330
1BEE
100
AcDbEntity
  8
0
100
AcDbBlockEnd
  0
BLOCK
  5
1C04
330
1BFA
100
AcDbEntity
  8
0
100
AcDbBlockBegin
  2
*D53
 70
     1
 10
0.0
 20
0.0
 30
0.0
  3
*D53
  1

  0
LINE
  5
1C8F
330
1BFA
100
AcDbEntity
  8
SUNPOU
 62
     0
370
    -2
100
AcDbLine
 10
150.173629287452
 20
1086.046561288227
 30
0.0
 11
150.173629287452
 21
1314.112032335226
 31
0.0
  0
LINE
  5
1C90
330
1BFA
100
AcDbEntity
  8
SUNPOU
 62
     0
370
    -2
100
AcDbLine
 10
-87.82637071595116
 20
1014.743829897219
 30
0.0
 11
-87.82637071595116
 21
1314.112032335226
 31
0.0
  0
LINE
  5
1C91
330
1BFA
100
AcDbEntity
  8
SUNPOU
 62
     0
370
    -2
100
AcDbLine
 10
135.173629287452
 20
1309.112032335226
 30
0.0
 11
-72.82637071595115
 21
1309.112032335226
 31
0.0
  0
INSERT
  5
1C92
330
1BFA
100
AcDbEntity
  8
SUNPOU
 62
     0
370
    -2
100
AcDbBlockReference
  2
ARROW
 10
150.173629287452
 20
1309.112032335226
 30
0.0
 41
15.0
 42
15.0
 43
15.0
  0
INSERT
  5
1C93
330
1BFA
100
AcDbEntity
  8
SUNPOU
 62
     0
370
    -2
100
AcDbBlockReference
  2
ARROW
 10
-87.82637071595116
 20
1309.112032335226
 30
0.0
 41
15.0
 42
15.0
 43
15.0
 50
180.0
  0
MTEXT
  5
1C94
330
1BFA
100
AcDbEntity
  8
SUNPOU
 62
     0
100
AcDbMText
 10
31.17362928575045
 20
1321.612032335226
 30
0.0
 40
15.0
 41
0.0
 71
     5
 72
     5
  1
\A1;238
 73
     1
 44
1.0
1001
ACAD
1000
MTEXTBEGIN
1070
    73
1070
     1
1070
    44
1040
1.0
1070
    74
1070
     0
1000
MTEXTEND
  0
POINT
  5
1C95
330
1BFA
100
AcDbEntity
  8
DEFPOINTS
 62
     0
100
AcDbPoint
 10
150.173629287452
 20
1081.046561288228
 30
0.0
  0
POINT
  5
1C96
330
1BFA
100
AcDbEntity
  8
DEFPOINTS
 62
     0
100
AcDbPoint
 10
-87.82637071595116
 20
1009.743829897219
 30
0.0
  0
POINT
  5
1C97
330
1BFA
100
AcDbEntity
  8
DEFPOINTS
 62
     0
100
AcDbPoint
 10
-87.82637071595116
 20
1309.112032335226
 30
0.0
  0
ENDBLK
  5
1C05
330
1BFA
100
AcDbEntity
  8
0
100
AcDbBlockEnd
  0
BLOCK
  5
1C10
330
1C06
100
AcDbEntity
  8
0
100
AcDbBlockBegin
  2
*D54
 70
     1
 10
0.0
 20
0.0
 30
0.0
  3
*D54
  1

  0
LINE
  5
1C98
330
1C06
100
AcDbEntity
  8
SUNPOU
 62
     0
370
    -2
100
AcDbLine
 10
761.5299319948792
 20
859.0465612882274
 30
0.0
 11
802.6562427052827
 21
859.0465612882274
 31
0.0
  0
LINE
  5
1C99
330
1C06
100
AcDbEntity
  8
SUNPOU
 62
     0
370
    -2
100
AcDbLine
 10
617.9134989232635
 20
801.0465612882274
 30
0.0
 11
802.6562427052827
 21
801.0465612882274
 31
0.0
  0
LINE
  5
1C9A
330
1C06
100
AcDbEntity
  8
SUNPOU
 62
     0
370
    -2
100
AcDbLine
 10
797.6562427052827
 20
844.0465612882274
 30
0.0
 11
797.6562427052827
 21
816.0465612882275
 31
0.0
  0
INSERT
  5
1C9B
330
1C06
100
AcDbEntity
  8
SUNPOU
 62
     0
370
    -2
100
AcDbBlockReference
  2
ARROW
 10
797.6562427052827
 20
859.0465612882274
 30
0.0
 41
15.0
 42
15.0
 43
15.0
 50
90.0
  0
INSERT
  5
1C9C
330
1C06
100
AcDbEntity
  8
SUNPOU
 62
     0
370
    -2
100
AcDbBlockReference
  2
ARROW
 10
797.6562427052827
 20
801.0465612882274
 30
0.0
 41
15.0
 42
15.0
 43
15.0
 50
270.0
  0
MTEXT
  5
1C9D
330
1C06
100
AcDbEntity
  8
SUNPOU
 62
     0
100
AcDbMText
 10
785.1562427052827
 20
831.0812085863313
 30
0.0
 40
15.0
 41
0.0
 71
     5
 72
     5
  1
\A1;58
 11
0.0
 21
1.0
 31
0.0
 73
     1
 44
1.0
1001
ACAD
1000
MTEXTBEGIN
1070
    73
1070
     1
1070
    44
1040
1.0
1070
    74
1070
     0
1000
MTEXTEND
  0
POINT
  5
1C9E
330
1C06
100
AcDbEntity
  8
DEFPOINTS
 62
     0
100
AcDbPoint
 10
756.5299319948792
 20
859.0465612882274
 30
0.0
  0
POINT
  5
1C9F
330
1C06
100
AcDbEntity
  8
DEFPOINTS
 62
     0
100
AcDbPoint
 10
612.9134989232635
 20
801.0465612882274
 30
0.0
  0
POINT
  5
1CA0
330
1C06
100
AcDbEntity
  8
DEFPOINTS
 62
     0
100
AcDbPoint
 10
797.6562427052827
 20
801.0465612882274
 30
0.0
  0
ENDBLK
  5
1C11
330
1C06
100
AcDbEntity
  8
0
100
AcDbBlockEnd
  0
BLOCK
  5
1C1C
330
1C12
100
AcDbEntity
  8
0
100
AcDbBlockBegin
  2
*D55
 70
     1
 10
0.0
 20
0.0
 30
0.0
  3
*D55
  1

  0
LINE
  5
1CA1
330
1C12
100
AcDbEntity
  8
SUNPOU
 62
     0
370
    -2
100
AcDbLine
 10
419.635873764879
 20
796.0465612882274
 30
0.0
 11
419.635873764879
 21
726.6189962330518
 31
0.0
  0
LINE
  5
1CA2
330
1C12
100
AcDbEntity
  8
SUNPOU
 62
     0
370
    -2
100
AcDbLine
 10
604.6358737648792
 20
796.0465612882274
 30
0.0
 11
604.6358737648792
 21
726.6189962330518
 31
0.0
  0
LINE
  5
1CA3
330
1C12
100
AcDbEntity
  8
SUNPOU
 62
     0
370
    -2
100
AcDbLine
 10
434.6358737648791
 20
731.6189962330517
 30
0.0
 11
589.6358737648792
 21
731.6189962330517
 31
0.0
  0
INSERT
  5
1CA4
330
1C12
100
AcDbEntity
  8
SUNPOU
 62
     0
370
    -2
100
AcDbBlockReference
  2
ARROW
 10
419.635873764879
 20
731.6189962330517
 30
0.0
 41
15.0
 42
15.0
 43
15.0
 50
180.0
  0
INSERT
  5
1CA5
330
1C12
100
AcDbEntity
  8
SUNPOU
 62
     0
370
    -2
100
AcDbBlockReference
  2
ARROW
 10
604.6358737648792
 20
731.6189962330517
 30
0.0
 41
15.0
 42
15.0
 43
15.0
  0
MTEXT
  5
1CA6
330
1C12
100
AcDbEntity
  8
SUNPOU
 62
     0
100
AcDbMText
 10
508.2442399914925
 20
744.1189962330517
 30
0.0
 40
15.0
 41
0.0
 71
     5
 72
     5
  1
\A1;185
 73
     1
 44
1.0
1001
ACAD
1000
MTEXTBEGIN
1070
    73
1070
     1
1070
    44
1040
1.0
1070
    74
1070
     0
1000
MTEXTEND
  0
POINT
  5
1CA7
330
1C12
100
AcDbEntity
  8
DEFPOINTS
 62
     0
100
AcDbPoint
 10
419.635873764879
 20
801.0465612882274
 30
0.0
  0
POINT
  5
1CA8
330
1C12
100
AcDbEntity
  8
DEFPOINTS
 62
     0
100
AcDbPoint
 10
604.6358737648792
 20
801.0465612882274
 30
0.0
  0
POINT
  5
1CA9
330
1C12
100
AcDbEntity
  8
DEFPOINTS
 62
     0
100
AcDbPoint
 10
604.6358737648792
 20
731.6189962330517
 30
0.0
  0
ENDBLK
  5
1C1D
330
1C12
100
AcDbEntity
  8
0
100
AcDbBlockEnd
  0
BLOCK
  5
1C27
330
1C1E
100
AcDbEntity
  8
0
100
AcDbBlockBegin
  2
*D56
 70
     1
 10
0.0
 20
0.0
 30
0.0
  3
*D56
  1

  0
LINE
  5
1CAA
330
1C1E
100
AcDbEntity
  8
SUNPOU
 62
     0
370
    -2
100
AcDbLine
 10
365.6358737648792
 20
809.0465612882274
 30
0.0
 11
365.6358737648792
 21
726.6189962330518
 31
0.0
  0
LINE
  5
1CAB
330
1C1E
100
AcDbEntity
  8
SUNPOU
 62
     0
370
    -2
100
AcDbLine
 10
404.635873764879
 20
731.6189962330517
 30
0.0
 11
380.6358737648792
 21
731.6189962330517
 31
0.0
  0
INSERT
  5
1CAC
330
1C1E
100
AcDbEntity
  8
SUNPOU
 62
     0
370
    -2
100
AcDbBlockReference
  2
ARROW
 10
419.635873764879
 20
731.6189962330517
 30
0.0
 41
15.0
 42
15.0
 43
15.0
  0
INSERT
  5
1CAD
330
1C1E
100
AcDbEntity
  8
SUNPOU
 62
     0
370
    -2
100
AcDbBlockReference
  2
ARROW
 10
365.6358737648792
 20
731.6189962330517
 30
0.0
 41
15.0
 42
15.0
 43
15.0
 50
180.0
  0
MTEXT
  5
1CAE
330
1C1E
100
AcDbEntity
  8
SUNPOU
 62
     0
100
AcDbMText
 10
392.6358737648791
 20
744.1189962330517
 30
0.0
 40
15.0
 41
0.0
 71
     5
 72
     5
  1
\A1;54
 73
     1
 44
1.0
1001
ACAD
1000
MTEXTBEGIN
1070
    73
1070
     1
1070
    44
1040
1.0
1070
    74
1070
     0
1000
MTEXTEND
  0
POINT
  5
1CAF
330
1C1E
100
AcDbEntity
  8
DEFPOINTS
 62
     0
100
AcDbPoint
 10
419.635873764879
 20
801.0465612882274
 30
0.0
  0
POINT
  5
1CB0
330
1C1E
100
AcDbEntity
  8
DEFPOINTS
 62
     0
100
AcDbPoint
 10
365.6358737648792
 20
814.0465612882275
 30
0.0
  0
POINT
  5
1CB1
330
1C1E
100
AcDbEntity
  8
DEFPOINTS
 62
     0
100
AcDbPoint
 10
365.6358737648792
 20
731.6189962330517
 30
0.0
  0
ENDBLK
  5
1C28
330
1C1E
100
AcDbEntity
  8
0
100
AcDbBlockEnd
  0
BLOCK
  5
1C33
330
1C29
100
AcDbEntity
  8
0
100
AcDbBlockBegin
  2
*D57
 70
     1
 10
0.0
 20
0.0
 30
0.0
  3
*D57
  1

  0
LINE
  5
1CB2
330
1C29
100
AcDbEntity
  8
SUNPOU
 62
     0
370
    -2
100
AcDbLine
 10
365.6358737648792
 20
809.0465612882274
 30
0.0
 11
365.6358737648792
 21
696.6189962330518
 31
0.0
  0
LINE
  5
1CB3
330
1C29
100
AcDbEntity
  8
SUNPOU
 62
     0
370
    -2
100
AcDbLine
 10
629.635873764879
 20
807.0465612882275
 30
0.0
 11
629.635873764879
 21
696.6189962330518
 31
0.0
  0
LINE
  5
1CB4
330
1C29
100
AcDbEntity
  8
SUNPOU
 62
     0
370
    -2
100
AcDbLine
 10
380.6358737648792
 20
701.6189962330518
 30
0.0
 11
614.6358737648791
 21
701.6189962330518
 31
0.0
  0
INSERT
  5
1CB5
330
1C29
100
AcDbEntity
  8
SUNPOU
 62
     0
370
    -2
100
AcDbBlockReference
  2
ARROW
 10
365.6358737648792
 20
701.6189962330518
 30
0.0
 41
15.0
 42
15.0
 43
15.0
 50
180.0
  0
INSERT
  5
1CB6
330
1C29
100
AcDbEntity
  8
SUNPOU
 62
     0
370
    -2
100
AcDbBlockReference
  2
ARROW
 10
629.635873764879
 20
701.6189962330518
 30
0.0
 41
15.0
 42
15.0
 43
15.0
  0
MTEXT
  5
1CB7
330
1C29
100
AcDbEntity
  8
SUNPOU
 62
     0
100
AcDbMText
 10
497.6358737648791
 20
714.1189962330518
 30
0.0
 40
15.0
 41
0.0
 71
     5
 72
     5
  1
\A1;264
 73
     1
 44
1.0
1001
ACAD
1000
MTEXTBEGIN
1070
    73
1070
     1
1070
    44
1040
1.0
1070
    74
1070
     0
1000
MTEXTEND
  0
POINT
  5
1CB8
330
1C29
100
AcDbEntity
  8
DEFPOINTS
 62
     0
100
AcDbPoint
 10
365.6358737648792
 20
814.0465612882275
 30
0.0
  0
POINT
  5
1CB9
330
1C29
100
AcDbEntity
  8
DEFPOINTS
 62
     0
100
AcDbPoint
 10
629.635873764879
 20
812.0465612882275
 30
0.0
  0
POINT
  5
1CBA
330
1C29
100
AcDbEntity
  8
DEFPOINTS
 62
     0
100
AcDbPoint
 10
629.635873764879
 20
701.6189962330518
 30
0.0
  0
ENDBLK
  5
1C34
330
1C29
100
AcDbEntity
  8
0
100
AcDbBlockEnd
  0
BLOCK
  5
1C3F
330
1C35
100
AcDbEntity
  8
0
100
AcDbBlockBegin
  2
*D58
 70
     1
 10
0.0
 20
0.0
 30
0.0
  3
*D58
  1

  0
LINE
  5
1CBB
330
1C35
100
AcDbEntity
  8
SUNPOU
 62
     0
370
    -2
100
AcDbLine
 10
629.504185406999
 20
1144.495133224908
 30
0.0
 11
629.504185406999
 21
1320.255709087397
 31
0.0
  0
LINE
  5
1CBC
330
1C35
100
AcDbEntity
  8
SUNPOU
 62
     0
370
    -2
100
AcDbLine
 10
354.504185406999
 20
1107.940260492791
 30
0.0
 11
354.504185406999
 21
1320.255709087397
 31
0.0
  0
LINE
  5
1CBD
330
1C35
100
AcDbEntity
  8
SUNPOU
 62
     0
370
    -2
100
AcDbLine
 10
614.5041854069989
 20
1315.255709087397
 30
0.0
 11
369.504185406999
 21
1315.255709087397
 31
0.0
  0
INSERT
  5
1CBE
330
1C35
100
AcDbEntity
  8
SUNPOU
 62
     0
370
    -2
100
AcDbBlockReference
  2
ARROW
 10
629.504185406999
 20
1315.255709087397
 30
0.0
 41
15.0
 42
15.0
 43
15.0
  0
INSERT
  5
1CBF
330
1C35
100
AcDbEntity
  8
SUNPOU
 62
     0
370
    -2
100
AcDbBlockReference
  2
ARROW
 10
354.504185406999
 20
1315.255709087397
 30
0.0
 41
15.0
 42
15.0
 43
15.0
 50
180.0
  0
MTEXT
  5
1CC0
330
1C35
100
AcDbEntity
  8
SUNPOU
 62
     0
100
AcDbMText
 10
500.214873397866
 20
1327.755709087397
 30
0.0
 40
15.0
 41
0.0
 71
     5
 72
     5
  1
\A1;275
 73
     1
 44
1.0
1001
ACAD
1000
MTEXTBEGIN
1070
    73
1070
     1
1070
    44
1040
1.0
1070
    74
1070
     0
1000
MTEXTEND
  0
POINT
  5
1CC1
330
1C35
100
AcDbEntity
  8
DEFPOINTS
 62
     0
100
AcDbPoint
 10
629.504185406999
 20
1139.495133224908
 30
0.0
  0
POINT
  5
1CC2
330
1C35
100
AcDbEntity
  8
DEFPOINTS
 62
     0
100
AcDbPoint
 10
354.504185406999
 20
1102.940260492791
 30
0.0
  0
POINT
  5
1CC3
330
1C35
100
AcDbEntity
  8
DEFPOINTS
 62
     0
100
AcDbPoint
 10
354.504185406999
 20
1315.255709087397
 30
0.0
  0
ENDBLK
  5
1C40
330
1C35
100
AcDbEntity
  8
0
100
AcDbBlockEnd
  0
BLOCK
  5
1C4B
330
1C41
100
AcDbEntity
  8
0
100
AcDbBlockBegin
  2
*D59
 70
     1
 10
0.0
 20
0.0
 30
0.0
  3
*D59
  1

  0
LINE
  5
1CC4
330
1C41
100
AcDbEntity
  8
SUNPOU
 62
     0
370
    -2
100
AcDbLine
 10
699.5665120648791
 20
1518.541501770308
 30
0.0
 11
804.2379950769387
 21
1518.541501770308
 31
0.0
  0
LINE
  5
1CC5
330
1C41
100
AcDbEntity
  8
SUNPOU
 62
     0
370
    -2
100
AcDbLine
 10
761.398243634879
 20
1458.541501770308
 30
0.0
 11
804.2379950769387
 21
1458.541501770308
 31
0.0
  0
LINE
  5
1CC6
330
1C41
100
AcDbEntity
  8
SUNPOU
 62
     0
370
    -2
100
AcDbLine
 10
799.2379950769386
 20
1503.541501770308
 30
0.0
 11
799.2379950769386
 21
1473.541501770308
 31
0.0
  0
INSERT
  5
1CC7
330
1C41
100
AcDbEntity
  8
SUNPOU
 62
     0
370
    -2
100
AcDbBlockReference
  2
ARROW
 10
799.2379950769386
 20
1518.541501770308
 30
0.0
 41
15.0
 42
15.0
 43
15.0
 50
90.0
  0
INSERT
  5
1CC8
330
1C41
100
AcDbEntity
  8
SUNPOU
 62
     0
370
    -2
100
AcDbBlockReference
  2
ARROW
 10
799.2379950769386
 20
1458.541501770308
 30
0.0
 41
15.0
 42
15.0
 43
15.0
 50
270.0
  0
MTEXT
  5
1CC9
330
1C41
100
AcDbEntity
  8
SUNPOU
 62
     0
100
AcDbMText
 10
786.7379950769386
 20
1489.914890653757
 30
0.0
 40
15.0
 41
0.0
 71
     5
 72
     5
  1
\A1;60
 11
0.0
 21
1.0
 31
0.0
 73
     1
 44
1.0
1001
ACAD
1000
MTEXTBEGIN
1070
    73
1070
     1
1070
    44
1040
1.0
1070
    74
1070
     0
1000
MTEXTEND
  0
POINT
  5
1CCA
330
1C41
100
AcDbEntity
  8
DEFPOINTS
 62
     0
100
AcDbPoint
 10
694.5665120648791
 20
1518.541501770308
 30
0.0
  0
POINT
  5
1CCB
330
1C41
100
AcDbEntity
  8
DEFPOINTS
 62
     0
100
AcDbPoint
 10
756.398243634879
 20
1458.541501770308
 30
0.0
  0
POINT
  5
1CCC
330
1C41
100
AcDbEntity
  8
DEFPOINTS
 62
     0
100
AcDbPoint
 10
799.2379950769386
 20
1458.541501770308
 30
0.0
  0
ENDBLK
  5
1C4C
330
1C41
100
AcDbEntity
  8
0
100
AcDbBlockEnd
  0
BLOCK
  5
1C57
330
1C4D
100
AcDbEntity
  8
0
100
AcDbBlockBegin
  2
*D60
 70
     1
 10
0.0
 20
0.0
 30
0.0
  3
*D60
  1

  0
LINE
  5
1CCD
330
1C4D
100
AcDbEntity
  8
SUNPOU
 62
     0
370
    -2
100
AcDbLine
 10
629.5041854048791
 20
1421.041501770308
 30
0.0
 11
629.5041854048791
 21
1351.486109097178
 31
0.0
  0
LINE
  5
1CCE
330
1C4D
100
AcDbEntity
  8
SUNPOU
 62
     0
370
    -2
100
AcDbLine
 10
756.3982436348792
 20
1448.541501770308
 30
0.0
 11
756.3982436348792
 21
1351.486109097178
 31
0.0
  0
LINE
  5
1CCF
330
1C4D
100
AcDbEntity
  8
SUNPOU
 62
     0
370
    -2
100
AcDbLine
 10
644.504185404879
 20
1356.486109097178
 30
0.0
 11
741.3982436348792
 21
1356.486109097178
 31
0.0
  0
INSERT
  5
1CD0
330
1C4D
100
AcDbEntity
  8
SUNPOU
 62
     0
370
    -2
100
AcDbBlockReference
  2
ARROW
 10
629.5041854048791
 20
1356.486109097178
 30
0.0
 41
15.0
 42
15.0
 43
15.0
 50
180.0
  0
INSERT
  5
1CD1
330
1C4D
100
AcDbEntity
  8
SUNPOU
 62
     0
370
    -2
100
AcDbBlockReference
  2
ARROW
 10
756.3982436348792
 20
1356.486109097178
 30
0.0
 41
15.0
 42
15.0
 43
15.0
  0
MTEXT
  5
1CD2
330
1C4D
100
AcDbEntity
  8
SUNPOU
 62
     0
100
AcDbMText
 10
694.3270939009321
 20
1368.986109097178
 30
0.0
 40
15.0
 41
0.0
 71
     5
 72
     5
  1
\A1;約2200
 73
     1
 44
1.0
1001
ACAD
1000
MTEXTBEGIN
1070
    73
1070
     1
1070
    44
1040
1.0
1070
    74
1070
     0
1000
MTEXTEND
  0
POINT
  5
1CD3
330
1C4D
100
AcDbEntity
  8
DEFPOINTS
 62
     0
100
AcDbPoint
 10
629.5041854048791
 20
1426.041501770308
 30
0.0
  0
POINT
  5
1CD4
330
1C4D
100
AcDbEntity
  8
DEFPOINTS
 62
     0
100
AcDbPoint
 10
756.3982436348792
 20
1453.541501770308
 30
0.0
  0
POINT
  5
1CD5
330
1C4D
100
AcDbEntity
  8
DEFPOINTS
 62
     0
100
AcDbPoint
 10
756.3982436348792
 20
1356.486109097178
 30
0.0
  0
ENDBLK
  5
1C58
330
1C4D
100
AcDbEntity
  8
0
100
AcDbBlockEnd
  0
ENDSEC
  0
SECTION
  2
ENTITIES
  0
INSERT
  5
D4E
330
18
100
AcDbEntity
  8
0
100
AcDbBlockReference
  2
_IMCADLT3
 10
0.0
 20
0.0
 30
0.0
  0
MTEXT
  5
12FE
330
18
100
AcDbEntity
  8
TEXT
100
AcDbMText
 10
883.0921413000124
 20
1453.79431805689
 30
0.0
 40
15.0
 41
0.0
 71
     1
 72
     1
  3
\fＭＳ 明朝|b0|i0|c128|p17;\L　仕様　\P\l外形寸法：幅230mm×奥行266mm×高さ392mm\P質量：10kg\P全質量（包装含み）：11kg\P回転数：296/358rpm（50/60Hz）\P電源：単相100V　50/60Hz\P定格消費電力：150/180W（50/60Hz）\Pモーター：コンデンサー始動単相コンデンサー誘導電動機 4P 60W\P電源スイッチ：トグル式\Pプロテクター：自動復帰式（モーター内蔵）\P定格時間：連続\P角氷入数：約18個\Pチップ
  1
アイス入数：約450g\P氷削能力：1.0/1.3kg/min（50/60Hz）\P砕氷能力：8.0/9.5kg/min（50/60Hz）
 73
     1
 44
1.0
1001
ACAD
1000
MTEXTBEGIN
1070
    73
1070
     1
1070
    44
1040
1.0
1070
    74
1070
     0
1000
MTEXTEND
  0
TEXT
  5
12FF
330
18
100
AcDbEntity
  8
TEXT
100
AcDbText
 10
1152.633410509058
 20
579.5696414146095
 30
0.0
 40
15.0
  1
CS-18C 外観図
  7
K
100
AcDbText
  0
LINE
  5
1300
330
18
100
AcDbEntity
  8
WAKU
 62
     3
100
AcDbLine
 10
901.4580260188104
 20
617.3588150650857
 30
0.0
 11
1011.667631344336
 21
617.3588150650857
 31
0.0
  0
LINE
  5
1301
330
18
100
AcDbEntity
  8
WAKU
 62
     3
100
AcDbLine
 10
901.4580260188104
 20
586.7014038216047
 30
0.0
 11
1011.667631344336
 21
586.7014038216047
 31
0.0
  0
LINE
  5
1302
330
18
100
AcDbEntity
  8
WAKU
 62
     3
100
AcDbLine
 10
901.4580260188104
 20
556.0439925781241
 30
0.0
 11
1011.667631344336
 21
556.0439925781241
 31
0.0
  0
LINE
  5
1303
330
18
100
AcDbEntity
  8
WAKU
 62
     3
100
AcDbLine
 10
1477.053691422761
 20
611.498398858113
 30
0.0
 11
1542.410550272097
 21
611.498398858113
 31
0.0
  0
LINE
  5
1304
330
18
100
AcDbEntity
  8
WAKU
 62
     3
100
AcDbLine
 10
1477.053691422761
 20
571.4983988581129
 30
0.0
 11
1542.410550272097
 21
571.4983988581129
 31
0.0
  0
TEXT
  5
1305
330
18
100
AcDbEntity
  8
TEXT
100
AcDbText
 10
1441.187573422394
 20
526.8381291725163
 30
0.0
 40
15.0
  1
1/5
  7
K
100
AcDbText
  0
TEXT
  5
1306
330
18
100
AcDbEntity
  8
TEXT
100
AcDbText
 10
1343.31803702455
 20
476.8703078010275
 30
0.0
 40
15.0
  1
CS18C03015
  7
K
100
AcDbText
  0
LINE
  5
1307
330
18
100
AcDbEntity
  8
WAKU
 62
     3
100
AcDbLine
 10
-335.5450027782472
 20
1704.00373459817
 30
0.0
 11
1569.454997221753
 21
1704.00373459817
 31
0.0
  0
LINE
  5
1308
330
18
100
AcDbEntity
  8
WAKU
 62
     3
100
AcDbLine
 10
1569.454997221753
 20
389.00373459817
 30
0.0
 11
-335.5450027782472
 21
389.00373459817
 31
0.0
  0
LINE
  5
1309
330
18
100
AcDbEntity
  8
WAKU
 62
     3
100
AcDbLine
 10
-335.5450027782472
 20
389.00373459817
 30
0.0
 11
-335.5450027782472
 21
1704.00373459817
 31
0.0
  0
TEXT
  5
130A
330
18
100
AcDbEntity
  8
WAKU
 62
     3
100
AcDbText
 10
9.954997221752819
 20
396.50373459817
 30
0.0
 40
15.0
  1
 年 月 日
  7
K
 72
     4
 11
51.95499722175282
 21
404.00373459817
 31
0.0
100
AcDbText
  0
LINE
  5
130B
330
18
100
AcDbEntity
  8
WAKU
 62
     3
100
AcDbLine
 10
179.4549972217528
 20
419.00373459817
 30
0.0
 11
-285.5450027782472
 21
419.00373459817
 31
0.0
  0
LINE
  5
130C
330
18
100
AcDbEntity
  8
WAKU
 62
     3
100
AcDbLine
 10
-285.5450027782472
 20
449.00373459817
 30
0.0
 11
179.4549972217528
 21
449.00373459817
 31
0.0
  0
LINE
  5
130D
330
18
100
AcDbEntity
  8
WAKU
 62
     3
100
AcDbLine
 10
179.4549972217528
 20
479.00373459817
 30
0.0
 11
-285.5450027782472
 21
479.00373459817
 31
0.0
  0
LINE
  5
130E
330
18
100
AcDbEntity
  8
WAKU
 62
     3
100
AcDbLine
 10
-285.5450027782472
 20
419.00373459817
 30
0.0
 11
179.4549972217528
 21
419.00373459817
 31
0.0
  0
LINE
  5
130F
330
18
100
AcDbEntity
  8
WAKU
 62
     3
100
AcDbLine
 10
179.4549972217528
 20
449.00373459817
 30
0.0
 11
-285.5450027782472
 21
449.00373459817
 31
0.0
  0
LINE
  5
1310
330
18
100
AcDbEntity
  8
WAKU
 62
     3
100
AcDbLine
 10
-285.5450027782472
 20
479.00373459817
 30
0.0
 11
179.4549972217528
 21
479.00373459817
 31
0.0
  0
LINE
  5
1311
330
18
100
AcDbEntity
  8
WAKU
 62
     3
100
AcDbLine
 10
179.4549972217528
 20
509.0037345981699
 30
0.0
 11
-335.5450027782472
 21
509.0037345981699
 31
0.0
  0
TEXT
  5
1312
330
18
100
AcDbEntity
  8
WAKU
 62
     3
100
AcDbText
 10
-329.0450027782472
 20
396.50373459817
 30
0.0
 40
15.0
  1
記号
  7
K
 72
     4
 11
-313.0450027782472
 21
404.00373459817
 31
0.0
100
AcDbText
  0
LINE
  5
1313
330
18
100
AcDbEntity
  8
WAKU
 62
     3
100
AcDbLine
 10
-285.5450027782472
 20
389.00373459817
 30
0.0
 11
-285.5450027782472
 21
509.0037345981699
 31
0.0
  0
LINE
  5
1314
330
18
100
AcDbEntity
  8
WAKU
 62
     3
100
AcDbLine
 10
-290.5450027782472
 20
509.0037345981699
 30
0.0
 11
-290.5450027782472
 21
389.00373459817
 31
0.0
  0
LINE
  5
1315
330
18
100
AcDbEntity
  8
WAKU
 62
     3
100
AcDbLine
 10
-290.5450027782472
 20
389.00373459817
 30
0.0
 11
-290.5450027782472
 21
509.0037345981699
 31
0.0
  0
LINE
  5
1316
330
18
100
AcDbEntity
  8
WAKU
 62
     3
100
AcDbLine
 10
-285.5450027782472
 20
509.0037345981699
 30
0.0
 11
-285.5450027782472
 21
389.00373459817
 31
0.0
  0
LINE
  5
1317
330
18
100
AcDbEntity
  8
WAKU
 62
     3
100
AcDbLine
 10
-313.0450027782472
 20
479.00373459817
 30
0.0
 11
-335.5450027782472
 21
449.00373459817
 31
0.0
  0
LINE
  5
1318
330
18
100
AcDbEntity
  8
WAKU
 62
     3
100
AcDbLine
 10
-313.0450027782472
 20
479.00373459817
 30
0.0
 11
-290.5450027782472
 21
449.00373459817
 31
0.0
  0
LINE
  5
1319
330
18
100
AcDbEntity
  8
WAKU
 62
     3
100
AcDbLine
 10
-313.0450027782472
 20
449.00373459817
 30
0.0
 11
-335.5450027782472
 21
419.00373459817
 31
0.0
  0
LINE
  5
131A
330
18
100
AcDbEntity
  8
WAKU
 62
     3
100
AcDbLine
 10
-335.5450027782472
 20
449.00373459817
 30
0.0
 11
-290.5450027782472
 21
449.00373459817
 31
0.0
  0
LINE
  5
131B
330
18
100
AcDbEntity
  8
WAKU
 62
     3
100
AcDbLine
 10
-290.5450027782472
 20
419.00373459817
 30
0.0
 11
-335.5450027782472
 21
419.00373459817
 31
0.0
  0
LINE
  5
131C
330
18
100
AcDbEntity
  8
WAKU
 62
     3
100
AcDbLine
 10
-290.5450027782472
 20
419.00373459817
 30
0.0
 11
-335.5450027782472
 21
419.00373459817
 31
0.0
  0
LINE
  5
131D
330
18
100
AcDbEntity
  8
WAKU
 62
     3
100
AcDbLine
 10
-290.5450027782472
 20
449.00373459817
 30
0.0
 11
-335.5450027782472
 21
449.00373459817
 31
0.0
  0
LINE
  5
131E
330
18
100
AcDbEntity
  8
WAKU
 62
     3
100
AcDbLine
 10
-313.0450027782472
 20
449.00373459817
 30
0.0
 11
-290.5450027782472
 21
419.00373459817
 31
0.0
  0
LINE
  5
131F
330
18
100
AcDbEntity
  8
WAKU
 62
     3
100
AcDbLine
 10
-313.0450027782472
 20
509.0037345981699
 30
0.0
 11
-335.5450027782472
 21
479.00373459817
 31
0.0
  0
LINE
  5
1320
330
18
100
AcDbEntity
  8
WAKU
 62
     3
100
AcDbLine
 10
-290.5450027782472
 20
479.00373459817
 30
0.0
 11
-335.5450027782472
 21
479.00373459817
 31
0.0
  0
LINE
  5
1321
330
18
100
AcDbEntity
  8
WAKU
 62
     3
100
AcDbLine
 10
-290.5450027782472
 20
479.00373459817
 30
0.0
 11
-335.5450027782472
 21
479.00373459817
 31
0.0
  0
LINE
  5
1322
330
18
100
AcDbEntity
  8
WAKU
 62
     3
100
AcDbLine
 10
-290.5450027782472
 20
479.00373459817
 30
0.0
 11
-313.0450027782472
 21
509.0037345981699
 31
0.0
  0
TEXT
  5
1323
330
18
100
AcDbEntity
  8
WAKU
 62
     3
100
AcDbText
 10
-69.54500277824717
 20
396.50373459817
 30
0.0
 40
15.0
  1
設変番号
  7
K
 72
     4
 11
-35.54500277824718
 21
404.00373459817
 31
0.0
100
AcDbText
  0
TEXT
  5
1324
330
18
100
AcDbEntity
  8
WAKU
 62
     3
100
AcDbText
 10
-246.0450027782472
 20
396.50373459817
 30
0.0
 40
15.0
  1
変更内容・理由
  7
K
 72
     4
 11
-185.5450027782472
 21
404.00373459817
 31
0.0
100
AcDbText
  0
LINE
  5
1325
330
18
100
AcDbEntity
  8
WAKU
 62
     3
100
AcDbLine
 10
14.45499722175282
 20
389.00373459817
 30
0.0
 11
14.45499722175282
 21
509.0037345981699
 31
0.0
  0
LINE
  5
1326
330
18
100
AcDbEntity
  8
WAKU
 62
     3
100
AcDbLine
 10
-85.54500277824718
 20
509.0037345981699
 30
0.0
 11
-85.54500277824718
 21
389.00373459817
 31
0.0
  0
TEXT
  5
1328
330
18
100
AcDbEntity
  8
WAKU
 62
     3
100
AcDbText
 10
141.4549972217528
 20
396.50373459817
 30
0.0
 40
15.0
  1
検図
  7
K
 72
     4
 11
156.9549972217528
 21
404.00373459817
 31
0.0
100
AcDbText
  0
TEXT
  5
1329
330
18
100
AcDbEntity
  8
WAKU
 62
     3
100
AcDbText
 10
96.27642579318139
 20
396.50373459817
 30
0.0
 40
15.0
  1
担当
  7
K
 72
     4
 11
111.9549972217528
 21
404.00373459817
 31
0.0
100
AcDbText
  0
LINE
  5
132A
330
18
100
AcDbEntity
  8
WAKU
 62
     3
100
AcDbLine
 10
179.4549972217528
 20
509.0037345981699
 30
0.0
 11
179.4549972217528
 21
389.00373459817
 31
0.0
  0
LINE
  5
132B
330
18
100
AcDbEntity
  8
WAKU
 62
     3
100
AcDbLine
 10
134.4549972217528
 20
389.00373459817
 30
0.0
 11
134.4549972217528
 21
509.0037345981699
 31
0.0
  0
LINE
  5
132C
330
18
100
AcDbEntity
  8
WAKU
 62
     3
100
AcDbLine
 10
89.45499722175282
 20
509.0037345981699
 30
0.0
 11
89.45499722175282
 21
389.00373459817
 31
0.0
  0
LINE
  5
132D
330
18
100
AcDbEntity
  8
WAKU
 62
     3
100
AcDbLine
 10
1569.454997221753
 20
1704.00373459817
 30
0.0
 11
1569.454997221753
 21
389.00373459817
 31
0.0
  0
TEXT
  5
132E
330
18
100
AcDbEntity
  8
WAKU
 62
     3
100
AcDbText
 10
1294.991374594288
 20
529.00373459817
 30
0.0
 40
15.0
  1
三 角 法
  7
K
100
AcDbText
  0
LINE
  5
132F
330
18
100
AcDbEntity
  8
WAKU
 62
     3
100
AcDbLine
 10
1269.454997221753
 20
454.00373459817
 30
0.0
 11
1569.454997221753
 21
454.00373459817
 31
0.0
  0
LINE
  5
1330
330
18
100
AcDbEntity
  8
WAKU
 62
     3
100
AcDbLine
 10
1569.454997221753
 20
519.00373459817
 30
0.0
 11
1269.454997221753
 21
519.00373459817
 31
0.0
  0
LINE
  5
1331
330
18
100
AcDbEntity
  8
WAKU
 62
     3
100
AcDbLine
 10
1269.454997221753
 20
554.00373459817
 30
0.0
 11
1569.454997221753
 21
554.00373459817
 31
0.0
  0
TEXT
  5
1332
330
18
100
AcDbEntity
  8
WAKU
 62
     3
100
AcDbText
 10
1341.760588723865
 20
409.0037345981699
 30
0.0
 40
17.5
  1
中部コーポレーション
  7
K
100
AcDbText
  0
LINE
  5
1333
330
18
100
AcDbEntity
  8
WAKU
 62
     3
100
AcDbLine
 10
1084.454997221753
 20
634.0037345981699
 30
0.0
 11
1394.454997221753
 21
634.0037345981699
 31
0.0
  0
LINE
  5
1334
330
18
100
AcDbEntity
  8
WAKU
 62
     3
100
AcDbLine
 10
1084.454997221753
 20
634.0037345981699
 30
0.0
 11
704.4549972217528
 21
634.0037345981699
 31
0.0
  0
TEXT
  5
1335
330
18
100
AcDbEntity
  8
WAKU
 62
     3
100
AcDbText
 10
1021.954997221753
 20
509.850946134188
 30
0.0
 40
10.0
  1
0.1
 41
0.8
  7
K
 11
1021.954997221753
 21
514.850946134188
 31
0.0
100
AcDbText
 73
     2
  0
TEXT
  5
1336
330
18
100
AcDbEntity
  8
WAKU
 62
     3
100
AcDbText
 10
1021.954997221753
 20
490.4898366671083
 30
0.0
 40
10.0
  1
0.1
 41
0.8
  7
K
 11
1021.954997221753
 21
495.4898366671083
 31
0.0
100
AcDbText
 73
     2
  0
TEXT
  5
1337
330
18
100
AcDbEntity
  8
WAKU
 62
     3
100
AcDbText
 10
1021.954997221753
 20
471.1287272000286
 30
0.0
 40
10.0
  1
0.2
 41
0.8
  7
K
 11
1021.954997221753
 21
476.1287272000286
 31
0.0
100
AcDbText
 73
     2
  0
TEXT
  5
1338
330
18
100
AcDbEntity
  8
WAKU
 62
     3
100
AcDbText
 10
1021.954997221753
 20
451.7676177329489
 30
0.0
 40
10.0
  1
0.3
 41
0.8
  7
K
 11
1021.954997221753
 21
456.7676177329489
 31
0.0
100
AcDbText
 73
     2
  0
TEXT
  5
1339
330
18
100
AcDbEntity
  8
WAKU
 62
     3
100
AcDbText
 10
1021.954997221753
 20
432.4065082658692
 30
0.0
 40
10.0
  1
0.5
 41
0.8
  7
K
 11
1021.954997221753
 21
437.4065082658693
 31
0.0
100
AcDbText
 73
     2
  0
TEXT
  5
133A
330
18
100
AcDbEntity
  8
WAKU
 62
     3
100
AcDbText
 10
1021.954997221753
 20
413.0453987987896
 30
0.0
 40
10.0
  1
0.8
 41
0.8
  7
K
 11
1021.954997221753
 21
418.0453987987895
 31
0.0
100
AcDbText
 73
     2
  0
TEXT
  5
133B
330
18
100
AcDbEntity
  8
WAKU
 62
     3
100
AcDbText
 10
1024.883568650324
 20
526.5315008677279
 30
0.0
 40
13.5
  1
K
  7
K
 72
     1
 11
1031.954997221752
 21
533.2815008677279
 31
0.0
100
AcDbText
 73
     2
  0
TEXT
  5
133C
330
18
100
AcDbEntity
  8
WAKU
 62
     3
100
AcDbText
 10
1021.954997221753
 20
393.6842893317099
 30
0.0
 40
10.0
  1
1.2
 41
0.8
  7
K
 11
1021.954997221753
 21
398.6842893317099
 31
0.0
100
AcDbText
 73
     2
  0
LINE
  5
133D
330
18
100
AcDbEntity
  8
WAKU
 62
     3
100
AcDbLine
 10
874.4549972217528
 20
524.5315008677279
 30
0.0
 11
1084.454997221753
 21
524.5315008677279
 31
0.0
  0
LINE
  5
133E
330
18
100
AcDbEntity
  8
WAKU
 62
     3
100
AcDbLine
 10
874.4549972217528
 20
505.1703914006481
 30
0.0
 11
1084.454997221753
 21
505.1703914006481
 31
0.0
  0
LINE
  5
133F
330
18
100
AcDbEntity
  8
WAKU
 62
     3
100
AcDbLine
 10
1084.454997221753
 20
485.8092819335685
 30
0.0
 11
874.4549972217528
 21
485.8092819335685
 31
0.0
  0
LINE
  5
1340
330
18
100
AcDbEntity
  8
WAKU
 62
     3
100
AcDbLine
 10
874.4549972217528
 20
466.4481724664888
 30
0.0
 11
1084.454997221753
 21
466.4481724664888
 31
0.0
  0
LINE
  5
1341
330
18
100
AcDbEntity
  8
WAKU
 62
     3
100
AcDbLine
 10
1084.454997221753
 20
447.0870629994091
 30
0.0
 11
874.4549972217528
 21
447.0870629994091
 31
0.0
  0
LINE
  5
1342
330
18
100
AcDbEntity
  8
WAKU
 62
     3
100
AcDbLine
 10
874.4549972217528
 20
427.7259535323294
 30
0.0
 11
1084.454997221753
 21
427.7259535323294
 31
0.0
  0
LINE
  5
1343
330
18
100
AcDbEntity
  8
WAKU
 62
     3
100
AcDbLine
 10
1084.454997221753
 20
408.3648440652496
 30
0.0
 11
874.4549972217528
 21
408.3648440652496
 31
0.0
  0
LINE
  5
1344
330
18
100
AcDbEntity
  8
WAKU
 62
     3
100
AcDbLine
 10
1084.454997221753
 20
542.0315008677278
 30
0.0
 11
704.4549972217528
 21
542.0315008677278
 31
0.0
  0
LINE
  5
1345
330
18
100
AcDbEntity
  8
WAKU
 62
     3
100
AcDbLine
 10
704.4549972217528
 20
603.3463233546894
 30
0.0
 11
1084.454997221753
 21
603.3463233546894
 31
0.0
  0
LINE
  5
1346
330
18
100
AcDbEntity
  8
WAKU
 62
     3
100
AcDbLine
 10
1084.454997221753
 20
572.6889121112084
 30
0.0
 11
704.4549972217528
 21
572.6889121112084
 31
0.0
  0
LINE
  5
1347
330
18
100
AcDbEntity
  8
WAKU
 62
     3
100
AcDbLine
 10
1014.454997221753
 20
389.00373459817
 30
0.0
 11
1014.454997221753
 21
542.0315008677278
 31
0.0
  0
LINE
  5
1348
330
18
100
AcDbEntity
  8
WAKU
 62
     3
100
AcDbLine
 10
839.4549972217529
 20
512.75373459817
 30
0.0
 11
839.4549972217529
 21
389.00373459817
 31
0.0
  0
LINE
  5
1349
330
18
100
AcDbEntity
  8
WAKU
 62
     3
100
AcDbLine
 10
874.4549972217528
 20
542.0315008677278
 30
0.0
 11
874.4549972217528
 21
389.00373459817
 31
0.0
  0
LINE
  5
134A
330
18
100
AcDbEntity
  8
WAKU
 62
     3
100
AcDbLine
 10
979.4549972217527
 20
542.0315008677278
 30
0.0
 11
979.4549972217527
 21
389.00373459817
 31
0.0
  0
TEXT
  5
134B
330
18
100
AcDbEntity
  8
WAKU
 62
     3
100
AcDbText
 10
711.9549972217527
 20
393.4407508718668
 30
0.0
 40
10.0
  1
～
  7
K
 11
711.9549972217527
 21
398.4407508718668
 31
0.0
100
AcDbText
 73
     2
  0
TEXT
  5
134C
330
18
100
AcDbEntity
  8
WAKU
 62
     3
100
AcDbText
 10
927.2486155745786
 20
393.6842893317099
 30
0.0
 40
10.0
  1
2000以下
 41
0.8
  7
K
 72
     2
 11
974.7914727174357
 21
398.6842893317099
 31
0.0
100
AcDbText
 73
     2
  0
TEXT
  5
134D
330
18
100
AcDbEntity
  8
WAKU
 62
     3
100
AcDbText
 10
878.3353199433797
 20
393.6842893317099
 30
0.0
 40
10.0
  1
1000ｦｺｴ
 41
0.8
  7
K
 72
     2
 11
921.6115104195701
 21
398.6842893317099
 31
0.0
100
AcDbText
 73
     2
  0
TEXT
  5
134E
330
18
100
AcDbEntity
  8
WAKU
 62
     3
100
AcDbText
 10
986.9549972217528
 20
393.6842893317099
 30
0.0
 40
10.0
  1
0.5
 41
0.8
  7
K
 11
986.9549972217528
 21
398.6842893317099
 31
0.0
100
AcDbText
 73
     2
  0
TEXT
  5
134F
330
18
100
AcDbEntity
  8
WAKU
 62
     3
100
AcDbText
 10
846.2407115074672
 20
410.2210303092228
 30
0.0
 40
7.5
  1
mm
  7
K
 72
     1
 11
856.9549972217528
 21
410.2210303092228
 31
0.0
100
AcDbText
  0
TEXT
  5
1350
330
18
100
AcDbEntity
  8
WAKU
 62
     3
100
AcDbText
 10
711.9549972217527
 20
519.7250287583263
 30
0.0
 40
15.0
  1
標準加工アラサ
  7
K
 72
     4
 11
771.9549972217528
 21
527.2250287583262
 31
0.0
100
AcDbText
  0
LINE
  5
1351
330
18
100
AcDbEntity
  8
WAKU
 62
     3
100
AcDbLine
 10
839.4549972217529
 20
634.0037345981699
 30
0.0
 11
839.4549972217529
 21
512.75373459817
 31
0.0
  0
LINE
  5
1352
330
18
100
AcDbEntity
  8
WAKU
 62
     3
100
AcDbLine
 10
704.4549972217528
 20
512.4185566489246
 30
0.0
 11
839.4549972217529
 21
512.4185566489246
 31
0.0
  0
LINE
  5
1353
330
18
100
AcDbEntity
  8
WAKU
 62
     3
100
AcDbLine
 10
704.4549972217528
 20
483.3738973351371
 30
0.0
 11
839.4549972217529
 21
483.3738973351371
 31
0.0
  0
TEXT
  5
1354
330
18
100
AcDbEntity
  8
WAKU
 62
     3
100
AcDbText
 10
713.5549972217528
 20
491.6352445380821
 30
0.0
 40
15.0
  1
(標準外ﾊ指定ﾉｺﾄ)
 41
0.8
  7
K
 72
     4
 11
771.9549972217528
 21
498.0638159666535
 31
0.0
100
AcDbText
  0
TEXT
  5
1355
330
18
100
AcDbEntity
  8
WAKU
 62
     3
100
AcDbText
 10
711.9549972217527
 20
450.0628485140471
 30
0.0
 40
10.0
  1
▽▽▽
  7
K
 11
711.9549972217527
 21
455.0628485140471
 31
0.0
100
AcDbText
 73
     2
  0
TEXT
  5
1356
330
18
100
AcDbEntity
  8
WAKU
 62
     3
100
AcDbText
 10
711.9549972217527
 20
431.1888159666535
 30
0.0
 40
10.0
  1
▽▽
  7
K
 11
711.9549972217527
 21
436.1888159666535
 31
0.0
100
AcDbText
 73
     2
  0
TEXT
  5
1357
330
18
100
AcDbEntity
  8
WAKU
 62
     3
100
AcDbText
 10
711.9549972217527
 20
412.31478341926
 30
0.0
 40
10.0
  1
▽
  7
K
 11
711.9549972217527
 21
417.31478341926
 31
0.0
100
AcDbText
 73
     2
  0
TEXT
  5
1358
330
18
100
AcDbEntity
  8
WAKU
 62
     3
100
AcDbText
 10
711.9549972217527
 20
468.9368810614404
 30
0.0
 40
10.0
  1
▽▽▽▽
  7
K
 11
711.9549972217527
 21
473.9368810614403
 31
0.0
100
AcDbText
 73
     2
  0
TEXT
  5
1359
330
18
100
AcDbEntity
  8
WAKU
 62
     3
100
AcDbText
 10
850.6549972217529
 20
453.5474196384138
 30
0.0
 40
13.5
  1
法
  7
K
 72
     1
 11
856.9549972217528
 21
453.5474196384138
 31
0.0
100
AcDbText
  0
TEXT
  5
135A
330
18
100
AcDbEntity
  8
WAKU
 62
     3
100
AcDbText
 10
795.2883305550861
 20
412.31478341926
 30
0.0
 40
10.0
  1
100Z
  7
K
 72
     2
 11
831.9549972217528
 21
417.31478341926
 31
0.0
100
AcDbText
 73
     2
  0
TEXT
  5
135B
330
18
100
AcDbEntity
  8
WAKU
 62
     3
100
AcDbText
 10
804.8121400788957
 20
431.1888159666535
 30
0.0
 40
10.0
  1
25Z
  7
K
 72
     2
 11
831.9549972217528
 21
436.1888159666535
 31
0.0
100
AcDbText
 73
     2
  0
TEXT
  5
135C
330
18
100
AcDbEntity
  8
WAKU
 62
     3
100
AcDbText
 10
800.0502353169908
 20
450.0628485140471
 30
0.0
 40
10.0
  1
6.3Z
  7
K
 72
     2
 11
831.9549972217528
 21
455.0628485140471
 31
0.0
100
AcDbText
 73
     2
  0
TEXT
  5
135D
330
18
100
AcDbEntity
  8
WAKU
 62
     3
100
AcDbText
 10
839.2169019836575
 20
414.813254928017
 30
0.0
 40
10.0
  1
(
  7
K
 72
     2
 11
844.4549972217528
 21
419.8132549280169
 31
0.0
100
AcDbText
 73
     2
  0
TEXT
  5
135E
330
18
100
AcDbEntity
  8
WAKU
 62
     3
100
AcDbText
 10
850.7645210312766
 20
419.8132549280169
 30
0.0
 40
10.0
  1
±
  7
K
 72
     1
 11
856.9549972217528
 21
419.8132549280169
 31
0.0
100
AcDbText
  0
TEXT
  5
135F
330
18
100
AcDbEntity
  8
WAKU
 62
     3
100
AcDbText
 10
850.6549972217529
 20
438.0474196384137
 30
0.0
 40
13.5
  1
差
  7
K
 72
     1
 11
856.9549972217528
 21
438.0474196384137
 31
0.0
100
AcDbText
  0
TEXT
  5
1360
330
18
100
AcDbEntity
  8
WAKU
 62
     3
100
AcDbText
 10
800.0502353169908
 20
468.9368810614404
 30
0.0
 40
10.0
  1
0.8Z
  7
K
 72
     2
 11
831.9549972217528
 21
473.9368810614403
 31
0.0
100
AcDbText
 73
     2
  0
TEXT
  5
1361
330
18
100
AcDbEntity
  8
WAKU
 62
     3
100
AcDbText
 10
850.6549972217529
 20
484.5474196384138
 30
0.0
 40
13.5
  1
通
  7
K
 72
     1
 11
856.9549972217528
 21
484.5474196384138
 31
0.0
100
AcDbText
  0
TEXT
  5
1362
330
18
100
AcDbEntity
  8
WAKU
 62
     3
100
AcDbText
 10
850.6549972217529
 20
469.0474196384137
 30
0.0
 40
13.5
  1
寸
  7
K
 72
     1
 11
856.9549972217528
 21
469.0474196384137
 31
0.0
100
AcDbText
  0
TEXT
  5
1363
330
18
100
AcDbEntity
  8
WAKU
 62
     3
100
AcDbText
 10
850.6549972217529
 20
500.0474196384137
 30
0.0
 40
13.5
  1
普
  7
K
 72
     1
 11
856.9549972217528
 21
500.0474196384137
 31
0.0
100
AcDbText
  0
TEXT
  5
1364
330
18
100
AcDbEntity
  8
WAKU
 62
     3
100
AcDbText
 10
719.7839295248987
 20
611.1750289764297
 30
0.0
 40
15.0
  1
表面処理
  7
K
 11
719.7839295248987
 21
618.6750289764297
 31
0.0
100
AcDbText
 73
     2
  0
TEXT
  5
1365
330
18
100
AcDbEntity
  8
WAKU
 62
     3
100
AcDbText
 10
719.7839295248987
 20
549.8602064894681
 30
0.0
 40
15.0
  1
適用規格など
  7
K
 11
719.7839295248987
 21
557.3602064894681
 31
0.0
100
AcDbText
 73
     2
  0
TEXT
  5
1366
330
18
100
AcDbEntity
  8
WAKU
 62
     3
100
AcDbText
 10
719.7839295248987
 20
580.517617732949
 30
0.0
 40
15.0
  1
色調
  7
K
 11
719.7839295248987
 21
588.017617732949
 31
0.0
100
AcDbText
 73
     2
  0
TEXT
  5
1367
330
18
100
AcDbEntity
  8
WAKU
 62
     3
100
AcDbText
 10
942.4867108126738
 20
471.1287272000286
 30
0.0
 40
10.0
  1
30以下
 41
0.8
  7
K
 72
     2
 11
974.7914727174357
 21
476.1287272000286
 31
0.0
100
AcDbText
 73
     2
  0
TEXT
  5
1368
330
18
100
AcDbEntity
  8
WAKU
 62
     3
100
AcDbText
 10
934.8676631936262
 20
451.7676177329489
 30
0.0
 40
10.0
  1
120以下
 41
0.8
  7
K
 72
     2
 11
974.7914727174357
 21
456.7676177329489
 31
0.0
100
AcDbText
 73
     2
  0
TEXT
  5
1369
330
18
100
AcDbEntity
  8
WAKU
 62
     3
100
AcDbText
 10
927.2486155745786
 20
413.0453987987896
 30
0.0
 40
10.0
  1
1000以下
 41
0.8
  7
K
 72
     2
 11
974.7914727174357
 21
418.0453987987895
 31
0.0
100
AcDbText
 73
     2
  0
TEXT
  5
136A
330
18
100
AcDbEntity
  8
WAKU
 62
     3
100
AcDbText
 10
934.8676631936262
 20
432.4065082658692
 30
0.0
 40
10.0
  1
315以下
 41
0.8
  7
K
 72
     2
 11
974.7914727174357
 21
437.4065082658693
 31
0.0
100
AcDbText
 73
     2
  0
TEXT
  5
136B
330
18
100
AcDbEntity
  8
WAKU
 62
     3
100
AcDbText
 10
885.9543675624273
 20
413.0453987987896
 30
0.0
 40
10.0
  1
315ｦｺｴ
 41
0.8
  7
K
 72
     2
 11
921.6115104195701
 21
418.0453987987895
 31
0.0
100
AcDbText
 73
     2
  0
TEXT
  5
136C
330
18
100
AcDbEntity
  8
WAKU
 62
     3
100
AcDbText
 10
885.9543675624273
 20
432.4065082658692
 30
0.0
 40
10.0
  1
120ｦｺｴ
 41
0.8
  7
K
 72
     2
 11
921.6115104195701
 21
437.4065082658693
 31
0.0
100
AcDbText
 73
     2
  0
TEXT
  5
136D
330
18
100
AcDbEntity
  8
WAKU
 62
     3
100
AcDbText
 10
893.5734151814749
 20
451.7676177329489
 30
0.0
 40
10.0
  1
30ｦｺｴ
 41
0.8
  7
K
 72
     2
 11
921.6115104195701
 21
456.7676177329489
 31
0.0
100
AcDbText
 73
     2
  0
TEXT
  5
136E
330
18
100
AcDbEntity
  8
WAKU
 62
     3
100
AcDbText
 10
867.5726404792403
 20
414.813254928017
 30
0.0
 40
10.0
  1
)
  7
K
 11
867.5726404792403
 21
419.8132549280169
 31
0.0
100
AcDbText
 73
     2
  0
TEXT
  5
136F
330
18
100
AcDbEntity
  8
WAKU
 62
     3
100
AcDbText
 10
901.1924628005225
 20
471.1287272000286
 30
0.0
 40
10.0
  1
6ｦｺｴ
 41
0.8
  7
K
 72
     2
 11
921.6115104195701
 21
476.1287272000286
 31
0.0
100
AcDbText
 73
     2
  0
TEXT
  5
1370
330
18
100
AcDbEntity
  8
WAKU
 62
     3
100
AcDbText
 10
901.1924628005225
 20
490.4898366671083
 30
0.0
 40
10.0
  1
3ｦｺｴ
 41
0.8
  7
K
 72
     2
 11
921.6115104195701
 21
495.4898366671083
 31
0.0
100
AcDbText
 73
     2
  0
TEXT
  5
1371
330
18
100
AcDbEntity
  8
WAKU
 62
     3
100
AcDbText
 10
885.4972247052844
 20
509.850946134188
 30
0.0
 40
10.0
  1
0.5以上
 41
0.8
  7
K
 72
     2
 11
921.6115104195701
 21
514.850946134188
 31
0.0
100
AcDbText
 73
     2
  0
TEXT
  5
1372
330
18
100
AcDbEntity
  8
WAKU
 62
     3
100
AcDbText
 10
986.9549972217528
 20
432.4065082658692
 30
0.0
 40
10.0
  1
0.2
 41
0.8
  7
K
 11
986.9549972217528
 21
437.4065082658693
 31
0.0
100
AcDbText
 73
     2
  0
TEXT
  5
1373
330
18
100
AcDbEntity
  8
WAKU
 62
     3
100
AcDbText
 10
986.9549972217528
 20
413.0453987987896
 30
0.0
 40
10.0
  1
0.3
 41
0.8
  7
K
 11
986.9549972217528
 21
418.0453987987895
 31
0.0
100
AcDbText
 73
     2
  0
TEXT
  5
1374
330
18
100
AcDbEntity
  8
WAKU
 62
     3
100
AcDbText
 10
986.9549972217528
 20
451.7676177329489
 30
0.0
 40
10.0
  1
0.15
 41
0.8
  7
K
 11
986.9549972217528
 21
456.7676177329489
 31
0.0
100
AcDbText
 73
     2
  0
TEXT
  5
1375
330
18
100
AcDbEntity
  8
WAKU
 62
     3
100
AcDbText
 10
950.1057584317214
 20
490.4898366671083
 30
0.0
 40
10.0
  1
6以下
 41
0.8
  7
K
 72
     2
 11
974.7914727174357
 21
495.4898366671083
 31
0.0
100
AcDbText
 73
     2
  0
TEXT
  5
1376
330
18
100
AcDbEntity
  8
WAKU
 62
     3
100
AcDbText
 10
950.1057584317214
 20
509.850946134188
 30
0.0
 40
10.0
  1
3以下
 41
0.8
  7
K
 72
     2
 11
974.7914727174357
 21
514.850946134188
 31
0.0
100
AcDbText
 73
     2
  0
TEXT
  5
1377
330
18
100
AcDbEntity
  8
WAKU
 62
     3
100
AcDbText
 10
986.9549972217528
 20
490.4898366671083
 30
0.0
 40
10.0
  1
0.05
 41
0.8
  7
K
 11
986.9549972217528
 21
495.4898366671083
 31
0.0
100
AcDbText
 73
     2
  0
TEXT
  5
1378
330
18
100
AcDbEntity
  8
WAKU
 62
     3
100
AcDbText
 10
986.9549972217528
 20
471.1287272000286
 30
0.0
 40
10.0
  1
0.1
 41
0.8
  7
K
 11
986.9549972217528
 21
476.1287272000286
 31
0.0
100
AcDbText
 73
     2
  0
TEXT
  5
1379
330
18
100
AcDbEntity
  8
WAKU
 62
     3
100
AcDbText
 10
986.9549972217528
 20
509.850946134188
 30
0.0
 40
10.0
  1
0.05
 41
0.8
  7
K
 11
986.9549972217528
 21
514.850946134188
 31
0.0
100
AcDbText
 73
     2
  0
TEXT
  5
137A
330
18
100
AcDbEntity
  8
WAKU
 62
     3
100
AcDbText
 10
884.2049972217528
 20
526.5315008677279
 30
0.0
 40
13.5
  1
呼 ビ 寸 法
  7
K
 72
     1
 11
926.9549972217529
 21
533.2815008677279
 31
0.0
100
AcDbText
 73
     2
  0
TEXT
  5
137B
330
18
100
AcDbEntity
  8
WAKU
 62
     3
100
AcDbText
 10
992.4549972217528
 20
526.5315008677279
 30
0.0
 40
13.5
  1
J
  7
K
 72
     1
 11
996.9549972217528
 21
533.2815008677279
 31
0.0
100
AcDbText
 73
     2
  0
TEXT
  5
137C
330
18
100
AcDbEntity
  8
WAKU
 62
     3
100
AcDbText
 10
1089.454997221753
 20
399.00373459817
 30
0.0
 40
15.0
  1
承認
  7
K
100
AcDbText
  0
LINE
  5
137D
330
18
100
AcDbEntity
  8
WAKU
 62
     3
100
AcDbLine
 10
1269.454997221753
 20
389.00373459817
 30
0.0
 11
1269.454997221753
 21
454.00373459817
 31
0.0
  0
LINE
  5
137E
330
18
100
AcDbEntity
  8
WAKU
 62
     3
100
AcDbLine
 10
1189.454997221753
 20
554.00373459817
 30
0.0
 11
1189.454997221753
 21
389.00373459817
 31
0.0
  0
LINE
  5
137F
330
18
100
AcDbEntity
  8
WAKU
 62
     3
100
AcDbLine
 10
1084.454997221753
 20
389.00373459817
 30
0.0
 11
1084.454997221753
 21
554.00373459817
 31
0.0
  0
LINE
  5
1380
330
18
100
AcDbEntity
  8
WAKU
 62
     3
100
AcDbLine
 10
1129.454997221753
 20
554.00373459817
 30
0.0
 11
1129.454997221753
 21
389.00373459817
 31
0.0
  0
LINE
  5
1381
330
18
100
AcDbEntity
  8
WAKU
 62
     3
100
AcDbLine
 10
1049.454997221753
 20
542.0315008677278
 30
0.0
 11
1049.454997221753
 21
389.00373459817
 31
0.0
  0
TEXT
  5
1382
330
18
100
AcDbEntity
  8
WAKU
 62
     3
100
AcDbText
 10
1056.954997221753
 20
393.6842893317099
 30
0.0
 40
10.0
  1
3
 41
0.8
  7
K
 11
1056.954997221753
 21
398.6842893317099
 31
0.0
100
AcDbText
 73
     2
  0
LINE
  5
1383
330
18
100
AcDbEntity
  8
WAKU
 62
     3
100
AcDbLine
 10
1084.454997221753
 20
554.00373459817
 30
0.0
 11
1269.454997221753
 21
554.00373459817
 31
0.0
  0
LINE
  5
1384
330
18
100
AcDbEntity
  8
WAKU
 62
     3
100
AcDbLine
 10
1084.454997221753
 20
471.5037345981699
 30
0.0
 11
1269.454997221753
 21
471.5037345981699
 31
0.0
  0
LINE
  5
1385
330
18
100
AcDbEntity
  8
WAKU
 62
     3
100
AcDbLine
 10
1269.454997221753
 20
430.25373459817
 30
0.0
 11
1084.454997221753
 21
430.25373459817
 31
0.0
  0
LINE
  5
1386
330
18
100
AcDbEntity
  8
WAKU
 62
     3
100
AcDbLine
 10
1269.454997221753
 20
512.75373459817
 30
0.0
 11
1084.454997221753
 21
512.75373459817
 31
0.0
  0
TEXT
  5
1387
330
18
100
AcDbEntity
  8
WAKU
 62
     3
100
AcDbText
 10
1089.454997221753
 20
440.2537345981699
 30
0.0
 40
15.0
  1
検図
  7
K
100
AcDbText
  0
TEXT
  5
1388
330
18
100
AcDbEntity
  8
WAKU
 62
     3
100
AcDbText
 10
1089.454997221753
 20
481.50373459817
 30
0.0
 40
15.0
  1
製図
  7
K
100
AcDbText
  0
TEXT
  5
1389
330
18
100
AcDbEntity
  8
WAKU
 62
     3
100
AcDbText
 10
1056.954997221753
 20
432.4065082658692
 30
0.0
 40
10.0
  1
1.2
 41
0.8
  7
K
 11
1056.954997221753
 21
437.4065082658693
 31
0.0
100
AcDbText
 73
     2
  0
TEXT
  5
138A
330
18
100
AcDbEntity
  8
WAKU
 62
     3
100
AcDbText
 10
1056.954997221753
 20
451.7676177329489
 30
0.0
 40
10.0
  1
0.8
 41
0.8
  7
K
 11
1056.954997221753
 21
456.7676177329489
 31
0.0
100
AcDbText
 73
     2
  0
TEXT
  5
138B
330
18
100
AcDbEntity
  8
WAKU
 62
     3
100
AcDbText
 10
1056.954997221753
 20
413.0453987987896
 30
0.0
 40
10.0
  1
2
 41
0.8
  7
K
 11
1056.954997221753
 21
418.0453987987895
 31
0.0
100
AcDbText
 73
     2
  0
LINE
  5
138C
330
18
100
AcDbEntity
  8
WAKU
 62
     3
100
AcDbLine
 10
1056.954997221753
 20
514.850946134188
 30
0.0
 11
1074.985163518557
 21
514.850946134188
 31
0.0
  0
TEXT
  5
138D
330
18
100
AcDbEntity
  8
WAKU
 62
     3
100
AcDbText
 10
1056.954997221753
 20
490.4898366671083
 30
0.0
 40
10.0
  1
0.2
 41
0.8
  7
K
 11
1056.954997221753
 21
495.4898366671083
 31
0.0
100
AcDbText
 73
     2
  0
TEXT
  5
138E
330
18
100
AcDbEntity
  8
WAKU
 62
     3
100
AcDbText
 10
1056.954997221753
 20
471.1287272000286
 30
0.0
 40
10.0
  1
0.5
 41
0.8
  7
K
 11
1056.954997221753
 21
476.1287272000286
 31
0.0
100
AcDbText
 73
     2
  0
TEXT
  5
138F
330
18
100
AcDbEntity
  8
WAKU
 62
     3
100
AcDbText
 10
1089.454997221753
 20
584.0037345981699
 30
0.0
 40
15.0
  1
品名
  7
K
100
AcDbText
  0
TEXT
  5
1390
330
18
100
AcDbEntity
  8
WAKU
 62
     3
100
AcDbText
 10
1089.454997221753
 20
522.75373459817
 30
0.0
 40
15.0
  1
設計
  7
K
100
AcDbText
  0
LINE
  5
1391
330
18
100
AcDbEntity
  8
WAKU
 62
     3
100
AcDbLine
 10
1084.454997221753
 20
554.00373459817
 30
0.0
 11
1084.454997221753
 21
634.0037345981699
 31
0.0
  0
TEXT
  5
1392
330
18
100
AcDbEntity
  8
WAKU
 62
     3
100
AcDbText
 10
1060.526425793181
 20
526.5315008677279
 30
0.0
 40
13.5
  1
L
  7
K
 72
     1
 11
1066.954997221753
 21
533.2815008677279
 31
0.0
100
AcDbText
 73
     2
  0
LINE
  5
1393
330
18
100
AcDbEntity
  8
WAKU
 62
     3
100
AcDbLine
 10
1129.454997221753
 20
634.0037345981699
 30
0.0
 11
1129.454997221753
 21
554.00373459817
 31
0.0
  0
LINE
  5
1394
330
18
100
AcDbEntity
  8
WAKU
 62
     3
100
AcDbLine
 10
1269.454997221753
 20
519.00373459817
 30
0.0
 11
1269.454997221753
 21
554.00373459817
 31
0.0
  0
LINE
  5
1395
330
18
100
AcDbEntity
  8
WAKU
 62
     3
100
AcDbLine
 10
1269.454997221753
 20
454.00373459817
 30
0.0
 11
1269.454997221753
 21
519.00373459817
 31
0.0
  0
LINE
  5
1396
330
18
100
AcDbEntity
  8
WAKU
 62
     3
100
AcDbLine
 10
1329.454997221753
 20
519.00373459817
 30
0.0
 11
1329.454997221753
 21
454.00373459817
 31
0.0
  0
TEXT
  5
1397
330
18
100
AcDbEntity
  8
WAKU
 62
     3
100
AcDbText
 10
1291.880833339273
 20
409.0037345981699
 30
0.0
 40
10.0
  1
株式会社
  7
K
100
AcDbText
  0
TEXT
  5
1398
330
18
100
AcDbEntity
  8
WAKU
 62
     3
100
AcDbText
 10
1282.954997221753
 20
479.00373459817
 30
0.0
 40
15.0
  1
図番
  7
K
 72
     4
 11
1299.454997221753
 21
486.50373459817
 31
0.0
100
AcDbText
  0
LINE
  5
1399
330
18
100
AcDbEntity
  8
WAKU
 62
     3
100
AcDbLine
 10
1569.454997221753
 20
634.0037345981699
 30
0.0
 11
1394.454997221753
 21
634.0037345981699
 31
0.0
  0
TEXT
  5
139A
330
18
100
AcDbEntity
  8
WAKU
 62
     3
100
AcDbText
 10
1484.771555011109
 20
526.0900376607538
 30
0.0
 40
12.5
  1
(単位mm)
  7
K
100
AcDbText
  0
LINE
  5
139B
330
18
100
AcDbEntity
  8
WAKU
 62
     3
100
AcDbLine
 10
1394.454997221753
 20
594.00373459817
 30
0.0
 11
1569.454997221753
 21
594.00373459817
 31
0.0
  0
LINE
  5
139C
330
18
100
AcDbEntity
  8
WAKU
 62
     3
100
AcDbLine
 10
1429.454997221753
 20
519.00373459817
 30
0.0
 11
1429.454997221753
 21
554.00373459817
 31
0.0
  0
LINE
  5
139D
330
18
100
AcDbEntity
  8
WAKU
 62
     3
100
AcDbLine
 10
1384.454997221753
 20
554.00373459817
 30
0.0
 11
1384.454997221753
 21
519.00373459817
 31
0.0
  0
TEXT
  5
139E
330
18
100
AcDbEntity
  8
WAKU
 62
     3
100
AcDbText
 10
1399.454997221753
 20
604.00373459817
 30
0.0
 40
15.0
  1
材 質
  7
K
100
AcDbText
  0
TEXT
  5
139F
330
18
100
AcDbEntity
  8
WAKU
 62
     3
100
AcDbText
 10
1399.454997221753
 20
564.00373459817
 30
0.0
 40
15.0
  1
板 厚
  7
K
100
AcDbText
  0
LINE
  5
13A0
330
18
100
AcDbEntity
  8
WAKU
 62
     3
100
AcDbLine
 10
1394.454997221753
 20
634.0037345981699
 30
0.0
 11
1394.454997221753
 21
554.00373459817
 31
0.0
  0
TEXT
  5
13A1
330
18
100
AcDbEntity
  8
WAKU
 62
     3
100
AcDbText
 10
1389.454997221753
 20
529.00373459817
 30
0.0
 40
15.0
  1
尺度
  7
K
100
AcDbText
  0
LINE
  5
13A2
330
18
100
AcDbEntity
  8
WAKU
 62
     3
100
AcDbLine
 10
1449.454997221753
 20
634.0037345981699
 30
0.0
 11
1449.454997221753
 21
554.00373459817
 31
0.0
  0
LINE
  5
13A3
330
18
100
AcDbEntity
  8
WAKU
 62
     3
100
AcDbLine
 10
704.4549972217528
 20
634.0037345981699
 30
0.0
 11
704.4549972217528
 21
389.00373459817
 31
0.0
  0
DIMENSION
  5
1A4D
330
18
100
AcDbEntity
  8
SUNPOU
100
AcDbDimension
  2
*D49
 10
-79.82637071935432
 20
1271.452255033251
 30
0.0
 11
35.17362928745206
 21
1271.452255033251
 31
0.0
 70
   160
 71
     5
 42
230.0000000068
  3
IMCADLT
100
AcDbAlignedDimension
 13
150.173629287452
 23
1081.046561288228
 33
0.0
 14
-79.82637071935432
 24
1081.046561288228
 34
0.0
100
AcDbRotatedDimension
1001
ACAD
1000
DSTYLE
1002
{
1070
    40
1040
5.0
1070
    41
1040
3.0
1002
}
  0
DIMENSION
  5
1A4E
330
18
100
AcDbEntity
  8
SUNPOU
100
AcDbDimension
  2
*D50
 10
148.173629287452
 20
688.6205210917428
 30
0.0
 11
35.17362928745206
 21
688.6205210917428
 31
0.0
 70
   160
 71
     5
 42
226.0000000068
  3
IMCADLT
100
AcDbAlignedDimension
 13
-77.82637071935432
 23
816.0465612882275
 33
0.0
 14
148.173629287452
 24
816.0465612882275
 34
0.0
100
AcDbRotatedDimension
1001
ACAD
1000
DSTYLE
1002
{
1070
    40
1040
5.0
1070
    41
1040
3.0
1002
}
  0
LINE
  5
1A4F
330
18
100
AcDbEntity
  8
JISSEN
100
AcDbLine
 10
-62.32637071595116
 20
811.0465612882276
 30
0.0
 11
-61.08186858007207
 21
802.749880382367
 31
0.0
  0
LINE
  5
1A50
330
18
100
AcDbEntity
  8
JISSEN
100
AcDbLine
 10
-59.10399587433551
 20
801.0465612882274
 30
0.0
 11
-42.5487455575668
 21
801.0465612882274
 31
0.0
  0
LINE
  5
1A51
330
18
100
AcDbEntity
  8
JISSEN
100
AcDbLine
 10
-40.57087285183024
 20
802.749880382367
 30
0.0
 11
-39.32637071595116
 21
811.0465612882276
 31
0.0
  0
LINE
  5
1A52
330
18
100
AcDbEntity
  8
JISSEN
100
AcDbLine
 10
110.9181314199278
 20
802.749880382367
 30
0.0
 11
109.6736292840488
 21
811.0465612882274
 31
0.0
  0
LINE
  5
1A53
330
18
100
AcDbEntity
  8
JISSEN
100
AcDbLine
 10
129.4512544424331
 20
801.0465612882274
 30
0.0
 11
112.8960041256644
 21
801.0465612882274
 31
0.0
  0
LINE
  5
1A54
330
18
100
AcDbEntity
  8
JISSEN
100
AcDbLine
 10
132.6736292840488
 20
811.0465612882274
 30
0.0
 11
131.4291271481697
 21
802.7498803823668
 31
0.0
  0
LINE
  5
1A55
330
18
100
AcDbEntity
  8
JISSEN
100
AcDbLine
 10
148.173629287452
 20
813.0465612882273
 30
0.0
 11
148.173629287452
 21
1046.046561288227
 31
0.0
  0
LINE
  5
1A56
330
18
100
AcDbEntity
  8
JISSEN
100
AcDbLine
 10
-75.82637071935431
 20
811.0465612882276
 30
0.0
 11
146.1736292840488
 21
811.0465612882276
 31
0.0
  0
LINE
  5
1A57
330
18
100
AcDbEntity
  8
JISSEN
100
AcDbLine
 10
150.173629287452
 20
1081.046561288228
 30
0.0
 11
148.173629287452
 21
1046.046561288227
 31
0.0
  0
LINE
  5
1A58
330
18
100
AcDbEntity
  8
JISSEN
100
AcDbLine
 10
150.173629287452
 20
1081.046561288228
 30
0.0
 11
141.0618917675462
 21
1188.469150956739
 31
0.0
  0
LINE
  5
1A59
330
18
100
AcDbEntity
  8
JISSEN
100
AcDbLine
 10
136.0797819764175
 20
1193.046561286799
 30
0.0
 11
-65.73252340831982
 21
1193.046561286799
 31
0.0
  0
LINE
  5
1A5A
330
18
100
AcDbEntity
  8
JISSEN
100
AcDbLine
 10
-79.82637071935432
 20
1081.046561288228
 30
0.0
 11
-70.71463319944848
 21
1188.469150956739
 31
0.0
  0
LINE
  5
1A5B
330
18
100
AcDbEntity
  8
JISSEN
100
AcDbLine
 10
-79.82637071935432
 20
1081.046561288228
 30
0.0
 11
-77.82637071935432
 21
1046.046561288227
 31
0.0
  0
LINE
  5
1A5C
330
18
100
AcDbEntity
  8
JISSEN
100
AcDbLine
 10
-77.82637071935432
 20
813.0465612882275
 30
0.0
 11
-77.82637071935432
 21
1003.289518719499
 31
0.0
  0
ARC
  5
1A5D
330
18
100
AcDbEntity
  8
JISSEN
100
AcDbCircle
 10
-65.73252340831982
 20
1188.046561286798
 30
0.0
 40
5.0
100
AcDbArc
 50
90.0
 51
175.151695229817
  0
ARC
  5
1A5E
330
18
100
AcDbEntity
  8
JISSEN
100
AcDbCircle
 10
136.0797819764175
 20
1188.046561286799
 30
0.0
 40
5.0
100
AcDbArc
 50
4.84830477018298
 51
90.0
  0
DIMENSION
  5
1A5F
330
18
100
AcDbEntity
  8
SUNPOU
100
AcDbDimension
  2
*D51
 10
121.1736292840488
 20
730.3896468264427
 30
0.0
 11
32.28396702768077
 21
730.3896468264427
 31
0.0
 70
   160
 71
     5
 42
172.0
  3
IMCADLT
100
AcDbAlignedDimension
 13
-50.82637071595115
 23
801.0465612882274
 33
0.0
 14
121.1736292840488
 24
801.0465612882274
 34
0.0
100
AcDbRotatedDimension
1001
ACAD
1000
DSTYLE
1002
{
1070
    40
1040
5.0
1070
    41
1040
3.0
1002
}
  0
ARC
  5
1A60
330
18
100
AcDbEntity
  8
JISSEN
100
AcDbCircle
 10
-59.10399587433551
 20
803.0465612882276
 30
0.0
 40
2.0
100
AcDbArc
 50
188.5307656099486
 51
270.0
  0
ARC
  5
1A61
330
18
100
AcDbEntity
  8
JISSEN
100
AcDbCircle
 10
-42.5487455575668
 20
803.0465612882276
 30
0.0
 40
2.0
100
AcDbArc
 50
270.0
 51
351.4692343900513
  0
ARC
  5
1A62
330
18
100
AcDbEntity
  8
JISSEN
100
AcDbCircle
 10
112.8960041256644
 20
803.0465612882274
 30
0.0
 40
2.0
100
AcDbArc
 50
188.5307656099486
 51
270.0
  0
ARC
  5
1A63
330
18
100
AcDbEntity
  8
JISSEN
100
AcDbCircle
 10
129.4512544424331
 20
803.0465612882274
 30
0.0
 40
2.0
100
AcDbArc
 50
270.0
 51
351.4692343900513
  0
DIMENSION
  5
1A64
330
18
100
AcDbEntity
  8
SUNPOU
100
AcDbDimension
  2
*D52
 10
-207.6477000251125
 20
1193.046561286798
 30
0.0
 11
-207.6477000251125
 21
1008.555970054406
 31
0.0
 70
   160
 71
     5
 42
391.9999999986
  3
IMCADLT
100
AcDbAlignedDimension
 13
-59.10399587433551
 23
801.0465612882274
 33
0.0
 14
-65.73252340831982
 24
1193.046561286798
 34
0.0
 50
90.0
100
AcDbRotatedDimension
1001
ACAD
1000
DSTYLE
1002
{
1070
    40
1040
5.0
1070
    41
1040
3.0
1002
}
  0
LINE
  5
1A65
330
18
100
AcDbEntity
  8
JISSEN
100
AcDbLine
 10
-54.32637071595116
 20
841.0465612882275
 30
0.0
 11
-54.32637071595116
 21
1026.206294007658
 31
0.0
  0
LINE
  5
1A66
330
18
100
AcDbEntity
  8
JISSEN
100
AcDbLine
 10
-57.32637071595116
 20
841.0465612882275
 30
0.0
 11
-57.32637071595116
 21
1021.010141584951
 31
0.0
  0
LINE
  5
1A67
330
18
100
AcDbEntity
  8
JISSEN
100
AcDbLine
 10
124.6736292840489
 20
841.0465612882275
 30
0.0
 11
124.6736292840489
 21
1085.952823148452
 31
0.0
  0
LINE
  5
1A68
330
18
100
AcDbEntity
  8
JISSEN
100
AcDbLine
 10
127.6736292840488
 20
841.0465612882275
 30
0.0
 11
127.6736292840488
 21
1086.876528783338
 31
0.0
  0
LINE
  5
1A69
330
18
100
AcDbEntity
  8
JISSEN
100
AcDbLine
 10
-70.8263707159511
 20
836.0465612882276
 30
0.0
 11
141.1736292840488
 21
836.0465612882276
 31
0.0
  0
LINE
  5
1A6A
330
18
100
AcDbEntity
  8
JISSEN
100
AcDbLine
 10
-75.82637072275753
 20
841.0465612882275
 30
0.0
 11
146.173629287452
 21
841.0465612882275
 31
0.0
  0
LINE
  5
1A6B
330
18
100
AcDbEntity
  8
JISSEN
100
AcDbLine
 10
143.1736292840488
 20
813.0465612882273
 30
0.0
 11
143.1736292840488
 21
834.0465612882274
 31
0.0
  0
LINE
  5
1A6C
330
18
100
AcDbEntity
  8
JISSEN
100
AcDbLine
 10
-72.8263707159511
 20
813.0465612882275
 30
0.0
 11
-72.8263707159511
 21
834.0465612882274
 31
0.0
  0
LINE
  5
1A6D
330
18
100
AcDbEntity
  8
JISSEN
100
AcDbLine
 10
142.5878428462226
 20
835.4607748507998
 30
0.0
 11
147.5878428496253
 21
840.4607748507995
 31
0.0
  0
LINE
  5
1A6E
330
18
100
AcDbEntity
  8
JISSEN
100
AcDbLine
 10
-72.24058427812486
 20
835.4607748507998
 30
0.0
 11
-77.24058428322923
 21
840.4607748525011
 31
0.0
  0
ARC
  5
1A6F
330
18
100
AcDbEntity
  8
JISSEN
100
AcDbCircle
 10
146.173629287452
 20
813.0465612882273
 30
0.0
 40
2.0
100
AcDbArc
 50
270.0
 51
0.0
  0
ARC
  5
1A70
330
18
100
AcDbEntity
  8
JISSEN
100
AcDbCircle
 10
-70.8263707159511
 20
813.0465612882275
 30
0.0
 40
2.0
100
AcDbArc
 50
180.0
 51
270.0
  0
ARC
  5
1A71
330
18
100
AcDbEntity
  8
JISSEN
100
AcDbCircle
 10
-75.82637071935431
 20
813.0465612882275
 30
0.0
 40
2.0
100
AcDbArc
 50
180.0
 51
270.0
  0
ARC
  5
1A72
330
18
100
AcDbEntity
  8
JISSEN
100
AcDbCircle
 10
141.1736292840488
 20
813.0465612882273
 30
0.0
 40
2.0
100
AcDbArc
 50
270.0
 51
0.0
  0
ARC
  5
1A73
330
18
100
AcDbEntity
  8
JISSEN
100
AcDbCircle
 10
141.1736292840488
 20
834.0465612882274
 30
0.0
 40
2.0
100
AcDbArc
 50
0.0000000000260551
 51
90.0
  0
ARC
  5
1A74
330
18
100
AcDbEntity
  8
JISSEN
100
AcDbCircle
 10
-70.8263707159511
 20
834.0465612882274
 30
0.0
 40
2.0
100
AcDbArc
 50
90.0
 51
180.0
  0
ARC
  5
1A75
330
18
100
AcDbEntity
  8
JISSEN
100
AcDbCircle
 10
146.173629287452
 20
839.0465612882266
 30
0.0
 40
2.0
100
AcDbArc
 50
0.0000000000260551
 51
90.0
  0
ARC
  5
1A76
330
18
100
AcDbEntity
  8
JISSEN
100
AcDbCircle
 10
-75.82637072275753
 20
839.0465612882266
 30
0.0
 40
2.0
100
AcDbArc
 50
90.0
 51
179.9999999999739
  0
LINE
  5
1A77
330
18
100
AcDbEntity
  8
JISSEN
100
AcDbLine
 10
124.6736292840489
 20
1156.046561286799
 30
0.0
 11
-54.32637071595116
 21
1156.046561286799
 31
0.0
  0
LINE
  5
1A78
330
18
100
AcDbEntity
  8
JISSEN
100
AcDbLine
 10
86.42362928404891
 20
1136.046561286799
 30
0.0
 11
-16.07637071595116
 21
1136.046561286799
 31
0.0
  0
LINE
  5
1A79
330
18
100
AcDbEntity
  8
JISSEN
100
AcDbLine
 10
141.0618917640489
 20
1118.546561286799
 30
0.0
 11
-76.64556714686682
 21
1118.546561286799
 31
0.0
  0
LINE
  5
1A7A
330
18
100
AcDbEntity
  8
JISSEN
100
AcDbLine
 10
99.67362928404885
 20
1113.546561286798
 30
0.0
 11
-46.8263707159511
 21
1113.546561286798
 31
0.0
  0
LINE
  5
1A7B
330
18
100
AcDbEntity
  8
JISSEN
100
AcDbLine
 10
99.67362928404879
 20
1078.546561286799
 30
0.0
 11
-46.8263707159511
 21
1078.546561286799
 31
0.0
  0
LINE
  5
1A7C
330
18
100
AcDbEntity
  8
JISSEN
100
AcDbLine
 10
-26.07637071595116
 20
1146.046561286799
 30
0.0
 11
-26.07637071595116
 21
1156.046561286798
 31
0.0
  0
LINE
  5
1A7D
330
18
100
AcDbEntity
  8
JISSEN
100
AcDbLine
 10
96.42362928404891
 20
1146.046561286799
 30
0.0
 11
96.42362928404891
 21
1156.046561286799
 31
0.0
  0
ARC
  5
1A7E
330
18
100
AcDbEntity
  8
JISSEN
100
AcDbCircle
 10
-16.07637071595116
 20
1146.046561286799
 30
0.0
 40
10.0
100
AcDbArc
 50
180.0
 51
270.0
  0
ARC
  5
1A7F
330
18
100
AcDbEntity
  8
JISSEN
100
AcDbCircle
 10
86.42362928404891
 20
1146.046561286799
 30
0.0
 40
10.0
100
AcDbArc
 50
270.0
 51
0.0
  0
LINE
  5
1A80
330
18
100
AcDbEntity
  8
JISSEN
100
AcDbLine
 10
141.0618917640489
 20
1118.546561286799
 30
0.0
 11
150.173629287452
 21
1081.046561288228
 31
0.0
  0
LINE
  5
1A81
330
18
100
AcDbEntity
  8
JISSEN
100
AcDbLine
 10
141.0618917640488
 20
841.0465612882275
 30
0.0
 11
141.0618917640488
 21
1188.46915099797
 31
0.0
  0
LINE
  5
1A82
330
18
100
AcDbEntity
  8
JISSEN
100
AcDbLine
 10
-70.71463319595114
 20
1118.546561286799
 30
0.0
 11
-79.82637071935432
 21
1081.046561288228
 31
0.0
  0
LINE
  5
1A83
330
18
100
AcDbEntity
  8
JISSEN
100
AcDbLine
 10
-70.71463319595108
 20
841.0465612882275
 30
0.0
 11
-70.71463319595108
 21
1008.381227893929
 31
0.0
  0
LINE
  5
1A84
330
18
100
AcDbEntity
  8
JISSEN
100
AcDbLine
 10
102.6736292840488
 20
1081.546561286799
 30
0.0
 11
102.6736292840488
 21
1110.546561286798
 31
0.0
  0
LINE
  5
1A85
330
18
100
AcDbEntity
  8
JISSEN
100
AcDbLine
 10
-49.8263707159511
 20
1081.546561286798
 30
0.0
 11
-49.8263707159511
 21
1110.546561286798
 31
0.0
  0
ARC
  5
1A86
330
18
100
AcDbEntity
  8
JISSEN
100
AcDbCircle
 10
99.67362928404885
 20
1110.546561286798
 30
0.0
 40
3.0
100
AcDbArc
 50
0.0
 51
90.0
  0
ARC
  5
1A87
330
18
100
AcDbEntity
  8
JISSEN
100
AcDbCircle
 10
99.67362928404879
 20
1081.546561286799
 30
0.0
 40
3.0
100
AcDbArc
 50
270.0
 51
0.0
  0
ARC
  5
1A88
330
18
100
AcDbEntity
  8
JISSEN
100
AcDbCircle
 10
-46.8263707159511
 20
1081.546561286798
 30
0.0
 40
3.0
100
AcDbArc
 50
180.0
 51
270.0
  0
ARC
  5
1A89
330
18
100
AcDbEntity
  8
JISSEN
100
AcDbCircle
 10
-46.8263707159511
 20
1110.546561286798
 30
0.0
 40
3.0
100
AcDbArc
 50
90.0
 51
180.0
  0
LINE
  5
1A8A
330
18
100
AcDbEntity
  8
JISSEN
100
AcDbLine
 10
141.0618917640488
 20
1066.046561286799
 30
0.0
 11
-70.71463319595102
 21
1066.046561286799
 31
0.0
  0
LINE
  5
1A8B
330
18
100
AcDbEntity
  8
JISSEN
100
AcDbLine
 10
141.0618917640488
 20
1018.546561286798
 30
0.0
 11
101.8538490202913
 21
1018.546561286798
 31
0.0
  0
LINE
  5
1A8C
330
18
100
AcDbEntity
  8
JISSEN
100
AcDbLine
 10
122.6736292840489
 20
1023.546561286798
 30
0.0
 11
112.120550550528
 21
1023.546561286798
 31
0.0
  0
LINE
  5
1A8D
330
18
100
AcDbEntity
  8
JISSEN
100
AcDbLine
 10
122.6736292840489
 20
1058.546561286799
 30
0.0
 11
108.1736292840489
 21
1058.546561286799
 31
0.0
  0
LINE
  5
1A8E
330
18
100
AcDbEntity
  8
JISSEN
100
AcDbLine
 10
50.67362928404884
 20
1046.046561286798
 30
0.0
 11
4.673629284048843
 21
1046.046561286798
 31
0.0
  0
LINE
  5
1A8F
330
18
100
AcDbEntity
  8
JISSEN
100
AcDbLine
 10
47.6736292840489
 20
1032.546561286798
 30
0.0
 11
47.6736292840489
 21
1012.046561286799
 31
0.0
  0
LINE
  5
1A90
330
18
100
AcDbEntity
  8
JISSEN
100
AcDbLine
 10
7.673629284048843
 20
1032.546561286798
 30
0.0
 11
7.673629284048843
 21
1012.046561286799
 31
0.0
  0
LINE
  5
1A91
330
18
100
AcDbEntity
  8
JISSEN
100
AcDbLine
 10
47.49929383266959
 20
1033.11072265835
 30
0.0
 11
50.67362928404884
 21
1046.046561286798
 31
0.0
  0
LINE
  5
1A92
330
18
100
AcDbEntity
  8
JISSEN
100
AcDbLine
 10
7.847964735428263
 20
1033.11072265835
 30
0.0
 11
4.673629284048843
 21
1046.046561286798
 31
0.0
  0
LINE
  5
1A93
330
18
100
AcDbEntity
  8
JISSEN
100
AcDbLine
 10
47.92507301350724
 20
1011.675170610444
 30
0.0
 11
50.67362928404884
 21
1023.546561286798
 31
0.0
  0
LINE
  5
1A94
330
18
100
AcDbEntity
  8
JISSEN
100
AcDbLine
 10
7.422185554590555
 20
1011.675170610444
 30
0.0
 11
4.673629284048843
 21
1023.546561286798
 31
0.0
  0
LINE
  5
1A95
330
18
100
AcDbEntity
  8
JISSEN
100
AcDbLine
 10
46.99659632262194
 20
1011.046561286798
 30
0.0
 11
8.350662245475746
 21
1011.046561286798
 31
0.0
  0
LINE
  5
1A96
330
18
100
AcDbEntity
  8
JISSEN
100
AcDbLine
 10
50.67362928404884
 20
1046.046561286798
 30
0.0
 11
50.67362928404884
 21
1023.546561286798
 31
0.0
  0
LINE
  5
1A97
330
18
100
AcDbEntity
  8
JISSEN
100
AcDbLine
 10
4.673629284048843
 20
1023.546561286798
 30
0.0
 11
4.673629284048843
 21
1046.046561286798
 31
0.0
  0
LINE
  5
1A98
330
18
100
AcDbEntity
  8
JISSEN
100
AcDbLine
 10
8.673629284048843
 20
1033.546561286798
 30
0.0
 11
46.6736292840489
 21
1033.546561286798
 31
0.0
  0
LINE
  5
1A99
330
18
100
AcDbEntity
  8
JISSEN
100
AcDbLine
 10
9.673629284048843
 20
1030.546561286798
 30
0.0
 11
9.673629284048843
 21
1014.046561286798
 31
0.0
  0
LINE
  5
1A9A
330
18
100
AcDbEntity
  8
JISSEN
100
AcDbLine
 10
45.67362928404884
 20
1030.546561286799
 30
0.0
 11
45.67362928404884
 21
1014.046561286798
 31
0.0
  0
LINE
  5
1A9B
330
18
100
AcDbEntity
  8
JISSEN
100
AcDbLine
 10
44.67362928404884
 20
1013.046561286798
 30
0.0
 11
10.67362928404884
 21
1013.046561286798
 31
0.0
  0
LINE
  5
1A9C
330
18
100
AcDbEntity
  8
JISSEN
100
AcDbLine
 10
10.67362928404884
 20
1031.546561286798
 30
0.0
 11
44.67362928404884
 21
1031.546561286798
 31
0.0
  0
LINE
  5
1A9D
330
18
100
AcDbEntity
  8
JISSEN
100
AcDbLine
 10
4.673629284048843
 20
1023.546561286798
 30
0.0
 11
-55.86196811831189
 21
1023.546561286798
 31
0.0
  0
LINE
  5
1A9E
330
18
100
AcDbEntity
  8
JISSEN
100
AcDbLine
 10
5.831267991035531
 20
1018.546561286798
 30
0.0
 11
-58.74871946426003
 21
1018.546561286798
 31
0.0
  0
ARC
  5
1A9F
330
18
100
AcDbEntity
  8
JISSEN
100
AcDbCircle
 10
10.67362928404884
 20
1014.046561286798
 30
0.0
 40
1.0
100
AcDbArc
 50
180.0
 51
270.0
  0
ARC
  5
1AA0
330
18
100
AcDbEntity
  8
JISSEN
100
AcDbCircle
 10
44.67362928404884
 20
1014.046561286798
 30
0.0
 40
1.0
100
AcDbArc
 50
270.0
 51
0.0
  0
ARC
  5
1AA1
330
18
100
AcDbEntity
  8
JISSEN
100
AcDbCircle
 10
46.6736292840489
 20
1012.046561286799
 30
0.0
 40
1.0
100
AcDbArc
 50
270.0
 51
0.0
  0
ARC
  5
1AA2
330
18
100
AcDbEntity
  8
JISSEN
100
AcDbCircle
 10
8.673629284048899
 20
1012.046561286799
 30
0.0
 40
1.0
100
AcDbArc
 50
180.0
 51
270.0
  0
ARC
  5
1AA3
330
18
100
AcDbEntity
  8
JISSEN
100
AcDbCircle
 10
8.673629284048843
 20
1032.546561286798
 30
0.0
 40
1.0
100
AcDbArc
 50
90.0
 51
180.0
  0
ARC
  5
1AA4
330
18
100
AcDbEntity
  8
JISSEN
100
AcDbCircle
 10
46.6736292840489
 20
1032.546561286798
 30
0.0
 40
1.0
100
AcDbArc
 50
0.0
 51
90.0
  0
ARC
  5
1AA5
330
18
100
AcDbEntity
  8
JISSEN
100
AcDbCircle
 10
10.67362928404884
 20
1030.546561286798
 30
0.0
 40
1.0
100
AcDbArc
 50
90.0
 51
180.0
  0
ARC
  5
1AA6
330
18
100
AcDbEntity
  8
JISSEN
100
AcDbCircle
 10
44.67362928404884
 20
1030.546561286799
 30
0.0
 40
1.0
100
AcDbArc
 50
0.0
 51
90.0
  0
ARC
  5
1AA7
330
18
100
AcDbEntity
  8
JISSEN
100
AcDbCircle
 10
46.99659632262194
 20
1012.046561286799
 30
0.0
 40
1.0
100
AcDbArc
 50
270.0
 51
338.1985905136506
  0
ARC
  5
1AA8
330
18
100
AcDbEntity
  8
JISSEN
100
AcDbCircle
 10
8.350662245475746
 20
1012.046561286799
 30
0.0
 40
1.0
100
AcDbArc
 50
201.8014094863555
 51
270.0
  0
LINE
  5
1AA9
330
18
100
AcDbEntity
  8
ITTEN
100
AcDbLine
 10
35.17362928404884
 20
777.7809716382274
 30
0.0
 11
35.17362928404884
 21
1248.066378418227
 31
0.0
  0
LINE
  5
1AAA
330
18
100
AcDbEntity
  8
JISSEN
100
AcDbLine
 10
-0.3263707159511568
 20
1037.296561288227
 30
0.0
 11
-0.3263707159511568
 21
1037.296561288227
 31
0.0
  0
ARC
  5
1AAB
330
18
100
AcDbEntity
  8
JISSEN
100
AcDbCircle
 10
-5.3263707159511
 20
1037.296561288227
 30
0.0
 40
5.0
100
AcDbArc
 50
0.0
 51
90.0
  0
ARC
  5
1AAC
330
18
100
AcDbEntity
  8
JISSEN
100
AcDbCircle
 10
-5.326370715951156
 20
1037.296561288227
 30
0.0
 40
5.0
100
AcDbArc
 50
270.0
 51
0.0
  0
ARC
  5
1AAD
330
18
100
AcDbEntity
  8
JISSEN
100
AcDbCircle
 10
-5.326370715951156
 20
1039.296561288227
 30
0.0
 40
5.0
100
AcDbArc
 50
270.0
 51
348.4630409672352
  0
LINE
  5
1AAE
330
18
100
AcDbEntity
  8
JISSEN
100
AcDbLine
 10
-54.32637071595116
 20
1042.296561288227
 30
0.0
 11
-5.3263707159511
 21
1042.296561288227
 31
0.0
  0
LINE
  5
1AAF
330
18
100
AcDbEntity
  8
JISSEN
100
AcDbLine
 10
-65.36062237772677
 20
1021.094409505961
 30
0.0
 11
-53.11955433883617
 21
1042.296561288227
 31
0.0
  0
LINE
  5
1AB0
330
18
100
AcDbEntity
  8
JISSEN
100
AcDbLine
 10
-70.82292085107042
 20
1017.476648396844
 30
0.0
 11
-66.45869858908008
 21
1019.996333294608
 31
0.0
  0
LINE
  5
1AB1
330
18
100
AcDbEntity
  8
JISSEN
100
AcDbLine
 10
-60.23626672474461
 20
1015.970053852979
 30
0.0
 11
-45.03665057018139
 21
1042.296561288227
 31
0.0
  0
ARC
  5
1AB2
330
18
100
AcDbEntity
  8
JISSEN
100
AcDbCircle
 10
-67.95869858908009
 20
1022.594409505961
 30
0.0
 40
3.0
100
AcDbArc
 50
300.0000000000005
 51
330.0000000000003
  0
ARC
  5
1AB3
330
18
100
AcDbEntity
  8
JISSEN
100
AcDbCircle
 10
-62.83434293609786
 20
1017.470053852979
 30
0.0
 40
3.0
100
AcDbArc
 50
300.0000000000005
 51
330.0000000000003
  0
LINE
  5
1AB4
330
18
100
AcDbEntity
  8
JISSEN
100
AcDbLine
 10
-49.65545272369843
 20
1034.296561288227
 30
0.0
 11
-5.326370715951156
 21
1034.296561288227
 31
0.0
  0
LINE
  5
1AB5
330
18
100
AcDbEntity
  8
JISSEN
100
AcDbLine
 10
-50.81015326207761
 20
1032.296561288227
 30
0.0
 11
-5.326370715951156
 21
1032.296561288227
 31
0.0
  0
LINE
  5
1AB6
330
18
100
AcDbEntity
  8
JISSEN
100
AcDbLine
 10
-86.50019104893061
 20
1011.461350967491
 30
0.0
 11
-71.90775100993028
 21
1017.675769284484
 31
0.0
  0
LINE
  5
1AB7
330
18
100
AcDbEntity
  8
JISSEN
100
AcDbLine
 10
-80.69742282401012
 20
1001.233964462408
 30
0.0
 11
-67.78090087053238
 21
1010.481658590015
 31
0.0
  0
LINE
  5
1AB8
330
18
100
AcDbEntity
  8
JISSEN
100
AcDbLine
 10
-70.64991051680085
 20
1017.255725298709
 30
0.0
 11
-67.49701394614078
 21
1011.794748247316
 31
0.0
  0
ARC
  5
1AB9
330
18
100
AcDbEntity
  8
JISSEN
100
AcDbCircle
 10
-71.51593592058532
 20
1016.755725298709
 30
0.0
 40
1.0
100
AcDbArc
 50
29.99999999999973
 51
113.067486799249
  0
ARC
  5
1ABA
330
18
100
AcDbEntity
  8
JISSEN
100
AcDbCircle
 10
-68.3630393499252
 20
1011.294748247316
 30
0.0
 40
1.0
100
AcDbArc
 50
305.6010928778448
 51
29.99999999999973
  0
LINE
  5
1ABB
330
18
100
AcDbEntity
  8
JISSEN
100
AcDbLine
 10
-67.36746746637232
 20
1011.388751570017
 30
0.0
 11
-61.33434293609787
 21
1014.871977641626
 31
0.0
  0
LINE
  5
1ABC
330
18
100
AcDbEntity
  8
JISSEN
100
AcDbLine
 10
-54.32637071595116
 20
1040.206294007658
 30
0.0
 11
-54.32637071595116
 21
1193.046561286798
 31
0.0
  0
LINE
  5
1ABD
330
18
100
AcDbEntity
  8
JISSEN
100
AcDbLine
 10
-57.32637071595116
 20
1035.010141584951
 30
0.0
 11
-57.32637071595116
 21
1193.046561286798
 31
0.0
  0
LINE
  5
1ABE
330
18
100
AcDbEntity
  8
JISSEN
100
AcDbLine
 10
-68.9697773659974
 20
1018.546561286798
 30
0.0
 11
-70.71463319595102
 21
1018.546561286798
 31
0.0
  0
LINE
  5
1ABF
330
18
100
AcDbEntity
  8
JISSEN
100
AcDbLine
 10
-87.710036538302
 20
1009.459848124112
 30
0.0
 11
-87.34172175689076
 21
1004.911156007844
 31
0.0
  0
LINE
  5
1AC0
330
18
100
AcDbEntity
  8
JISSEN
100
AcDbLine
 10
-86.41982976948993
 20
1003.383870664908
 30
0.0
 11
-82.9332834634564
 21
1001.171443562247
 31
0.0
  0
ARC
  5
1AC1
330
18
100
AcDbEntity
  8
JISSEN
100
AcDbCircle
 10
-85.71656087024058
 20
1009.62126299594
 30
0.0
 40
2.0
100
AcDbArc
 50
113.067486799249
 51
184.6292303213093
  0
ARC
  5
1AC2
330
18
100
AcDbEntity
  8
JISSEN
100
AcDbCircle
 10
-85.34824608882933
 20
1005.072570879672
 30
0.0
 40
2.0
100
AcDbArc
 50
184.6292303213093
 51
237.6023719783262
  0
ARC
  5
1AC3
330
18
100
AcDbEntity
  8
JISSEN
100
AcDbCircle
 10
-81.86169978279588
 20
1002.86014377701
 30
0.0
 40
2.0
100
AcDbArc
 50
237.6023719783262
 51
305.6010928778448
  0
LINE
  5
1AC4
330
18
100
AcDbEntity
  8
JISSEN
100
AcDbLine
 10
-77.82637071935432
 20
1015.155232716559
 30
0.0
 11
-77.82637071935432
 21
1046.046561288227
 31
0.0
  0
DIMENSION
  5
1AC5
330
18
100
AcDbEntity
  8
SUNPOU
100
AcDbDimension
  2
*D53
 10
-87.82637071595116
 20
1309.112032335226
 30
0.0
 11
31.17362928575045
 21
1309.112032335226
 31
0.0
 70
   160
 71
     5
 42
238.0000000034
  3
IMCADLT
100
AcDbAlignedDimension
 13
150.173629287452
 23
1081.046561288228
 33
0.0
 14
-87.82637071595116
 24
1009.743829897219
 34
0.0
100
AcDbRotatedDimension
1001
ACAD
1000
DSTYLE
1002
{
1070
    40
1040
5.0
1070
    41
1040
3.0
1002
}
  0
LINE
  5
1AC6
330
18
100
AcDbEntity
  8
JISSEN
100
AcDbLine
 10
122.6736292840489
 20
1057.546561286798
 30
0.0
 11
-52.32637071595116
 21
1057.546561286798
 31
0.0
  0
ARC
  5
1AC7
330
18
100
AcDbEntity
  8
JISSEN
100
AcDbCircle
 10
122.6736292840489
 20
1055.546561286798
 30
0.0
 40
2.0
100
AcDbArc
 50
0.0
 51
90.0
  0
ARC
  5
1AC8
330
18
100
AcDbEntity
  8
JISSEN
100
AcDbCircle
 10
122.6736292840489
 20
1056.546561286798
 30
0.0
 40
2.0
100
AcDbArc
 50
0.0
 51
90.0
  0
ARC
  5
1AC9
330
18
100
AcDbEntity
  8
JISSEN
100
AcDbCircle
 10
-52.32637071595116
 20
1055.546561286798
 30
0.0
 40
2.0
100
AcDbArc
 50
90.0
 51
180.0
  0
ARC
  5
1ACA
330
18
100
AcDbEntity
  8
JISSEN
100
AcDbCircle
 10
-52.3263707159511
 20
1056.546561286799
 30
0.0
 40
2.0
100
AcDbArc
 50
90.0
 51
180.0
  0
ARC
  5
1ACB
330
18
100
AcDbEntity
  8
JISSEN
100
AcDbCircle
 10
122.6736292840489
 20
1025.546561286799
 30
0.0
 40
2.0
100
AcDbArc
 50
270.0
 51
0.0
  0
LINE
  5
1ACC
330
18
100
AcDbEntity
  8
JISSEN
100
AcDbLine
 10
81.1736292840489
 20
1058.546561286799
 30
0.0
 11
-52.3263707159511
 21
1058.546561286799
 31
0.0
  0
ELLIPSE
  5
1ACD
330
18
100
AcDbEntity
  8
JISSEN
100
AcDbEllipse
 10
94.67362928404885
 20
1029.046561288227
 30
0.0
 11
-20.0
 21
0.0
 31
0.0
210
0.0
220
0.0
230
1.0
 40
0.5625
 41
0.0
 42
6.283185307179586
1001
ACAD_OBJECT_CHANGE_GUID
1070
     0
1071
        0
1070
     0
1070
     0
1070
     0
1070
     0
1070
     0
1070
     0
1070
     0
1070
     0
1070
     0
1070
     0
1070
     0
1071
        0
1070
     0
1070
     0
1070
     0
1070
     0
1070
     0
1070
     0
1070
     0
1070
     0
1070
     0
1070
     0
  0
ELLIPSE
  5
1ACE
330
18
100
AcDbEntity
  8
JISSEN
100
AcDbEllipse
 10
94.67362928404879
 20
1036.296561288227
 30
0.0
 11
-20.0
 21
0.0
 31
0.0
210
0.0
220
0.0
230
1.0
 40
0.5625
 41
3.141592653589793
 42
6.283185307179586
1001
ACAD_OBJECT_CHANGE_GUID
1070
     0
1071
        0
1070
     0
1070
     0
1070
     0
1070
     0
1070
     0
1070
     0
1070
     0
1070
     0
1070
     0
1070
     0
1070
     0
1071
        0
1070
     0
1070
     0
1070
     0
1070
     0
1070
     0
1070
     0
1070
     0
1070
     0
1070
     0
1070
     0
  0
LINE
  5
1ACF
330
18
100
AcDbEntity
  8
JISSEN
100
AcDbLine
 10
114.6736292840488
 20
1036.29656128823
 30
0.0
 11
114.6736292840488
 21
1029.04656128823
 31
0.0
  0
LINE
  5
1AD0
330
18
100
AcDbEntity
  8
JISSEN
100
AcDbLine
 10
74.67362928404885
 20
1036.296561288223
 30
0.0
 11
74.67362928404885
 21
1029.046561288227
 31
0.0
  0
LINE
  5
1AD1
330
18
100
AcDbEntity
  8
JISSEN
100
AcDbLine
 10
107.1736292840489
 20
1045.078589723475
 30
0.0
 11
107.1736292840489
 21
1057.546561286799
 31
0.0
  0
LINE
  5
1AD2
330
18
100
AcDbEntity
  8
JISSEN
100
AcDbLine
 10
103.1736292840489
 20
1046.479986470232
 30
0.0
 11
103.1736292840489
 21
1057.546561286798
 31
0.0
  0
LINE
  5
1AD3
330
18
100
AcDbEntity
  8
JISSEN
100
AcDbLine
 10
86.1736292840489
 20
1046.479986470233
 30
0.0
 11
86.1736292840489
 21
1057.546561286798
 31
0.0
  0
LINE
  5
1AD4
330
18
100
AcDbEntity
  8
JISSEN
100
AcDbLine
 10
82.1736292840489
 20
1045.078589723475
 30
0.0
 11
82.1736292840489
 21
1057.546561286798
 31
0.0
  0
LINE
  5
1AD5
330
18
100
AcDbEntity
  8
JISSEN
100
AcDbLine
 10
77.2267080175697
 20
1023.546561286798
 30
0.0
 11
50.67362928404884
 21
1023.546561286798
 31
0.0
  0
LINE
  5
1AD6
330
18
100
AcDbEntity
  8
JISSEN
100
AcDbLine
 10
87.49340954780638
 20
1018.546561286798
 30
0.0
 11
49.51599057706215
 21
1018.546561286798
 31
0.0
  0
ELLIPSE
  5
1AD7
330
18
100
AcDbEntity
  8
JISSEN
100
AcDbEllipse
 10
94.67362928404885
 20
1029.046561288227
 30
0.0
 11
-4.0
 21
0.0
 31
0.0
210
0.0
220
0.0
230
1.0
 40
0.5625
 41
0.0
 42
6.283185307179586
1001
ACAD_OBJECT_CHANGE_GUID
1070
     0
1071
        0
1070
     0
1070
     0
1070
     0
1070
     0
1070
     0
1070
     0
1070
     0
1070
     0
1070
     0
1070
     0
1070
     0
1071
        0
1070
     0
1070
     0
1070
     0
1070
     0
1070
     0
1070
     0
1070
     0
1070
     0
1070
     0
1070
     0
  0
ARC
  5
1AD8
330
18
100
AcDbEntity
  8
JISSEN
100
AcDbCircle
 10
108.1736292840489
 20
1057.546561286799
 30
0.0
 40
1.0
100
AcDbArc
 50
90.0
 51
180.0
  0
ARC
  5
1AD9
330
18
100
AcDbEntity
  8
JISSEN
100
AcDbCircle
 10
81.1736292840489
 20
1057.546561286798
 30
0.0
 40
1.0
100
AcDbArc
 50
0.0
 51
90.0
  0
LINE
  5
1ADA
330
18
100
AcDbEntity
  8
JISSEN
100
AcDbLine
 10
134.0182730653558
 20
1093.767665954479
 30
0.0
 11
134.0182730653558
 21
1097.205165954475
 31
0.0
  0
ELLIPSE
  5
1ADB
330
18
100
AcDbEntity
  8
JISSEN
100
AcDbEllipse
 10
119.0182730653558
 20
1093.767665954475
 30
0.0
 11
15.0
 21
-0.0000000000000018
 31
0.0
210
0.0
220
0.0
230
1.0
 40
0.5625
 41
3.141592653589793
 42
6.283185307179586
1001
ACAD_OBJECT_CHANGE_GUID
1070
     0
1071
        0
1070
     0
1070
     0
1070
     0
1070
     0
1070
     0
1070
     0
1070
     0
1070
     0
1070
     0
1070
     0
1070
     0
1071
        0
1070
     0
1070
     0
1070
     0
1070
     0
1070
     0
1070
     0
1070
     0
1070
     0
1070
     0
1070
     0
  0
ELLIPSE
  5
1ADC
330
18
100
AcDbEntity
  8
JISSEN
100
AcDbEllipse
 10
119.0182730653558
 20
1097.205165954475
 30
0.0
 11
15.0
 21
-0.0000000000000018
 31
0.0
210
0.0
220
0.0
230
1.0
 40
0.5625
 41
0.0
 42
6.283185307179586
1001
ACAD_OBJECT_CHANGE_GUID
1070
     0
1071
        0
1070
     0
1070
     0
1070
     0
1070
     0
1070
     0
1070
     0
1070
     0
1070
     0
1070
     0
1070
     0
1070
     0
1071
        0
1070
     0
1070
     0
1070
     0
1070
     0
1070
     0
1070
     0
1070
     0
1070
     0
1070
     0
1070
     0
  0
LINE
  5
1ADD
330
18
100
AcDbEntity
  8
JISSEN
100
AcDbLine
 10
104.0182730653558
 20
1093.767665954473
 30
0.0
 11
104.0182730653558
 21
1097.205165954473
 31
0.0
  0
LINE
  5
1ADE
330
18
100
AcDbEntity
  8
JISSEN
100
AcDbLine
 10
111.5182730637954
 20
1097.758047011242
 30
0.0
 11
111.5182730637954
 21
1093.097792973398
 31
0.0
  0
LINE
  5
1ADF
330
18
100
AcDbEntity
  8
JISSEN
100
AcDbLine
 10
111.5182730637954
 20
1093.097792973398
 30
0.0
 11
119.0182730637955
 21
1088.767665954475
 31
0.0
  0
LINE
  5
1AE0
330
18
100
AcDbEntity
  8
JISSEN
100
AcDbLine
 10
119.0182730637955
 20
1088.767665954475
 30
0.0
 11
126.5182730637953
 21
1093.097792973397
 31
0.0
  0
LINE
  5
1AE1
330
18
100
AcDbEntity
  8
JISSEN
100
AcDbLine
 10
126.5182730637953
 20
1093.097792973397
 30
0.0
 11
126.5182730637953
 21
1097.758047011242
 31
0.0
  0
LINE
  5
1AE2
330
18
100
AcDbEntity
  8
JISSEN
100
AcDbLine
 10
126.5182730637954
 20
1097.758047011242
 30
0.0
 11
124.8811726001872
 21
1098.703227404596
 31
0.0
  0
LINE
  5
1AE3
330
18
100
AcDbEntity
  8
JISSEN
100
AcDbLine
 10
113.1553735214798
 20
1098.703227401176
 30
0.0
 11
111.5182730637954
 21
1097.758047011242
 31
0.0
  0
ARC
  5
1AE4
330
18
100
AcDbEntity
  8
JISSEN
100
AcDbCircle
 10
119.0182730612055
 20
1097.42791999232
 30
0.0
 40
6.0
100
AcDbArc
 50
103.1919161625089
 51
76.80808383749106
  0
CIRCLE
  5
1AE5
330
18
100
AcDbEntity
  8
JISSEN
100
AcDbCircle
 10
119.0182730612055
 20
1101.17791999232
 30
0.0
 40
2.5
  0
LINE
  5
1AE6
330
18
100
AcDbEntity
  8
JISSEN
100
AcDbLine
 10
127.6736292840489
 20
1104.096303125615
 30
0.0
 11
127.6736292840489
 21
1193.046561286799
 31
0.0
  0
LINE
  5
1AE7
330
18
100
AcDbEntity
  8
JISSEN
100
AcDbLine
 10
124.6736292840489
 20
1105.0200087605
 30
0.0
 11
124.6736292840489
 21
1193.046561286799
 31
0.0
  0
LINE
  5
1AE8
330
18
100
AcDbEntity
  8
JISSEN
100
AcDbLine
 10
510.6358737648791
 20
844.102116843783
 30
0.0
 11
368.4694637060115
 21
836.2039829516238
 31
0.0
  0
LINE
  5
1AE9
330
18
100
AcDbEntity
  8
JISSEN
100
AcDbLine
 10
365.6358737648791
 20
833.2086018920074
 30
0.0
 11
365.6358737648791
 21
814.0465612882275
 31
0.0
  0
LINE
  5
1AEA
330
18
100
AcDbEntity
  8
JISSEN
100
AcDbLine
 10
368.6358737648792
 20
811.0465612882276
 30
0.0
 11
628.635873764879
 21
811.0465612882276
 31
0.0
  0
LINE
  5
1AEB
330
18
100
AcDbEntity
  8
JISSEN
100
AcDbLine
 10
629.635873764879
 20
812.0465612882275
 30
0.0
 11
629.635873764879
 21
1137.046561288227
 31
0.0
  0
LINE
  5
1AEC
330
18
100
AcDbEntity
  8
JISSEN
100
AcDbLine
 10
460.6358737648791
 20
1010.120192041135
 30
0.0
 11
460.6358737648791
 21
846.0542713930385
 31
0.0
  0
LINE
  5
1AED
330
18
100
AcDbEntity
  8
JISSEN
100
AcDbLine
 10
621.896229851101
 20
1193.046561288227
 30
0.0
 11
513.5378683448791
 21
1193.046561288227
 31
0.0
  0
LINE
  5
1AEE
330
18
100
AcDbEntity
  8
JISSEN
100
AcDbLine
 10
455.4373286272404
 20
1018.892080731987
 30
0.0
 11
372.0464231050887
 21
1064.537629017797
 31
0.0
  0
LINE
  5
1AEF
330
18
100
AcDbEntity
  8
JISSEN
100
AcDbLine
 10
432.6918559074906
 20
1101.90165684825
 30
0.0
 11
390.7837150040054
 21
1129.25223301684
 31
0.0
  0
ARC
  5
1AF0
330
18
100
AcDbEntity
  8
JISSEN
100
AcDbCircle
 10
513.5378683423696
 20
1043.046561288227
 30
0.0
 40
150.0
100
AcDbArc
 50
89.99999999904085
 51
167.51617592028
  0
ARC
  5
1AF1
330
18
100
AcDbEntity
  8
JISSEN
100
AcDbCircle
 10
513.5378683423696
 20
1043.046561288227
 30
0.0
 40
100.0
100
AcDbArc
 50
89.99999999904085
 51
140.5134434845898
  0
LINE
  5
1AF2
330
18
100
AcDbEntity
  8
JISSEN
100
AcDbLine
 10
510.6358737648792
 20
1036.788853653051
 30
0.0
 11
510.6358737648792
 21
811.0465612882276
 31
0.0
  0
ARC
  5
1AF3
330
18
100
AcDbEntity
  8
JISSEN
100
AcDbCircle
 10
427.9134989232634
 20
803.0465612882276
 30
0.0
 40
2.0
100
AcDbArc
 50
270.0
 51
351.4692343900513
  0
ARC
  5
1AF4
330
18
100
AcDbEntity
  8
JISSEN
100
AcDbCircle
 10
411.3582486064947
 20
803.0465612882276
 30
0.0
 40
2.0
100
AcDbArc
 50
188.5307656099486
 51
270.0
  0
LINE
  5
1AF5
330
18
100
AcDbEntity
  8
JISSEN
100
AcDbLine
 10
429.8913716290001
 20
802.749880382367
 30
0.0
 11
431.1358737648791
 21
811.0465612882276
 31
0.0
  0
LINE
  5
1AF6
330
18
100
AcDbEntity
  8
JISSEN
100
AcDbLine
 10
411.3582486064947
 20
801.0465612882274
 30
0.0
 11
427.9134989232634
 21
801.0465612882274
 31
0.0
  0
LINE
  5
1AF7
330
18
100
AcDbEntity
  8
JISSEN
100
AcDbLine
 10
408.135873764879
 20
811.0465612882276
 30
0.0
 11
409.380375900758
 21
802.749880382367
 31
0.0
  0
ARC
  5
1AF8
330
18
100
AcDbEntity
  8
JISSEN
100
AcDbCircle
 10
612.9134989232635
 20
803.0465612882276
 30
0.0
 40
2.0
100
AcDbArc
 50
270.0
 51
351.4692343900513
  0
ARC
  5
1AF9
330
18
100
AcDbEntity
  8
JISSEN
100
AcDbCircle
 10
596.3582486064948
 20
803.0465612882276
 30
0.0
 40
2.0
100
AcDbArc
 50
188.5307656099486
 51
270.0
  0
LINE
  5
1AFA
330
18
100
AcDbEntity
  8
JISSEN
100
AcDbLine
 10
616.1358737648791
 20
811.0465612882276
 30
0.0
 11
614.8913716290002
 21
802.749880382367
 31
0.0
  0
LINE
  5
1AFB
330
18
100
AcDbEntity
  8
JISSEN
100
AcDbLine
 10
612.9134989232635
 20
801.0465612882274
 30
0.0
 11
596.3582486064948
 21
801.0465612882274
 31
0.0
  0
LINE
  5
1AFC
330
18
100
AcDbEntity
  8
JISSEN
100
AcDbLine
 10
594.3803759007582
 20
802.7498803823672
 30
0.0
 11
593.1358737648792
 21
811.0465612882276
 31
0.0
  0
LINE
  5
1AFD
330
18
100
AcDbEntity
  8
JISSEN
100
AcDbLine
 10
433.2383925557327
 20
1102.739092035072
 30
0.0
 11
391.3302516522475
 21
1130.089668203663
 31
0.0
  0
LINE
  5
1AFE
330
18
100
AcDbEntity
  8
JISSEN
100
AcDbLine
 10
455.6358737623255
 20
1012.857034147944
 30
0.0
 11
455.6358737648088
 21
845.7764936153312
 31
0.0
  0
ARC
  5
1AFF
330
18
100
AcDbEntity
  8
JISSEN
100
AcDbCircle
 10
450.6358737648088
 20
845.7764936152567
 30
0.0
 40
5.0
100
AcDbArc
 50
273.1798301198649
 51
0.0000000008533047
  0
ARC
  5
1B00
330
18
100
AcDbEntity
  8
JISSEN
100
AcDbCircle
 10
455.6358737648791
 20
846.0542713930385
 30
0.0
 40
5.0
100
AcDbArc
 50
273.1798301198649
 51
0.0
  0
ARC
  5
1B01
330
18
100
AcDbEntity
  8
JISSEN
100
AcDbCircle
 10
368.6358737648791
 20
833.2086018920074
 30
0.0
 40
3.0
100
AcDbArc
 50
93.17983011986495
 51
180.0
  0
ARC
  5
1B02
330
18
100
AcDbEntity
  8
JISSEN
100
AcDbCircle
 10
368.6358737648792
 20
814.0465612882275
 30
0.0
 40
3.0
100
AcDbArc
 50
180.0
 51
270.0
  0
LINE
  5
1B03
330
18
100
AcDbEntity
  8
JISSEN
100
AcDbLine
 10
515.635873764879
 20
1036.788853648227
 30
0.0
 11
515.635873764879
 21
811.0465612882276
 31
0.0
  0
LINE
  5
1B04
330
18
100
AcDbEntity
  8
JISSEN
100
AcDbLine
 10
628.6358737648793
 20
1138.046561288227
 30
0.0
 11
513.5378683448791
 21
1138.046561288227
 31
0.0
  0
ARC
  5
1B05
330
18
100
AcDbEntity
  8
JISSEN
100
AcDbCircle
 10
513.5378683423696
 20
1043.046561288227
 30
0.0
 40
95.0
100
AcDbArc
 50
89.99999999904085
 51
140.5134434845898
  0
LINE
  5
1B06
330
18
100
AcDbEntity
  8
JISSEN
100
AcDbLine
 10
624.8839094705041
 20
1190.318168526355
 30
0.0
 11
629.504185406999
 21
1139.495133224908
 31
0.0
  0
ARC
  5
1B07
330
18
100
AcDbEntity
  8
JISSEN
100
AcDbCircle
 10
621.896229851101
 20
1190.046561288228
 30
0.0
 40
3.0
100
AcDbArc
 50
5.194428907734805
 51
90.0
  0
LINE
  5
1B08
330
18
100
AcDbEntity
  8
JISSEN
100
AcDbLine
 10
624.635873764879
 20
811.0465612882276
 30
0.0
 11
624.635873764879
 21
1138.046561288227
 31
0.0
  0
LINE
  5
1B09
330
18
100
AcDbEntity
  8
JISSEN
100
AcDbLine
 10
619.8632908263282
 20
1190.318168526355
 30
0.0
 11
624.615255120703
 21
1138.046561288227
 31
0.0
  0
LINE
  5
1B0A
330
18
100
AcDbEntity
  8
JISSEN
100
AcDbLine
 10
624.1607096661576
 20
1143.046561288227
 30
0.0
 11
513.5378683448791
 21
1143.046561288227
 31
0.0
  0
LINE
  5
1B0B
330
18
100
AcDbEntity
  8
JISSEN
100
AcDbLine
 10
624.615255120703
 20
1138.046561288227
 30
0.0
 11
628.5988279465738
 21
1138.408704272397
 31
0.0
  0
ARC
  5
1B0C
330
18
100
AcDbEntity
  8
JISSEN
100
AcDbCircle
 10
616.875611206925
 20
1190.046561288228
 30
0.0
 40
3.0
100
AcDbArc
 50
5.194428907734805
 51
90.0
  0
ARC
  5
1B0D
330
18
100
AcDbEntity
  8
JISSEN
100
AcDbCircle
 10
621.896229851101
 20
1190.046561288228
 30
0.0
 40
3.0
100
AcDbArc
 50
5.194428907734805
 51
90.0
  0
ARC
  5
1B0E
330
18
100
AcDbEntity
  8
JISSEN
100
AcDbCircle
 10
628.6358737648793
 20
1137.046561288227
 30
0.0
 40
1.0
100
AcDbArc
 50
0.0
 51
90.0
  0
ARC
  5
1B0F
330
18
100
AcDbEntity
  8
JISSEN
100
AcDbCircle
 10
628.5082922005313
 20
1139.404597478865
 30
0.0
 40
1.0
100
AcDbArc
 50
275.1944289077349
 51
5.194428907734805
  0
ARC
  5
1B10
330
18
100
AcDbEntity
  8
JISSEN
100
AcDbCircle
 10
628.635873764879
 20
812.0465612882275
 30
0.0
 40
1.0
100
AcDbArc
 50
270.0
 51
0.0
  0
SPLINE
  5
1B11
330
18
100
AcDbEntity
  8
JISSEN
100
AcDbSpline
210
0.0
220
0.0
230
1.0
 70
  1064
 71
     3
 72
    11
 73
     7
 74
     5
 42
0.0000000001
 43
0.0000000001
 44
0.0000000001
 40
0.0
 40
0.0
 40
0.0
 40
0.0
 40
9.903364549848676
 40
17.18093630216195
 40
21.99724315863041
 40
28.99033489637439
 40
28.99033489637439
 40
28.99033489637439
 40
28.99033489637439
 10
700.3840497323503
 20
870.5595730187869
 30
0.0
 10
696.8737698797771
 20
867.478831300416
 30
0.0
 10
690.7839309925732
 20
862.1341803022303
 30
0.0
 10
701.7138724214191
 20
859.620125219828
 30
0.0
 10
700.8136605856828
 20
852.0390628592624
 30
0.0
 10
697.5719027455085
 20
849.6374823051146
 30
0.0
 10
695.6522529185481
 20
848.2153545822884
 30
0.0
 11
700.3840497323503
 21
870.5595730187869
 31
0.0
 11
694.7129965005447
 21
862.4407193651467
 31
0.0
 11
700.5542847130405
 21
858.0999357229197
 31
0.0
 11
700.4697635986508
 21
853.284370551843
 31
0.0
 11
695.6522529185481
 21
848.2153545822884
 31
0.0
1001
ACAD_OBJECT_CHANGE_GUID
1070
     0
1071
        0
1070
     0
1070
     0
1070
     0
1070
     0
1070
     0
1070
     0
1070
     0
1070
     0
1070
     0
1070
     0
1070
     0
1071
        0
1070
     0
1070
     0
1070
     0
1070
     0
1070
     0
1070
     0
1070
     0
1070
     0
1070
     0
1070
     0
  0
SPLINE
  5
1B12
330
18
100
AcDbEntity
  8
JISSEN
100
AcDbSpline
210
0.0
220
0.0
230
1.0
 70
     8
 71
     3
 72
    56
 73
    52
 74
     0
 42
0.0000000001
 43
0.0000000001
 40
0.0
 40
0.0
 40
0.0
 40
0.0
 40
0.943425776021794
 40
0.943425776021794
 40
2.830277328065382
 40
2.830277328065382
 40
4.539137381878086
 40
4.539137381878086
 40
6.247997435690789
 40
6.247997435690789
 40
7.33131001392477
 40
7.33131001392477
 40
8.217169656553545
 40
8.217169656553545
 40
9.10302929918232
 40
9.10302929918232
 40
9.71171118807811
 40
9.71171118807811
 40
10.13816962475659
 40
10.13816962475659
 40
10.56462806143507
 40
10.56462806143507
 40
11.64561061001192
 40
11.64561061001192
 40
12.72659315858877
 40
12.72659315858877
 40
13.80757570716563
 40
13.80757570716563
 40
15.25822344972975
 40
15.25822344972975
 40
16.43252597389821
 40
16.43252597389821
 40
17.0818501158139
 40
17.0818501158139
 40
17.51805693678398
 40
17.51805693678398
 40
17.95426375775406
 40
17.95426375775406
 40
18.82667739969422
 40
18.82667739969422
 40
20.56518551174404
 40
20.56518551174404
 40
21.83047636071274
 40
21.83047636071274
 40
23.71846399943451
 40
23.71846399943451
 40
25.60645163815628
 40
25.60645163815628
 40
27.49443927687805
 40
27.49443927687805
 40
28.99033489637439
 40
28.99033489637439
 40
28.99033489637439
 40
28.99033489637439
 10
699.064799299257
 20
872.0627623930118
 30
0.0
 10
698.7303989571008
 20
871.7692812097487
 30
0.0
 10
698.3937148064856
 20
871.4738055024515
 30
0.0
 10
697.3891427998744
 20
870.5838954819203
 30
0.0
 10
696.7269625130727
 20
869.986449406962
 30
0.0
 10
695.5374768518688
 20
868.8444782131673
 30
0.0
 10
695.0032896958837
 20
868.300816133869
 30
0.0
 10
694.0370084873505
 20
867.1965798443086
 30
0.0
 10
693.6035477336529
 20
866.6380156113397
 30
0.0
 10
693.0166416727104
 20
865.6572158325927
 30
0.0
 10
692.8179502529251
 20
865.2587463532142
 30
0.0
 10
692.5460092525329
 20
864.4673003178091
 30
0.0
 10
692.4566301124371
 20
864.0847603653382
 30
0.0
 10
692.3981889431118
 20
863.2650869035408
 30
0.0
 10
692.4325617807792
 20
862.8267088833721
 30
0.0
 10
692.6345521778475
 20
862.104000367492
 30
0.0
 10
692.7564360228898
 20
861.8162792340713
 30
0.0
 10
693.0195125753778
 20
861.3638613595258
 30
0.0
 10
693.1449322039204
 20
861.1873469419839
 30
0.0
 10
693.4034586484527
 20
860.8739459550786
 30
0.0
 10
693.5377276929214
 20
860.7339807289461
 30
0.0
 10
694.0187235867747
 20
860.2812563224901
 30
0.0
 10
694.3742522774727
 20
860.0292882766893
 30
0.0
 10
695.0868998422383
 20
859.5737457046961
 30
0.0
 10
695.4457199509095
 20
859.3721473003734
 30
0.0
 10
696.1524122313517
 20
858.9851567528294
 30
0.0
 10
696.5001842151054
 20
858.8003801207102
 30
0.0
 10
697.2688261210922
 20
858.3720814469673
 30
0.0
 10
697.6736244646465
 20
858.1289532965158
 30
0.0
 10
698.2650546621075
 20
857.7025980686117
 30
0.0
 10
698.4767797554957
 20
857.5175197751894
 30
0.0
 10
698.7062498930247
 20
857.2654209099303
 30
0.0
 10
698.76879277799
 20
857.18304602767
 30
0.0
 10
698.8471404421586
 20
857.0600275568548
 30
0.0
 10
698.8730454594968
 20
857.0126415681304
 30
0.0
 10
698.9237160993099
 20
856.9041192886867
 30
0.0
 10
698.9470843667906
 20
856.845151592026
 30
0.0
 10
699.010093898121
 20
856.6522057092658
 30
0.0
 10
699.0425133275348
 20
856.5016891300292
 30
0.0
 10
699.0964652803743
 20
855.9920527044774
 30
0.0
 10
699.0715083459081
 20
855.5740889037371
 30
0.0
 10
698.913471921853
 20
854.828334266573
 30
0.0
 10
698.8129888820647
 20
854.5077119395198
 30
0.0
 10
698.5041759917128
 20
853.7586156656054
 30
0.0
 10
698.2691972842119
 20
853.3538422107008
 30
0.0
 10
697.6918785293503
 20
852.5706886083764
 30
0.0
 10
697.3489694281088
 20
852.1942601894945
 30
0.0
 10
696.5643586709496
 20
851.4508141709127
 30
0.0
 10
696.1230739958457
 20
851.0845972704514
 30
0.0
 10
695.2705561855418
 20
850.4218465338691
 30
0.0
 10
694.8723419063835
 20
850.1266109690872
 30
0.0
 10
694.4617086879434
 20
849.8224029434069
 30
0.0
1001
ACAD_OBJECT_CHANGE_GUID
1070
     0
1071
        0
1070
     0
1070
     0
1070
     0
1070
     0
1070
     0
1070
     0
1070
     0
1070
     0
1070
     0
1070
     0
1070
     0
1071
        0
1070
     0
1070
     0
1070
     0
1070
     0
1070
     0
1070
     0
1070
     0
1070
     0
1070
     0
1070
     0
  0
LINE
  5
1B13
330
18
100
AcDbEntity
  8
JISSEN
100
AcDbLine
 10
746.529931994879
 20
856.0465612882275
 30
0.0
 11
746.529931994879
 21
862.0465612882275
 31
0.0
  0
LINE
  5
1B14
330
18
100
AcDbEntity
  8
JISSEN
100
AcDbLine
 10
748.529931994879
 20
864.0465612882275
 30
0.0
 11
756.529931994879
 21
864.0465612882275
 31
0.0
  0
LINE
  5
1B15
330
18
100
AcDbEntity
  8
JISSEN
100
AcDbLine
 10
748.529931994879
 20
854.0465612882275
 30
0.0
 11
756.5299319948792
 21
854.0465612882275
 31
0.0
  0
LINE
  5
1B16
330
18
100
AcDbEntity
  8
JISSEN
100
AcDbLine
 10
756.5299319948792
 20
854.0465612882275
 30
0.0
 11
756.5299319948792
 21
864.0465612882275
 31
0.0
  0
ARC
  5
1B17
330
18
100
AcDbEntity
  8
JISSEN
100
AcDbCircle
 10
748.529931994879
 20
862.0465612882275
 30
0.0
 40
2.0
100
AcDbArc
 50
90.0
 51
180.0
  0
ARC
  5
1B18
330
18
100
AcDbEntity
  8
JISSEN
100
AcDbCircle
 10
748.529931994879
 20
856.0465612882275
 30
0.0
 40
2.0
100
AcDbArc
 50
180.0
 51
270.0
  0
LINE
  5
1B19
330
18
100
AcDbEntity
  8
JISSEN
100
AcDbLine
 10
629.635873764879
 20
862.0465612882275
 30
0.0
 11
692.6706558102689
 21
862.0465612882275
 31
0.0
  0
LINE
  5
1B1A
330
18
100
AcDbEntity
  8
JISSEN
100
AcDbLine
 10
629.635873764879
 20
856.0465612882275
 30
0.0
 11
699.076167262199
 21
856.0465612882275
 31
0.0
  0
LINE
  5
1B1B
330
18
100
AcDbEntity
  8
JISSEN
100
AcDbLine
 10
695.0613777031467
 20
862.0465612882275
 30
0.0
 11
746.529931994879
 21
862.0465612882275
 31
0.0
  0
LINE
  5
1B1C
330
18
100
AcDbEntity
  8
JISSEN
100
AcDbLine
 10
701.0767090430326
 20
856.0465612882275
 30
0.0
 11
746.529931994879
 21
856.0465612882275
 31
0.0
  0
LINE
  5
1B1D
330
18
100
AcDbEntity
  8
JISSEN
100
AcDbLine
 10
756.5299319948792
 20
856.0465612882275
 30
0.0
 11
762.5299319948792
 21
856.0465612882275
 31
0.0
  0
LINE
  5
1B1E
330
18
100
AcDbEntity
  8
JISSEN
100
AcDbLine
 10
756.529931994879
 20
862.0465612882275
 30
0.0
 11
762.529931994879
 21
862.0465612882275
 31
0.0
  0
DIMENSION
  5
1B1F
330
18
100
AcDbEntity
  8
SUNPOU
100
AcDbDimension
  2
*D54
 10
797.6562427052827
 20
801.0465612882274
 30
0.0
 11
797.6562427052827
 21
831.0812085863313
 31
0.0
 70
   160
 71
     5
 42
58.0
  3
IMCADLT
100
AcDbAlignedDimension
 13
756.5299319948792
 23
859.0465612882274
 33
0.0
 14
612.9134989232635
 24
801.0465612882274
 34
0.0
 50
90.0
100
AcDbRotatedDimension
1001
ACAD
1000
DSTYLE
1002
{
1070
    40
1040
5.0
1070
    41
1040
3.0
1002
}
  0
DIMENSION
  5
1B20
330
18
100
AcDbEntity
  8
SUNPOU
100
AcDbDimension
  2
*D55
 10
604.6358737648792
 20
731.6189962330517
 30
0.0
 11
508.2442399914925
 21
731.6189962330517
 31
0.0
 70
   160
 71
     5
 42
185.0
  3
IMCADLT
100
AcDbAlignedDimension
 13
419.635873764879
 23
801.0465612882274
 33
0.0
 14
604.6358737648792
 24
801.0465612882274
 34
0.0
100
AcDbRotatedDimension
1001
ACAD
1000
DSTYLE
1002
{
1070
    40
1040
5.0
1070
    41
1040
3.0
1002
}
  0
DIMENSION
  5
1B21
330
18
100
AcDbEntity
  8
SUNPOU
100
AcDbDimension
  2
*D56
 10
365.6358737648792
 20
731.6189962330517
 30
0.0
 11
392.6358737648791
 21
744.1189962330517
 31
0.0
 70
    32
 71
     5
 42
54.0
  3
IMCADLT
100
AcDbAlignedDimension
 13
419.635873764879
 23
801.0465612882274
 33
0.0
 14
365.6358737648792
 24
814.0465612882275
 34
0.0
100
AcDbRotatedDimension
1001
ACAD
1000
DSTYLE
1002
{
1070
    40
1040
5.0
1070
    41
1040
3.0
1070
    75
1070
     1
1070
   279
1070
     1
1002
}
  0
DIMENSION
  5
1B22
330
18
100
AcDbEntity
  8
SUNPOU
100
AcDbDimension
  2
*D57
 10
629.635873764879
 20
701.6189962330518
 30
0.0
 11
497.6358737648791
 21
714.1189962330518
 31
0.0
 70
    32
 71
     5
 42
264.0
  3
IMCADLT
100
AcDbAlignedDimension
 13
365.6358737648792
 23
814.0465612882275
 33
0.0
 14
629.635873764879
 24
812.0465612882275
 34
0.0
100
AcDbRotatedDimension
1001
ACAD
1000
DSTYLE
1002
{
1070
    40
1040
5.0
1070
    41
1040
3.0
1002
}
  0
ARC
  5
1B23
330
18
100
AcDbEntity
  8
JISSEN
100
AcDbCircle
 10
443.8513323593332
 20
1071.732461678181
 30
0.0
 40
77.0
100
AcDbArc
 50
150.8188224673659
 51
163.9694275169937
  0
ARC
  5
1B24
330
18
100
AcDbEntity
  8
JISSEN
100
AcDbCircle
 10
443.8513323593332
 20
1071.732461678181
 30
0.0
 40
78.0
100
AcDbArc
 50
152.2348754884369
 51
162.0783020736216
  0
ARC
  5
1B25
330
18
100
AcDbEntity
  8
JISSEN
100
AcDbCircle
 10
443.8513323593332
 20
1071.732461678181
 30
0.0
 40
80.0
100
AcDbArc
 50
154.8368069169143
 51
158.8880356681528
  0
LINE
  5
1B26
330
18
100
AcDbEntity
  8
JISSEN
100
AcDbLine
 10
379.0984942737509
 20
1109.57516190509
 30
0.0
 11
378.7534237643241
 21
1109.800365816505
 31
0.0
  0
LINE
  5
1B27
330
18
100
AcDbEntity
  8
JISSEN
100
AcDbLine
 10
371.3093593038449
 20
1090.776152108789
 30
0.0
 11
370.4673840239658
 21
1091.325651765131
 31
0.0
  0
ARC
  5
1B28
330
18
100
AcDbEntity
  8
JISSEN
100
AcDbCircle
 10
377.9336187919611
 20
1108.544213036272
 30
0.0
 40
1.5
100
AcDbArc
 50
56.87026453158554
 51
150.8188224673659
  0
ARC
  5
1B29
330
18
100
AcDbEntity
  8
JISSEN
100
AcDbCircle
 10
371.2871889963289
 20
1092.581804545365
 30
0.0
 40
1.5
100
AcDbArc
 50
163.9694275169932
 51
236.8702645315856
  0
ARC
  5
1B2A
330
18
100
AcDbEntity
  8
JISSEN
100
AcDbCircle
 10
375.7167506756693
 20
1107.602766650291
 30
0.0
 40
1.0
100
AcDbArc
 50
56.87026453159046
 51
152.2348754884369
  0
ARC
  5
1B2B
330
18
100
AcDbEntity
  8
JISSEN
100
AcDbCircle
 10
370.5875310088692
 20
1095.426667967478
 30
0.0
 40
1.0
100
AcDbArc
 50
162.0783020736216
 51
236.8702645315856
  0
LINE
  5
1B2C
330
18
100
AcDbEntity
  8
JISSEN
100
AcDbLine
 10
373.6274337201883
 20
1105.682484651945
 30
0.0
 11
372.8949384214796
 21
1106.160534215313
 31
0.0
  0
LINE
  5
1B2D
330
18
100
AcDbEntity
  8
JISSEN
100
AcDbLine
 10
370.6502850295164
 20
1098.66954893382
 30
0.0
 11
369.607406769091
 21
1099.350164219572
 31
0.0
  0
ARC
  5
1B2E
330
18
100
AcDbEntity
  8
JISSEN
100
AcDbCircle
 10
372.3484017732377
 20
1105.323099028491
 30
0.0
 40
1.0
100
AcDbArc
 50
56.87026453158554
 51
154.8368069169137
  0
ARC
  5
1B2F
330
18
100
AcDbEntity
  8
JISSEN
100
AcDbCircle
 10
370.153943417333
 20
1100.187599406394
 30
0.0
 40
1.0
100
AcDbArc
 50
158.8880356681523
 51
236.8702645315841
  0
LINE
  5
1B30
330
18
100
AcDbEntity
  8
JISSEN
100
AcDbLine
 10
371.4433013860719
 20
1105.748296969634
 30
0.0
 11
357.8528705330259
 21
1107.338669392757
 31
0.0
  0
LINE
  5
1B31
330
18
100
AcDbEntity
  8
JISSEN
100
AcDbLine
 10
354.504185406999
 20
1104.359001847059
 30
0.0
 11
354.504185406999
 21
1102.940260492791
 31
0.0
  0
LINE
  5
1B32
330
18
100
AcDbEntity
  8
JISSEN
100
AcDbLine
 10
357.7065944772934
 20
1099.947096519958
 30
0.0
 11
369.2918822650459
 21
1100.730537504647
 31
0.0
  0
ARC
  5
1B33
330
18
100
AcDbEntity
  8
JISSEN
100
AcDbCircle
 10
357.504185406999
 20
1104.359001847059
 30
0.0
 40
3.0
100
AcDbArc
 50
83.32551907822333
 51
180.0
  0
ARC
  5
1B34
330
18
100
AcDbEntity
  8
JISSEN
100
AcDbCircle
 10
357.504185406999
 20
1102.940260492791
 30
0.0
 40
3.0
100
AcDbArc
 50
180.0
 51
273.8686674138151
  0
DIMENSION
  5
1B35
330
18
100
AcDbEntity
  8
SUNPOU
100
AcDbDimension
  2
*D58
 10
354.504185406999
 20
1315.255709087397
 30
0.0
 11
500.214873397866
 21
1315.255709087397
 31
0.0
 70
   160
 71
     5
 42
275.0
  3
IMCADLT
100
AcDbAlignedDimension
 13
629.504185406999
 23
1139.495133224908
 33
0.0
 14
354.504185406999
 24
1102.940260492791
 34
0.0
100
AcDbRotatedDimension
1001
ACAD
1000
DSTYLE
1002
{
1070
    40
1040
5.0
1070
    41
1040
3.0
1002
}
  0
ARC
  5
1B36
330
18
100
AcDbEntity
  8
JISSEN
100
AcDbCircle
 10
376.84787796745
 20
1073.30951770865
 30
0.0
 40
10.0
100
AcDbArc
 50
167.51617592028
 51
241.3050956206562
  0
ARC
  5
1B37
330
18
100
AcDbEntity
  8
JISSEN
100
AcDbCircle
 10
450.635873764879
 20
1010.120192041135
 30
0.0
 40
10.0
100
AcDbArc
 50
0.0
 51
61.30509562065479
  0
ARC
  5
1B38
330
18
100
AcDbEntity
  8
JISSEN
100
AcDbCircle
 10
445.6358737623255
 20
1012.857034147796
 30
0.0
 40
10.0
100
AcDbArc
 50
0.0000000008533047
 51
61.30509562065479
  0
LINE
  5
1B39
330
18
100
AcDbEntity
  8
JISSEN
100
AcDbLine
 10
438.5299580396739
 20
1011.046561288227
 30
0.0
 11
394.4249721157084
 21
1035.188237793977
 31
0.0
  0
LINE
  5
1B3A
330
18
100
AcDbEntity
  8
JISSEN
100
AcDbLine
 10
438.5299580396739
 20
1011.046561288227
 30
0.0
 11
444.5317766176258
 21
1022.011422151793
 31
0.0
  0
LINE
  5
1B3B
330
18
100
AcDbEntity
  8
JISSEN
100
AcDbLine
 10
447.4825871709263
 20
1020.396241638407
 30
0.0
 11
376.9863814730951
 21
1058.983638441431
 31
0.0
  0
LINE
  5
1B3C
330
18
100
AcDbEntity
  8
JISSEN
100
AcDbLine
 10
376.1922947073969
 20
1061.698307152074
 30
0.0
 11
376.4323674505149
 21
1062.136901586616
 31
0.0
  0
ARC
  5
1B3D
330
18
100
AcDbEntity
  8
JISSEN
100
AcDbCircle
 10
377.9466724455674
 20
1060.738016179602
 30
0.0
 40
2.0
100
AcDbArc
 50
151.3050956206584
 51
241.3050956206548
  0
LINE
  5
1B3E
330
18
100
AcDbEntity
  8
JISSEN
100
AcDbLine
 10
450.1972558815691
 20
1021.190328404106
 30
0.0
 11
450.4373286246869
 21
1021.628922838648
 31
0.0
  0
ARC
  5
1B3F
330
18
100
AcDbEntity
  8
JISSEN
100
AcDbCircle
 10
448.4428781433986
 20
1022.150619376578
 30
0.0
 40
2.0
100
AcDbArc
 50
241.3050956206548
 51
331.3050956206584
  0
LINE
  5
1B40
330
18
100
AcDbEntity
  8
JISSEN
100
AcDbLine
 10
502.8380560584213
 20
1049.946686689329
 30
0.0
 11
440.7349124426652
 21
1083.939986352691
 31
0.0
  0
ARC
  5
1B41
330
18
100
AcDbEntity
  8
JISSEN
100
AcDbCircle
 10
447.9370947362074
 20
1097.097819388969
 30
0.0
 40
15.0
100
AcDbArc
 50
140.5134434845898
 51
241.3050956206548
  0
ARC
  5
1B42
330
18
100
AcDbEntity
  8
JISSEN
100
AcDbCircle
 10
495.6358737648791
 20
1036.788853653051
 30
0.0
 40
15.0
100
AcDbArc
 50
0.0
 51
61.30509562065479
  0
LINE
  5
1B43
330
18
100
AcDbEntity
  8
JISSEN
100
AcDbLine
 10
505.238783489602
 20
1054.332631034756
 30
0.0
 11
443.1356398738459
 21
1088.325930698117
 31
0.0
  0
ARC
  5
1B44
330
18
100
AcDbEntity
  8
JISSEN
100
AcDbCircle
 10
447.9370947362074
 20
1097.097819388969
 30
0.0
 40
10.0
100
AcDbArc
 50
140.5134434845898
 51
241.3050956206548
  0
ARC
  5
1B45
330
18
100
AcDbEntity
  8
JISSEN
100
AcDbCircle
 10
495.6358737648791
 20
1036.788853653051
 30
0.0
 40
20.0
100
AcDbArc
 50
0.0
 51
61.30509562065479
  0
LINE
  5
1B46
330
18
100
AcDbEntity
  8
JISSEN
100
AcDbLine
 10
386.0982667364211
 20
1019.2107748506
 30
0.0
 11
366.4266938773603
 21
1038.882347725854
 31
0.0
  0
LINE
  5
1B47
330
18
100
AcDbEntity
  8
JISSEN
100
AcDbLine
 10
393.3482667506522
 20
1026.4607748506
 30
0.0
 11
373.6766938764201
 21
1046.132347724906
 31
0.0
  0
LINE
  5
1B48
330
18
100
AcDbEntity
  8
JISSEN
100
AcDbLine
 10
366.4266938773603
 20
1041.7107748506
 30
0.0
 11
370.8482667516714
 21
1046.132347724909
 31
0.0
  0
LINE
  5
1B49
330
18
100
AcDbEntity
  8
JISSEN
100
AcDbLine
 10
388.9266938611673
 20
1019.2107748506
 30
0.0
 11
393.3482667486901
 21
1023.632347723892
 31
0.0
  0
ARC
  5
1B4A
330
18
100
AcDbEntity
  8
JISSEN
100
AcDbCircle
 10
367.8409074397334
 20
1040.296561288227
 30
0.0
 40
2.0
100
AcDbArc
 50
135.0
 51
225.0
  0
ARC
  5
1B4B
330
18
100
AcDbEntity
  8
JISSEN
100
AcDbCircle
 10
387.5124802987942
 20
1020.624988412973
 30
0.0
 40
2.0
100
AcDbArc
 50
225.0
 51
315.0
  0
ARC
  5
1B4C
330
18
100
AcDbEntity
  8
JISSEN
100
AcDbCircle
 10
391.9340531882791
 20
1025.046561288227
 30
0.0
 40
2.0
100
AcDbArc
 50
314.9999999205096
 51
45.0
  0
ARC
  5
1B4D
330
18
100
AcDbEntity
  8
JISSEN
100
AcDbCircle
 10
372.2624803140445
 20
1044.718134162536
 30
0.0
 40
2.0
100
AcDbArc
 50
44.99999999989753
 51
135.0
  0
LINE
  5
1B4E
330
18
100
AcDbEntity
  8
JISSEN
100
AcDbLine
 10
377.5020726831229
 20
1042.306968937511
 30
0.0
 11
388.0970908000648
 21
1052.901987020353
 31
0.0
  0
LINE
  5
1B4F
330
18
100
AcDbEntity
  8
JISSEN
100
AcDbLine
 10
389.5228879439494
 20
1030.286153637995
 30
0.0
 11
403.634198992634
 21
1044.397464641262
 31
0.0
  0
LINE
  5
1B50
330
18
100
AcDbEntity
  8
JISSEN
100
AcDbLine
 10
-70.71463319595108
 20
1017.539168303678
 30
0.0
 11
-70.71463319595108
 21
1188.46915099797
 31
0.0
  0
LINE
  5
1B51
330
18
100
AcDbEntity
  8
JISSEN
100
AcDbLine
 10
390.6792539541059
 20
1004.476023160123
 30
0.0
 11
405.052433779167
 21
1029.371100883452
 31
0.0
  0
ARC
  5
1B52
330
18
100
AcDbEntity
  8
JISSEN
100
AcDbCircle
 10
388.8578708734554
 20
1005.302197278284
 30
0.0
 40
2.0
100
AcDbArc
 50
267.6023719783253
 51
335.6010928778463
  0
ARC
  5
1B53
330
18
100
AcDbEntity
  8
JISSEN
100
AcDbCircle
 10
384.7322196496287
 20
1005.474942200194
 30
0.0
 40
2.0
100
AcDbArc
 50
214.6292303213063
 51
267.6023719783253
  0
ARC
  5
1B54
330
18
100
AcDbEntity
  8
JISSEN
100
AcDbCircle
 10
382.1389036342032
 20
1009.23006773617
 30
0.0
 40
2.0
100
AcDbArc
 50
143.067486799248
 51
214.6292303213063
  0
LINE
  5
1B55
330
18
100
AcDbEntity
  8
JISSEN
100
AcDbLine
 10
384.6485510672775
 20
1003.476693074502
 30
0.0
 11
388.7742022911042
 21
1003.303948152593
 31
0.0
  0
LINE
  5
1B56
330
18
100
AcDbEntity
  8
JISSEN
100
AcDbLine
 10
380.4932104997496
 20
1008.093540522589
 30
0.0
 11
383.0865265151751
 21
1004.338414986612
 31
0.0
  0
LINE
  5
1B57
330
18
100
AcDbEntity
  8
JISSEN
100
AcDbLine
 10
386.0982667358391
 20
1019.210774851182
 30
0.0
 11
380.54021600651
 21
1010.431815575387
 31
0.0
  0
LINE
  5
1B58
330
18
100
AcDbEntity
  8
ITTEN
100
AcDbLine
 10
344.1549385148792
 20
1518.541501770308
 30
0.0
 11
694.5665120648791
 21
1518.541501770308
 31
0.0
  0
LINE
  5
1B59
330
18
100
AcDbEntity
  8
JISSEN
100
AcDbLine
 10
756.398243634879
 20
1461.541501770308
 30
0.0
 11
762.3982436348789
 21
1461.541501770308
 31
0.0
  0
LINE
  5
1B5A
330
18
100
AcDbEntity
  8
JISSEN
100
AcDbLine
 10
756.3982436348792
 20
1455.541501770308
 30
0.0
 11
762.3982436348792
 21
1455.541501770308
 31
0.0
  0
LINE
  5
1B5B
330
18
100
AcDbEntity
  8
JISSEN
100
AcDbLine
 10
700.9450206830327
 20
1455.541501770308
 30
0.0
 11
746.398243634879
 21
1455.541501770308
 31
0.0
  0
LINE
  5
1B5C
330
18
100
AcDbEntity
  8
JISSEN
100
AcDbLine
 10
694.9296893431466
 20
1461.541501770308
 30
0.0
 11
746.398243634879
 21
1461.541501770308
 31
0.0
  0
LINE
  5
1B5D
330
18
100
AcDbEntity
  8
JISSEN
100
AcDbLine
 10
629.5041854048791
 20
1455.541501770308
 30
0.0
 11
698.944478902199
 21
1455.541501770308
 31
0.0
  0
LINE
  5
1B5E
330
18
100
AcDbEntity
  8
JISSEN
100
AcDbLine
 10
629.5041854048791
 20
1461.541501770308
 30
0.0
 11
692.5389674502689
 21
1461.541501770308
 31
0.0
  0
ARC
  5
1B5F
330
18
100
AcDbEntity
  8
JISSEN
100
AcDbCircle
 10
748.398243634879
 20
1455.541501770308
 30
0.0
 40
2.0
100
AcDbArc
 50
180.0
 51
270.0
  0
ARC
  5
1B60
330
18
100
AcDbEntity
  8
JISSEN
100
AcDbCircle
 10
748.398243634879
 20
1461.541501770308
 30
0.0
 40
2.0
100
AcDbArc
 50
90.0
 51
180.0
  0
LINE
  5
1B61
330
18
100
AcDbEntity
  8
JISSEN
100
AcDbLine
 10
756.3982436348792
 20
1453.541501770308
 30
0.0
 11
756.3982436348792
 21
1463.541501770308
 31
0.0
  0
LINE
  5
1B62
330
18
100
AcDbEntity
  8
JISSEN
100
AcDbLine
 10
748.398243634879
 20
1453.541501770308
 30
0.0
 11
756.3982436348792
 21
1453.541501770308
 31
0.0
  0
LINE
  5
1B63
330
18
100
AcDbEntity
  8
JISSEN
100
AcDbLine
 10
748.398243634879
 20
1463.541501770308
 30
0.0
 11
756.398243634879
 21
1463.541501770308
 31
0.0
  0
LINE
  5
1B64
330
18
100
AcDbEntity
  8
JISSEN
100
AcDbLine
 10
746.398243634879
 20
1455.541501770308
 30
0.0
 11
746.398243634879
 21
1461.541501770308
 31
0.0
  0
SPLINE
  5
1B65
330
18
100
AcDbEntity
  8
JISSEN
100
AcDbSpline
210
0.0
220
0.0
230
1.0
 70
     8
 71
     3
 72
    56
 73
    52
 74
     0
 42
0.0000000001
 43
0.0000000001
 40
0.0
 40
0.0
 40
0.0
 40
0.0
 40
0.943425776021794
 40
0.943425776021794
 40
2.830277328065382
 40
2.830277328065382
 40
4.539137381878086
 40
4.539137381878086
 40
6.247997435690789
 40
6.247997435690789
 40
7.33131001392477
 40
7.33131001392477
 40
8.217169656553545
 40
8.217169656553545
 40
9.10302929918232
 40
9.10302929918232
 40
9.71171118807811
 40
9.71171118807811
 40
10.13816962475659
 40
10.13816962475659
 40
10.56462806143507
 40
10.56462806143507
 40
11.64561061001192
 40
11.64561061001192
 40
12.72659315858877
 40
12.72659315858877
 40
13.80757570716563
 40
13.80757570716563
 40
15.25822344972975
 40
15.25822344972975
 40
16.43252597389821
 40
16.43252597389821
 40
17.0818501158139
 40
17.0818501158139
 40
17.51805693678398
 40
17.51805693678398
 40
17.95426375775406
 40
17.95426375775406
 40
18.82667739969422
 40
18.82667739969422
 40
20.56518551174404
 40
20.56518551174404
 40
21.83047636071274
 40
21.83047636071274
 40
23.71846399943451
 40
23.71846399943451
 40
25.60645163815628
 40
25.60645163815628
 40
27.49443927687805
 40
27.49443927687805
 40
28.99033489637439
 40
28.99033489637439
 40
28.99033489637439
 40
28.99033489637439
 10
698.9331109392569
 20
1471.557702875093
 30
0.0
 10
698.5987105971007
 20
1471.26422169183
 30
0.0
 10
698.2620264464856
 20
1470.968745984533
 30
0.0
 10
697.2574544398744
 20
1470.078835964001
 30
0.0
 10
696.5952741530728
 20
1469.481389889043
 30
0.0
 10
695.4057884918689
 20
1468.339418695248
 30
0.0
 10
694.8716013358837
 20
1467.79575661595
 30
0.0
 10
693.9053201273504
 20
1466.69152032639
 30
0.0
 10
693.4718593736529
 20
1466.132956093421
 30
0.0
 10
692.8849533127104
 20
1465.152156314674
 30
0.0
 10
692.6862618929251
 20
1464.753686835295
 30
0.0
 10
692.4143208925329
 20
1463.96224079989
 30
0.0
 10
692.324941752437
 20
1463.579700847419
 30
0.0
 10
692.2665005831118
 20
1462.760027385622
 30
0.0
 10
692.3008734207792
 20
1462.321649365453
 30
0.0
 10
692.5028638178475
 20
1461.598940849573
 30
0.0
 10
692.6247476628898
 20
1461.311219716152
 30
0.0
 10
692.8878242153778
 20
1460.858801841607
 30
0.0
 10
693.0132438439204
 20
1460.682287424065
 30
0.0
 10
693.2717702884526
 20
1460.36888643716
 30
0.0
 10
693.4060393329214
 20
1460.228921211027
 30
0.0
 10
693.8870352267747
 20
1459.776196804571
 30
0.0
 10
694.2425639174728
 20
1459.52422875877
 30
0.0
 10
694.9552114822384
 20
1459.068686186777
 30
0.0
 10
695.3140315909095
 20
1458.867087782454
 30
0.0
 10
696.0207238713516
 20
1458.48009723491
 30
0.0
 10
696.3684958551055
 20
1458.295320602791
 30
0.0
 10
697.1371377610921
 20
1457.867021929048
 30
0.0
 10
697.5419361046465
 20
1457.623893778597
 30
0.0
 10
698.1333663021075
 20
1457.197538550693
 30
0.0
 10
698.3450913954957
 20
1457.01246025727
 30
0.0
 10
698.5745615330247
 20
1456.760361392011
 30
0.0
 10
698.63710441799
 20
1456.677986509751
 30
0.0
 10
698.7154520821587
 20
1456.554968038935
 30
0.0
 10
698.7413570994967
 20
1456.507582050211
 30
0.0
 10
698.79202773931
 20
1456.399059770768
 30
0.0
 10
698.8153960067907
 20
1456.340092074107
 30
0.0
 10
698.8784055381211
 20
1456.147146191347
 30
0.0
 10
698.9108249675348
 20
1455.99662961211
 30
0.0
 10
698.9647769203743
 20
1455.486993186558
 30
0.0
 10
698.9398199859081
 20
1455.069029385818
 30
0.0
 10
698.7817835618529
 20
1454.323274748654
 30
0.0
 10
698.6813005220646
 20
1454.002652421601
 30
0.0
 10
698.3724876317128
 20
1453.253556147686
 30
0.0
 10
698.1375089242119
 20
1452.848782692782
 30
0.0
 10
697.5601901693503
 20
1452.065629090457
 30
0.0
 10
697.2172810681088
 20
1451.689200671576
 30
0.0
 10
696.4326703109495
 20
1450.945754652994
 30
0.0
 10
695.9913856358457
 20
1450.579537752532
 30
0.0
 10
695.1388678255418
 20
1449.91678701595
 30
0.0
 10
694.7406535463835
 20
1449.621551451168
 30
0.0
 10
694.3300203279434
 20
1449.317343425488
 30
0.0
1001
ACAD_OBJECT_CHANGE_GUID
1070
     0
1071
        0
1070
     0
1070
     0
1070
     0
1070
     0
1070
     0
1070
     0
1070
     0
1070
     0
1070
     0
1070
     0
1070
     0
1071
        0
1070
     0
1070
     0
1070
     0
1070
     0
1070
     0
1070
     0
1070
     0
1070
     0
1070
     0
1070
     0
  0
SPLINE
  5
1B66
330
18
100
AcDbEntity
  8
JISSEN
100
AcDbSpline
210
0.0
220
0.0
230
1.0
 70
  1064
 71
     3
 72
    11
 73
     7
 74
     5
 42
0.0000000001
 43
0.0000000001
 44
0.0000000001
 40
0.0
 40
0.0
 40
0.0
 40
0.0
 40
9.903364549848676
 40
17.18093630216195
 40
21.99724315863041
 40
28.99033489637439
 40
28.99033489637439
 40
28.99033489637439
 40
28.99033489637439
 10
700.2523613723504
 20
1470.054513500868
 30
0.0
 10
696.7420815197771
 20
1466.973771782497
 30
0.0
 10
690.6522426325732
 20
1461.629120784312
 30
0.0
 10
701.5821840614193
 20
1459.115065701909
 30
0.0
 10
700.6819722256827
 20
1451.534003341343
 30
0.0
 10
697.4402143855085
 20
1449.132422787196
 30
0.0
 10
695.5205645585481
 20
1447.710295064369
 30
0.0
 11
700.2523613723504
 21
1470.054513500868
 31
0.0
 11
694.5813081405447
 21
1461.935659847228
 31
0.0
 11
700.4225963530404
 21
1457.594876205001
 31
0.0
 11
700.3380752386508
 21
1452.779311033924
 31
0.0
 11
695.5205645585481
 21
1447.710295064369
 31
0.0
1001
ACAD_OBJECT_CHANGE_GUID
1070
     0
1071
        0
1070
     0
1070
     0
1070
     0
1070
     0
1070
     0
1070
     0
1070
     0
1070
     0
1070
     0
1070
     0
1070
     0
1071
        0
1070
     0
1070
     0
1070
     0
1070
     0
1070
     0
1070
     0
1070
     0
1070
     0
1070
     0
1070
     0
  0
DIMENSION
  5
1B67
330
18
100
AcDbEntity
  8
SUNPOU
100
AcDbDimension
  2
*D59
 10
799.2379950769386
 20
1458.541501770308
 30
0.0
 11
799.2379950769386
 21
1489.914890653757
 31
0.0
 70
   160
 71
     5
 42
60.0
  3
IMCADLT
100
AcDbAlignedDimension
 13
694.5665120648791
 23
1518.541501770308
 33
0.0
 14
756.398243634879
 24
1458.541501770308
 34
0.0
 50
90.0
100
AcDbRotatedDimension
1001
ACAD
1000
DSTYLE
1002
{
1070
    40
1040
5.0
1070
    41
1040
3.0
1002
}
  0
DIMENSION
  5
1B68
330
18
100
AcDbEntity
  8
SUNPOU
100
AcDbDimension
  2
*D60
 10
756.3982436348792
 20
1356.486109097178
 30
0.0
 11
694.3270939009321
 21
1356.486109097178
 31
0.0
 70
   160
  1
約2200
 71
     5
 42
126.89405823
  3
IMCADLT
100
AcDbAlignedDimension
 13
629.5041854048791
 23
1426.041501770308
 33
0.0
 14
756.3982436348792
 24
1453.541501770308
 34
0.0
100
AcDbRotatedDimension
1001
ACAD
1000
DSTYLE
1002
{
1070
    40
1040
5.0
1070
    41
1040
3.0
1002
}
  0
LINE
  5
1B69
330
18
100
AcDbEntity
  8
JISSEN
100
AcDbLine
 10
366.8478779648792
 20
1608.041501770308
 30
0.0
 11
628.5041854048792
 21
1608.041501770308
 31
0.0
  0
LINE
  5
1B6A
330
18
100
AcDbEntity
  8
JISSEN
100
AcDbLine
 10
366.8478779648792
 20
1611.041501770309
 30
0.0
 11
628.5041854048789
 21
1611.041501770309
 31
0.0
  0
LINE
  5
1B6B
330
18
100
AcDbEntity
  8
JISSEN
100
AcDbLine
 10
366.8478779648792
 20
1429.041501770308
 30
0.0
 11
370.4705351588591
 21
1429.041501770308
 31
0.0
  0
LINE
  5
1B6C
330
18
100
AcDbEntity
  8
JISSEN
100
AcDbLine
 10
366.8478779648792
 20
1426.041501770308
 30
0.0
 11
371.394240793748
 21
1426.041501770308
 31
0.0
  0
LINE
  5
1B6D
330
18
100
AcDbEntity
  8
JISSEN
100
AcDbLine
 10
391.3302516548792
 20
1429.041501770308
 30
0.0
 11
391.3302516548792
 21
1608.041501770308
 31
0.0
  0
LINE
  5
1B6E
330
18
100
AcDbEntity
  8
JISSEN
100
AcDbLine
 10
437.9370947348792
 20
1429.041501770308
 30
0.0
 11
437.9370947348792
 21
1608.041501770308
 31
0.0
  0
LINE
  5
1B6F
330
18
100
AcDbEntity
  8
JISSEN
100
AcDbLine
 10
437.9370947348792
 20
1403.541501770308
 30
0.0
 11
622.2234241273842
 21
1412.306935624713
 31
0.0
  0
LINE
  5
1B70
330
18
100
AcDbEntity
  8
JISSEN
100
AcDbLine
 10
629.5041854048791
 20
1430.041501770308
 30
0.0
 11
629.5041854048791
 21
1607.041501770309
 31
0.0
  0
LINE
  5
1B71
330
18
100
AcDbEntity
  8
JISSEN
100
AcDbLine
 10
622.2234241273821
 20
1624.776067915903
 30
0.0
 11
437.9370947348792
 21
1633.541501770308
 31
0.0
  0
LINE
  5
1B72
330
18
100
AcDbEntity
  8
JISSEN
100
AcDbLine
 10
366.8478779648792
 20
1620.02972695226
 30
0.0
 11
366.8478779648792
 21
1437.781224469206
 31
0.0
  0
LINE
  5
1B73
330
18
100
AcDbEntity
  8
JISSEN
100
AcDbLine
 10
371.2122118188493
 20
1624.989155200636
 30
0.0
 11
437.9370947348792
 21
1633.541501770308
 31
0.0
  0
LINE
  5
1B74
330
18
100
AcDbEntity
  8
JISSEN
100
AcDbLine
 10
371.2122118188493
 20
1412.093848339981
 30
0.0
 11
437.9370947348792
 21
1403.541501770308
 31
0.0
  0
ARC
  5
1B75
330
18
100
AcDbEntity
  8
JISSEN
100
AcDbCircle
 10
371.8478779648792
 20
1620.02972695226
 30
0.0
 40
5.0
100
AcDbArc
 50
97.30396381740897
 51
180.0
  0
ARC
  5
1B76
330
18
100
AcDbEntity
  8
JISSEN
100
AcDbCircle
 10
371.8478779648792
 20
1417.053276588357
 30
0.0
 40
5.0
100
AcDbArc
 50
180.0
 51
262.696036182591
  0
LINE
  5
1B77
330
18
100
AcDbEntity
  8
JISSEN
100
AcDbLine
 10
417.9370947348793
 20
1467.291501770326
 30
0.0
 11
417.9370947348793
 21
1569.791501770326
 31
0.0
  0
LINE
  5
1B78
330
18
100
AcDbEntity
  8
JISSEN
100
AcDbLine
 10
427.9370947348795
 20
1579.791501770326
 30
0.0
 11
437.9370947348793
 21
1579.791501770326
 31
0.0
  0
LINE
  5
1B79
330
18
100
AcDbEntity
  8
JISSEN
100
AcDbLine
 10
427.9370947348793
 20
1457.291501770326
 30
0.0
 11
437.9370947348793
 21
1457.291501770326
 31
0.0
  0
ARC
  5
1B7A
330
18
100
AcDbEntity
  8
JISSEN
100
AcDbCircle
 10
427.9370947348794
 20
1569.791501770326
 30
0.0
 40
10.0
100
AcDbArc
 50
90.0
 51
180.0
  0
ARC
  5
1B7B
330
18
100
AcDbEntity
  8
JISSEN
100
AcDbCircle
 10
427.9370947348793
 20
1467.291501770326
 30
0.0
 40
10.0
100
AcDbArc
 50
180.0
 51
270.0
  0
LINE
  5
1B7C
330
18
100
AcDbEntity
  8
JISSEN
100
AcDbLine
 10
371.8478779648791
 20
1603.541501770308
 30
0.0
 11
386.3302516548791
 21
1603.541501770308
 31
0.0
  0
LINE
  5
1B7D
330
18
100
AcDbEntity
  8
JISSEN
100
AcDbLine
 10
371.8478779648792
 20
1451.041501770308
 30
0.0
 11
386.3302516548791
 21
1451.041501770308
 31
0.0
  0
LINE
  5
1B7E
330
18
100
AcDbEntity
  8
JISSEN
100
AcDbLine
 10
369.8478779648791
 20
1601.541501770308
 30
0.0
 11
369.8478779648791
 21
1453.041501770308
 31
0.0
  0
LINE
  5
1B7F
330
18
100
AcDbEntity
  8
JISSEN
100
AcDbLine
 10
388.3302516548791
 20
1453.041501770308
 30
0.0
 11
388.3302516548791
 21
1601.541501770308
 31
0.0
  0
ARC
  5
1B80
330
18
100
AcDbEntity
  8
JISSEN
100
AcDbCircle
 10
371.8478779648791
 20
1601.541501770308
 30
0.0
 40
2.0
100
AcDbArc
 50
90.0
 51
180.0
  0
ARC
  5
1B81
330
18
100
AcDbEntity
  8
JISSEN
100
AcDbCircle
 10
386.3302516548791
 20
1601.541501770308
 30
0.0
 40
2.0
100
AcDbArc
 50
0.0
 51
90.0
  0
ARC
  5
1B82
330
18
100
AcDbEntity
  8
JISSEN
100
AcDbCircle
 10
371.8478779648792
 20
1453.041501770308
 30
0.0
 40
2.0
100
AcDbArc
 50
180.0
 51
270.0
  0
ARC
  5
1B83
330
18
100
AcDbEntity
  8
JISSEN
100
AcDbCircle
 10
386.3302516548791
 20
1453.041501770308
 30
0.0
 40
2.0
100
AcDbArc
 50
270.0
 51
0.0
  0
ELLIPSE
  5
1B84
330
18
100
AcDbEntity
  8
JISSEN
100
AcDbEllipse
 10
381.7228779648793
 20
1434.696857989019
 30
0.0
 11
0.0000000000000064
 21
15.0
 31
0.0
210
0.0
220
0.0
230
1.0
 40
0.5625
 41
3.141592653589793
 42
6.283185307179586
1001
ACAD_OBJECT_CHANGE_GUID
1070
     0
1071
        0
1070
     0
1070
     0
1070
     0
1070
     0
1070
     0
1070
     0
1070
     0
1070
     0
1070
     0
1070
     0
1070
     0
1071
        0
1070
     0
1070
     0
1070
     0
1070
     0
1070
     0
1070
     0
1070
     0
1070
     0
1070
     0
1070
     0
  0
ELLIPSE
  5
1B85
330
18
100
AcDbEntity
  8
JISSEN
100
AcDbEllipse
 10
378.2853779648793
 20
1434.696857989019
 30
0.0
 11
0.0000000000000064
 21
15.0
 31
0.0
210
0.0
220
0.0
230
1.0
 40
0.5625
 41
1.763381031983274
 42
7.661396928785666
1001
ACAD_OBJECT_CHANGE_GUID
1070
     0
1071
        0
1070
     0
1070
     0
1070
     0
1070
     0
1070
     0
1070
     0
1070
     0
1070
     0
1070
     0
1070
     0
1070
     0
1071
        0
1070
     0
1070
     0
1070
     0
1070
     0
1070
     0
1070
     0
1070
     0
1070
     0
1070
     0
1070
     0
  0
LINE
  5
1B86
330
18
100
AcDbEntity
  8
JISSEN
100
AcDbLine
 10
381.7228779648811
 20
1419.696857989019
 30
0.0
 11
378.2853779648811
 21
1419.696857989019
 31
0.0
  0
LINE
  5
1B87
330
18
100
AcDbEntity
  8
JISSEN
100
AcDbLine
 10
381.7228779648759
 20
1449.696857989019
 30
0.0
 11
378.2853779648793
 21
1449.696857989019
 31
0.0
  0
ARC
  5
1B88
330
18
100
AcDbEntity
  8
JISSEN
100
AcDbCircle
 10
357.5041854048792
 20
1433.987487313255
 30
0.0
 40
3.0
100
AcDbArc
 50
180.0
 51
273.8686674138151
  0
ARC
  5
1B89
330
18
100
AcDbEntity
  8
JISSEN
100
AcDbCircle
 10
357.5041854048792
 20
1435.406228667523
 30
0.0
 40
3.0
100
AcDbArc
 50
83.32551907822333
 51
180.0
  0
LINE
  5
1B8A
330
18
100
AcDbEntity
  8
JISSEN
100
AcDbLine
 10
354.5041854048792
 20
1435.406228667523
 30
0.0
 11
354.5041854048792
 21
1433.987487313255
 31
0.0
  0
LINE
  5
1B8B
330
18
100
AcDbEntity
  8
JISSEN
100
AcDbLine
 10
357.7065944751736
 20
1430.994323340423
 30
0.0
 11
378.2853779648792
 21
1432.385938524805
 31
0.0
  0
LINE
  5
1B8C
330
18
100
AcDbEntity
  8
JISSEN
100
AcDbLine
 10
357.7065944757957
 20
1438.399392639656
 30
0.0
 11
378.2853779648792
 21
1437.007777451842
 31
0.0
  0
LINE
  5
1B8D
330
18
100
AcDbEntity
  8
JISSEN
100
AcDbLine
 10
389.5377207708933
 20
1429.041501770281
 30
0.0
 11
628.5041854048788
 21
1429.041501770308
 31
0.0
  0
LINE
  5
1B8E
330
18
100
AcDbEntity
  8
JISSEN
100
AcDbLine
 10
388.6140151360214
 20
1426.041501770336
 30
0.0
 11
628.5041854048788
 21
1426.041501770308
 31
0.0
  0
ELLIPSE
  5
1B8F
330
18
100
AcDbEntity
  8
JISSEN
100
AcDbEllipse
 10
378.2853779648793
 20
1434.696857989019
 30
0.0
 11
0.0000000000000032
 21
7.5
 31
0.0
210
0.0
220
0.0
230
1.0
 40
0.5625
 41
1.921801304887218
 42
7.502976655983342
1001
ACAD_OBJECT_CHANGE_GUID
1070
     0
1071
        0
1070
     0
1070
     0
1070
     0
1070
     0
1070
     0
1070
     0
1070
     0
1070
     0
1070
     0
1070
     0
1070
     0
1071
        0
1070
     0
1070
     0
1070
     0
1070
     0
1070
     0
1070
     0
1070
     0
1070
     0
1070
     0
1070
     0
  0
ELLIPSE
  5
1B90
330
18
100
AcDbEntity
  8
JISSEN
100
AcDbEllipse
 10
380.0041279648793
 20
1434.696857989019
 30
0.0
 11
0.0000000000000032
 21
7.5
 31
0.0
210
0.0
220
0.0
230
1.0
 40
0.5625
 41
3.141592653589793
 42
6.283185307179586
1001
ACAD_OBJECT_CHANGE_GUID
1070
     0
1071
        0
1070
     0
1070
     0
1070
     0
1070
     0
1070
     0
1070
     0
1070
     0
1070
     0
1070
     0
1070
     0
1070
     0
1071
        0
1070
     0
1070
     0
1070
     0
1070
     0
1070
     0
1070
     0
1070
     0
1070
     0
1070
     0
1070
     0
  0
LINE
  5
1B91
330
18
100
AcDbEntity
  8
JISSEN
100
AcDbLine
 10
380.0041279648776
 20
1442.196857989019
 30
0.0
 11
378.2853779648793
 21
1442.196857989019
 31
0.0
  0
LINE
  5
1B92
330
18
100
AcDbEntity
  8
JISSEN
100
AcDbLine
 10
380.0041279648803
 20
1427.196857989019
 30
0.0
 11
378.2853779648803
 21
1427.196857989019
 31
0.0
  0
ELLIPSE
  5
1B93
330
18
100
AcDbEntity
  8
JISSEN
100
AcDbEllipse
 10
378.2853779648792
 20
1434.696857988323
 30
0.0
 11
0.0
 21
2.310919463518416
 31
0.0
210
0.0
220
0.0
230
1.0
 40
0.6179415502044956
 41
3.141592653589793
 42
6.283185307179586
1001
ACAD_OBJECT_CHANGE_GUID
1070
     0
1071
        0
1070
     0
1070
     0
1070
     0
1070
     0
1070
     0
1070
     0
1070
     0
1070
     0
1070
     0
1070
     0
1070
     0
1071
        0
1070
     0
1070
     0
1070
     0
1070
     0
1070
     0
1070
     0
1070
     0
1070
     0
1070
     0
1070
     0
  0
LINE
  5
1B94
330
18
100
AcDbEntity
  8
JISSEN
100
AcDbLine
 10
366.8478779648792
 20
1431.612491509371
 30
0.0
 11
366.8478779648792
 21
1417.053276588357
 31
0.0
  0
LINE
  5
1B95
330
18
100
AcDbEntity
  8
JISSEN
100
AcDbLine
 10
626.8155007659889
 20
1416.007194092439
 30
0.0
 11
629.1668858583271
 21
1424.782682725205
 31
0.0
  0
ARC
  5
1B96
330
18
100
AcDbEntity
  8
JISSEN
100
AcDbCircle
 10
621.9858716345429
 20
1417.30128931795
 30
0.0
 40
5.0
100
AcDbArc
 50
272.723176186911
 51
344.9999999999989
  0
ARC
  5
1B97
330
18
100
AcDbEntity
  8
JISSEN
100
AcDbCircle
 10
621.9858716345429
 20
1619.781714222667
 30
0.0
 40
5.0
100
AcDbArc
 50
15.00000000000116
 51
87.27682381308904
  0
LINE
  5
1B98
330
18
100
AcDbEntity
  8
JISSEN
100
AcDbLine
 10
626.8155007659883
 20
1621.075809448179
 30
0.0
 11
629.1668858583269
 21
1612.300320815411
 31
0.0
  0
LINE
  5
1B99
330
18
100
AcDbEntity
  8
JISSEN
100
AcDbLine
 10
623.7096722241875
 20
1621.223535734352
 30
0.0
 11
626.2393411638493
 21
1611.782682725206
 31
0.0
  0
ARC
  5
1B9A
330
18
100
AcDbEntity
  8
JISSEN
100
AcDbCircle
 10
618.8800430933127
 20
1619.929440506711
 30
0.0
 40
5.0
100
AcDbArc
 50
15.00000000000116
 51
87.27682381308904
  0
ARC
  5
1B9B
330
18
100
AcDbEntity
  8
JISSEN
100
AcDbCircle
 10
618.8800430933127
 20
1417.153563033906
 30
0.0
 40
5.0
100
AcDbArc
 50
272.723176186911
 51
344.9999999999989
  0
LINE
  5
1B9C
330
18
100
AcDbEntity
  8
JISSEN
100
AcDbLine
 10
623.7096722241875
 20
1415.859467806264
 30
0.0
 11
626.2393411638493
 21
1425.300320815411
 31
0.0
  0
LINE
  5
1B9D
330
18
100
AcDbEntity
  8
JISSEN
100
AcDbLine
 10
626.5041854048789
 20
1430.041501770308
 30
0.0
 11
626.5041854048789
 21
1607.041501770309
 31
0.0
  0
ARC
  5
1B9E
330
18
100
AcDbEntity
  8
JISSEN
100
AcDbCircle
 10
628.2009600320381
 20
1425.041501770308
 30
0.0
 40
1.0
100
AcDbArc
 50
344.9999999999989
 51
90.0
  0
ARC
  5
1B9F
330
18
100
AcDbEntity
  8
JISSEN
100
AcDbCircle
 10
627.2052669901384
 20
1425.041501770308
 30
0.0
 40
1.0
100
AcDbArc
 50
90.0
 51
164.9999999999988
  0
ARC
  5
1BA0
330
18
100
AcDbEntity
  8
JISSEN
100
AcDbCircle
 10
627.5041854048789
 20
1430.041501770308
 30
0.0
 40
1.0
100
AcDbArc
 50
180.0
 51
270.0
  0
ARC
  5
1BA1
330
18
100
AcDbEntity
  8
JISSEN
100
AcDbCircle
 10
628.5041854048791
 20
1430.041501770308
 30
0.0
 40
1.0
100
AcDbArc
 50
270.0000000000033
 51
0.0
  0
LINE
  5
1BA2
330
18
100
AcDbEntity
  8
JISSEN
100
AcDbLine
 10
629.504185404879
 20
1427.041501770308
 30
0.0
 11
629.504185404879
 21
1428.041501770308
 31
0.0
  0
ARC
  5
1BA3
330
18
100
AcDbEntity
  8
JISSEN
100
AcDbCircle
 10
628.5041854048789
 20
1428.041501770308
 30
0.0
 40
1.0
100
AcDbArc
 50
0.0
 51
90.00000000000651
  0
ARC
  5
1BA4
330
18
100
AcDbEntity
  8
JISSEN
100
AcDbCircle
 10
628.5041854048789
 20
1427.041501770308
 30
0.0
 40
1.0
100
AcDbArc
 50
269.9999999999935
 51
0.0
  0
ARC
  5
1BA5
330
18
100
AcDbEntity
  8
JISSEN
100
AcDbCircle
 10
628.5041854048789
 20
1610.041501770309
 30
0.0
 40
1.0
100
AcDbArc
 50
0.0
 51
90.00000000000651
  0
ARC
  5
1BA6
330
18
100
AcDbEntity
  8
JISSEN
100
AcDbCircle
 10
628.5041854048789
 20
1609.041501770309
 30
0.0
 40
1.0
100
AcDbArc
 50
269.9999999999935
 51
0.0
  0
LINE
  5
1BA7
330
18
100
AcDbEntity
  8
JISSEN
100
AcDbLine
 10
629.504185404879
 20
1610.041501770309
 30
0.0
 11
629.504185404879
 21
1609.041501770309
 31
0.0
  0
ARC
  5
1BA8
330
18
100
AcDbEntity
  8
JISSEN
100
AcDbCircle
 10
628.5041854048791
 20
1607.041501770309
 30
0.0
 40
1.0
100
AcDbArc
 50
0.0
 51
89.99999999999674
  0
ARC
  5
1BA9
330
18
100
AcDbEntity
  8
JISSEN
100
AcDbCircle
 10
627.5041854048789
 20
1607.041501770309
 30
0.0
 40
1.0
100
AcDbArc
 50
90.0
 51
180.0
  0
ARC
  5
1BAA
330
18
100
AcDbEntity
  8
JISSEN
100
AcDbCircle
 10
627.2052669901384
 20
1612.041501770308
 30
0.0
 40
1.0
100
AcDbArc
 50
195.0000000000011
 51
270.0
  0
ARC
  5
1BAB
330
18
100
AcDbEntity
  8
JISSEN
100
AcDbCircle
 10
628.2009600320381
 20
1612.041501770309
 30
0.0
 40
1.0
100
AcDbArc
 50
270.0
 51
15.00000000000116
  0
LINE
  5
1BAC
330
18
100
AcDbEntity
  8
JISSEN
100
AcDbLine
 10
629.504185404879
 20
1609.041501770309
 30
0.0
 11
629.504185404879
 21
1610.041501770309
 31
0.0
  0
LINE
  5
1BAD
330
18
100
AcDbEntity
  8
JISSEN
100
AcDbLine
 10
369.8257864418085
 20
1412.480405950308
 30
0.0
 11
620.6581327625987
 21
1412.480405950308
 31
0.0
  0
LINE
  5
1BAE
330
18
100
AcDbEntity
  8
JISSEN
100
AcDbLine
 10
620.6581327625987
 20
1412.480405950308
 30
0.0
 11
620.6595671613557
 21
1412.480405950308
 31
0.0
  0
LINE
  5
1BAF
330
18
100
AcDbEntity
  8
JISSEN
100
AcDbLine
 10
369.8257864418085
 20
1624.602597590308
 30
0.0
 11
620.6581327625987
 21
1624.602597590308
 31
0.0
  0
DIMENSION
  5
1BB0
330
18
100
AcDbEntity
  8
SUNPOU
100
AcDbDimension
  2
*D47
 10
629.504185406999
 20
1268.276903752677
 30
0.0
 11
499.3468420198633
 21
1268.276903752677
 31
0.0
 70
   160
 71
     5
 42
266.0000000021
  3
IMCADLT
100
AcDbAlignedDimension
 13
363.5041854048791
 23
1073.309517708227
 33
0.0
 14
629.504185406999
 24
1144.495133224908
 34
0.0
100
AcDbRotatedDimension
1001
ACAD
1000
DSTYLE
1002
{
1070
    40
1040
5.0
1070
   173
1070
     0
1070
    41
1040
3.0
1002
}
  0
DIMENSION
  5
1BB1
330
18
100
AcDbEntity
  8
SUNPOU
100
AcDbDimension
  2
*D48
 10
310.2029382291635
 20
1016.203982948227
 30
0.0
 11
310.2029382291635
 21
929.7629362993085
 31
0.0
 70
   160
 71
     5
 42
180.0
  3
IMCADLT
100
AcDbAlignedDimension
 13
365.6358737648791
 23
836.2039829482274
 33
0.0
 14
384.1946354050461
 24
1016.203982948227
 34
0.0
 50
90.0
100
AcDbRotatedDimension
1001
ACAD
1000
DSTYLE
1002
{
1070
    40
1040
5.0
1070
   173
1070
     0
1070
    41
1040
3.0
1002
}
  0
ENDSEC
  0
SECTION
  2
OBJECTS
  0
DICTIONARY
  5
C
330
0
100
AcDbDictionary
281
     1
  3
ACAD_COLOR
350
113E
  3
ACAD_GROUP
350
D
  3
ACAD_LAYOUT
350
CC
  3
ACAD_MATERIAL
350
113A
  3
ACAD_MLEADERSTYLE
350
1141
  3
ACAD_MLINESTYLE
350
1B
  3
ACAD_PLOTSETTINGS
350
CD
  3
ACAD_PLOTSTYLENAME
350
CA
  3
ACAD_SCALELIST
350
1118
  3
ACAD_TABLESTYLE
350
113F
  3
ACDBHEADERROUNDTRIPXREC
350
1D06
  3
AcDbVariableDictionary
350
10E3
  3
ACGREF_MASTER
350
1020
  3
ACGREFACAD_MASTER
350
1024
  3
AcmDictionary
350
102A
  3
ACME_BOM_MANAGER_NAME
350
1019
  3
ACME_COMMAND_HISTORY
350
1014
  3
ACME_SCOPE_NAME
350
1013
  3
ACMESTATEMGR
350
101E
  3
AcmeSysVarManager
350
1015
  3
AcmSystemVariableManager
350
102E
  3
AMG
350
1026
  3
AMGSNAPSETTINGS
350
1062
  3
AMI_MASTER
350
1025
  3
CONTENTDICTIONARY
350
23
  3
DWGPROPS
350
1D05
  0
DICTIONARY
  5
1251
330
2
100
AcDbDictionary
280
     1
281
     1
  3
ACAD_LAYERSTATES
360
1252
  0
DICTIONARY
  5
E62
330
18
100
AcDbDictionary
280
     1
281
     1
  3
ACAD_INDEX
360
10CF
  3
ACAD_LAYOUTSELFREF
360
FFE
  3
ACAD_SORTENTS
360
123B
  0
DICTIONARY
  5
E60
330
15
100
AcDbDictionary
280
     1
281
     1
  3
ACAD_LAYOUTSELFREF
360
FFD
  0
DICTIONARY
  5
113E
102
{ACAD_REACTORS
330
C
102
}
330
C
100
AcDbDictionary
281
     1
  0
DICTIONARY
  5
D
102
{ACAD_REACTORS
330
C
102
}
330
C
100
AcDbDictionary
281
     1
  0
DICTIONARY
  5
CC
102
{ACAD_REACTORS
330
C
102
}
330
C
100
AcDbDictionary
281
     1
  3
Model
350
CE
  3
ﾚｲｱｳﾄ1
350
CF
  0
DICTIONARY
  5
113A
102
{ACAD_REACTORS
330
C
102
}
330
C
100
AcDbDictionary
281
     1
  3
ByBlock
350
113C
  3
ByLayer
350
113B
  3
Global
350
113D
  0
DICTIONARY
  5
1141
102
{ACAD_REACTORS
330
C
102
}
330
C
100
AcDbDictionary
281
     1
  3
Standard
350
1142
  0
DICTIONARY
  5
1B
102
{ACAD_REACTORS
330
C
102
}
330
C
100
AcDbDictionary
281
     1
  3
STANDARD
350
1C
  0
DICTIONARY
  5
CD
102
{ACAD_REACTORS
330
C
102
}
330
C
100
AcDbDictionary
281
     1
  0
ACDBDICTIONARYWDFLT
  5
CA
102
{ACAD_REACTORS
330
C
102
}
330
C
100
AcDbDictionary
281
     1
  3
Normal
350
CB
100
AcDbDictionaryWithDefault
340
CB
  0
DICTIONARY
  5
1118
102
{ACAD_REACTORS
330
C
102
}
330
C
100
AcDbDictionary
281
     1
  3
A0
350
1119
  3
A1
350
111A
  3
A2
350
111B
  3
A3
350
111C
  3
A4
350
111D
  3
A5
350
111E
  3
A6
350
111F
  3
A7
350
1120
  3
A8
350
1121
  3
A9
350
1122
  3
B0
350
1123
  3
B1
350
1124
  3
B2
350
1125
  3
B3
350
1126
  3
B4
350
1127
  3
B5
350
1128
  3
B6
350
1129
  3
B7
350
112A
  3
B8
350
112B
  3
B9
350
112C
  3
C0
350
112D
  3
C1
350
112E
  3
C2
350
112F
  3
C3
350
1130
  3
C4
350
1131
  3
C5
350
1132
  3
C6
350
1133
  3
C7
350
1134
  3
C8
350
1135
  3
C9
350
1136
  3
D0
350
1137
  3
D1
350
1138
  3
D2
350
1139
  0
DICTIONARY
  5
113F
102
{ACAD_REACTORS
330
C
102
}
330
C
100
AcDbDictionary
281
     1
  3
Standard
350
1140
  0
DICTIONARY
  5
1D06
102
{ACAD_REACTORS
330
C
102
}
330
C
100
AcDbDictionary
281
     1
  0
DICTIONARY
  5
10E3
102
{ACAD_REACTORS
330
C
102
}
330
C
100
AcDbDictionary
281
     1
  3
CMLEADERSTYLE
350
116E
  3
CTABLESTYLE
350
116D
  3
DIMASSOC
350
10E5
  3
INDEXCTL
350
10E4
  3
PROJECTNAME
350
1D04
  0
ACAD_PROXY_OBJECT
  5
1020
102
{ACAD_REACTORS
330
C
102
}
330
C
100
AcDbProxyObject
 90
      499
 91
      536
 95
   917527
 70
     0
 93
       34
310
04000042A4
 94
        0
1001
ACAD
1000
AcRTDxfName
1000
ACGREFMASTER
  0
ACAD_PROXY_OBJECT
  5
1024
102
{ACAD_REACTORS
330
C
102
}
330
C
100
AcDbProxyObject
 90
      499
 91
      539
 95
   917527
 70
     0
 93
      114
310
04000041C000000000000000000000
 94
        0
1001
ACAD
1000
AcRTDxfName
1000
ACGREFACADMASTER
  0
DICTIONARY
  5
102A
102
{ACAD_REACTORS
330
C
102
}
330
C
100
AcDbDictionary
281
     1
  3
AcmBOMDATA
350
102B
  3
AcmStdDictionary
350
1030
  0
ACAD_PROXY_OBJECT
  5
1019
102
{ACAD_REACTORS
330
C
102
}
330
C
100
AcDbProxyObject
 90
      499
 91
      530
 95
   917527
 70
     0
 93
       50
310
00010040400000
330
0
330
0
330
101A
 94
        0
1001
ACAD
1000
AcRTDxfName
1000
ACMEDRAWINGMAN
  0
ACAD_PROXY_OBJECT
  5
1014
102
{ACAD_REACTORS
330
C
102
}
330
C
100
AcDbProxyObject
 90
      499
 91
      526
 95
   917527
 70
     0
 93
     2110
310
4780504554E444F80504554E444F80504554E444F80504554E444F80504434F50598050644444544495440405184D5347202D20436F6D6D616E642043414E43454C4C45442E014191111151125510101461354D1C80B4810DBDB5B585B990810D05390D1531311510B80504554E444F805054C4159455280505584C494E458
310
05054C4159455280505584C494E4580504554E444F80504554E444F805054C4159455280505584C494E45805054C4159455280505584C494E4580504554E444F805044C494E45805044C494E458050545524153458050454455854805044D4F564580504554E444F80504554E444F8050545524153458050155805044D4F56
310
45805065341564541538
 94
        0
1001
ACAD
1000
AcRTDxfName
1000
ACMECOMMANDHISTORY
  0
ACAD_PROXY_OBJECT
  5
1013
102
{ACAD_REACTORS
330
C
102
}
330
C
100
AcDbProxyObject
 90
      499
 91
      525
 95
   917527
 70
     0
 93
      210
310
060000444000000000000000000010541A0000000000AAA406AA80
360
1016
360
1017
360
1018
360
101A
360
102F
 94
        0
1001
ACAD
1000
AcRTDxfName
1000
ACMESCOPE
  0
ACAD_PROXY_OBJECT
  5
101E
102
{ACAD_REACTORS
330
C
102
}
330
C
100
AcDbProxyObject
 90
      499
 91
      535
 95
   917527
 70
     0
 93
       50
310
06000041641280
 94
        0
1001
ACAD
1000
AcRTDxfName
1000
ACMESTATEMGR
  0
ACAD_PROXY_OBJECT
  5
1015
102
{ACAD_REACTORS
330
C
102
}
330
C
100
AcDbProxyObject
 90
      499
 91
      527
 95
   917527
 70
     0
 93
       48
310
903412000000
330
1016
330
1017
330
1018
 94
        0
1001
ACAD
1000
AcRTDxfName
1000
ACIMSYSVARMAN
  0
ACAD_PROXY_OBJECT
  5
102E
102
{ACAD_REACTORS
330
C
102
}
330
C
100
AcDbProxyObject
 90
      499
 91
      527
 95
   917527
 70
     0
 93
       32
310
90140A00
330
102F
 94
        0
1001
ACAD
1000
AcRTDxfName
1000
ACIMSYSVARMAN
  0
DICTIONARY
  5
1026
102
{ACAD_REACTORS
330
C
102
}
330
C
100
AcDbDictionary
281
     1
  3
AcMgSettings
350
1027
  3
AMGLAYCFG
350
1032
  0
DICTIONARY
  5
1062
102
{ACAD_REACTORS
330
C
102
}
330
C
100
AcDbDictionary
281
     1
  3
DIMENSION
350
1067
  3
FEA
350
1066
  3
HATCH (1)
350
1063
  3
HATCH (2)
350
1064
  3
SIMPLE WELD
350
1068
  3
SYMBOLS
350
1065
  0
ACAD_PROXY_OBJECT
  5
1025
102
{ACAD_REACTORS
330
C
102
}
330
C
100
AcDbProxyObject
 90
      499
 91
      540
 95
   917527
 70
     0
 93
       34
310
0500004280
 94
        0
1001
ACAD
1000
AcRTDxfName
1000
AMIMASTER
  0
DICTIONARY
  5
23
102
{ACAD_REACTORS
330
C
102
}
330
C
100
AcDbDictionary
281
     1
  0
XRECORD
  5
1D05
102
{ACAD_REACTORS
330
C
102
}
330
C
100
AcDbXrecord
280
     1
  1
DWGPROPS COOKIE
  2

  3

  4

  6

  7

  8
1547nh
  9

300
AmdtFileType=84
301
=
302
=
303
=
304
=
305
=
306
=
307
=
308
=
309
=
 40
0.0266088310185185
 41
2452703.606793553
 42
2460733.697511493
  1

 90
        1
  0
DICTIONARY
  5
1252
102
{ACAD_REACTORS
330
1251
102
}
330
1251
100
AcDbDictionary
281
     1
  0
DICTIONARY
  5
10CF
102
{ACAD_REACTORS
330
E62
102
}
330
E62
100
AcDbDictionary
281
     1
  3
*A1
350
10D0
  0
XRECORD
  5
FFE
102
{ACAD_REACTORS
330
E62
102
}
330
E62
100
AcDbXrecord
280
     1
340
18
  0
SORTENTSTABLE
  5
123B
102
{ACAD_REACTORS
330
E62
102
}
330
E62
100
AcDbSortentsTable
330
18
331
D4E
  5
D4E
  0
XRECORD
  5
FFD
102
{ACAD_REACTORS
330
E60
102
}
330
E60
100
AcDbXrecord
280
     1
340
15
  0
LAYOUT
  5
CE
102
{ACAD_XDICTIONARY
360
1D07
102
}
102
{ACAD_REACTORS
330
CC
102
}
330
CC
100
AcDbPlotSettings
  1

  2
DWF ePlot.pc3
  4
ANSI_A_(8.50_x_11.00_Inches)
  6

 40
5.793749809265136
 41
17.79375076293945
 42
5.793746948242187
 43
17.79376220703125
 44
215.8999938964844
 45
279.3999938964844
 46
0.0
 47
0.0
 48
0.0
 49
0.0
140
0.0
141
0.0
142
1.0
143
62.59909159938531
 70
 11952
 72
     0
 73
     1
 74
     0
  7
yama1.ctb
 75
     0
147
0.0159746727061103
148
0.0
149
0.0
100
AcDbLayout
  1
Model
 70
     1
 71
     0
 10
0.0
 20
0.0
 11
12.0
 21
9.0
 12
0.0
 22
0.0
 32
0.0
 14
0.0
 24
0.0
 34
0.0
 15
0.0
 25
0.0
 35
0.0
146
0.0
 13
0.0
 23
0.0
 33
0.0
 16
1.0
 26
0.0
 36
0.0
 17
0.0
 27
1.0
 37
0.0
 76
     0
330
18
  0
LAYOUT
  5
CF
102
{ACAD_XDICTIONARY
360
1D09
102
}
102
{ACAD_REACTORS
330
CC
102
}
330
CC
100
AcDbPlotSettings
  1

  2
\\NT1\XEROX 2F
  4

  6

 40
0.0
 41
0.0
 42
0.0
 43
0.0
 44
0.0
 45
0.0
 46
0.0
 47
0.0
 48
0.0
 49
0.0
140
0.0
141
0.0
142
1.0
143
1.0
 70
   688
 72
     0
 73
     0
 74
     5
  7
yama1.ctb
 75
    16
147
1.0
148
0.0
149
0.0
100
AcDbLayout
  1
ﾚｲｱｳﾄ1
 70
     1
 71
     1
 10
0.0
 20
0.0
 11
420.0
 21
297.0
 12
0.0
 22
0.0
 32
0.0
 14
1.000000000000000E+20
 24
1.000000000000000E+20
 34
1.000000000000000E+20
 15
-1.000000000000000E+20
 25
-1.000000000000000E+20
 35
-1.000000000000000E+20
146
0.0
 13
0.0
 23
0.0
 33
0.0
 16
1.0
 26
0.0
 36
0.0
 17
0.0
 27
1.0
 37
0.0
 76
     0
330
15
  0
MATERIAL
  5
113C
102
{ACAD_REACTORS
330
113A
102
}
330
113A
100
AcDbMaterial
  1
ByBlock
  2

  0
MATERIAL
  5
113B
102
{ACAD_REACTORS
330
113A
102
}
330
113A
100
AcDbMaterial
  1
ByLayer
  2

  0
MATERIAL
  5
113D
102
{ACAD_REACTORS
330
113A
102
}
330
113A
100
AcDbMaterial
  1
Global
  2

  0
MLEADERSTYLE
  5
1142
102
{ACAD_REACTORS
330
1141
102
}
330
1141
100
AcDbMLeaderStyle
170
     2
171
     1
172
     0
 90
        2
 40
0.0
 41
0.0
173
     1
 91
-1056964608
340
12
 92
       -2
290
     1
 42
0.09
291
     1
 43
0.36
  3
Standard
341
0
 44
0.18
300

342
F
174
     1
178
     1
175
     1
176
     0
 93
-1056964608
 45
0.18
292
     0
297
     0
 46
0.18
343
0
 94
-1056964608
 47
1.0
 49
1.0
140
1.0
293
     1
141
0.0
294
     1
177
     0
142
1.0
295
     0
296
     0
143
0.125
1001
ACAD_MLEADERVER
1070
     2
  0
MLINESTYLE
  5
1C
102
{ACAD_REACTORS
330
1B
102
}
330
1B
100
AcDbMlineStyle
  2
STANDARD
 70
     0
  3

 62
   256
 51
90.0
 52
90.0
 71
     2
 49
0.5
 62
   256
  6
BYLAYER
 49
-0.5
 62
   256
  6
BYLAYER
  0
ACDBPLACEHOLDER
  5
CB
102
{ACAD_REACTORS
330
CA
102
}
330
CA
  0
SCALE
  5
1119
102
{ACAD_REACTORS
330
1118
102
}
330
1118
100
AcDbScale
 70
     0
300
1:1
140
1.0
141
1.0
290
     1
  0
SCALE
  5
111A
102
{ACAD_REACTORS
330
1118
102
}
330
1118
100
AcDbScale
 70
     0
300
1:2
140
1.0
141
2.0
290
     0
  0
SCALE
  5
111B
102
{ACAD_REACTORS
330
1118
102
}
330
1118
100
AcDbScale
 70
     0
300
1:4
140
1.0
141
4.0
290
     0
  0
SCALE
  5
111C
102
{ACAD_REACTORS
330
1118
102
}
330
1118
100
AcDbScale
 70
     0
300
1:5
140
1.0
141
5.0
290
     0
  0
SCALE
  5
111D
102
{ACAD_REACTORS
330
1118
102
}
330
1118
100
AcDbScale
 70
     0
300
1:8
140
1.0
141
8.0
290
     0
  0
SCALE
  5
111E
102
{ACAD_REACTORS
330
1118
102
}
330
1118
100
AcDbScale
 70
     0
300
1:10
140
1.0
141
10.0
290
     0
  0
SCALE
  5
111F
102
{ACAD_REACTORS
330
1118
102
}
330
1118
100
AcDbScale
 70
     0
300
1:16
140
1.0
141
16.0
290
     0
  0
SCALE
  5
1120
102
{ACAD_REACTORS
330
1118
102
}
330
1118
100
AcDbScale
 70
     0
300
1:20
140
1.0
141
20.0
290
     0
  0
SCALE
  5
1121
102
{ACAD_REACTORS
330
1118
102
}
330
1118
100
AcDbScale
 70
     0
300
1:30
140
1.0
141
30.0
290
     0
  0
SCALE
  5
1122
102
{ACAD_REACTORS
330
1118
102
}
330
1118
100
AcDbScale
 70
     0
300
1:40
140
1.0
141
40.0
290
     0
  0
SCALE
  5
1123
102
{ACAD_REACTORS
330
1118
102
}
330
1118
100
AcDbScale
 70
     0
300
1:50
140
1.0
141
50.0
290
     0
  0
SCALE
  5
1124
102
{ACAD_REACTORS
330
1118
102
}
330
1118
100
AcDbScale
 70
     0
300
1:100
140
1.0
141
100.0
290
     0
  0
SCALE
  5
1125
102
{ACAD_REACTORS
330
1118
102
}
330
1118
100
AcDbScale
 70
     0
300
2:1
140
2.0
141
1.0
290
     0
  0
SCALE
  5
1126
102
{ACAD_REACTORS
330
1118
102
}
330
1118
100
AcDbScale
 70
     0
300
4:1
140
4.0
141
1.0
290
     0
  0
SCALE
  5
1127
102
{ACAD_REACTORS
330
1118
102
}
330
1118
100
AcDbScale
 70
     0
300
8:1
140
8.0
141
1.0
290
     0
  0
SCALE
  5
1128
102
{ACAD_REACTORS
330
1118
102
}
330
1118
100
AcDbScale
 70
     0
300
10:1
140
10.0
141
1.0
290
     0
  0
SCALE
  5
1129
102
{ACAD_REACTORS
330
1118
102
}
330
1118
100
AcDbScale
 70
     0
300
100:1
140
100.0
141
1.0
290
     0
  0
SCALE
  5
112A
102
{ACAD_REACTORS
330
1118
102
}
330
1118
100
AcDbScale
 70
     0
300
1/128" = 1'-0"
140
0.0078125
141
12.0
290
     0
  0
SCALE
  5
112B
102
{ACAD_REACTORS
330
1118
102
}
330
1118
100
AcDbScale
 70
     0
300
1/64" = 1'-0"
140
0.015625
141
12.0
290
     0
  0
SCALE
  5
112C
102
{ACAD_REACTORS
330
1118
102
}
330
1118
100
AcDbScale
 70
     0
300
1/32" = 1'-0"
140
0.03125
141
12.0
290
     0
  0
SCALE
  5
112D
102
{ACAD_REACTORS
330
1118
102
}
330
1118
100
AcDbScale
 70
     0
300
1/16" = 1'-0"
140
0.0625
141
12.0
290
     0
  0
SCALE
  5
112E
102
{ACAD_REACTORS
330
1118
102
}
330
1118
100
AcDbScale
 70
     0
300
3/32" = 1'-0"
140
0.09375
141
12.0
290
     0
  0
SCALE
  5
112F
102
{ACAD_REACTORS
330
1118
102
}
330
1118
100
AcDbScale
 70
     0
300
1/8" = 1'-0"
140
0.125
141
12.0
290
     0
  0
SCALE
  5
1130
102
{ACAD_REACTORS
330
1118
102
}
330
1118
100
AcDbScale
 70
     0
300
3/16" = 1'-0"
140
0.1875
141
12.0
290
     0
  0
SCALE
  5
1131
102
{ACAD_REACTORS
330
1118
102
}
330
1118
100
AcDbScale
 70
     0
300
1/4" = 1'-0"
140
0.25
141
12.0
290
     0
  0
SCALE
  5
1132
102
{ACAD_REACTORS
330
1118
102
}
330
1118
100
AcDbScale
 70
     0
300
3/8" = 1'-0"
140
0.375
141
12.0
290
     0
  0
SCALE
  5
1133
102
{ACAD_REACTORS
330
1118
102
}
330
1118
100
AcDbScale
 70
     0
300
1/2" = 1'-0"
140
0.5
141
12.0
290
     0
  0
SCALE
  5
1134
102
{ACAD_REACTORS
330
1118
102
}
330
1118
100
AcDbScale
 70
     0
300
3/4" = 1'-0"
140
0.75
141
12.0
290
     0
  0
SCALE
  5
1135
102
{ACAD_REACTORS
330
1118
102
}
330
1118
100
AcDbScale
 70
     0
300
1" = 1'-0"
140
1.0
141
12.0
290
     0
  0
SCALE
  5
1136
102
{ACAD_REACTORS
330
1118
102
}
330
1118
100
AcDbScale
 70
     0
300
1-1/2" = 1'-0"
140
1.5
141
12.0
290
     0
  0
SCALE
  5
1137
102
{ACAD_REACTORS
330
1118
102
}
330
1118
100
AcDbScale
 70
     0
300
3" = 1'-0"
140
3.0
141
12.0
290
     0
  0
SCALE
  5
1138
102
{ACAD_REACTORS
330
1118
102
}
330
1118
100
AcDbScale
 70
     0
300
6" = 1'-0"
140
6.0
141
12.0
290
     0
  0
SCALE
  5
1139
102
{ACAD_REACTORS
330
1118
102
}
330
1118
100
AcDbScale
 70
     0
300
1'-0" = 1'-0"
140
12.0
141
12.0
290
     0
  0
TABLESTYLE
  5
1140
102
{ACAD_REACTORS
330
113F
102
}
330
113F
100
AcDbTableStyle
  3
Standard
 70
     0
 71
     0
 40
0.06
 41
0.06
280
     0
281
     0
  7
STANDARD
140
4.5
170
     2
 62
     0
 63
   257
283
     0
274
    -2
284
     1
 64
     0
275
    -2
285
     1
 65
     0
276
    -2
286
     1
 66
     0
277
    -2
287
     1
 67
     0
278
    -2
288
     1
 68
     0
279
    -2
289
     1
 69
     0
  7
STANDARD
140
6.0
170
     5
 62
     0
 63
   257
283
     0
274
    -2
284
     1
 64
     0
275
    -2
285
     1
 65
     0
276
    -2
286
     1
 66
     0
277
    -2
287
     1
 67
     0
278
    -2
288
     1
 68
     0
279
    -2
289
     1
 69
     0
  7
STANDARD
140
4.5
170
     5
 62
     0
 63
   257
283
     0
274
    -2
284
     1
 64
     0
275
    -2
285
     1
 65
     0
276
    -2
286
     1
 66
     0
277
    -2
287
     1
 67
     0
278
    -2
288
     1
 68
     0
279
    -2
289
     1
 69
     0
  0
DICTIONARYVAR
  5
116E
102
{ACAD_REACTORS
330
10E3
102
}
330
10E3
100
DictionaryVariables
280
     0
  1
STANDARD
  0
DICTIONARYVAR
  5
116D
102
{ACAD_REACTORS
330
10E3
102
}
330
10E3
100
DictionaryVariables
280
     0
  1
STANDARD
  0
DICTIONARYVAR
  5
10E5
102
{ACAD_REACTORS
330
10E3
102
}
330
10E3
100
DictionaryVariables
280
     0
  1
1
  0
DICTIONARYVAR
  5
10E4
102
{ACAD_REACTORS
330
10E3
102
}
330
10E3
100
DictionaryVariables
280
     0
  1
1
  0
DICTIONARYVAR
  5
1D04
102
{ACAD_REACTORS
330
10E3
102
}
330
10E3
100
DictionaryVariables
280
     0
  1

  0
ACAD_PROXY_OBJECT
  5
102B
102
{ACAD_REACTORS
330
102A
102
}
330
102A
100
AcDbProxyObject
 90
      499
 91
      542
 95
   917527
 70
     0
 93
      118
310
405010040CA904C415CD5B0757102A
350
102C
 94
        0
1001
ACAD
1000
AcRTDxfName
1000
ACMDATADICTIONARY
  0
DICTIONARY
  5
1030
102
{ACAD_REACTORS
330
102A
102
}
330
102A
100
AcDbDictionary
281
     1
  3
ISO
350
1031
  0
ACAD_PROXY_OBJECT
  5
1016
330
0
100
AcDbProxyObject
 90
      499
 91
      528
 95
   917527
 70
     0
 93
      156
310
00010143D050D351505391D5531054925390D494
330
1013
 94
        0
1001
ACAD
1000
AcRTDxfName
1000
ACIMREALSYSVAR
  0
ACAD_PROXY_OBJECT
  5
1017
330
0
100
AcDbProxyObject
 90
      499
 91
      528
 95
   917527
 70
     0
 93
      148
310
000101439050D351531253915054925390D491
330
1013
 94
        0
1001
ACAD
1000
AcRTDxfName
1000
ACIMREALSYSVAR
  0
ACAD_PROXY_OBJECT
  5
1018
330
0
100
AcDbProxyObject
 90
      499
 91
      529
 95
   917527
 70
     0
 93
      156
310
000101439050D35154D6535093D314D25691508C
330
1013
 94
        0
1001
ACAD
1000
AcRTDxfName
1000
ACIMINTSYSVAR
  0
ACAD_PROXY_OBJECT
  5
101A
330
0
100
AcDbProxyObject
 90
      499
 91
      531
 95
   917527
 70
     0
 93
      120
310
000101422565255A6557080C402B00
330
1013
330
0
330
0
 94
        0
1001
ACAD
1000
AcRTDxfName
1000
ACMEVIEW
  0
ACAD_PROXY_OBJECT
  5
102F
330
0
100
AcDbProxyObject
 90
      499
 91
      544
 95
   917527
 70
     0
 93
      140
310
00010142105350D55494D5110050349534F9
330
1013
 94
        0
1001
ACAD
1000
AcRTDxfName
1000
ACIMSTRSYSVAR
  0
DICTIONARY
  5
1027
102
{ACAD_REACTORS
330
1026
102
}
330
1026
100
AcDbDictionary
281
     1
  3
DWGSETTINGS
350
1028
  3
TRANSSETTINGS
350
1029
  0
ACAD_PROXY_OBJECT
  5
1032
102
{ACAD_REACTORS
330
1026
102
}
330
1026
100
AcDbProxyObject
 90
      499
 91
      546
 95
   917527
 70
     0
 93
    12938
310
41102491013041105357CC1074CA404C504414D5F31439329013241105357CC9054CA404CD04414D5F33419199013441105357CD103466404D504414D5F3540D199013641105357CD90248E404DD04414D5F37411199013841105357CE101466404E504414D5F397F641102324141505357CC4C1074CA408D10505414D5F31
310
3140D19902495041505357CC4C9074C902408C13905414D5F304E41D32902314E41505357CC5390E4CA408C93905414D5F324E41532902334E41505357CCD3906466408D13905414D5F344E40D19902354E41505357CD53903466408D93905414D5F364E40923902374E41505357CDD3904466408E13905414D5F384E40519
310
902394E41505357CE539FD90440CC9053906414D5F31304E41D3290334414E41905357CC4C5390346640D25413906414D5F31324E41D32409044B4C494E41505357D0D3101465094112539193D08414D5F50415245464111942D055241484D3541905357D093D49074C9094115925155D08414D5F56494557534051942D064
310
24548494E4441905357D253959FD90D415514905253105414D5F545240D194250348494441905357D212511074650940D59254D06414D5F56495341D324250650415244494D42505357D410549112535034650941949151911253509414D5F52454644494D4111942553411092139590139CFFFFFFFF415092139594D06424
310
548494E44CFFFFFFFF411093D48C9055241484D3540519411093D48CD055241484D3540923411093D48D5055241484D35CFFFFFFFF4110D0530C90134CFFFFFFFF4110D0530CD0134409234110D0530D5013441D324110D0530DD0134479464110D1539390137CFFFFFFFF4110D15395D0137CFFFFFFFF4110D312539044B4
310
C494ECFFFFFFFF4110D3D38C50130CFFFFFFFF4110D3D38C90131CFFFFFFFF4110D3D38CD0132CFFFFFFFF4110D3D38D10132CFFFFFFFF411111551050134CFFFFFFFF4111125051D0135CFFFFFFFF411112531250135CFFFFFFFF411112535410650415244494DCFFFFFFFF411112535490652454644494DCFFFFFFFF4111
310
91535390138CFFFFFFFF4151915354139013840CFFFFFFFF4151915354D41023441CFFFFFFFF4151915354D5102344140D1941519153559390132CFFFFFFFF4151915355951013240D194112105510D0138CFFFFFFFF411212511390133CFFFFFFFF4112125115D0133CFFFFFFFF411213125390134CFFFFFFFF411213D0D3
310
90137CFFFFFFFF411213D0D5D0137CFFFFFFFF4112539193D04494E464FCFFFFFFFF411311505110135CFFFFFFFF419397D0921395902394ECFFFFFFFF419397D0D3D38C502304ECFFFFFFFF419397D0D3D38C902314ECFFFFFFFF419397D0D3D38CD02324ECFFFFFFFF419397D0D3D38D102324ECFFFFFFFF419397D0D153
310
93902374ECFFFFFFFF419397D0D15395D02374ECFFFFFFFF419397D1125312502354ECFFFFFFFF419397D2105510D02384ECFFFFFFFF419397D2125113902334ECFFFFFFFF419397D2125115D02334ECFFFFFFFF419397D3115051102354ECFFFFFFFF419397D391D25410349504ECFFFFFFFF419397D412105390334414EC
310
FFFFFFFF419397D510D3D3902304ECFFFFFFFF419397D5121312502344ECFFFFFFFF419397D5131153902304ECFFFFFFFF419397D594131250332414ECFFFFFFFF411391D2541024950CFFFFFFFF411410530C9055241484D3540519411410530CD055241484D3540923411410530D5055241484D35CFFFFFFFF4114121053
310
9023441CFFFFFFFF411413D4D390135CFFFFFFFF411490D1D390137CFFFFFFFF411490D1D5D0137CFFFFFFFF4114D09492D0134CFFFFFFFF4114D150D510134CFFFFFFFF4114D6508CD013540923411354D6535013540923411510D3D390130CFFFFFFFF411512131250134CFFFFFFFF411512550C9055241484D354051941
310
1512550CD055241484D3540923411512550D5055241484D35CFFFFFFFF411513115390130CFFFFFFFF415514905253105545241494CCFFFFFFFF411514931250134CFFFFFFFF411516150C5013640D19411516150C9013640D19411516150CD0136CFFFFFFFF411516150D5013641D32411516150DD0136479464115925155
310
D0456494557CFFFFFFFF4115915112103484944CFFFFFFFF4115915115903564953CFFFFFFFF41159413125023241CFFFFFFFF411692569050134CFFFFFFFFAA9FD404FE4290E4C9074C906465054C904465034650248D014651E519FD80
340
14
340
14
340
14
340
1033
340
14
340
14
340
14
340
1034
340
14
340
14
340
1034
340
1035
340
14
340
14
340
14
340
14
340
1033
340
14
340
14
340
14
340
1034
340
14
340
14
340
1034
340
1035
340
14
340
1036
340
14
340
14
340
14
340
14
340
14
340
1033
340
14
340
14
340
14
340
13
340
13
340
13
340
13
340
13
340
13
340
13
340
13
340
13
340
1037
340
13
340
13
340
13
340
13
340
13
340
13
340
13
340
13
340
13
340
13
340
13
340
13
340
13
340
14
340
13
340
13
340
13
340
13
340
1038
340
13
340
13
340
1037
340
13
340
13
340
13
340
13
340
13
340
13
340
13
340
13
340
1037
340
13
340
13
340
13
340
1038
340
13
340
13
340
13
340
13
340
13
340
13
340
13
340
13
340
13
340
13
340
13
340
13
340
13
340
13
340
1037
340
13
340
13
340
13
340
13
340
13
340
13
340
13
340
13
340
13
340
13
340
13
340
13
340
13
340
13
340
13
340
13
340
13
340
13
340
13
340
13
340
13
340
13
340
1039
 94
        0
1001
ACAD
1000
AcRTDxfName
1000
AMGOBJPROPCFG
  0
ACAD_PROXY_OBJECT
  5
1067
102
{ACAD_REACTORS
330
1062
102
}
330
1062
100
AcDbProxyObject
 90
      499
 91
      562
 95
   917527
 70
     0
 93
      253
310
43D1444494D454E53494F4E2C414D44545F2A5F44494D404A9012A404A9012AC
 94
        0
1001
ACAD
1000
AcRTDxfName
1000
ACAMGFILTERDAT
  0
ACAD_PROXY_OBJECT
  5
1066
102
{ACAD_REACTORS
330
1062
102
}
330
1062
100
AcDbProxyObject
 90
      499
 91
      562
 95
   917527
 70
     0
 93
      181
310
43D012A42D05357D191504B505357CA9012A404A9012AD
 94
        0
1001
ACAD
1000
AcRTDxfName
1000
ACAMGFILTERDAT
  0
ACAD_PROXY_OBJECT
  5
1063
102
{ACAD_REACTORS
330
1062
102
}
330
1062
100
AcDbProxyObject
 90
      499
 91
      562
 95
   917527
 70
     0
 93
      133
310
43D054841544348404A9012A404A9012AC
 94
        0
1001
ACAD
1000
AcRTDxfName
1000
ACAMGFILTERDAT
  0
ACAD_PROXY_OBJECT
  5
1064
102
{ACAD_REACTORS
330
1062
102
}
330
1062
100
AcDbProxyObject
 90
      499
 91
      562
 95
   917527
 70
     0
 93
      549
310
43D044C494E4549CE0B0E138B0A8B4E0B0A8B4E138B105357CE0B105357CE138B0A8B505357CE0B0A8B505357CE139012A404A910494E534552542C535444504152543244B
 94
        0
1001
ACAD
1000
AcRTDxfName
1000
ACAMGFILTERDAT
  0
ACAD_PROXY_OBJECT
  5
1068
102
{ACAD_REACTORS
330
1062
102
}
330
1062
100
AcDbProxyObject
 90
      499
 91
      562
 95
   917527
 70
     0
 93
      181
310
43D0341524341105357CD5012A404C906494E534552545
 94
        0
1001
ACAD
1000
AcRTDxfName
1000
ACAMGFILTERDAT
  0
ACAD_PROXY_OBJECT
  5
1065
102
{ACAD_REACTORS
330
1062
102
}
330
1062
100
AcDbProxyObject
 90
      499
 91
      562
 95
   917527
 70
     0
 93
     1053
310
43D7841434D46434652414D452C41434D444154554D5441524745542C41434D444154554D49442C41434D57454C4453594D2C41434D5355524653594D2C41434D4645415449442C41434D504152545245462C41434D42414C4C4F4F4E2C414D44544544474553594D2C414D47534352455743414C435441424C45404A9012A
310
404A9012AB
 94
        0
1001
ACAD
1000
AcRTDxfName
1000
ACAMGFILTERDAT
  0
LAYER_INDEX
  5
10D0
102
{ACAD_REACTORS
330
10CF
102
}
330
10CF
100
AcDbIndex
 40
2460733.697511493
100
AcDbLayerIndex
  8
0
360
10D1
 90
        1
  8
DEFPOINTS
360
10D2
 90
        0
  8
HASEN
360
10D3
 90
        0
  8
HATCH
360
10D4
 90
        0
  8
HOJO
360
10D5
 90
        0
  8
HOJOORG
360
10D6
 90
        0
  8
ITTEN
360
10D7
 90
        2
  8
JISSEN
360
10D8
 90
      341
  8
NITEN
360
10D9
 90
        0
  8
POINT
360
10DA
 90
        0
  8
SAISEN
360
10DB
 90
        0
  8
SUNPOU
360
10DC
 90
       14
  8
TENSEN
360
10DD
 90
        0
  8
TEXT
360
10DE
 90
        4
  8
WAKU
360
10DF
 90
      161
  8
氷出口(CS)
360
10E0
 90
        0
  8
AM_CL
360
10E1
 90
        0
  0
DICTIONARY
  5
1D07
330
CE
100
AcDbDictionary
280
     1
281
     1
  3
ACAD_XREC_ROUNDTRIP
360
1D08
  0
DICTIONARY
  5
1D09
330
CF
100
AcDbDictionary
280
     1
281
     1
  3
ACAD_XREC_ROUNDTRIP
360
1D0A
  0
ACAD_PROXY_OBJECT
  5
102C
102
{ACAD_REACTORS
330
102B
102
}
330
102B
100
AcDbProxyObject
 90
      499
 91
      543
 95
   917527
 70
     0
 93
      139
310
057356C1D5C406406AA8FFFFFFFF0AE2405C
330
18
330
0
330
0
 94
        0
1001
ACAD
1000
AcRTDxfName
1000
ACMDATAENTRYBLOCK
  0
ACAD_PROXY_OBJECT
  5
1031
102
{ACAD_REACTORS
330
1030
102
}
330
1030
100
AcDbProxyObject
 90
      499
 91
      545
 95
   917527
 70
     0
 93
     2211
310
5700000000000000C40D0349534F405901409020000000000000310322287A1682DAC8E88AC8CECAA6E8C8812028720B1B6A9BAB9332A32BC3A29BA3220480A1282C6DA8C868CA6E8C88120286A0B1B6ABB2B63234B733A9BA3220480A1082C6DA92C8A6E8C88120285A0B1B6A230BA3AB6A9BA3220480A1282C6DA849E9AA
310
6E8C8812028820B6B23A2232BA30B4B629BCB6A9BA3220480A2282DAC8E8A6CAC6E8D2DEDCA6F2DAA6E8C88120288A0B6B23A21B2B73A32B92634B732A9BA3220480A1682DAC8E89CDEE8CAA6E8C88120285A0B1A0B6B3A630BCA9BA3220480A1682C682DACE88D2DAA6E8C88120288A0B1A0B6B3A437B632A1B430B93A29B
310
A3220480A1A82C682DACEA8D2E8D8CAA6E8C8812032047
340
103A
360
103B
360
103C
360
103D
360
103E
360
103F
360
1040
360
1041
360
1042
360
1043
360
1044
360
1045
360
104B
360
104C
360
1058
360
1059
 94
        0
1001
ACAD
1000
AcRTDxfName
1000
ACMSTANDARDISO
  0
ACAD_PROXY_OBJECT
  5
1028
102
{ACAD_REACTORS
330
1027
102
}
330
1027
100
AcDbProxyObject
 90
      499
 91
      541
 95
   917527
 70
     0
 93
     2340
310
4050B44574753455454494E4753A1286829C8E82A4A482B282A106660F8686AF86C608321A2A720A723A0A849A1ABE1C983E18999AA0C868A9C889282940000000000000488083A1A2A72224A0A9A0A8418983E19183E199820E868A9C8892A6A894000000000000010808321A2A72622A7250000000000000122020C868A9
310
C9E8C8C940000000000000488084A1A624A720A92920ACA0A809B2108698929C8AA8B2A082A0AB098929C8A84A22BA3AAA9A1A0A622A50A0E9882A6A89E849482A02608426A0A5A2AB24A2ABA7E8120CA0A68682988A0C00800010652455649534941501304154D0D0531150540CC4E8D50954494D455354414D504A0D0A45
310
AC1A11C734141D5915494D253D3905414C4D4B8C0C1107B44574753455454494E4753454E447D0
 94
        0
1001
ACAD
1000
AcRTDxfName
1000
AMGSETTINGSOBJ
  0
ACAD_PROXY_OBJECT
  5
1029
102
{ACAD_REACTORS
330
1027
102
}
330
1027
100
AcDbProxyObject
 90
      499
 91
      541
 95
   917527
 70
     0
 93
      852
310
4050D5452414E5353455454494E4753A2488A482AE929C8EA8A4829CA69882A8929E9C0C00800050D4F524947494E414C4C595F4F4E0600400008529A7AAA921A2A620A723A0A81A52827212AAA0A48AA68AA4AC8A0C0080001107B44574753455454494E4753454E447D8
 94
        0
1001
ACAD
1000
AcRTDxfName
1000
AMGSETTINGSOBJ
  0
IDBUFFER
  5
10D1
330
0
100
AcDbIdBuffer
330
D4E
  0
IDBUFFER
  5
10D2
330
0
100
AcDbIdBuffer
  0
IDBUFFER
  5
10D3
330
0
100
AcDbIdBuffer
  0
IDBUFFER
  5
10D4
330
0
100
AcDbIdBuffer
  0
IDBUFFER
  5
10D5
330
0
100
AcDbIdBuffer
  0
IDBUFFER
  5
10D6
330
0
100
AcDbIdBuffer
  0
IDBUFFER
  5
10D7
330
0
100
AcDbIdBuffer
330
1AA9
330
1B58
  0
IDBUFFER
  5
10D8
330
0
100
AcDbIdBuffer
330
1A4F
330
1A50
330
1A51
330
1A52
330
1A53
330
1A54
330
1A55
330
1A56
330
1A57
330
1A58
330
1A59
330
1A5A
330
1A5B
330
1A5C
330
1A5D
330
1A5E
330
1A60
330
1A61
330
1A62
330
1A63
330
1A65
330
1A66
330
1A67
330
1A68
330
1A69
330
1A6A
330
1A6B
330
1A6C
330
1A6D
330
1A6E
330
1A6F
330
1A70
330
1A71
330
1A72
330
1A73
330
1A74
330
1A75
330
1A76
330
1A77
330
1A78
330
1A79
330
1A7A
330
1A7B
330
1A7C
330
1A7D
330
1A7E
330
1A7F
330
1A80
330
1A81
330
1A82
330
1A83
330
1A84
330
1A85
330
1A86
330
1A87
330
1A88
330
1A89
330
1A8A
330
1A8B
330
1A8C
330
1A8D
330
1A8E
330
1A8F
330
1A90
330
1A91
330
1A92
330
1A93
330
1A94
330
1A95
330
1A96
330
1A97
330
1A98
330
1A99
330
1A9A
330
1A9B
330
1A9C
330
1A9D
330
1A9E
330
1A9F
330
1AA0
330
1AA1
330
1AA2
330
1AA3
330
1AA4
330
1AA5
330
1AA6
330
1AA7
330
1AA8
330
1AAA
330
1AAB
330
1AAC
330
1AAD
330
1AAE
330
1AAF
330
1AB0
330
1AB1
330
1AB2
330
1AB3
330
1AB4
330
1AB5
330
1AB6
330
1AB7
330
1AB8
330
1AB9
330
1ABA
330
1ABB
330
1ABC
330
1ABD
330
1ABE
330
1ABF
330
1AC0
330
1AC1
330
1AC2
330
1AC3
330
1AC4
330
1AC6
330
1AC7
330
1AC8
330
1AC9
330
1ACA
330
1ACB
330
1ACC
330
1ACD
330
1ACE
330
1ACF
330
1AD0
330
1AD1
330
1AD2
330
1AD3
330
1AD4
330
1AD5
330
1AD6
330
1AD7
330
1AD8
330
1AD9
330
1ADA
330
1ADB
330
1ADC
330
1ADD
330
1ADE
330
1ADF
330
1AE0
330
1AE1
330
1AE2
330
1AE3
330
1AE4
330
1AE5
330
1AE6
330
1AE7
330
1AE8
330
1AE9
330
1AEA
330
1AEB
330
1AEC
330
1AED
330
1AEE
330
1AEF
330
1AF0
330
1AF1
330
1AF2
330
1AF3
330
1AF4
330
1AF5
330
1AF6
330
1AF7
330
1AF8
330
1AF9
330
1AFA
330
1AFB
330
1AFC
330
1AFD
330
1AFE
330
1AFF
330
1B00
330
1B01
330
1B02
330
1B03
330
1B04
330
1B05
330
1B06
330
1B07
330
1B08
330
1B09
330
1B0A
330
1B0B
330
1B0C
330
1B0D
330
1B0E
330
1B0F
330
1B10
330
1B11
330
1B12
330
1B13
330
1B14
330
1B15
330
1B16
330
1B17
330
1B18
330
1B19
330
1B1A
330
1B1B
330
1B1C
330
1B1D
330
1B1E
330
1B23
330
1B24
330
1B25
330
1B26
330
1B27
330
1B28
330
1B29
330
1B2A
330
1B2B
330
1B2C
330
1B2D
330
1B2E
330
1B2F
330
1B30
330
1B31
330
1B32
330
1B33
330
1B34
330
1B36
330
1B37
330
1B38
330
1B39
330
1B3A
330
1B3B
330
1B3C
330
1B3D
330
1B3E
330
1B3F
330
1B40
330
1B41
330
1B42
330
1B43
330
1B44
330
1B45
330
1B46
330
1B47
330
1B48
330
1B49
330
1B4A
330
1B4B
330
1B4C
330
1B4D
330
1B4E
330
1B4F
330
1B50
330
1B51
330
1B52
330
1B53
330
1B54
330
1B55
330
1B56
330
1B57
330
1B59
330
1B5A
330
1B5B
330
1B5C
330
1B5D
330
1B5E
330
1B5F
330
1B60
330
1B61
330
1B62
330
1B63
330
1B64
330
1B65
330
1B66
330
1B69
330
1B6A
330
1B6B
330
1B6C
330
1B6D
330
1B6E
330
1B6F
330
1B70
330
1B71
330
1B72
330
1B73
330
1B74
330
1B75
330
1B76
330
1B77
330
1B78
330
1B79
330
1B7A
330
1B7B
330
1B7C
330
1B7D
330
1B7E
330
1B7F
330
1B80
330
1B81
330
1B82
330
1B83
330
1B84
330
1B85
330
1B86
330
1B87
330
1B88
330
1B89
330
1B8A
330
1B8B
330
1B8C
330
1B8D
330
1B8E
330
1B8F
330
1B90
330
1B91
330
1B92
330
1B93
330
1B94
330
1B95
330
1B96
330
1B97
330
1B98
330
1B99
330
1B9A
330
1B9B
330
1B9C
330
1B9D
330
1B9E
330
1B9F
330
1BA0
330
1BA1
330
1BA2
330
1BA3
330
1BA4
330
1BA5
330
1BA6
330
1BA7
330
1BA8
330
1BA9
330
1BAA
330
1BAB
330
1BAC
330
1BAD
330
1BAE
330
1BAF
  0
IDBUFFER
  5
10D9
330
0
100
AcDbIdBuffer
  0
IDBUFFER
  5
10DA
330
0
100
AcDbIdBuffer
  0
IDBUFFER
  5
10DB
330
0
100
AcDbIdBuffer
  0
IDBUFFER
  5
10DC
330
0
100
AcDbIdBuffer
330
1A4D
330
1A4E
330
1A5F
330
1A64
330
1AC5
330
1B1F
330
1B20
330
1B21
330
1B22
330
1B35
330
1B67
330
1B68
330
1BB0
330
1BB1
  0
IDBUFFER
  5
10DD
330
0
100
AcDbIdBuffer
  0
IDBUFFER
  5
10DE
330
0
100
AcDbIdBuffer
330
12FE
330
12FF
330
1305
330
1306
  0
IDBUFFER
  5
10DF
330
0
100
AcDbIdBuffer
330
135E
330
135F
330
1360
330
1361
330
1362
330
1363
330
1364
330
1365
330
1366
330
1367
330
1368
330
1369
330
136A
330
136B
330
136C
330
136D
330
136E
330
136F
330
1370
330
1371
330
1372
330
1373
330
1374
330
1375
330
1376
330
1377
330
1378
330
1379
330
137A
330
137B
330
137C
330
137D
330
137E
330
137F
330
1380
330
1381
330
1382
330
1383
330
1384
330
1385
330
1386
330
1387
330
1388
330
1389
330
138A
330
138B
330
138C
330
138D
330
138E
330
138F
330
1390
330
1391
330
1392
330
1393
330
1394
330
1395
330
1396
330
1397
330
1398
330
1399
330
139A
330
139B
330
139C
330
139D
330
139E
330
139F
330
13A0
330
13A1
330
13A2
330
13A3
330
1300
330
1301
330
1302
330
1303
330
1304
330
1307
330
1308
330
1309
330
130A
330
130B
330
130C
330
130D
330
130E
330
130F
330
1310
330
1311
330
1312
330
1313
330
1314
330
1315
330
1316
330
1317
330
1318
330
1319
330
131A
330
131B
330
131C
330
131D
330
131E
330
131F
330
1320
330
1321
330
1322
330
1323
330
1324
330
1325
330
1326
330
1328
330
1329
330
132A
330
132B
330
132C
330
132D
330
132E
330
132F
330
1330
330
1331
330
1332
330
1333
330
1334
330
1335
330
1336
330
1337
330
1338
330
1339
330
133A
330
133B
330
133C
330
133D
330
133E
330
133F
330
1340
330
1341
330
1342
330
1343
330
1344
330
1345
330
1346
330
1347
330
1348
330
1349
330
134A
330
134B
330
134C
330
134D
330
134E
330
134F
330
1350
330
1351
330
1352
330
1353
330
1354
330
1355
330
1356
330
1357
330
1358
330
1359
330
135A
330
135B
330
135C
330
135D
  0
IDBUFFER
  5
10E0
330
0
100
AcDbIdBuffer
  0
IDBUFFER
  5
10E1
330
0
100
AcDbIdBuffer
  0
XRECORD
  5
1D08
102
{ACAD_REACTORS
330
1D07
102
}
330
1D07
100
AcDbXrecord
280
     1
102
SHADEPLOT
 70
     0
102
SHADEPLOTRESLEVEL
 70
     2
102
SHADEPLOTCUSTOMDPI
 70
   300
  0
XRECORD
  5
1D0A
102
{ACAD_REACTORS
330
1D09
102
}
330
1D09
100
AcDbXrecord
280
     1
102
SHADEPLOT
 70
     0
102
SHADEPLOTRESLEVEL
 70
     2
102
SHADEPLOTCUSTOMDPI
 70
   300
  0
ACAD_PROXY_OBJECT
  5
103B
330
1031
100
AcDbProxyObject
 90
      499
 91
      547
 95
   917527
 70
     0
 93
       12
310
5710
 94
        0
1001
ACAD
1000
AcRTDxfName
1000
AMDTEDGESTANDARDISO
  0
ACAD_PROXY_OBJECT
  5
103C
330
1031
100
AcDbProxyObject
 90
      499
 91
      548
 95
   917527
 70
     0
 93
       96
310
572A0E80A0280A0280A0280F
 94
        0
1001
ACAD
1000
AcRTDxfName
1000
ACMSURFSTANDARDISO
  0
ACAD_PROXY_OBJECT
  5
103D
330
1031
100
AcDbProxyObject
 90
      499
 91
      549
 95
   917527
 70
     0
 93
      272
310
5710E4050140501405014050140501405014050140D01405012C0000000000000040
340
1046
 94
        0
1001
ACAD
1000
AcRTDxfName
1000
ACMFCFSTANDARDISO
  0
ACAD_PROXY_OBJECT
  5
103E
330
1031
100
AcDbProxyObject
 90
      499
 91
      550
 95
   917527
 70
     0
 93
      496
310
5728666666666667A67E199999999999E99FD224050140501405014050140501405014050140501405014050140501405014050140501405014050140501
340
1047
 94
        0
1001
ACAD
1000
AcRTDxfName
1000
ACMWELDSTANDARDISO
  0
ACAD_PROXY_OBJECT
  5
103F
330
1031
100
AcDbProxyObject
 90
      499
 91
      551
 95
   917527
 70
     0
 93
       10
310
5738
 94
        0
1001
ACAD
1000
AcRTDxfName
1000
ACMIDSTANDARDISO
  0
ACAD_PROXY_OBJECT
  5
1040
330
1031
100
AcDbProxyObject
 90
      499
 91
      552
 95
   917527
 70
     0
 93
      223
310
572290EA22A7D90F49F8000000000000108140000000000000420205
340
1048
340
1049
 94
        0
1001
ACAD
1000
AcRTDxfName
1000
ACMDATUMSTANDARDISO
  0
ACAD_PROXY_OBJECT
  5
1041
330
1031
100
AcDbProxyObject
 90
      499
 91
      553
 95
   917527
 70
     0
 93
    12255
310
5710E411255115350141236025B690140501406901000000000000091013347454E545241434F2C4A504E2C302C8D8096DA2C47454E54524154582C25732C2847454E4D53472067656E647767203232322940690120281A8AA2CA0282484A4BE52028120280A0320200000000000012202668E8A9CA8A482869E5894A09C58
310
605921292F94588E8A9CA8A482A8B0584AE658508E8A9C9AA68E40CECADCC8EECE406464665280D202405044E414D454050496BC914F4051C40640A80000000000004E404CD1D15395149050D3CB1294138B0C0B25AF2453CB11D15395149055160B095CCB0A11D1539354D1C819D95B991DD9C80C8C8D8A50190B3D424C4F
310
434B3A4E414D4540480A0A888AA686A480A0921C12D7C80A3A80C81D0000000000100A28099A3A2A72A2920A1A79625282716181648704B5F1623A2A72A2920AA2C1612B9961423A2A726A9A39033B2B7323BB39019189B94A034809014214D51053911054911014122D2E29A50147501904A000000000000125013347454E
310
545241434F2C4A504E2C302C8B4B8A692C47454E54524154582C25732C2847454E4D53472067656E64776720323138294069012028426A0AA22A924A0A62028246EF4BDFA028EA0320B40000000000001CA02668E8A9CA8A482869E5894A09C5860591BBD2F7E588E8A9CA8A482A8B0584AE658508E8A9C9AA68E40CECADCC
310
8EECE406464625280D202405044E4F544540504928D8B4C4051D40641A80000000000003E404CD1D15395149050D3CB1294138B0C0B24A362D30B11D15395149055160B095CCB0A11D1539354D1C819D95B991DD9C80C8C8D4A501240480A0CAC8A9C889EA480A0D9BBDBB81BD6080A3A80C83D00000000000007C809AA3A2
310
A72A2920A1A79625282716181666EF6EE06F581623A2A72A2920AA2C1612B9961423A2A726A9A39033B2B7323BB39019191A14A0248090141911154D0D48C90141A43825AF880C90147501908A000000000020145013447454E545241434F2C4A504E2C302C90E096BE20322C47454E54524154582C25732C2847454E4D534
310
72067656E6477672033362940490120284A9AA20A72220A922192028345A5C53490192028EA03213400000000000024A026A8E8A9CA8A482869E5894A09C586059169714D24064588E8A9CA8A482A8B0584AE658508E8A9C9AA68E40CECADCC8EECE4064646052809202405094D4154455249414C32405068DDE97BF203240
310
51D40642A8713D0AD7A37045404D11D15395149050D3CB1294138B0C0B2377A5EFC80C8B11D15395149055160B095CCB0A11D1539354D1C819D95B991DD9C80D0C0A501240480A089A82A6A680A091D7F2F9480A3A80A0485A068100000000000007C809923A2A72A2920A1A796252827161816475FCBE51623A2A72A2920A
310
A2C1612B9961423A2A726A9A39033B2B7323BB3901A1914A024809014154149250D150141226FE29A501475014090C409020000000000000F9013247454E545241434F2C4A504E2C302C89BF8A692C47454E54524154582C25732C2847454E4D53472067656E6477672034332940490120281A224A6A02824850CB202028EA
310
028121A81A040000000000001F202648E8A9CA8A482869E5894A09C58605921432C80588E8A9CA8A482A8B0584AE658508E8A9C9AA68E40CECADCC8EECE406868528092024050E445020000000000000510107004060000000000000F9000000000000003E4041CF4F125511534F9014060000000000000F90000000000000
310
03E4041CF4F125511534F9014060000000000000D100000000000000344041CF4F125511534F9014060000000000000D100000000000000344041CF4F125511534F90140A4040000000000003E400000000000000F901073D3C4954454D3E405063D3C5154593E4050180000000000003E400000000000000F901073D3C495
310
4454D3E406404000000000000003E400000000000000F902888000000000000208081A0881A068120480A032208521122080D21480D211480A1485214852050000000000003C2FC000000000000F0BF4050241CCDCCCCCCCCCCEC3F3373333333333B0FC0000000000000C40480D0590140D04416406800000000000018808
310
120480A026280A03
340
0
340
0
 94
        0
1001
ACAD
1000
AcRTDxfName
1000
ACMBOMSTANDARDISO
  0
ACAD_PROXY_OBJECT
  5
1042
330
1031
100
AcDbProxyObject
 90
      499
 91
      554
 95
   917527
 70
     0
 93
      864
310
5704000000000000144048CF4F11115510525317D3105091530F880A0F11115510525317D05094D4D0D053114F8A51141C9A9999999999B93F26A666666666724FC000000000000E03F4000000000000004000000000000005100000000000000244041C0000000000001440
340
14
340
103A
 94
        0
1001
ACAD
1000
AcRTDxfName
1000
ACMDETAILSTANDARDISO
  0
ACAD_PROXY_OBJECT
  5
1043
330
1031
100
AcDbProxyObject
 90
      499
 91
      555
 95
   917527
 70
     0
 93
      745
310
5700B00000000000002880959E9E29A2A1AA24A7A72FA620A122A62FA324A929AA1F169E29A2A1AA24A7A72FA620A122A62FA620A9AA1F00000000000004880FF41C88A0E0000000000001220000000000000028800000000000000A2000
340
36
340
103A
 94
        0
1001
ACAD
1000
AcRTDxfName
1000
ACMSECTIONSTANDARDISO
  0
ACAD_PROXY_OBJECT
  5
1044
330
1031
100
AcDbProxyObject
 90
      499
 91
      556
 95
   917527
 70
     0
 93
      151
310
57280000000000000840A3D0A5723F0BD1F200
 94
        0
1001
ACAD
1000
AcRTDxfName
1000
ACMCENTERLINESTANDARDISO
  0
ACAD_PROXY_OBJECT
  5
1045
330
1031
100
AcDbProxyObject
 90
      499
 91
      557
 95
   917527
 70
     0
 93
     8042
310
571084050B90142A4050240509C3DDCCDFDAB0C420314043A013D2525633C486F6C653A63746469613E2078203C486F6C653A637464657074683E20555C503C696628657175616C28486F6C653A7461707065642C223022292C22252563222C486F6C653A6E6F6D696E616C202220782022293E3C696628657175616C28486
310
F6C653A7461707065642C223022292C486F6C653A6469612C486F6C653A706974636864657363293E3C696628657175616C28486F6C653A7461707065642C223122292C22207820222C2222293E3C696628657175616C28486F6C653A7461707065642C223122292C486F6C653A74617064657074682C2222293E203C69662
310
8657175616C28486F6C653A7465726D696E6174696F6E2C223022292C22202F20222C2222293E3C696628657175616C28486F6C653A7465726D696E6174696F6E2C223022292C486F6C653A64657074682C2222293E4064050340509C3DDCCDFDAB0C420314043B013D2525633C486F6C653A63746469613E2078203C486F6
310
C653A6374616E676C653E2525645C503C696628657175616C28486F6C653A7461707065642C223022292C22252563222C486F6C653A6E6F6D696E616C202220782022293E3C696628657175616C28486F6C653A7461707065642C223022292C486F6C653A6469612C486F6C653A706974636864657363293E3C69662865717
310
5616C28486F6C653A7461707065642C223122292C22207820222C2222293E3C696628657175616C28486F6C653A7461707065642C223122292C486F6C653A74617064657074682C2222293E203C696628657175616C28486F6C653A7465726D696E6174696F6E2C223022292C22202F20222C2222293E3C696628657175616
310
C28486F6C653A7465726D696E6174696F6E2C223022292C486F6C653A64657074682C2222293E4064050140509C3DDCCDFDAB0C4203140416013D3C696628657175616C28486F6C653A7461707065642C223022292C22252563222C486F6C653A6E6F6D696E616C202220782022293E3C696628657175616C28486F6C653A7
310
461707065642C223022292C486F6C653A6469612C486F6C653A706974636864657363293E3C696628657175616C28486F6C653A7461707065642C223122292C22207820222C2222293E3C696628657175616C28486F6C653A7461707065642C223122292C486F6C653A74617064657074682C2222293E203C6966286571756
310
16C28486F6C653A7465726D696E6174696F6E2C223022292C22202F20222C2222293E3C696628657175616C28486F6C653A7465726D696E6174696F6E2C223022292C486F6C653A64657074682C2222293E4064051E40509C3DDCCDFDAB0C420314050C3D3C535444503A444553433E40640515AB5
 94
        0
1001
ACAD
1000
AcRTDxfName
1000
ACMNOTESTANDARDISO
  0
ACAD_PROXY_OBJECT
  5
104B
330
1031
100
AcDbProxyObject
 90
      499
 91
      558
 95
   917527
 70
     0
 93
       20
310
571010
340
1032
 94
        0
1001
ACAD
1000
AcRTDxfName
1000
ACAMGLAYSTD
  0
ACAD_PROXY_OBJECT
  5
104C
330
1031
100
AcDbProxyObject
 90
      499
 91
      559
 95
   917527
 70
     0
 93
      250
310
571020000000000000A1000000000000002440408F0F9023C3E409A0DCFFFF88
340
104D
340
0
340
0
340
104E
340
104F
340
1050
340
1051
340
1052
340
1057
340
0
 94
        0
1001
ACAD
1000
AcRTDxfName
1000
ACAMGDIMSTD
  0
ACAD_PROXY_OBJECT
  5
1058
330
1031
100
AcDbProxyObject
 90
      499
 91
      560
 95
   917527
 70
     0
 93
    13131
310
5711A003FFFFFFFD03030003000000000000031000903030003000000000000031000805098DC0955782CCD8BDC4014E11D15395149050D3CB1294138B0C0B23702555E0B3362F710B11D15395149055160B095CCB0A11D1539354D1C819D95B991A5B5E880CCC0A78000C0000000000000000000000000000000100000000
310
0000031010240000000000000C4040A0141E322B0EC3337B64053647454E545241434F2C4A504E2C302C8C8AC3B0CCDED92C47454E54524154582C25732C2847454E4D53472067656E64696D7A20333129E00030000000000000000000000000000000040000000000000C40409000000000000031010290D4411140903411
310
0541D0C4350F4050E44D03449074510F000141232D24D7C053247454E545241434F2C4A504E2C302C8CB4935F2C47454E54524154582C25732C2847454E4D53472067656E64696D7A20312900010105002214000281464500A608E8A9CA8A482869E5894A09C5860591914588E8A9CA8A482A8B0584AE658508E8A9C9AA68E
310
40CECADCC8D2DAF4406452029F9E9E27B934B3B4B71F1E24A31427A91424A9A12620A7259427B934B3B4B7149624A9A12620A7259424B73232BC149496111116111711149F1E24B73232BC1F00808200111A000140560052F47454E545241434F2C4A504E2C302C582C47454E54524154582C25732C2847454E4D534720676
310
56E64696D7A20332900010100002054000280AC80A5E8E8A9CA8A482869E5894A09C586058B2588E8A9CA8A482A8B0584AE658508E8A9C9AA68E40CECADCC8D2DAF4406852000202000040E800050152014BD1D15395149050D3CB1294138B0C0B148B11D15395149055160B095CCB0A11D1539354D1C819D95B991A5B5E88
310
0D8A400040400008250000A0507A6029823A2A72A2920A1A79625282716181641E99623A2A72A2920AA2C1612B9961423A2A726A9A39033B2B73234B6BD101B948000808180105A000140A0F4C053047454E545241434F2C4A504E2C302C83D32C47454E54524154582C25732C2847454E4D53472067656E64696D7A203829
310
000101010020F400028248704B5F00A668E8A9CA8A482869E5894A09C58605921C12D7C588E8A9CA8A482A8B0584AE658508E8A9C9AA68E40CECADCC8D2DAF440646052000200080043280005048B4B8A69014CD1D15395149050D3CB1294138B0C0B22D2E29A4B11D15395149055160B095CCB0A11D1539354D1C819D95B9
310
91A5B5E880C8C4A4000400100086D0000A09196926BE029923A2A72A2920A1A796252827161816465A49AF9623A2A72A2920AA2C1612B9961423A2A726A9A39033B2B73234B6BD10189480A026202020A0043E80005048D8096DA014CD1D15395149050D3CB1294138B0C0B236025B68B11D15395149055160B095CCB0A11D
310
1539354D1C819D95B991A5B5E880C4D0A4000404140080D0000A0F65BB87BD5F717A029B23A2A72A2920A1A796252827161816596EE1EF57DC5E9623A2A72A2920AA2C1612B9961423A2A726A9A39033B2B73234B6BD10189A94800080828010EA0001426322ACB770F7ABEE2F4053847454E545241434F2C4A504E2C302C8
310
C8AB2DDC3DEAFB8BD2C47454E54524154582C25732C2847454E4D53472067656E64696D7A2031372900010105002274000281464500A628E8A9CA8A482869E5894A09C5860591914588E8A9CA8A482A8B0584AE658508E8A9C9AA68E40CECADCC8D2DAF440626C52000202080044A8000504909497CA014CD1D15395149050
310
D3CB1294138B0C0B242525F28B11D15395149055160B095CCB0A11D1539354D1C819D95B991A5B5E880C4E4A400040418008A521E000000000000001CA040C00000000000034408080000000000006881010000000000000D102040000000000001A2040800000000000034408180000000000007281030000000000001250
310
20600000000004028A040000000000000034408000000000000004881000000000000000D102000000000000001A204000000000000003440818000000000000508143C0000000000000039408180000000000006881030000000000000D102060000000000001A2040C000000000000344081800000000000068810300000
310
00000000E5020600000000000024A040C000000000080514080000000000000068810000000000000009102000000000000001A2040000000000000034408180000000000006881030000000000000A10283A2000000087800000204000000818000002080000008280000020E00000080A240000000
340
0
340
0
340
0
340
0
 94
        0
1001
ACAD
1000
AcRTDxfName
1000
ACAMGHOLECHARTSTDISO
  0
ACAD_PROXY_OBJECT
  5
1059
330
1031
100
AcDbProxyObject
 90
      499
 91
      561
 95
   917527
 70
     0
 93
     6922
310
5719740D254D3D0649534F5F4133429254D3D7D5125513115051349534F5F42525F5265766973696F6E6C69737446111413478342028323937783834316D6D2920421254D3D7D04D1E0D11141327835202835393478323130326D6D29421254D3D7D04C9E0D51141347839202832393778313839326D6D29421254D3D7D04D
310
1E0E51141337837202834323078323038306D6D29421254D3D7D04CDE0DD1141347838202832393778313638326D6D29421254D3D7D04D1E0E11141327834202835393478313638326D6D29421254D3D7D04C9E0D10E41312028353934783834316D6D29419254D3D7D04C51141347837202832393778313437316D6D29421
310
254D3D7D04D1E0DD1141347836202832393778313236316D6D29421254D3D7D04D1E0D91141347835202832393778313035316D6D29421254D3D7D04D1E0D5104130202838343078313138396D6D2920419254D3D7D04C10E41332028323937783432306D6D29419254D3D7D04CD1141327833202835393478313236316D6D
310
29421254D3D7D04C9E0CD10413478332028323937783633306D6D29421254D3D7D04D1E0CD1141337834202834323078313138396D6D29421254D3D7D04CDE0D11141337836202834323078313738336D6D29421254D3D7D04CDE0D91141337835202834323078313438366D6D29421254D3D7D04CDE0D50E4132202834323
310
0783539346D6D29419254D3D7D04C910413378332028343230783839316D6D29421254D3D7D04CDE0CD0E41342028323937783231306D6D29419254D3D7D04D1124130783220283131383978313638326D6D29421254D3D7D04C1E0C9124130783320283131383978323532336D6D29421254D3D7D04C1E0CD114131783420
310
2838343178323337386D6D29421254D3D7D04C5E0D11141317833202838343178313738336D6D29421254D3D7D04C5E0CD02431254D3C82557247A25E4C81050A49534F5F5449544C4541431254D3C82557247A25E4C81090A49534F5F5449544C45424110B979A97F0D8BDC45F424C5F44D254D3D7D09317D4995D9A5CDA5
310
BDB9B1A5CDD10B979A97F0D8BDC45F544C5F44D254D3D7D51317D4995D9A5CDA5BDB9B1A5CDD10B979A97F0D8BDC45F42525F44D254D3D7D09497D4995D9A5CDA5BDB9B1A5CDD10B979A97F0D8BDC45F54525F44D254D3D7D51497D4995D9A5CDA5BDB9B1A5CDD31
 94
        0
1001
ACAD
1000
AcRTDxfName
1000
ACAMGTITLESTD
  0
ENDSEC
  0
EOF
