  0
SECTION
  2
HEADER
  9
$ACADVER
  1
AC1014
  9
$ACADMAINTVER
 70
     9
  9
$DWGCODEPAGE
  3
ANSI_932
  9
$INSBASE
 10
0.0
 20
0.0
 30
0.0
  9
$EXTMIN
 10
128.6022720700084
 20
122.1376750038142
 30
-0.00000001
  9
$EXTMAX
 10
1164.01682400176
 20
1073.087512512081
 30
0.00000001
  9
$LIMMIN
 10
0.0
 20
0.0
  9
$LIMMAX
 10
1500.0
 20
1000.0
  9
$ORTHOMODE
 70
     0
  9
$REGENMODE
 70
     1
  9
$FILLMODE
 70
     1
  9
$QTEXTMODE
 70
     0
  9
$MIRRTEXT
 70
     0
  9
$DRAGMODE
 70
     2
  9
$LTSCALE
 40
25.0
  9
$OSMODE
 70
    37
  9
$ATTMODE
 70
     1
  9
$TEXTSIZE
 40
15.0
  9
$TRACEWID
 40
0.05
  9
$TEXTSTYLE
  7
K
  9
$CLAYER
  8
SUNPOU
  9
$CELTYPE
  6
BYLAYER
  9
$CECOLOR
 62
   256
  9
$CELTSCALE
 40
1.0
  9
$DELOBJ
 70
     1
  9
$DISPSILH
 70
     0
  9
$DIMSCALE
 40
5.0
  9
$DIMASZ
 40
3.0
  9
$DIMEXO
 40
1.0
  9
$DIMDLI
 40
6.0
  9
$DIMRND
 40
0.0
  9
$DIMDLE
 40
0.0
  9
$DIMEXE
 40
1.0
  9
$DIMTP
 40
0.01
  9
$DIMTM
 40
0.02
  9
$DIMTXT
 40
3.0
  9
$DIMCEN
 40
0.0
  9
$DIMTSZ
 40
0.0
  9
$DIMTOL
 70
     0
  9
$DIMLIM
 70
     0
  9
$DIMTIH
 70
     0
  9
$DIMTOH
 70
     0
  9
$DIMSE1
 70
     0
  9
$DIMSE2
 70
     0
  9
$DIMTAD
 70
     3
  9
$DIMZIN
 70
     8
  9
$DIMBLK
  1
ARROW
  9
$DIMASO
 70
     1
  9
$DIMSHO
 70
     0
  9
$DIMPOST
  1

  9
$DIMAPOST
  1

  9
$DIMALT
 70
     0
  9
$DIMALTD
 70
     2
  9
$DIMALTF
 40
25.4
  9
$DIMLFAC
 40
1.0
  9
$DIMTOFL
 70
     1
  9
$DIMTVP
 40
0.0
  9
$DIMTIX
 70
     1
  9
$DIMSOXD
 70
     0
  9
$DIMSAH
 70
     0
  9
$DIMBLK1
  1
ARROW
  9
$DIMBLK2
  1
ARROW
  9
$DIMSTYLE
  2
IMCADLT
  9
$DIMCLRD
 70
     0
  9
$DIMCLRE
 70
     0
  9
$DIMCLRT
 70
     0
  9
$DIMTFAC
 40
0.45
  9
$DIMGAP
 40
1.5
  9
$DIMJUST
 70
     0
  9
$DIMSD1
 70
     0
  9
$DIMSD2
 70
     0
  9
$DIMTOLJ
 70
     1
  9
$DIMTZIN
 70
     8
  9
$DIMALTZ
 70
     0
  9
$DIMALTTZ
 70
     0
  9
$DIMFIT
 70
     3
  9
$DIMUPT
 70
     1
  9
$DIMUNIT
 70
     2
  9
$DIMDEC
 70
     2
  9
$DIMTDEC
 70
     2
  9
$DIMALTU
 70
     2
  9
$DIMALTTD
 70
     2
  9
$DIMTXSTY
  7
STANDARD
  9
$DIMAUNIT
 70
     0
  9
$LUNITS
 70
     2
  9
$LUPREC
 70
     2
  9
$SKETCHINC
 40
0.1
  9
$FILLETRAD
 40
0.0
  9
$AUNITS
 70
     0
  9
$AUPREC
 70
     2
  9
$MENU
  1
STDR12J
  9
$ELEVATION
 40
0.0
  9
$PELEVATION
 40
0.0
  9
$THICKNESS
 40
0.0
  9
$LIMCHECK
 70
     0
  9
$BLIPMODE
 70
     0
  9
$CHAMFERA
 40
0.0
  9
$CHAMFERB
 40
0.0
  9
$CHAMFERC
 40
0.0
  9
$CHAMFERD
 40
0.0
  9
$SKPOLY
 70
     0
  9
$TDCREATE
 40
2452040.353372442
  9
$TDUPDATE
 40
2453133.694428553
  9
$TDINDWG
 40
0.2226497801
  9
$TDUSRTIMER
 40
0.2226497801
  9
$USRTIMER
 70
     1
  9
$ANGBASE
 50
0.0
  9
$ANGDIR
 70
     0
  9
$PDMODE
 70
     3
  9
$PDSIZE
 40
0.0
  9
$PLINEWID
 40
0.0
  9
$COORDS
 70
     1
  9
$SPLFRAME
 70
     0
  9
$SPLINETYPE
 70
     6
  9
$SPLINESEGS
 70
     8
  9
$ATTDIA
 70
     0
  9
$ATTREQ
 70
     1
  9
$HANDLING
 70
 10241
  9
$HANDSEED
  5
75E5
  9
$SURFTAB1
 70
     6
  9
$SURFTAB2
 70
     6
  9
$SURFTYPE
 70
     6
  9
$SURFU
 70
     6
  9
$SURFV
 70
     6
  9
$UCSNAME
  2

  9
$UCSORG
 10
0.0
 20
0.0
 30
0.0
  9
$UCSXDIR
 10
1.0
 20
0.0
 30
0.0
  9
$UCSYDIR
 10
0.0
 20
1.0
 30
0.0
  9
$PUCSNAME
  2

  9
$PUCSORG
 10
0.0
 20
0.0
 30
0.0
  9
$PUCSXDIR
 10
1.0
 20
0.0
 30
0.0
  9
$PUCSYDIR
 10
0.0
 20
1.0
 30
0.0
  9
$USERI1
 70
     3
  9
$USERI2
 70
     1
  9
$USERI3
 70
     5
  9
$USERI4
 70
     1
  9
$USERI5
 70
     1
  9
$USERR1
 40
5.0
  9
$USERR2
 40
3.0
  9
$USERR3
 40
3.0
  9
$USERR4
 40
3.0
  9
$USERR5
 40
10.0
  9
$WORLDVIEW
 70
     1
  9
$SHADEDGE
 70
     3
  9
$SHADEDIF
 70
    70
  9
$TILEMODE
 70
     0
  9
$MAXACTVP
 70
    16
  9
$PINSBASE
 10
0.0
 20
0.0
 30
0.0
  9
$PLIMCHECK
 70
     0
  9
$PEXTMIN
 10
-0.1281679606436228
 20
-0.0906330578845882
 30
-0.0000000349181948
  9
$PEXTMAX
 10
2100.128187519014
 20
1485.090646888445
 30
0.0000000814935746
  9
$PLIMMIN
 10
-35.50447926342585
 20
-35.46703271436367
  9
$PLIMMAX
 10
2165.519389137827
 20
1520.78079052245
  9
$UNITMODE
 70
     0
  9
$VISRETAIN
 70
     0
  9
$PLINEGEN
 70
     0
  9
$PSLTSCALE
 70
     0
  9
$TREEDEPTH
 70
     0
  9
$PICKSTYLE
 70
     1
  9
$CMLSTYLE
  2
STANDARD
  9
$CMLJUST
 70
     0
  9
$CMLSCALE
 40
1.0
  9
$PROXYGRAPHICS
 70
     1
  9
$MEASUREMENT
 70
     1
  0
ENDSEC
  0
SECTION
  2
CLASSES
  0
CLASS
  1
LWPOLYLINE
  2
AcDbPolyline
  3
AutoCAD 2000
 90
        0
280
     0
281
     1
  0
CLASS
  1
HATCH
  2
AcDbHatch
  3
AutoCAD 2000
 90
        0
280
     0
281
     1
  0
CLASS
  1
DICTIONARYVAR
  2
AcDbDictionaryVar
  3
AutoCAD 2000
 90
        0
280
     0
281
     0
  0
CLASS
  1
ACDBDICTIONARYWDFLT
  2
AcDbDictionaryWithDefault
  3
AutoCAD 2000
 90
        0
280
     0
281
     0
  0
CLASS
  1
ACDBPLACEHOLDER
  2
AcDbPlaceHolder
  3
AutoCAD 2000
 90
        0
280
     0
281
     0
  0
CLASS
  1
LAYOUT
  2
AcDbLayout
  3
AutoCAD 2000
 90
        0
280
     0
281
     0
  0
CLASS
  1
LONG_TRANSACTION
  2
AcDbLongTransaction
  3
AutoCAD 2000
 90
        0
280
     0
281
     0
  0
CLASS
  1
LWPOLYLINE
  2
AcDbPolyline
  3
AutoCAD 2000
 90
        0
280
     0
281
     1
  0
CLASS
  1
HATCH
  2
AcDbHatch
  3
AutoCAD 2000
 90
        0
280
     0
281
     1
  0
CLASS
  1
XRECORD
  2
AcDbXrecord
  3
AutoCAD 2000
 90
        0
280
     0
281
     0
  0
ENDSEC
  0
SECTION
  2
TABLES
  0
TABLE
  2
VPORT
  5
CF
330
0
100
AcDbSymbolTable
 70
     9
  0
VPORT
  5
F5
330
CF
100
AcDbSymbolTableRecord
100
AcDbViewportTableRecord
  2
2
 70
     0
 10
0.5
 20
0.0
 11
1.0
 21
1.0
 12
0.9240312421264802
 22
1.052650975462766
 13
0.0
 23
0.0
 14
1.0
 24
1.0
 15
10.0
 25
10.0
 16
0.0
 26
0.0
 36
1.0
 17
0.0
 27
0.0
 37
0.0
 40
2.105301950925533
 41
0.8778135048231511
 42
50.0
 43
0.0
 44
0.0
 50
0.0
 51
0.0
 71
     0
 72
   500
 73
     1
 74
     1
 75
     0
 76
     0
 77
     0
 78
     0
  0
VPORT
  5
F6
330
CF
100
AcDbSymbolTableRecord
100
AcDbViewportTableRecord
  2
2
 70
     0
 10
0.0
 20
0.0
 11
0.5
 21
1.0
 12
0.9240312421264802
 22
1.052650975462766
 13
0.0
 23
0.0
 14
1.0
 24
1.0
 15
10.0
 25
10.0
 16
0.0
 26
0.0
 36
1.0
 17
0.0
 27
0.0
 37
0.0
 40
2.105301950925533
 41
0.8778135048231511
 42
50.0
 43
0.0
 44
0.0
 50
0.0
 51
0.0
 71
     0
 72
   500
 73
     1
 74
     1
 75
     0
 76
     0
 77
     0
 78
     0
  0
VPORT
  5
F7
330
CF
100
AcDbSymbolTableRecord
100
AcDbViewportTableRecord
  2
3
 70
     0
 10
0.0
 20
0.5
 11
1.0
 21
1.0
 12
2.832169994473273
 22
1.052650975462766
 13
0.0
 23
0.0
 14
1.0
 24
1.0
 15
10.0
 25
10.0
 16
0.0
 26
0.0
 36
1.0
 17
0.0
 27
0.0
 37
0.0
 40
2.105301950925533
 41
3.571428571428571
 42
50.0
 43
0.0
 44
0.0
 50
0.0
 51
0.0
 71
     0
 72
   500
 73
     1
 74
     1
 75
     0
 76
     0
 77
     0
 78
     0
  0
VPORT
  5
F8
330
CF
100
AcDbSymbolTableRecord
100
AcDbViewportTableRecord
  2
3
 70
     0
 10
0.0
 20
0.0
 11
1.0
 21
0.5
 12
2.856741679241311
 22
1.052650975462766
 13
0.0
 23
0.0
 14
1.0
 24
1.0
 15
10.0
 25
10.0
 16
0.0
 26
0.0
 36
1.0
 17
0.0
 27
0.0
 37
0.0
 40
2.105301950925533
 41
3.594771241830065
 42
50.0
 43
0.0
 44
0.0
 50
0.0
 51
0.0
 71
     0
 72
   500
 73
     1
 74
     1
 75
     0
 76
     0
 77
     0
 78
     0
  0
VPORT
  5
F9
330
CF
100
AcDbSymbolTableRecord
100
AcDbViewportTableRecord
  2
4
 70
     0
 10
0.5
 20
0.0
 11
1.0
 21
0.5
 12
2.886857516709719
 22
1.052650975462766
 13
0.0
 23
0.0
 14
1.0
 24
1.0
 15
10.0
 25
10.0
 16
0.0
 26
0.0
 36
1.0
 17
0.0
 27
0.0
 37
0.0
 40
4.27520703030907
 41
1.784313725490195
 42
50.0
 43
0.0
 44
0.0
 50
0.0
 51
0.0
 71
     0
 72
   500
 73
     1
 74
     1
 75
     0
 76
     0
 77
     0
 78
     0
  0
VPORT
  5
FA
330
CF
100
AcDbSymbolTableRecord
100
AcDbViewportTableRecord
  2
4
 70
     0
 10
0.5
 20
0.5
 11
1.0
 21
1.0
 12
2.862090274555523
 22
1.052650975462766
 13
0.0
 23
0.0
 14
1.0
 24
1.0
 15
10.0
 25
10.0
 16
0.0
 26
0.0
 36
1.0
 17
0.0
 27
0.0
 37
0.0
 40
4.27520703030907
 41
1.772727272727272
 42
50.0
 43
0.0
 44
0.0
 50
0.0
 51
0.0
 71
     0
 72
   500
 73
     1
 74
     1
 75
     0
 76
     0
 77
     0
 78
     0
  0
VPORT
  5
FB
330
CF
100
AcDbSymbolTableRecord
100
AcDbViewportTableRecord
  2
4
 70
     0
 10
0.0
 20
0.5
 11
0.5
 21
1.0
 12
2.862090274555523
 22
1.052650975462766
 13
0.0
 23
0.0
 14
1.0
 24
1.0
 15
10.0
 25
10.0
 16
0.0
 26
0.0
 36
1.0
 17
0.0
 27
0.0
 37
0.0
 40
4.27520703030907
 41
1.772727272727272
 42
50.0
 43
0.0
 44
0.0
 50
0.0
 51
0.0
 71
     0
 72
   500
 73
     1
 74
     1
 75
     0
 76
     0
 77
     0
 78
     0
  0
VPORT
  5
FC
330
CF
100
AcDbSymbolTableRecord
100
AcDbViewportTableRecord
  2
4
 70
     0
 10
0.0
 20
0.0
 11
0.5
 21
0.5
 12
2.886857516709719
 22
1.052650975462766
 13
0.0
 23
0.0
 14
1.0
 24
1.0
 15
10.0
 25
10.0
 16
0.0
 26
0.0
 36
1.0
 17
0.0
 27
0.0
 37
0.0
 40
4.27520703030907
 41
1.784313725490195
 42
50.0
 43
0.0
 44
0.0
 50
0.0
 51
0.0
 71
     0
 72
   500
 73
     1
 74
     1
 75
     0
 76
     0
 77
     0
 78
     0
  0
VPORT
  5
75AC
330
CF
100
AcDbSymbolTableRecord
100
AcDbViewportTableRecord
  2
*ACTIVE
 70
     0
 10
0.0
 20
0.0
 11
1.0
 21
1.0
 12
749.9999999999999
 22
536.5601315212967
 13
0.0
 23
0.0
 14
1.0
 24
1.0
 15
10.0
 25
10.0
 16
0.0
 26
0.0
 36
1.0
 17
0.0
 27
0.0
 37
0.0
 40
1080.767200783989
 41
1.516052318668252
 42
50.0
 43
0.0
 44
0.0
 50
0.0
 51
0.0
 71
     0
 72
   500
 73
     1
 74
     0
 75
     0
 76
     0
 77
     0
 78
     0
  0
ENDTAB
  0
TABLE
  2
LTYPE
  5
CC
330
0
100
AcDbSymbolTable
 70
     5
  0
LTYPE
  5
D9
330
CC
100
AcDbSymbolTableRecord
100
AcDbLinetypeTableRecord
  2
BYBLOCK
 70
     0
  3

 72
    65
 73
     0
 40
0.0
  0
LTYPE
  5
DA
330
CC
100
AcDbSymbolTableRecord
100
AcDbLinetypeTableRecord
  2
BYLAYER
 70
     0
  3

 72
    65
 73
     0
 40
0.0
  0
LTYPE
  5
DB
330
CC
100
AcDbSymbolTableRecord
100
AcDbLinetypeTableRecord
  2
CONTINUOUS
 70
     0
  3
実線
 72
    65
 73
     0
 40
0.0
  0
LTYPE
  5
F1
330
CC
100
AcDbSymbolTableRecord
100
AcDbLinetypeTableRecord
  2
DASHED
 70
     0
  3
__ __ __ __ __ __ __ __ __ __ __ __ __ __ __
 72
    65
 73
     2
 40
0.75
 49
0.5
 74
     0
 49
-0.25
 74
     0
  0
LTYPE
  5
F2
330
CC
100
AcDbSymbolTableRecord
100
AcDbLinetypeTableRecord
  2
CENTER
 70
     0
  3
____ _ ____ _ ____ _ ____ _ ____ _ ____ _ ____
 72
    65
 73
     4
 40
2.0
 49
1.25
 74
     0
 49
-0.25
 74
     0
 49
0.25
 74
     0
 49
-0.25
 74
     0
  0
LTYPE
  5
F3
330
CC
100
AcDbSymbolTableRecord
100
AcDbLinetypeTableRecord
  2
PHANTOM
 70
     0
  3
_____ _ _ _____ _ _ _____ _ _ _____ _ _ ____
 72
    65
 73
     6
 40
2.5
 49
1.25
 74
     0
 49
-0.25
 74
     0
 49
0.25
 74
     0
 49
-0.25
 74
     0
 49
0.25
 74
     0
 49
-0.25
 74
     0
  0
LTYPE
  5
F4
330
CC
100
AcDbSymbolTableRecord
100
AcDbLinetypeTableRecord
  2
HIDDEN
 70
     0
  3
_ _ _ _ _ _ _ _ _ _ _ _ _ _ _ _ _ _ _ _ _ _ _
 72
    65
 73
     2
 40
0.375
 49
0.25
 74
     0
 49
-0.125
 74
     0
  0
ENDTAB
  0
TABLE
  2
LAYER
  5
C9
330
0
100
AcDbSymbolTable
 70
    16
  0
LAYER
  5
D6
330
C9
100
AcDbSymbolTableRecord
100
AcDbLayerTableRecord
  2
0
 70
     0
 62
     7
  6
CONTINUOUS
  0
LAYER
  5
100
330
C9
100
AcDbSymbolTableRecord
100
AcDbLayerTableRecord
  2
HASEN
 70
     0
 62
     2
  6
DASHED
  0
LAYER
  5
101
330
C9
100
AcDbSymbolTableRecord
100
AcDbLayerTableRecord
  2
ITTEN
 70
     0
 62
     1
  6
CENTER
  0
LAYER
  5
102
330
C9
100
AcDbSymbolTableRecord
100
AcDbLayerTableRecord
  2
NITEN
 70
     0
 62
     2
  6
PHANTOM
  0
LAYER
  5
103
330
C9
100
AcDbSymbolTableRecord
100
AcDbLayerTableRecord
  2
HATCH
 70
     0
 62
     4
  6
CONTINUOUS
  0
LAYER
  5
104
330
C9
100
AcDbSymbolTableRecord
100
AcDbLayerTableRecord
  2
SUNPOU
 70
     0
 62
     3
  6
CONTINUOUS
  0
LAYER
  5
105
330
C9
100
AcDbSymbolTableRecord
100
AcDbLayerTableRecord
  2
TEXT
 70
     0
 62
     3
  6
CONTINUOUS
  0
LAYER
  5
106
330
C9
100
AcDbSymbolTableRecord
100
AcDbLayerTableRecord
  2
SAISEN
 70
     0
 62
     4
  6
CONTINUOUS
  0
LAYER
  5
107
330
C9
100
AcDbSymbolTableRecord
100
AcDbLayerTableRecord
  2
JISSEN
 70
     0
 62
     7
  6
CONTINUOUS
  0
LAYER
  5
108
330
C9
100
AcDbSymbolTableRecord
100
AcDbLayerTableRecord
  2
HOJO
 70
     0
 62
     6
  6
CONTINUOUS
  0
LAYER
  5
109
330
C9
100
AcDbSymbolTableRecord
100
AcDbLayerTableRecord
  2
TENSEN
 70
     0
 62
     2
  6
HIDDEN
  0
LAYER
  5
10A
330
C9
100
AcDbSymbolTableRecord
100
AcDbLayerTableRecord
  2
HOJOORG
 70
     0
 62
     1
  6
CONTINUOUS
  0
LAYER
  5
10B
330
C9
100
AcDbSymbolTableRecord
100
AcDbLayerTableRecord
  2
WAKU
 70
     0
 62
     5
  6
CONTINUOUS
  0
LAYER
  5
10C
330
C9
100
AcDbSymbolTableRecord
100
AcDbLayerTableRecord
  2
POINT
 70
     0
 62
     7
  6
CONTINUOUS
  0
LAYER
  5
6F31
330
C9
100
AcDbSymbolTableRecord
100
AcDbLayerTableRecord
  2
WINDOW
 70
     0
 62
    -7
  6
CONTINUOUS
  0
LAYER
  5
6F63
330
C9
100
AcDbSymbolTableRecord
100
AcDbLayerTableRecord
  2
DEFPOINTS
 70
     0
 62
     7
  6
CONTINUOUS
  0
ENDTAB
  0
TABLE
  2
STYLE
  5
CA
330
0
100
AcDbSymbolTable
 70
     2
  0
STYLE
  5
D7
330
CA
100
AcDbSymbolTableRecord
100
AcDbTextStyleTableRecord
  2
STANDARD
 70
     0
 40
0.0
 41
1.0
 50
0.0
 71
     0
 42
0.2
  3
ROMANS
  4
EXTFONT
  0
STYLE
  5
F0
330
CA
100
AcDbSymbolTableRecord
100
AcDbTextStyleTableRecord
  2
K
 70
     0
 40
0.0
 41
1.0
 50
0.0
 71
     0
 42
15.0
  3
ROMANS
  4
EXTFONT
  0
ENDTAB
  0
TABLE
  2
VIEW
  5
CD
330
0
100
AcDbSymbolTable
 70
     0
  0
ENDTAB
  0
TABLE
  2
UCS
  5
CE
330
0
100
AcDbSymbolTable
 70
     0
  0
ENDTAB
  0
TABLE
  2
APPID
  5
D0
330
0
100
AcDbSymbolTable
 70
     3
  0
APPID
  5
D8
330
D0
100
AcDbSymbolTableRecord
100
AcDbRegAppTableRecord
  2
ACAD
 70
     0
  0
APPID
  5
50D6
330
D0
100
AcDbSymbolTableRecord
100
AcDbRegAppTableRecord
  2
CONTENTTABDATA
 70
     0
  0
APPID
  5
50D7
330
D0
100
AcDbSymbolTableRecord
100
AcDbRegAppTableRecord
  2
CONTENTCURRENTTAB
 70
     0
  0
ENDTAB
  0
TABLE
  2
DIMSTYLE
  5
D1
330
0
100
AcDbSymbolTable
 70
    12
  0
DIMSTYLE
105
FF
330
D1
100
AcDbSymbolTableRecord
100
AcDbDimStyleTableRecord
  2
IMAO
 70
     0
  3

  4

  5
ARROW
  6
OPEN
  7
OPEN
 40
1.0
 41
1.5
 42
1.0
 43
6.0
 44
1.0
 45
0.0
 46
0.0
 47
495.0
 48
0.0
140
3.0
141
0.0
142
0.0
143
25.4
144
1.0
145
0.0
146
1.0
147
1.5
 71
     0
 72
     0
 73
     0
 74
     0
 75
     0
 76
     0
 77
     1
 78
     8
170
     0
171
     2
172
     1
173
     0
174
     1
175
     0
176
     0
177
     0
178
     0
270
     2
271
     2
272
     2
273
     2
274
     2
340
F0
275
     0
280
     0
281
     0
282
     0
283
     1
284
     8
285
     8
286
     8
287
     3
288
     1
  0
DIMSTYLE
105
401
330
D1
100
AcDbSymbolTableRecord
100
AcDbDimStyleTableRecord
  2
STANDARD
 70
     0
  3

  4

  5

  6
ARROW
  7
ARROW
 40
0.0
 41
6.0
 42
1.0
 43
6.0
 44
1.0
 45
0.0
 46
0.0
 47
0.5
 48
0.5
140
3.0
141
0.0
142
0.0
143
25.4
144
1.0
145
0.0
146
0.5
147
1.5
 71
     1
 72
     0
 73
     0
 74
     0
 75
     0
 76
     0
 77
     1
 78
     8
170
     0
171
     2
172
     1
173
     1
174
     1
175
     0
176
     0
177
     0
178
     0
270
     2
271
     0
272
     0
273
     2
274
     2
340
D7
275
     0
280
     0
281
     0
282
     0
283
     1
284
     0
285
     0
286
     0
287
     3
288
     1
  0
DIMSTYLE
105
402
102
{ACAD_REACTORS
330
6F68
330
6F76
330
6FD9
330
6FEA
330
70B8
330
719E
330
71B6
330
71C2
330
71CF
330
7330
330
739D
330
73AA
330
757A
330
75AB
102
}
330
D1
100
AcDbSymbolTableRecord
100
AcDbDimStyleTableRecord
  2
IMCADLT
 70
     0
  3

  4

  5
ARROW
  6
ARROW
  7
ARROW
 40
0.0
 41
1.5
 42
1.0
 43
6.0
 44
1.0
 45
0.0
 46
0.0
 47
0.01
 48
0.02
140
3.0
141
0.0
142
0.0
143
25.4
144
1.0
145
0.0
146
0.45
147
1.5
 71
     0
 72
     0
 73
     0
 74
     0
 75
     0
 76
     0
 77
     3
 78
     8
170
     0
171
     2
172
     1
173
     1
174
     1
175
     0
176
     0
177
     0
178
     0
270
     2
271
     2
272
     2
273
     2
274
     2
340
D7
275
     0
280
     0
281
     0
282
     0
283
     1
284
     8
285
     0
286
     0
287
     3
288
     1
  0
DIMSTYLE
105
F97
330
D1
100
AcDbSymbolTableRecord
100
AcDbDimStyleTableRecord
  2
IMAO_1
 70
     0
  3

  4

  5
ARROW
  6
ARROW
  7
ARROW
 40
0.0
 41
1.5
 42
1.0
 43
6.0
 44
1.0
 45
0.0
 46
0.0
 47
1.0
 48
0.0
140
3.0
141
0.0
142
0.0
143
25.4
144
1.0
145
0.0
146
0.5
147
1.5
 71
     1
 72
     0
 73
     0
 74
     0
 75
     0
 76
     0
 77
     1
 78
     8
170
     0
171
     2
172
     1
173
     1
174
     1
175
     0
176
     0
177
     0
178
     0
270
     2
271
     0
272
     0
273
     2
274
     2
340
D7
275
     0
280
     0
281
     0
282
     0
283
     1
284
     0
285
     0
286
     0
287
     3
288
     1
  0
DIMSTYLE
105
F98
330
D1
100
AcDbSymbolTableRecord
100
AcDbDimStyleTableRecord
  2
IMAO_05
 70
     0
  3

  4

  5
ARROW
  6
ARROW
  7
ARROW
 40
0.0
 41
1.5
 42
1.0
 43
6.0
 44
1.0
 45
0.0
 46
0.0
 47
0.5
 48
0.5
140
3.0
141
0.0
142
0.0
143
25.4
144
1.0
145
0.0
146
1.0
147
1.5
 71
     1
 72
     0
 73
     0
 74
     0
 75
     0
 76
     0
 77
     1
 78
     8
170
     0
171
     2
172
     1
173
     1
174
     1
175
     0
176
     0
177
     0
178
     0
270
     2
271
     1
272
     1
273
     2
274
     2
340
D7
275
     0
280
     0
281
     0
282
     0
283
     1
284
     0
285
     0
286
     0
287
     3
288
     1
  0
DIMSTYLE
105
F99
330
D1
100
AcDbSymbolTableRecord
100
AcDbDimStyleTableRecord
  2
IMAO_NOMAL
 70
     0
  3

  4

  5
ARROW
  6
ARROW
  7
ARROW
 40
0.0
 41
1.5
 42
1.0
 43
6.0
 44
1.0
 45
0.0
 46
0.0
 47
1.0
 48
0.0
140
3.0
141
0.0
142
0.0
143
25.4
144
1.0
145
0.0
146
0.5
147
1.5
 71
     0
 72
     0
 73
     0
 74
     0
 75
     0
 76
     0
 77
     1
 78
     8
170
     0
171
     2
172
     1
173
     1
174
     1
175
     0
176
     0
177
     0
178
     0
270
     2
271
     1
272
     1
273
     2
274
     2
340
D7
275
     0
280
     0
281
     0
282
     0
283
     1
284
     0
285
     0
286
     0
287
     3
288
     1
  0
DIMSTYLE
105
12F0
330
D1
100
AcDbSymbolTableRecord
100
AcDbDimStyleTableRecord
  2
IMAO_07
 70
     0
  3

  4

  5
ARROW
  6
ARROW
  7
ARROW
 40
0.0
 41
1.5
 42
1.0
 43
6.0
 44
1.0
 45
0.0
 46
0.0
 47
0.7
 48
0.7
140
3.0
141
0.0
142
0.0
143
25.4
144
1.0
145
0.0
146
1.0
147
1.5
 71
     1
 72
     0
 73
     0
 74
     0
 75
     0
 76
     0
 77
     1
 78
     8
170
     0
171
     2
172
     1
173
     1
174
     1
175
     0
176
     0
177
     0
178
     0
270
     2
271
     1
272
     1
273
     2
274
     2
340
D7
275
     0
280
     0
281
     0
282
     0
283
     1
284
     8
285
     8
286
     8
287
     5
288
     0
  0
DIMSTYLE
105
136D
330
D1
100
AcDbSymbolTableRecord
100
AcDbDimStyleTableRecord
  2
IMAO_M1
 70
     0
  3

  4

  5
ARROW
  6
ARROW
  7
ARROW
 40
0.0
 41
1.5
 42
1.0
 43
6.0
 44
1.0
 45
0.0
 46
0.0
 47
0.0
 48
1.0
140
3.0
141
0.0
142
0.0
143
25.4
144
1.0
145
0.0
146
0.5
147
1.5
 71
     1
 72
     0
 73
     0
 74
     0
 75
     0
 76
     0
 77
     1
 78
     8
170
     0
171
     2
172
     1
173
     1
174
     1
175
     0
176
     0
177
     0
178
     0
270
     2
271
     1
272
     1
273
     2
274
     2
340
D7
275
     0
280
     0
281
     0
282
     0
283
     1
284
     8
285
     8
286
     8
287
     3
288
     0
  0
DIMSTYLE
105
13E1
330
D1
100
AcDbSymbolTableRecord
100
AcDbDimStyleTableRecord
  2
IMAO_NOMAL_W
 70
     0
  3

  4

  5
ARROW
  6
ARROW
  7
ARROW
 40
0.0
 41
3.0
 42
1.0
 43
6.0
 44
1.0
 45
0.0
 46
0.0
 47
1.0
 48
0.0
140
6.0
141
0.0
142
0.0
143
25.4
144
1.0
145
0.0
146
0.5
147
3.0
 71
     0
 72
     0
 73
     0
 74
     0
 75
     0
 76
     0
 77
     1
 78
     8
170
     0
171
     2
172
     1
173
     1
174
     1
175
     0
176
     0
177
     0
178
     0
270
     2
271
     1
272
     1
273
     2
274
     2
340
D7
275
     0
280
     0
281
     0
282
     0
283
     1
284
     0
285
     0
286
     0
287
     3
288
     1
  0
DIMSTYLE
105
140E
330
D1
100
AcDbSymbolTableRecord
100
AcDbDimStyleTableRecord
  2
IMAO_05_W
 70
     0
  3

  4

  5
ARROW
  6
ARROW
  7
ARROW
 40
0.0
 41
3.0
 42
1.0
 43
6.0
 44
1.0
 45
0.0
 46
0.0
 47
0.5
 48
0.5
140
6.0
141
0.0
142
0.0
143
25.4
144
1.0
145
0.0
146
1.0
147
3.0
 71
     1
 72
     0
 73
     0
 74
     0
 75
     0
 76
     0
 77
     1
 78
     8
170
     0
171
     2
172
     1
173
     1
174
     1
175
     0
176
     0
177
     0
178
     0
270
     2
271
     1
272
     1
273
     2
274
     2
340
D7
275
     0
280
     0
281
     0
282
     0
283
     1
284
     0
285
     0
286
     0
287
     3
288
     1
  0
DIMSTYLE
105
140F
330
D1
100
AcDbSymbolTableRecord
100
AcDbDimStyleTableRecord
  2
IMAO_1_W
 70
     0
  3

  4

  5
ARROW
  6
ARROW
  7
ARROW
 40
0.0
 41
3.0
 42
1.0
 43
6.0
 44
1.0
 45
0.0
 46
0.0
 47
1.0
 48
0.0
140
6.0
141
0.0
142
0.0
143
25.4
144
1.0
145
0.0
146
0.5
147
3.0
 71
     1
 72
     0
 73
     0
 74
     0
 75
     0
 76
     0
 77
     1
 78
     8
170
     0
171
     2
172
     1
173
     1
174
     1
175
     0
176
     0
177
     0
178
     0
270
     2
271
     0
272
     0
273
     2
274
     2
340
D7
275
     0
280
     0
281
     0
282
     0
283
     1
284
     0
285
     0
286
     0
287
     3
288
     1
  0
DIMSTYLE
105
7441
330
D1
100
AcDbSymbolTableRecord
100
AcDbDimStyleTableRecord
  2
ITM
 70
     0
  3

  4

  5

  6

  7

 40
1.0
 41
1.5
 42
1.0
 43
6.0
 44
1.0
 45
0.0
 46
0.0
 47
495.0
 48
0.0
140
3.0
141
0.0
142
0.0
143
25.4
144
1.0
145
0.0
146
1.0
147
0.5
 71
     0
 72
     0
 73
     0
 74
     0
 75
     0
 76
     0
 77
     3
 78
     8
170
     0
171
     2
172
     1
173
     1
174
     1
175
     0
176
     0
177
     0
178
     0
270
     2
271
     4
272
     4
273
     2
274
     2
340
F0
275
     0
280
     0
281
     0
282
     0
283
     1
284
     0
285
     0
286
     0
287
     3
288
     0
  0
ENDTAB
  0
TABLE
  2
BLOCK_RECORD
  5
C8
330
0
100
AcDbSymbolTable
 70
    18
  0
BLOCK_RECORD
  5
DF
102
{ACAD_XDICTIONARY
360
75DB
102
}
330
C8
100
AcDbSymbolTableRecord
100
AcDbBlockTableRecord
  2
*MODEL_SPACE
  0
BLOCK_RECORD
  5
DC
102
{ACAD_XDICTIONARY
360
75D9
102
}
330
C8
100
AcDbSymbolTableRecord
100
AcDbBlockTableRecord
  2
*PAPER_SPACE
  0
BLOCK_RECORD
  5
E3
330
C8
100
AcDbSymbolTableRecord
100
AcDbBlockTableRecord
  2
ARROW
  0
BLOCK_RECORD
  5
145
330
C8
100
AcDbSymbolTableRecord
100
AcDbBlockTableRecord
  2
_OPEN
  0
BLOCK_RECORD
  5
6F3F
330
C8
100
AcDbSymbolTableRecord
100
AcDbBlockTableRecord
  2
WAKU
  0
BLOCK_RECORD
  5
6F5B
330
C8
100
AcDbSymbolTableRecord
100
AcDbBlockTableRecord
  2
*D3
  0
BLOCK_RECORD
  5
6F6A
330
C8
100
AcDbSymbolTableRecord
100
AcDbBlockTableRecord
  2
*D4
  0
BLOCK_RECORD
  5
6FCD
330
C8
100
AcDbSymbolTableRecord
100
AcDbBlockTableRecord
  2
*D5
  0
BLOCK_RECORD
  5
6FDE
330
C8
100
AcDbSymbolTableRecord
100
AcDbBlockTableRecord
  2
*D6
  0
BLOCK_RECORD
  5
70AC
330
C8
100
AcDbSymbolTableRecord
100
AcDbBlockTableRecord
  2
*D7
  0
BLOCK_RECORD
  5
7192
330
C8
100
AcDbSymbolTableRecord
100
AcDbBlockTableRecord
  2
*D8
  0
BLOCK_RECORD
  5
71AA
330
C8
100
AcDbSymbolTableRecord
100
AcDbBlockTableRecord
  2
*D9
  0
BLOCK_RECORD
  5
71B7
330
C8
100
AcDbSymbolTableRecord
100
AcDbBlockTableRecord
  2
*D10
  0
BLOCK_RECORD
  5
71C3
330
C8
100
AcDbSymbolTableRecord
100
AcDbBlockTableRecord
  2
*D11
  0
BLOCK_RECORD
  5
7324
330
C8
100
AcDbSymbolTableRecord
100
AcDbBlockTableRecord
  2
*D12
  0
BLOCK_RECORD
  5
7391
330
C8
100
AcDbSymbolTableRecord
100
AcDbBlockTableRecord
  2
*D13
  0
BLOCK_RECORD
  5
739E
330
C8
100
AcDbSymbolTableRecord
100
AcDbBlockTableRecord
  2
*D14
  0
BLOCK_RECORD
  5
7442
330
C8
100
AcDbSymbolTableRecord
100
AcDbBlockTableRecord
  2
S3
  0
BLOCK_RECORD
  5
756E
330
C8
100
AcDbSymbolTableRecord
100
AcDbBlockTableRecord
  2
*D16
  0
BLOCK_RECORD
  5
759F
330
C8
100
AcDbSymbolTableRecord
100
AcDbBlockTableRecord
  2
*D17
  0
ENDTAB
  0
ENDSEC
  0
SECTION
  2
BLOCKS
  0
BLOCK
  5
10F
330
DF
100
AcDbEntity
  8
0
100
AcDbBlockBegin
  2
*MODEL_SPACE
 70
     0
 10
0.0
 20
0.0
 30
0.0
  3
*MODEL_SPACE
  1

  0
ENDBLK
  5
110
330
DF
100
AcDbEntity
  8
0
100
AcDbBlockEnd
  0
BLOCK
  5
10D
330
DC
100
AcDbEntity
 67
     1
  8
0
100
AcDbBlockBegin
  2
*PAPER_SPACE
 70
     0
 10
0.0
 20
0.0
 30
0.0
  3
*PAPER_SPACE
  1

  0
ENDBLK
  5
10E
330
DC
100
AcDbEntity
 67
     1
  8
0
100
AcDbBlockEnd
  0
BLOCK
  5
1
330
E3
100
AcDbEntity
  8
0
100
AcDbBlockBegin
  2
ARROW
 70
     0
 10
1.0
 20
0.5
 30
0.0
  3
ARROW
  1

  0
LINE
  5
2
330
E3
100
AcDbEntity
  8
0
100
AcDbLine
 10
1.0
 20
0.5
 30
0.0
 11
-0.5000000000000214
 21
0.0980762113533018
 31
0.0
  0
LINE
  5
3
330
E3
100
AcDbEntity
  8
0
100
AcDbLine
 10
0.0
 20
0.5
 30
0.0
 11
1.0
 21
0.5
 31
0.0
  0
LINE
  5
4
330
E3
100
AcDbEntity
  8
0
100
AcDbLine
 10
1.0
 20
0.5
 30
0.0
 11
-0.4999999999999574
 21
0.9019237886467408
 31
0.0
  0
ENDBLK
  5
5
330
E3
100
AcDbEntity
  8
0
100
AcDbBlockEnd
  0
BLOCK
  5
149
330
145
100
AcDbEntity
  8
0
100
AcDbBlockBegin
  2
_OPEN
 70
     0
 10
0.0
 20
0.0
 30
0.0
  3
_OPEN
  1

  0
LINE
  5
146
330
145
100
AcDbEntity
  8
0
  6
BYBLOCK
 62
     0
100
AcDbLine
 10
-1.0
 20
0.1666666666666666
 30
0.0
 11
0.0
 21
0.0
 31
0.0
  0
LINE
  5
147
330
145
100
AcDbEntity
  8
0
  6
BYBLOCK
 62
     0
100
AcDbLine
 10
0.0
 20
0.0
 30
0.0
 11
-1.0
 21
-0.1666666666666666
 31
0.0
  0
LINE
  5
148
330
145
100
AcDbEntity
  8
0
  6
BYBLOCK
 62
     0
100
AcDbLine
 10
0.0
 20
0.0
 30
0.0
 11
-1.0
 21
0.0
 31
0.0
  0
ENDBLK
  5
14A
330
145
100
AcDbEntity
  8
0
100
AcDbBlockEnd
  0
BLOCK
  5
6F44
330
6F3F
100
AcDbEntity
  8
0
100
AcDbBlockBegin
  2
WAKU
 70
     0
 10
0.0
 20
0.0
 30
0.0
  3
WAKU
  1

  0
LINE
  5
6F40
330
6F3F
100
AcDbEntity
  8
WAKU
100
AcDbLine
 10
0.0
 20
0.0
 30
0.0
 11
0.0
 21
0.9999999999999998
 31
0.0
  0
LINE
  5
6F41
330
6F3F
100
AcDbEntity
  8
WAKU
100
AcDbLine
 10
0.999999996
 20
0.0
 30
0.0
 11
0.0
 21
0.0
 31
0.0
  0
LINE
  5
6F42
330
6F3F
100
AcDbEntity
  8
WAKU
100
AcDbLine
 10
0.0
 20
0.9999999999999998
 30
0.0
 11
0.999999996
 21
0.9999999999999998
 31
0.0
  0
LINE
  5
6F43
330
6F3F
100
AcDbEntity
  8
WAKU
100
AcDbLine
 10
0.999999996
 20
0.0
 30
0.0
 11
0.999999996
 21
0.9999999999999998
 31
0.0
  0
ENDBLK
  5
6F45
330
6F3F
100
AcDbEntity
  8
0
100
AcDbBlockEnd
  0
BLOCK
  5
6FAC
330
6F5B
100
AcDbEntity
  8
0
100
AcDbBlockBegin
  2
*D3
 70
     1
 10
0.0
 20
0.0
 30
0.0
  3
*D3
  1

  0
LINE
  5
6FAD
330
6F5B
100
AcDbEntity
  8
0
  6
BYBLOCK
 62
     0
100
AcDbLine
 10
346.5397601534032
 20
525.59257203
 30
0.0
 11
346.5397601534032
 21
715.9982657750234
 31
0.0
  0
LINE
  5
6FAE
330
6F5B
100
AcDbEntity
  8
0
  6
BYBLOCK
 62
     0
100
AcDbLine
 10
116.5397601465968
 20
525.59257203
 30
0.0
 11
116.5397601465968
 21
715.9982657750234
 31
0.0
  0
LINE
  5
6FAF
330
6F5B
100
AcDbEntity
  8
0
  6
BYBLOCK
 62
     0
100
AcDbLine
 10
331.5397601534032
 20
710.9982657750233
 30
0.0
 11
131.5397601465968
 21
710.9982657750233
 31
0.0
  0
INSERT
  5
6FB0
330
6F5B
100
AcDbEntity
  8
0
  6
BYBLOCK
 62
     0
100
AcDbBlockReference
  2
ARROW
 10
346.5397601534032
 20
710.9982657750233
 30
0.0
 41
15.0
 42
15.0
 43
15.0
  0
INSERT
  5
6FB1
330
6F5B
100
AcDbEntity
  8
0
  6
BYBLOCK
 62
     0
100
AcDbBlockReference
  2
ARROW
 10
116.5397601465968
 20
710.9982657750233
 30
0.0
 41
15.0
 42
15.0
 43
15.0
 50
180.0
  0
MTEXT
  5
6FB2
330
6F5B
100
AcDbEntity
  8
0
  6
BYBLOCK
 62
     0
100
AcDbMText
 10
231.5397601534032
 20
725.9982657750233
 30
0.0
 40
15.0
 41
0.0
 71
     5
 72
     1
  1
\A1;230
1001
ACAD
1000
MTEXTBEGIN
1070
    73
1070
     1
1070
    44
1040
1.0
1070
    74
1070
     0
1000
MTEXTEND
  0
POINT
  5
6FB3
330
6F5B
100
AcDbEntity
  8
DEFPOINTS
  6
BYBLOCK
 62
     0
100
AcDbPoint
 10
346.5397601534032
 20
520.59257203
 30
0.0
  0
POINT
  5
6FB4
330
6F5B
100
AcDbEntity
  8
DEFPOINTS
  6
BYBLOCK
 62
     0
100
AcDbPoint
 10
116.5397601465968
 20
520.59257203
 30
0.0
  0
POINT
  5
6FB5
330
6F5B
100
AcDbEntity
  8
DEFPOINTS
  6
BYBLOCK
 62
     0
100
AcDbPoint
 10
116.5397601465968
 20
710.9982657750233
 30
0.0
  0
ENDBLK
  5
6FB6
330
6F5B
100
AcDbEntity
  8
0
100
AcDbBlockEnd
  0
BLOCK
  5
6FC2
330
6F6A
100
AcDbEntity
  8
0
100
AcDbBlockBegin
  2
*D4
 70
     1
 10
0.0
 20
0.0
 30
0.0
  3
*D4
  1

  0
LINE
  5
6FC3
330
6F6A
100
AcDbEntity
  8
0
  6
BYBLOCK
 62
     0
100
AcDbLine
 10
118.5397601465968
 20
250.59257203
 30
0.0
 11
118.5397601465968
 21
123.1665318335153
 31
0.0
  0
LINE
  5
6FC4
330
6F6A
100
AcDbEntity
  8
0
  6
BYBLOCK
 62
     0
100
AcDbLine
 10
344.5397601534032
 20
250.59257203
 30
0.0
 11
344.5397601534032
 21
123.1665318335153
 31
0.0
  0
LINE
  5
6FC5
330
6F6A
100
AcDbEntity
  8
0
  6
BYBLOCK
 62
     0
100
AcDbLine
 10
133.5397601465968
 20
128.1665318335153
 30
0.0
 11
329.5397601534032
 21
128.1665318335153
 31
0.0
  0
INSERT
  5
6FC6
330
6F6A
100
AcDbEntity
  8
0
  6
BYBLOCK
 62
     0
100
AcDbBlockReference
  2
ARROW
 10
118.5397601465968
 20
128.1665318335153
 30
0.0
 41
15.0
 42
15.0
 43
15.0
 50
180.0
  0
INSERT
  5
6FC7
330
6F6A
100
AcDbEntity
  8
0
  6
BYBLOCK
 62
     0
100
AcDbBlockReference
  2
ARROW
 10
344.5397601534032
 20
128.1665318335153
 30
0.0
 41
15.0
 42
15.0
 43
15.0
  0
MTEXT
  5
6FC8
330
6F6A
100
AcDbEntity
  8
0
  6
BYBLOCK
 62
     0
100
AcDbMText
 10
231.5397601534032
 20
143.1665318335153
 30
0.0
 40
15.0
 41
0.0
 71
     5
 72
     1
  1
\A1;226
1001
ACAD
1000
MTEXTBEGIN
1070
    73
1070
     1
1070
    44
1040
1.0
1070
    74
1070
     0
1000
MTEXTEND
  0
POINT
  5
6FC9
330
6F6A
100
AcDbEntity
  8
DEFPOINTS
  6
BYBLOCK
 62
     0
100
AcDbPoint
 10
118.5397601465968
 20
255.59257203
 30
0.0
  0
POINT
  5
6FCA
330
6F6A
100
AcDbEntity
  8
DEFPOINTS
  6
BYBLOCK
 62
     0
100
AcDbPoint
 10
344.5397601534032
 20
255.59257203
 30
0.0
  0
POINT
  5
6FCB
330
6F6A
100
AcDbEntity
  8
DEFPOINTS
  6
BYBLOCK
 62
     0
100
AcDbPoint
 10
344.5397601534032
 20
128.1665318335153
 30
0.0
  0
ENDBLK
  5
6FCC
330
6F6A
100
AcDbEntity
  8
0
100
AcDbBlockEnd
  0
BLOCK
  5
6FCE
330
6FCD
100
AcDbEntity
  8
0
100
AcDbBlockBegin
  2
*D5
 70
     1
 10
0.0
 20
0.0
 30
0.0
  3
*D5
  1

  0
LINE
  5
6FCF
330
6FCD
100
AcDbEntity
  8
0
  6
BYBLOCK
 62
     0
100
AcDbLine
 10
145.53976015
 20
235.59257203
 30
0.0
 11
145.53976015
 21
164.9356575682152
 31
0.0
  0
LINE
  5
6FD0
330
6FCD
100
AcDbEntity
  8
0
  6
BYBLOCK
 62
     0
100
AcDbLine
 10
317.53976015
 20
235.5925720299999
 30
0.0
 11
317.53976015
 21
164.9356575682152
 31
0.0
  0
LINE
  5
6FD1
330
6FCD
100
AcDbEntity
  8
0
  6
BYBLOCK
 62
     0
100
AcDbLine
 10
160.5397601499999
 20
169.9356575682152
 30
0.0
 11
302.5397601499999
 21
169.9356575682152
 31
0.0
  0
INSERT
  5
6FD2
330
6FCD
100
AcDbEntity
  8
0
  6
BYBLOCK
 62
     0
100
AcDbBlockReference
  2
ARROW
 10
145.53976015
 20
169.9356575682152
 30
0.0
 41
15.0
 42
15.0
 43
15.0
 50
180.0
  0
INSERT
  5
6FD3
330
6FCD
100
AcDbEntity
  8
0
  6
BYBLOCK
 62
     0
100
AcDbBlockReference
  2
ARROW
 10
317.53976015
 20
169.9356575682152
 30
0.0
 41
15.0
 42
15.0
 43
15.0
  0
MTEXT
  5
6FD4
330
6FCD
100
AcDbEntity
  8
0
  6
BYBLOCK
 62
     0
100
AcDbMText
 10
228.6500978936319
 20
184.9356575682152
 30
0.0
 40
15.0
 41
0.0
 71
     5
 72
     1
  1
\A1;172
1001
ACAD
1000
MTEXTBEGIN
1070
    73
1070
     1
1070
    44
1040
1.0
1070
    74
1070
     0
1000
MTEXTEND
  0
POINT
  5
6FD5
330
6FCD
100
AcDbEntity
  8
DEFPOINTS
  6
BYBLOCK
 62
     0
100
AcDbPoint
 10
145.53976015
 20
240.59257203
 30
0.0
  0
POINT
  5
6FD6
330
6FCD
100
AcDbEntity
  8
DEFPOINTS
  6
BYBLOCK
 62
     0
100
AcDbPoint
 10
317.53976015
 20
240.5925720299999
 30
0.0
  0
POINT
  5
6FD7
330
6FCD
100
AcDbEntity
  8
DEFPOINTS
  6
BYBLOCK
 62
     0
100
AcDbPoint
 10
317.53976015
 20
169.9356575682152
 30
0.0
  0
ENDBLK
  5
6FD8
330
6FCD
100
AcDbEntity
  8
0
100
AcDbBlockEnd
  0
BLOCK
  5
6FEB
330
6FDE
100
AcDbEntity
  8
0
100
AcDbBlockBegin
  2
*D6
 70
     1
 10
0.0
 20
0.0
 30
0.0
  3
*D6
  1

  0
LINE
  5
6FEC
330
6FDE
100
AcDbEntity
  8
0
  6
BYBLOCK
 62
     0
100
AcDbLine
 10
132.2621349916156
 20
240.59257203
 30
0.0
 11
-16.28156915916135
 21
240.59257203
 31
0.0
  0
LINE
  5
6FED
330
6FDE
100
AcDbEntity
  8
0
  6
BYBLOCK
 62
     0
100
AcDbLine
 10
125.6336074576313
 20
632.592572028571
 30
0.0
 11
-16.28156915916132
 21
632.592572028571
 31
0.0
  0
LINE
  5
6FEE
330
6FDE
100
AcDbEntity
  8
0
  6
BYBLOCK
 62
     0
100
AcDbLine
 10
-11.28156915916134
 20
255.59257203
 30
0.0
 11
-11.28156915916132
 21
617.5925720285711
 31
0.0
  0
INSERT
  5
6FEF
330
6FDE
100
AcDbEntity
  8
0
  6
BYBLOCK
 62
     0
100
AcDbBlockReference
  2
ARROW
 10
-11.28156915916134
 20
240.59257203
 30
0.0
 41
15.0
 42
15.0
 43
15.0
 50
270.0
  0
INSERT
  5
6FF0
330
6FDE
100
AcDbEntity
  8
0
  6
BYBLOCK
 62
     0
100
AcDbBlockReference
  2
ARROW
 10
-11.28156915916132
 20
632.592572028571
 30
0.0
 41
15.0
 42
15.0
 43
15.0
 50
90.0
  0
MTEXT
  5
6FF1
330
6FDE
100
AcDbEntity
  8
0
  6
BYBLOCK
 62
     0
100
AcDbMText
 10
-26.28156915916133
 20
448.1019807961786
 30
0.0
 40
15.0
 41
0.0
 71
     5
 72
     1
  1
\A1;392
 11
0.0000000000000001
 21
1.0
 31
0.0
1001
ACAD
1000
MTEXTBEGIN
1070
    73
1070
     1
1070
    44
1040
1.0
1070
    74
1070
     0
1000
MTEXTEND
  0
POINT
  5
6FF2
330
6FDE
100
AcDbEntity
  8
DEFPOINTS
  6
BYBLOCK
 62
     0
100
AcDbPoint
 10
137.2621349916156
 20
240.59257203
 30
0.0
  0
POINT
  5
6FF3
330
6FDE
100
AcDbEntity
  8
DEFPOINTS
  6
BYBLOCK
 62
     0
100
AcDbPoint
 10
130.6336074576313
 20
632.592572028571
 30
0.0
  0
POINT
  5
6FF4
330
6FDE
100
AcDbEntity
  8
DEFPOINTS
  6
BYBLOCK
 62
     0
100
AcDbPoint
 10
-11.28156915916132
 20
632.592572028571
 30
0.0
  0
ENDBLK
  5
6FF5
330
6FDE
100
AcDbEntity
  8
0
100
AcDbBlockEnd
  0
BLOCK
  5
751D
330
70AC
100
AcDbEntity
  8
0
100
AcDbBlockBegin
  2
*D7
 70
     1
 10
0.0
 20
0.0
 30
0.0
  3
*D7
  1

  0
LINE
  5
751E
330
70AC
100
AcDbEntity
  8
0
  6
BYBLOCK
 62
     0
100
AcDbLine
 10
508.923601382573
 20
525.59257203
 30
0.0
 11
508.923601382573
 21
753.6580430769991
 31
0.0
  0
LINE
  5
751F
330
70AC
100
AcDbEntity
  8
0
  6
BYBLOCK
 62
     0
100
AcDbLine
 10
270.9236013791697
 20
454.2898406389913
 30
0.0
 11
270.9236013791697
 21
753.6580430769991
 31
0.0
  0
LINE
  5
7520
330
70AC
100
AcDbEntity
  8
0
  6
BYBLOCK
 62
     0
100
AcDbLine
 10
493.923601382573
 20
748.6580430769991
 30
0.0
 11
285.9236013791697
 21
748.6580430769991
 31
0.0
  0
INSERT
  5
7521
330
70AC
100
AcDbEntity
  8
0
  6
BYBLOCK
 62
     0
100
AcDbBlockReference
  2
ARROW
 10
508.923601382573
 20
748.6580430769991
 30
0.0
 41
15.0
 42
15.0
 43
15.0
  0
INSERT
  5
7522
330
70AC
100
AcDbEntity
  8
0
  6
BYBLOCK
 62
     0
100
AcDbBlockReference
  2
ARROW
 10
270.9236013791697
 20
748.6580430769991
 30
0.0
 41
15.0
 42
15.0
 43
15.0
 50
180.0
  0
MTEXT
  5
7523
330
70AC
100
AcDbEntity
  8
0
  6
BYBLOCK
 62
     0
100
AcDbMText
 10
389.9236013808713
 20
763.658043076999
 30
0.0
 40
15.0
 41
0.0
 71
     5
 72
     1
  1
\A1;238
1001
ACAD
1000
MTEXTBEGIN
1070
    73
1070
     1
1070
    44
1040
1.0
1070
    74
1070
     0
1000
MTEXTEND
  0
POINT
  5
7524
330
70AC
100
AcDbEntity
  8
DEFPOINTS
  6
BYBLOCK
 62
     0
100
AcDbPoint
 10
508.923601382573
 20
520.59257203
 30
0.0
  0
POINT
  5
7525
330
70AC
100
AcDbEntity
  8
DEFPOINTS
  6
BYBLOCK
 62
     0
100
AcDbPoint
 10
270.9236013791697
 20
449.2898406389913
 30
0.0
  0
POINT
  5
7526
330
70AC
100
AcDbEntity
  8
DEFPOINTS
  6
BYBLOCK
 62
     0
100
AcDbPoint
 10
270.9236013791697
 20
748.6580430769991
 30
0.0
  0
ENDBLK
  5
7527
330
70AC
100
AcDbEntity
  8
0
100
AcDbBlockEnd
  0
BLOCK
  5
7591
330
7192
100
AcDbEntity
  8
0
100
AcDbBlockBegin
  2
*D8
 70
     1
 10
0.0
 20
0.0
 30
0.0
  3
*D8
  1

  0
LINE
  5
7592
330
7192
100
AcDbEntity
  8
0
  6
BYBLOCK
 62
     0
100
AcDbLine
 10
1120.27990409
 20
298.59257203
 30
0.0
 11
1161.406214800403
 21
298.59257203
 31
0.0
  0
LINE
  5
7593
330
7192
100
AcDbEntity
  8
0
  6
BYBLOCK
 62
     0
100
AcDbLine
 10
976.6634710183845
 20
240.59257203
 30
0.0
 11
1161.406214800403
 21
240.5925720299999
 31
0.0
  0
LINE
  5
7594
330
7192
100
AcDbEntity
  8
0
  6
BYBLOCK
 62
     0
100
AcDbLine
 10
1156.406214800403
 20
283.59257203
 30
0.0
 11
1156.406214800403
 21
255.59257203
 31
0.0
  0
INSERT
  5
7595
330
7192
100
AcDbEntity
  8
0
  6
BYBLOCK
 62
     0
100
AcDbBlockReference
  2
ARROW
 10
1156.406214800403
 20
298.59257203
 30
0.0
 41
15.0
 42
15.0
 43
15.0
 50
90.0
  0
INSERT
  5
7596
330
7192
100
AcDbEntity
  8
0
  6
BYBLOCK
 62
     0
100
AcDbBlockReference
  2
ARROW
 10
1156.406214800403
 20
240.59257203
 30
0.0
 41
15.0
 42
15.0
 43
15.0
 50
270.0
  0
MTEXT
  5
7597
330
7192
100
AcDbEntity
  8
0
  6
BYBLOCK
 62
     0
100
AcDbMText
 10
1141.406214800403
 20
270.6272193281038
 30
0.0
 40
15.0
 41
0.0
 71
     5
 72
     1
  1
\A1;58
 11
0.0000000000000001
 21
1.0
 31
0.0
1001
ACAD
1000
MTEXTBEGIN
1070
    73
1070
     1
1070
    44
1040
1.0
1070
    74
1070
     0
1000
MTEXTEND
  0
POINT
  5
7598
330
7192
100
AcDbEntity
  8
DEFPOINTS
  6
BYBLOCK
 62
     0
100
AcDbPoint
 10
1115.27990409
 20
298.59257203
 30
0.0
  0
POINT
  5
7599
330
7192
100
AcDbEntity
  8
DEFPOINTS
  6
BYBLOCK
 62
     0
100
AcDbPoint
 10
971.6634710183845
 20
240.59257203
 30
0.0
  0
POINT
  5
759A
330
7192
100
AcDbEntity
  8
DEFPOINTS
  6
BYBLOCK
 62
     0
100
AcDbPoint
 10
1156.406214800403
 20
240.59257203
 30
0.0
  0
ENDBLK
  5
759B
330
7192
100
AcDbEntity
  8
0
100
AcDbBlockEnd
  0
BLOCK
  5
71AB
330
71AA
100
AcDbEntity
  8
0
100
AcDbBlockBegin
  2
*D9
 70
     1
 10
0.0
 20
0.0
 30
0.0
  3
*D9
  1

  0
LINE
  5
71AC
330
71AA
100
AcDbEntity
  8
0
  6
BYBLOCK
 62
     0
100
AcDbLine
 10
778.38584586
 20
235.59257203
 30
0.0
 11
778.38584586
 21
166.1650069748243
 31
0.0
  0
LINE
  5
71AD
330
71AA
100
AcDbEntity
  8
0
  6
BYBLOCK
 62
     0
100
AcDbLine
 10
963.38584586
 20
235.59257203
 30
0.0
 11
963.38584586
 21
166.1650069748243
 31
0.0
  0
LINE
  5
71AE
330
71AA
100
AcDbEntity
  8
0
  6
BYBLOCK
 62
     0
100
AcDbLine
 10
793.38584586
 20
171.1650069748243
 30
0.0
 11
948.3858458600002
 21
171.1650069748243
 31
0.0
  0
INSERT
  5
71AF
330
71AA
100
AcDbEntity
  8
0
  6
BYBLOCK
 62
     0
100
AcDbBlockReference
  2
ARROW
 10
778.38584586
 20
171.1650069748243
 30
0.0
 41
15.0
 42
15.0
 43
15.0
 50
180.0
  0
INSERT
  5
71B0
330
71AA
100
AcDbEntity
  8
0
  6
BYBLOCK
 62
     0
100
AcDbBlockReference
  2
ARROW
 10
963.38584586
 20
171.1650069748243
 30
0.0
 41
15.0
 42
15.0
 43
15.0
  0
MTEXT
  5
71B1
330
71AA
100
AcDbEntity
  8
0
  6
BYBLOCK
 62
     0
100
AcDbMText
 10
866.9942120866135
 20
186.1650069748243
 30
0.0
 40
15.0
 41
0.0
 71
     5
 72
     1
  1
\A1;185
1001
ACAD
1000
MTEXTBEGIN
1070
    73
1070
     1
1070
    44
1040
1.0
1070
    74
1070
     0
1000
MTEXTEND
  0
POINT
  5
71B2
330
71AA
100
AcDbEntity
  8
DEFPOINTS
  6
BYBLOCK
 62
     0
100
AcDbPoint
 10
778.38584586
 20
240.59257203
 30
0.0
  0
POINT
  5
71B3
330
71AA
100
AcDbEntity
  8
DEFPOINTS
  6
BYBLOCK
 62
     0
100
AcDbPoint
 10
963.38584586
 20
240.59257203
 30
0.0
  0
POINT
  5
71B4
330
71AA
100
AcDbEntity
  8
DEFPOINTS
  6
BYBLOCK
 62
     0
100
AcDbPoint
 10
963.38584586
 20
171.1650069748243
 30
0.0
  0
ENDBLK
  5
71B5
330
71AA
100
AcDbEntity
  8
0
100
AcDbBlockEnd
  0
BLOCK
  5
71B8
330
71B7
100
AcDbEntity
  8
0
100
AcDbBlockBegin
  2
*D10
 70
     1
 10
0.0
 20
0.0
 30
0.0
  3
*D10
  1

  0
LINE
  5
75DD
330
71B7
100
AcDbEntity
  8
SUNPOU
 62
     0
100
AcDbLine
 10
724.3858458600001
 20
248.59257203
 30
0.0
 11
724.3858458600001
 21
166.1650069748243
 31
0.0
  0
LINE
  5
75DE
330
71B7
100
AcDbEntity
  8
SUNPOU
 62
     0
100
AcDbLine
 10
763.38584586
 20
171.1650069748243
 30
0.0
 11
739.3858458600001
 21
171.1650069748243
 31
0.0
  0
INSERT
  5
75DF
330
71B7
100
AcDbEntity
  8
SUNPOU
 62
     0
100
AcDbBlockReference
  2
ARROW
 10
778.38584586
 20
171.1650069748243
 30
0.0
 41
15.0
 42
15.0
 43
15.0
  0
INSERT
  5
75E0
330
71B7
100
AcDbEntity
  8
SUNPOU
 62
     0
100
AcDbBlockReference
  2
ARROW
 10
724.3858458600001
 20
171.1650069748243
 30
0.0
 41
15.0
 42
15.0
 43
15.0
 50
180.0
  0
MTEXT
  5
75E1
330
71B7
100
AcDbEntity
  8
SUNPOU
 62
     0
100
AcDbMText
 10
751.38584586
 20
186.1650069748243
 30
0.0
 40
15.0
 41
0.0
 71
     5
 72
     1
  1
\A1;54
  0
POINT
  5
75E2
330
71B7
100
AcDbEntity
  8
DEFPOINTS
 62
     0
100
AcDbPoint
 10
778.38584586
 20
240.59257203
 30
0.0
  0
POINT
  5
75E3
330
71B7
100
AcDbEntity
  8
DEFPOINTS
 62
     0
100
AcDbPoint
 10
724.3858458600001
 20
253.59257203
 30
0.0
  0
POINT
  5
75E4
330
71B7
100
AcDbEntity
  8
DEFPOINTS
 62
     0
100
AcDbPoint
 10
724.3858458600001
 20
171.1650069748243
 30
0.0
  0
ENDBLK
  5
71C1
330
71B7
100
AcDbEntity
  8
0
100
AcDbBlockEnd
  0
BLOCK
  5
71D0
330
71C3
100
AcDbEntity
  8
0
100
AcDbBlockBegin
  2
*D11
 70
     1
 10
0.0
 20
0.0
 30
0.0
  3
*D11
  1

  0
LINE
  5
71D1
330
71C3
100
AcDbEntity
  8
0
  6
BYBLOCK
 62
     0
100
AcDbLine
 10
724.3858458600001
 20
248.59257203
 30
0.0
 11
724.3858458600001
 21
136.1650069748243
 31
0.0
  0
LINE
  5
71D2
330
71C3
100
AcDbEntity
  8
0
  6
BYBLOCK
 62
     0
100
AcDbLine
 10
988.38584586
 20
246.59257203
 30
0.0
 11
988.38584586
 21
136.1650069748243
 31
0.0
  0
LINE
  5
71D3
330
71C3
100
AcDbEntity
  8
0
  6
BYBLOCK
 62
     0
100
AcDbLine
 10
739.3858458600001
 20
141.1650069748243
 30
0.0
 11
973.38584586
 21
141.1650069748243
 31
0.0
  0
INSERT
  5
71D4
330
71C3
100
AcDbEntity
  8
0
  6
BYBLOCK
 62
     0
100
AcDbBlockReference
  2
ARROW
 10
724.3858458600001
 20
141.1650069748243
 30
0.0
 41
15.0
 42
15.0
 43
15.0
 50
180.0
  0
INSERT
  5
71D5
330
71C3
100
AcDbEntity
  8
0
  6
BYBLOCK
 62
     0
100
AcDbBlockReference
  2
ARROW
 10
988.38584586
 20
141.1650069748243
 30
0.0
 41
15.0
 42
15.0
 43
15.0
  0
MTEXT
  5
71D6
330
71C3
100
AcDbEntity
  8
0
  6
BYBLOCK
 62
     0
100
AcDbMText
 10
856.38584586
 20
156.1650069748243
 30
0.0
 40
15.0
 41
0.0
 71
     5
 72
     1
  1
\A1;264
1001
ACAD
1000
MTEXTBEGIN
1070
    73
1070
     1
1070
    44
1040
1.0
1070
    74
1070
     0
1000
MTEXTEND
  0
POINT
  5
71D7
330
71C3
100
AcDbEntity
  8
DEFPOINTS
  6
BYBLOCK
 62
     0
100
AcDbPoint
 10
724.3858458600001
 20
253.59257203
 30
0.0
  0
POINT
  5
71D8
330
71C3
100
AcDbEntity
  8
DEFPOINTS
  6
BYBLOCK
 62
     0
100
AcDbPoint
 10
988.38584586
 20
251.59257203
 30
0.0
  0
POINT
  5
71D9
330
71C3
100
AcDbEntity
  8
DEFPOINTS
  6
BYBLOCK
 62
     0
100
AcDbPoint
 10
988.38584586
 20
141.1650069748243
 30
0.0
  0
ENDBLK
  5
71DA
330
71C3
100
AcDbEntity
  8
0
100
AcDbBlockEnd
  0
BLOCK
  5
7512
330
7324
100
AcDbEntity
  8
0
100
AcDbBlockBegin
  2
*D12
 70
     1
 10
0.0
 20
0.0
 30
0.0
  3
*D12
  1

  0
LINE
  5
7513
330
7324
100
AcDbEntity
  8
0
  6
BYBLOCK
 62
     0
100
AcDbLine
 10
988.25415750212
 20
584.0411439666803
 30
0.0
 11
988.25415750212
 21
759.8017198291695
 31
0.0
  0
LINE
  5
7514
330
7324
100
AcDbEntity
  8
0
  6
BYBLOCK
 62
     0
100
AcDbLine
 10
713.2541575021199
 20
547.4862712345635
 30
0.0
 11
713.2541575021199
 21
759.8017198291695
 31
0.0
  0
LINE
  5
7515
330
7324
100
AcDbEntity
  8
0
  6
BYBLOCK
 62
     0
100
AcDbLine
 10
973.2541575021199
 20
754.8017198291695
 30
0.0
 11
728.2541575021199
 21
754.8017198291695
 31
0.0
  0
INSERT
  5
7516
330
7324
100
AcDbEntity
  8
0
  6
BYBLOCK
 62
     0
100
AcDbBlockReference
  2
ARROW
 10
988.25415750212
 20
754.8017198291695
 30
0.0
 41
15.0
 42
15.0
 43
15.0
  0
INSERT
  5
7517
330
7324
100
AcDbEntity
  8
0
  6
BYBLOCK
 62
     0
100
AcDbBlockReference
  2
ARROW
 10
713.2541575021199
 20
754.8017198291695
 30
0.0
 41
15.0
 42
15.0
 43
15.0
 50
180.0
  0
MTEXT
  5
7518
330
7324
100
AcDbEntity
  8
0
  6
BYBLOCK
 62
     0
100
AcDbMText
 10
858.964845492987
 20
769.8017198291695
 30
0.0
 40
15.0
 41
0.0
 71
     5
 72
     1
  1
\A1;275
1001
ACAD
1000
MTEXTBEGIN
1070
    73
1070
     1
1070
    44
1040
1.0
1070
    74
1070
     0
1000
MTEXTEND
  0
POINT
  5
7519
330
7324
100
AcDbEntity
  8
DEFPOINTS
  6
BYBLOCK
 62
     0
100
AcDbPoint
 10
988.25415750212
 20
579.0411439666804
 30
0.0
  0
POINT
  5
751A
330
7324
100
AcDbEntity
  8
DEFPOINTS
  6
BYBLOCK
 62
     0
100
AcDbPoint
 10
713.2541575021199
 20
542.4862712345635
 30
0.0
  0
POINT
  5
751B
330
7324
100
AcDbEntity
  8
DEFPOINTS
  6
BYBLOCK
 62
     0
100
AcDbPoint
 10
713.2541575021199
 20
754.8017198291695
 30
0.0
  0
ENDBLK
  5
751C
330
7324
100
AcDbEntity
  8
0
100
AcDbBlockEnd
  0
BLOCK
  5
7392
330
7391
100
AcDbEntity
  8
0
100
AcDbBlockBegin
  2
*D13
 70
     1
 10
0.0
 20
0.0
 30
0.0
  3
*D13
  1

  0
LINE
  5
7393
330
7391
100
AcDbEntity
  8
0
  6
BYBLOCK
 62
     0
100
AcDbLine
 10
1058.31648416
 20
1100.583207279999
 30
0.0
 11
1162.987967172059
 21
1100.583207279999
 31
0.0
  0
LINE
  5
7394
330
7391
100
AcDbEntity
  8
0
  6
BYBLOCK
 62
     0
100
AcDbLine
 10
1120.14821573
 20
1040.583207279999
 30
0.0
 11
1162.987967172059
 21
1040.583207279999
 31
0.0
  0
LINE
  5
7395
330
7391
100
AcDbEntity
  8
0
  6
BYBLOCK
 62
     0
100
AcDbLine
 10
1157.987967172059
 20
1085.583207279999
 30
0.0
 11
1157.987967172059
 21
1055.583207279999
 31
0.0
  0
INSERT
  5
7396
330
7391
100
AcDbEntity
  8
0
  6
BYBLOCK
 62
     0
100
AcDbBlockReference
  2
ARROW
 10
1157.987967172059
 20
1100.583207279999
 30
0.0
 41
15.0
 42
15.0
 43
15.0
 50
90.0
  0
INSERT
  5
7397
330
7391
100
AcDbEntity
  8
0
  6
BYBLOCK
 62
     0
100
AcDbBlockReference
  2
ARROW
 10
1157.987967172059
 20
1040.583207279999
 30
0.0
 41
15.0
 42
15.0
 43
15.0
 50
270.0
  0
MTEXT
  5
7398
330
7391
100
AcDbEntity
  8
0
  6
BYBLOCK
 62
     0
100
AcDbMText
 10
1142.987967172059
 20
1071.956596163448
 30
0.0
 40
15.0
 41
0.0
 71
     5
 72
     1
  1
\A1;60
 11
0.0000000000000001
 21
1.0
 31
0.0
1001
ACAD
1000
MTEXTBEGIN
1070
    73
1070
     1
1070
    44
1040
1.0
1070
    74
1070
     0
1000
MTEXTEND
  0
POINT
  5
7399
330
7391
100
AcDbEntity
  8
DEFPOINTS
  6
BYBLOCK
 62
     0
100
AcDbPoint
 10
1053.31648416
 20
1100.583207279999
 30
0.0
  0
POINT
  5
739A
330
7391
100
AcDbEntity
  8
DEFPOINTS
  6
BYBLOCK
 62
     0
100
AcDbPoint
 10
1115.14821573
 20
1040.583207279999
 30
0.0
  0
POINT
  5
739B
330
7391
100
AcDbEntity
  8
DEFPOINTS
  6
BYBLOCK
 62
     0
100
AcDbPoint
 10
1157.987967172059
 20
1040.583207279999
 30
0.0
  0
ENDBLK
  5
739C
330
7391
100
AcDbEntity
  8
0
100
AcDbBlockEnd
  0
BLOCK
  5
7528
330
739E
100
AcDbEntity
  8
0
100
AcDbBlockBegin
  2
*D14
 70
     1
 10
0.0
 20
0.0
 30
0.0
  3
*D14
  1

  0
LINE
  5
7529
330
739E
100
AcDbEntity
  8
0
  6
BYBLOCK
 62
     0
100
AcDbLine
 10
988.2541575000001
 20
898.3924935710723
 30
0.0
 11
988.2541575000001
 21
828.8371008979421
 31
0.0
  0
LINE
  5
752A
330
739E
100
AcDbEntity
  8
0
  6
BYBLOCK
 62
     0
100
AcDbLine
 10
1115.14821573
 20
925.8924935710725
 30
0.0
 11
1115.14821573
 21
828.8371008979421
 31
0.0
  0
LINE
  5
752B
330
739E
100
AcDbEntity
  8
0
  6
BYBLOCK
 62
     0
100
AcDbLine
 10
1003.2541575
 20
833.837100897942
 30
0.0
 11
1100.14821573
 21
833.837100897942
 31
0.0
  0
INSERT
  5
752C
330
739E
100
AcDbEntity
  8
0
  6
BYBLOCK
 62
     0
100
AcDbBlockReference
  2
ARROW
 10
988.2541575000001
 20
833.837100897942
 30
0.0
 41
15.0
 42
15.0
 43
15.0
 50
180.0
  0
INSERT
  5
752D
330
739E
100
AcDbEntity
  8
0
  6
BYBLOCK
 62
     0
100
AcDbBlockReference
  2
ARROW
 10
1115.14821573
 20
833.837100897942
 30
0.0
 41
15.0
 42
15.0
 43
15.0
  0
MTEXT
  5
752E
330
739E
100
AcDbEntity
  8
0
  6
BYBLOCK
 62
     0
100
AcDbMText
 10
1053.077065996053
 20
848.837100897942
 30
0.0
 40
15.0
 41
0.0
 71
     5
 72
     1
  1
\A1;約2200
1001
ACAD
1000
MTEXTBEGIN
1070
    73
1070
     1
1070
    44
1040
1.0
1070
    74
1070
     0
1000
MTEXTEND
  0
POINT
  5
752F
330
739E
100
AcDbEntity
  8
DEFPOINTS
  6
BYBLOCK
 62
     0
100
AcDbPoint
 10
988.2541575000001
 20
903.3924935710722
 30
0.0
  0
POINT
  5
7530
330
739E
100
AcDbEntity
  8
DEFPOINTS
  6
BYBLOCK
 62
     0
100
AcDbPoint
 10
1115.14821573
 20
930.8924935710724
 30
0.0
  0
POINT
  5
7531
330
739E
100
AcDbEntity
  8
DEFPOINTS
  6
BYBLOCK
 62
     0
100
AcDbPoint
 10
1115.14821573
 20
833.837100897942
 30
0.0
  0
ENDBLK
  5
7532
330
739E
100
AcDbEntity
  8
0
100
AcDbBlockEnd
  0
BLOCK
  5
750E
330
7442
100
AcDbEntity
  8
0
100
AcDbBlockBegin
  2
S3
 70
     0
 10
0.0
 20
0.0
 30
0.0
  3
S3
  1

  0
LINE
  5
7443
330
7442
100
AcDbEntity
  8
WAKU
100
AcDbLine
 10
3.0
 20
269.0
 30
0.0
 11
384.0
 21
269.0
 31
0.0
  0
LINE
  5
7444
330
7442
100
AcDbEntity
  8
WAKU
100
AcDbLine
 10
384.0
 20
6.0
 30
0.0
 11
3.0
 21
6.0
 31
0.0
  0
LINE
  5
7445
330
7442
100
AcDbEntity
  8
WAKU
100
AcDbLine
 10
3.0
 20
6.0
 30
0.0
 11
3.0
 21
269.0
 31
0.0
  0
TEXT
  5
7446
330
7442
100
AcDbEntity
  8
TEXT
100
AcDbText
 10
72.09999999999999
 20
7.5
 30
0.0
 40
3.0
  1
 年 月 日
  7
K
 72
     4
 11
80.5
 21
9.0
 31
0.0
100
AcDbText
  0
LINE
  5
7447
330
7442
100
AcDbEntity
  8
SUNPOU
100
AcDbLine
 10
106.0
 20
12.0
 30
0.0
 11
13.0
 21
12.0
 31
0.0
  0
LINE
  5
7448
330
7442
100
AcDbEntity
  8
SUNPOU
100
AcDbLine
 10
13.0
 20
18.0
 30
0.0
 11
106.0
 21
18.0
 31
0.0
  0
LINE
  5
7449
330
7442
100
AcDbEntity
  8
SUNPOU
100
AcDbLine
 10
106.0
 20
24.0
 30
0.0
 11
13.0
 21
24.0
 31
0.0
  0
LINE
  5
744A
330
7442
100
AcDbEntity
  8
SUNPOU
100
AcDbLine
 10
13.0
 20
12.0
 30
0.0
 11
106.0
 21
12.0
 31
0.0
  0
LINE
  5
744B
330
7442
100
AcDbEntity
  8
SUNPOU
100
AcDbLine
 10
106.0
 20
18.0
 30
0.0
 11
13.0
 21
18.0
 31
0.0
  0
LINE
  5
744C
330
7442
100
AcDbEntity
  8
SUNPOU
100
AcDbLine
 10
13.0
 20
24.0
 30
0.0
 11
106.0
 21
24.0
 31
0.0
  0
LINE
  5
744D
330
7442
100
AcDbEntity
  8
SUNPOU
100
AcDbLine
 10
106.0
 20
30.0
 30
0.0
 11
3.0
 21
30.0
 31
0.0
  0
TEXT
  5
744E
330
7442
100
AcDbEntity
  8
TEXT
100
AcDbText
 10
4.299999999999999
 20
7.5
 30
0.0
 40
3.0
  1
記号
  7
K
 72
     4
 11
7.5
 21
9.0
 31
0.0
100
AcDbText
  0
LINE
  5
744F
330
7442
100
AcDbEntity
  8
SUNPOU
100
AcDbLine
 10
13.0
 20
6.0
 30
0.0
 11
13.0
 21
30.0
 31
0.0
  0
LINE
  5
7450
330
7442
100
AcDbEntity
  8
SUNPOU
100
AcDbLine
 10
12.0
 20
30.0
 30
0.0
 11
12.0
 21
6.0
 31
0.0
  0
LINE
  5
7451
330
7442
100
AcDbEntity
  8
SUNPOU
100
AcDbLine
 10
12.0
 20
6.0
 30
0.0
 11
12.0
 21
30.0
 31
0.0
  0
LINE
  5
7452
330
7442
100
AcDbEntity
  8
SUNPOU
100
AcDbLine
 10
13.0
 20
30.0
 30
0.0
 11
13.0
 21
6.0
 31
0.0
  0
LINE
  5
7453
330
7442
100
AcDbEntity
  8
SUNPOU
100
AcDbLine
 10
7.5
 20
24.0
 30
0.0
 11
3.0
 21
18.0
 31
0.0
  0
LINE
  5
7454
330
7442
100
AcDbEntity
  8
SUNPOU
100
AcDbLine
 10
7.5
 20
24.0
 30
0.0
 11
12.0
 21
18.0
 31
0.0
  0
LINE
  5
7455
330
7442
100
AcDbEntity
  8
SUNPOU
100
AcDbLine
 10
7.5
 20
18.0
 30
0.0
 11
3.0
 21
12.0
 31
0.0
  0
LINE
  5
7456
330
7442
100
AcDbEntity
  8
SUNPOU
100
AcDbLine
 10
3.0
 20
18.0
 30
0.0
 11
12.0
 21
18.0
 31
0.0
  0
LINE
  5
7457
330
7442
100
AcDbEntity
  8
SUNPOU
100
AcDbLine
 10
12.0
 20
12.0
 30
0.0
 11
3.0
 21
12.0
 31
0.0
  0
LINE
  5
7458
330
7442
100
AcDbEntity
  8
SUNPOU
100
AcDbLine
 10
12.0
 20
12.0
 30
0.0
 11
3.0
 21
12.0
 31
0.0
  0
LINE
  5
7459
330
7442
100
AcDbEntity
  8
SUNPOU
100
AcDbLine
 10
12.0
 20
18.0
 30
0.0
 11
3.0
 21
18.0
 31
0.0
  0
LINE
  5
745A
330
7442
100
AcDbEntity
  8
SUNPOU
100
AcDbLine
 10
7.5
 20
18.0
 30
0.0
 11
12.0
 21
12.0
 31
0.0
  0
LINE
  5
745B
330
7442
100
AcDbEntity
  8
SUNPOU
100
AcDbLine
 10
7.5
 20
30.0
 30
0.0
 11
3.0
 21
24.0
 31
0.0
  0
LINE
  5
745C
330
7442
100
AcDbEntity
  8
SUNPOU
100
AcDbLine
 10
12.0
 20
24.0
 30
0.0
 11
3.0
 21
24.0
 31
0.0
  0
LINE
  5
745D
330
7442
100
AcDbEntity
  8
SUNPOU
100
AcDbLine
 10
12.0
 20
24.0
 30
0.0
 11
3.0
 21
24.0
 31
0.0
  0
LINE
  5
745E
330
7442
100
AcDbEntity
  8
SUNPOU
100
AcDbLine
 10
12.0
 20
24.0
 30
0.0
 11
7.5
 21
30.0
 31
0.0
  0
TEXT
  5
745F
330
7442
100
AcDbEntity
  8
TEXT
100
AcDbText
 10
56.2
 20
7.5
 30
0.0
 40
3.0
  1
設変番号
  7
K
 72
     4
 11
63.0
 21
9.0
 31
0.0
100
AcDbText
  0
TEXT
  5
7460
330
7442
100
AcDbEntity
  8
TEXT
100
AcDbText
 10
20.9
 20
7.5
 30
0.0
 40
3.0
  1
変更内容・理由
  7
K
 72
     4
 11
33.0
 21
9.0
 31
0.0
100
AcDbText
  0
LINE
  5
7461
330
7442
100
AcDbEntity
  8
SUNPOU
100
AcDbLine
 10
73.0
 20
6.0
 30
0.0
 11
73.0
 21
30.0
 31
0.0
  0
LINE
  5
7462
330
7442
100
AcDbEntity
  8
SUNPOU
100
AcDbLine
 10
53.0
 20
30.0
 30
0.0
 11
53.0
 21
6.0
 31
0.0
  0
LINE
  5
7463
330
7442
100
AcDbEntity
  8
WAKU
100
AcDbLine
 10
3.0
 20
139.0
 30
0.0
 11
0.0
 21
139.0
 31
0.0
  0
TEXT
  5
7464
330
7442
100
AcDbEntity
  8
TEXT
100
AcDbText
 10
98.40000000000001
 20
7.5
 30
0.0
 40
3.0
  1
検図
  7
K
 72
     4
 11
101.5
 21
9.0
 31
0.0
100
AcDbText
  0
TEXT
  5
7465
330
7442
100
AcDbEntity
  8
TEXT
100
AcDbText
 10
89.36428571428571
 20
7.5
 30
0.0
 40
3.0
  1
担当
  7
K
 72
     4
 11
92.5
 21
9.0
 31
0.0
100
AcDbText
  0
LINE
  5
7466
330
7442
100
AcDbEntity
  8
SUNPOU
100
AcDbLine
 10
106.0
 20
30.0
 30
0.0
 11
106.0
 21
6.0
 31
0.0
  0
LINE
  5
7467
330
7442
100
AcDbEntity
  8
SUNPOU
100
AcDbLine
 10
97.0
 20
6.0
 30
0.0
 11
97.0
 21
30.0
 31
0.0
  0
LINE
  5
7468
330
7442
100
AcDbEntity
  8
SUNPOU
100
AcDbLine
 10
88.0
 20
30.0
 30
0.0
 11
88.0
 21
6.0
 31
0.0
  0
LINE
  5
7469
330
7442
100
AcDbEntity
  8
WAKU
100
AcDbLine
 10
63.0
 20
279.0
 30
0.0
 11
3.0
 21
279.0
 31
0.0
  0
LINE
  5
746A
330
7442
100
AcDbEntity
  8
WAKU
100
AcDbLine
 10
3.0
 20
269.0
 30
0.0
 11
3.0
 21
279.0
 31
0.0
  0
LINE
  5
746B
330
7442
100
AcDbEntity
  8
SUNPOU
100
AcDbLine
 10
51.0
 20
269.0
 30
0.0
 11
51.0
 21
279.0
 31
0.0
  0
TEXT
  5
746C
330
7442
100
AcDbEntity
  8
TEXT
100
AcDbText
 10
60.1842957707867
 20
275.4965050308843
 30
0.0
 40
3.0
  1
図番
 50
180.0
  7
K
 72
     4
 11
56.88429577078671
 21
273.9965050308843
 31
0.0
100
AcDbText
  0
LINE
  5
746D
330
7442
100
AcDbEntity
  8
WAKU
100
AcDbLine
 10
63.0
 20
279.0
 30
0.0
 11
63.0
 21
269.0
 31
0.0
  0
LINE
  5
746E
330
7442
100
AcDbEntity
  8
WAKU
100
AcDbLine
 10
384.0
 20
269.0
 30
0.0
 11
384.0
 21
6.0
 31
0.0
  0
TEXT
  5
746F
330
7442
100
AcDbEntity
  8
TEXT
100
AcDbText
 10
385.1333333333333
 20
144.6013421640234
 30
0.0
 40
4.0
  1
本
  7
K
 72
     1
 11
387.0
 21
146.6013421640234
 31
0.0
100
AcDbText
 73
     2
  0
TEXT
  5
7470
330
7442
100
AcDbEntity
  8
TEXT
100
AcDbText
 10
329.1072754745071
 20
34.0
 30
0.0
 40
3.0
  1
三 角 法
  7
K
100
AcDbText
  0
LINE
  5
7471
330
7442
100
AcDbEntity
  8
WAKU
100
AcDbLine
 10
324.0
 20
19.0
 30
0.0
 11
384.0
 21
19.0
 31
0.0
  0
LINE
  5
7472
330
7442
100
AcDbEntity
  8
WAKU
100
AcDbLine
 10
384.0
 20
32.0
 30
0.0
 11
324.0
 21
32.0
 31
0.0
  0
LINE
  5
7473
330
7442
100
AcDbEntity
  8
WAKU
100
AcDbLine
 10
324.0
 20
39.0
 30
0.0
 11
384.0
 21
39.0
 31
0.0
  0
TEXT
  5
7474
330
7442
100
AcDbEntity
  8
TEXT
100
AcDbText
 10
338.4611183004224
 20
10.0
 30
0.0
 40
3.5
  1
中部コーポレーション
  7
K
100
AcDbText
  0
TEXT
  5
7475
330
7442
100
AcDbEntity
  8
TEXT
100
AcDbText
 10
326.5466508537902
 20
57.23202258979018
 30
0.0
 40
3.0
  1
備                    考
  7
K
 72
     1
 11
347.7466508537902
 21
58.73202258979017
 31
0.0
100
AcDbText
 73
     2
  0
LINE
  5
7476
330
7442
100
AcDbEntity
  8
WAKU
100
AcDbLine
 10
287.0
 20
55.0
 30
0.0
 11
349.0
 21
55.0
 31
0.0
  0
LINE
  5
7477
330
7442
100
AcDbEntity
  8
TEXT
100
AcDbLine
 10
211.0
 20
83.0
 30
0.0
 11
384.0
 21
83.0
 31
0.0
  0
LINE
  5
7478
330
7442
100
AcDbEntity
  8
SUNPOU
100
AcDbLine
 10
384.0
 20
69.0
 30
0.0
 11
211.0
 21
69.0
 31
0.0
  0
LINE
  5
7479
330
7442
100
AcDbEntity
  8
SUNPOU
100
AcDbLine
 10
211.0
 20
62.0
 30
0.0
 11
384.0
 21
62.0
 31
0.0
  0
LINE
  5
747A
330
7442
100
AcDbEntity
  8
TEXT
100
AcDbLine
 10
211.0
 20
76.00315013427092
 30
0.0
 11
384.0
 21
76.00315013427092
 31
0.0
  0
LINE
  5
747B
330
7442
100
AcDbEntity
  8
SUNPOU
100
AcDbLine
 10
308.0
 20
83.0
 30
0.0
 11
308.0
 21
55.0
 31
0.0
  0
LINE
  5
747C
330
7442
100
AcDbEntity
  8
SUNPOU
100
AcDbLine
 10
263.0
 20
83.0
 30
0.0
 11
263.0
 21
55.0
 31
0.0
  0
LINE
  5
747D
330
7442
100
AcDbEntity
  8
SUNPOU
100
AcDbLine
 10
218.0
 20
83.0
 30
0.0
 11
218.0
 21
55.0
 31
0.0
  0
LINE
  5
747E
330
7442
100
AcDbEntity
  8
SUNPOU
100
AcDbLine
 10
211.0
 20
83.0
 30
0.0
 11
211.0
 21
55.0
 31
0.0
  0
LINE
  5
747F
330
7442
100
AcDbEntity
  8
WAKU
100
AcDbLine
 10
287.0
 20
55.0
 30
0.0
 11
211.0
 21
55.0
 31
0.0
  0
TEXT
  5
7480
330
7442
100
AcDbEntity
  8
TEXT
100
AcDbText
 10
220.8767108238105
 20
3.0
 30
0.0
 40
2.6
  1
複写図面配布先： 購買  →発注先 フード生産技術 フード品質保証 開発部
  7
K
100
AcDbText
  0
TEXT
  5
7481
330
7442
100
AcDbEntity
  8
TEXT
100
AcDbText
 10
274.5
 20
30.16944230720361
 30
0.0
 40
2.0
  1
0.1
 41
0.8
  7
K
 11
274.5
 21
31.16944230720361
 31
0.0
100
AcDbText
 73
     2
  0
TEXT
  5
7482
330
7442
100
AcDbEntity
  8
TEXT
100
AcDbText
 10
274.5
 20
26.29722041378767
 30
0.0
 40
2.0
  1
0.1
 41
0.8
  7
K
 11
274.5
 21
27.29722041378767
 31
0.0
100
AcDbText
 73
     2
  0
TEXT
  5
7483
330
7442
100
AcDbEntity
  8
TEXT
100
AcDbText
 10
274.5
 20
22.42499852037173
 30
0.0
 40
2.0
  1
0.2
 41
0.8
  7
K
 11
274.5
 21
23.42499852037172
 31
0.0
100
AcDbText
 73
     2
  0
TEXT
  5
7484
330
7442
100
AcDbEntity
  8
TEXT
100
AcDbText
 10
274.5
 20
18.55277662695579
 30
0.0
 40
2.0
  1
0.3
 41
0.8
  7
K
 11
274.5
 21
19.55277662695579
 31
0.0
100
AcDbText
 73
     2
  0
TEXT
  5
7485
330
7442
100
AcDbEntity
  8
TEXT
100
AcDbText
 10
274.5
 20
14.68055473353985
 30
0.0
 40
2.0
  1
0.5
 41
0.8
  7
K
 11
274.5
 21
15.68055473353985
 31
0.0
100
AcDbText
 73
     2
  0
TEXT
  5
7486
330
7442
100
AcDbEntity
  8
TEXT
100
AcDbText
 10
274.5
 20
10.80833284012391
 30
0.0
 40
2.0
  1
0.8
 41
0.8
  7
K
 11
274.5
 21
11.8083328401239
 31
0.0
100
AcDbText
 73
     2
  0
TEXT
  5
7487
330
7442
100
AcDbEntity
  8
TEXT
100
AcDbText
 10
275.0857142857142
 20
33.50555325391157
 30
0.0
 40
2.7
  1
K
  7
K
 72
     1
 11
276.5
 21
34.85555325391158
 31
0.0
100
AcDbText
 73
     2
  0
TEXT
  5
7488
330
7442
100
AcDbEntity
  8
TEXT
100
AcDbText
 10
274.5
 20
6.93611094670797
 30
0.0
 40
2.0
  1
1.2
 41
0.8
  7
K
 11
274.5
 21
7.93611094670797
 31
0.0
100
AcDbText
 73
     2
  0
LINE
  5
7489
330
7442
100
AcDbEntity
  8
TEXT
100
AcDbLine
 10
245.0
 20
33.10555325391158
 30
0.0
 11
287.0
 21
33.10555325391158
 31
0.0
  0
LINE
  5
748A
330
7442
100
AcDbEntity
  8
TEXT
100
AcDbLine
 10
245.0
 20
29.23333136049564
 30
0.0
 11
287.0
 21
29.23333136049564
 31
0.0
  0
LINE
  5
748B
330
7442
100
AcDbEntity
  8
TEXT
100
AcDbLine
 10
287.0
 20
25.3611094670797
 30
0.0
 11
245.0
 21
25.3611094670797
 31
0.0
  0
LINE
  5
748C
330
7442
100
AcDbEntity
  8
TEXT
100
AcDbLine
 10
245.0
 20
21.48888757366376
 30
0.0
 11
287.0
 21
21.48888757366376
 31
0.0
  0
LINE
  5
748D
330
7442
100
AcDbEntity
  8
TEXT
100
AcDbLine
 10
287.0
 20
17.61666568024782
 30
0.0
 11
245.0
 21
17.61666568024782
 31
0.0
  0
LINE
  5
748E
330
7442
100
AcDbEntity
  8
TEXT
100
AcDbLine
 10
245.0
 20
13.74444378683188
 30
0.0
 11
287.0
 21
13.74444378683188
 31
0.0
  0
LINE
  5
748F
330
7442
100
AcDbEntity
  8
TEXT
100
AcDbLine
 10
287.0
 20
9.87222189341594
 30
0.0
 11
245.0
 21
9.87222189341594
 31
0.0
  0
LINE
  5
7490
330
7442
100
AcDbEntity
  8
WAKU
100
AcDbLine
 10
287.0
 20
36.60555325391158
 30
0.0
 11
211.0
 21
36.60555325391158
 31
0.0
  0
LINE
  5
7491
330
7442
100
AcDbEntity
  8
TEXT
100
AcDbLine
 10
211.0
 20
48.8685177513039
 30
0.0
 11
287.0
 21
48.8685177513039
 31
0.0
  0
LINE
  5
7492
330
7442
100
AcDbEntity
  8
TEXT
100
AcDbLine
 10
287.0
 20
42.73703550260768
 30
0.0
 11
211.0
 21
42.73703550260768
 31
0.0
  0
LINE
  5
7493
330
7442
100
AcDbEntity
  8
TEXT
100
AcDbLine
 10
273.0
 20
6.0
 30
0.0
 11
273.0
 21
36.60555325391158
 31
0.0
  0
LINE
  5
7494
330
7442
100
AcDbEntity
  8
SUNPOU
100
AcDbLine
 10
238.0
 20
30.75
 30
0.0
 11
238.0
 21
6.0
 31
0.0
  0
LINE
  5
7495
330
7442
100
AcDbEntity
  8
TEXT
100
AcDbLine
 10
245.0
 20
36.60555325391158
 30
0.0
 11
245.0
 21
6.0
 31
0.0
  0
LINE
  5
7496
330
7442
100
AcDbEntity
  8
TEXT
100
AcDbLine
 10
266.0
 20
36.60555325391158
 30
0.0
 11
266.0
 21
6.0
 31
0.0
  0
TEXT
  5
7497
330
7442
100
AcDbEntity
  8
TEXT
100
AcDbText
 10
220.8767108238105
 20
0.1999999999999886
 30
0.0
 40
2.399999999999999
  1
（必要に応じて追加・抹消）
  7
K
100
AcDbText
  0
TEXT
  5
7498
330
7442
100
AcDbEntity
  8
TEXT
100
AcDbText
 10
212.5
 20
6.887403254739353
 30
0.0
 40
2.0
  1
～
  7
K
 11
212.5
 21
7.887403254739353
 31
0.0
100
AcDbText
 73
     2
  0
TEXT
  5
7499
330
7442
100
AcDbEntity
  8
TEXT
100
AcDbText
 10
255.5587236705651
 20
6.93611094670797
 30
0.0
 40
2.0
  1
2000以下
 41
0.8
  7
K
 72
     2
 11
265.0672950991365
 21
7.93611094670797
 31
0.0
100
AcDbText
 73
     2
  0
TEXT
  5
749A
330
7442
100
AcDbEntity
  8
TEXT
100
AcDbText
 10
245.7760645443253
 20
6.93611094670797
 30
0.0
 40
2.0
  1
1000ｦｺｴ
 41
0.8
  7
K
 72
     2
 11
254.4313026395634
 21
7.93611094670797
 31
0.0
100
AcDbText
 73
     2
  0
TEXT
  5
749B
330
7442
100
AcDbEntity
  8
TEXT
100
AcDbText
 10
267.5
 20
6.93611094670797
 30
0.0
 40
2.0
  1
0.5
 41
0.8
  7
K
 11
267.5
 21
7.93611094670797
 31
0.0
100
AcDbText
 73
     2
  0
TEXT
  5
749C
330
7442
100
AcDbEntity
  8
TEXT
100
AcDbText
 10
239.3571428571428
 20
10.24345914221055
 30
0.0
 40
1.5
  1
mm
  7
K
 72
     1
 11
241.5
 21
10.24345914221055
 31
0.0
100
AcDbText
  0
TEXT
  5
749D
330
7442
100
AcDbEntity
  8
TEXT
100
AcDbText
 10
212.5
 20
32.14425883203125
 30
0.0
 40
3.0
  1
標準加工アラサ
  7
K
 72
     4
 11
224.5
 21
33.64425883203125
 31
0.0
100
AcDbText
  0
LINE
  5
749E
330
7442
100
AcDbEntity
  8
SUNPOU
100
AcDbLine
 10
238.0
 20
55.0
 30
0.0
 11
238.0
 21
30.75
 31
0.0
  0
LINE
  5
749F
330
7442
100
AcDbEntity
  8
TEXT
100
AcDbLine
 10
211.0
 20
30.68296441015093
 30
0.0
 11
238.0
 21
30.68296441015093
 31
0.0
  0
LINE
  5
74A0
330
7442
100
AcDbEntity
  8
TEXT
100
AcDbLine
 10
211.0
 20
24.87403254739342
 30
0.0
 11
238.0
 21
24.87403254739342
 31
0.0
  0
TEXT
  5
74A1
330
7442
100
AcDbEntity
  8
TEXT
100
AcDbText
 10
212.82
 20
26.52630198798243
 30
0.0
 40
3.0
  1
(標準外ﾊ指定ﾉｺﾄ)
 41
0.8
  7
K
 72
     4
 11
224.5
 21
27.81201627369671
 31
0.0
100
AcDbText
  0
TEXT
  5
74A2
330
7442
100
AcDbEntity
  8
TEXT
100
AcDbText
 10
212.5
 20
18.21182278317542
 30
0.0
 40
2.0
  1
▽▽▽
  7
K
 11
212.5
 21
19.21182278317542
 31
0.0
100
AcDbText
 73
     2
  0
TEXT
  5
74A3
330
7442
100
AcDbEntity
  8
TEXT
100
AcDbText
 10
212.5
 20
14.43701627369671
 30
0.0
 40
2.0
  1
▽▽
  7
K
 11
212.5
 21
15.43701627369671
 31
0.0
100
AcDbText
 73
     2
  0
TEXT
  5
74A4
330
7442
100
AcDbEntity
  8
TEXT
100
AcDbText
 10
212.5
 20
10.662209764218
 30
0.0
 40
2.0
  1
▽
  7
K
 11
212.5
 21
11.662209764218
 31
0.0
100
AcDbText
 73
     2
  0
TEXT
  5
74A5
330
7442
100
AcDbEntity
  8
TEXT
100
AcDbText
 10
212.5
 20
21.98662929265407
 30
0.0
 40
2.0
  1
▽▽▽▽
  7
K
 11
212.5
 21
22.98662929265407
 31
0.0
100
AcDbText
 73
     2
  0
TEXT
  5
74A6
330
7442
100
AcDbEntity
  8
TEXT
100
AcDbText
 10
240.24
 20
18.90873700804877
 30
0.0
 40
2.7
  1
法
  7
K
 72
     1
 11
241.5
 21
18.90873700804877
 31
0.0
100
AcDbText
  0
TEXT
  5
74A7
330
7442
100
AcDbEntity
  8
TEXT
100
AcDbText
 10
229.1666666666666
 20
10.662209764218
 30
0.0
 40
2.0
  1
100Z
  7
K
 72
     2
 11
236.5
 21
11.662209764218
 31
0.0
100
AcDbText
 73
     2
  0
TEXT
  5
74A8
330
7442
100
AcDbEntity
  8
TEXT
100
AcDbText
 10
231.0714285714285
 20
14.43701627369671
 30
0.0
 40
2.0
  1
25Z
  7
K
 72
     2
 11
236.5
 21
15.43701627369671
 31
0.0
100
AcDbText
 73
     2
  0
TEXT
  5
74A9
330
7442
100
AcDbEntity
  8
TEXT
100
AcDbText
 10
230.1190476190476
 20
18.21182278317542
 30
0.0
 40
2.0
  1
6.3Z
  7
K
 72
     2
 11
236.5
 21
19.21182278317542
 31
0.0
100
AcDbText
 73
     2
  0
TEXT
  5
74AA
330
7442
100
AcDbEntity
  8
TEXT
100
AcDbText
 10
237.9523809523809
 20
11.16190406596939
 30
0.0
 40
2.0
  1
(
  7
K
 72
     2
 11
239.0
 21
12.16190406596939
 31
0.0
100
AcDbText
 73
     2
  0
TEXT
  5
74AB
330
7442
100
AcDbEntity
  8
TEXT
100
AcDbText
 10
240.5666666666666
 20
12.16190406596939
 30
0.0
 40
2.0
  1
±
  7
K
 72
     1
 11
241.5
 21
12.16190406596939
 31
0.0
100
AcDbText
  0
TEXT
  5
74AC
330
7442
100
AcDbEntity
  8
TEXT
100
AcDbText
 10
240.24
 20
15.80873700804875
 30
0.0
 40
2.7
  1
差
  7
K
 72
     1
 11
241.5
 21
15.80873700804875
 31
0.0
100
AcDbText
  0
TEXT
  5
74AD
330
7442
100
AcDbEntity
  8
TEXT
100
AcDbText
 10
230.1190476190476
 20
21.98662929265407
 30
0.0
 40
2.0
  1
0.8Z
  7
K
 72
     2
 11
236.5
 21
22.98662929265407
 31
0.0
100
AcDbText
 73
     2
  0
TEXT
  5
74AE
330
7442
100
AcDbEntity
  8
TEXT
100
AcDbText
 10
240.24
 20
25.10873700804876
 30
0.0
 40
2.7
  1
通
  7
K
 72
     1
 11
241.5
 21
25.10873700804876
 31
0.0
100
AcDbText
  0
TEXT
  5
74AF
330
7442
100
AcDbEntity
  8
TEXT
100
AcDbText
 10
240.24
 20
22.00873700804874
 30
0.0
 40
2.7
  1
寸
  7
K
 72
     1
 11
241.5
 21
22.00873700804874
 31
0.0
100
AcDbText
  0
TEXT
  5
74B0
330
7442
100
AcDbEntity
  8
TEXT
100
AcDbText
 10
240.24
 20
28.20873700804872
 30
0.0
 40
2.7
  1
普
  7
K
 72
     1
 11
241.5
 21
28.20873700804872
 31
0.0
100
AcDbText
  0
TEXT
  5
74B1
330
7442
100
AcDbEntity
  8
TEXT
100
AcDbText
 10
214.0657864606291
 20
50.43425887565195
 30
0.0
 40
3.0
  1
表面処理
  7
K
 11
214.0657864606291
 21
51.93425887565195
 31
0.0
100
AcDbText
 73
     2
  0
TEXT
  5
74B2
330
7442
100
AcDbEntity
  8
TEXT
100
AcDbText
 10
214.0657864606291
 20
38.17129437825963
 30
0.0
 40
3.0
  1
適用規格など
  7
K
 11
214.0657864606291
 21
39.67129437825963
 31
0.0
100
AcDbText
 73
     2
  0
TEXT
  5
74B3
330
7442
100
AcDbEntity
  8
TEXT
100
AcDbText
 10
214.0657864606291
 20
44.30277662695579
 30
0.0
 40
3.0
  1
色調
  7
K
 11
214.0657864606291
 21
45.80277662695579
 31
0.0
100
AcDbText
 73
     2
  0
TEXT
  5
74B4
330
7442
100
AcDbEntity
  8
TEXT
100
AcDbText
 10
258.6063427181841
 20
22.42499852037173
 30
0.0
 40
2.0
  1
30以下
 41
0.8
  7
K
 72
     2
 11
265.0672950991365
 21
23.42499852037172
 31
0.0
100
AcDbText
 73
     2
  0
TEXT
  5
74B5
330
7442
100
AcDbEntity
  8
TEXT
100
AcDbText
 10
257.0825331943746
 20
18.55277662695579
 30
0.0
 40
2.0
  1
120以下
 41
0.8
  7
K
 72
     2
 11
265.0672950991365
 21
19.55277662695579
 31
0.0
100
AcDbText
 73
     2
  0
TEXT
  5
74B6
330
7442
100
AcDbEntity
  8
TEXT
100
AcDbText
 10
255.5587236705651
 20
10.80833284012391
 30
0.0
 40
2.0
  1
1000以下
 41
0.8
  7
K
 72
     2
 11
265.0672950991365
 21
11.8083328401239
 31
0.0
100
AcDbText
 73
     2
  0
TEXT
  5
74B7
330
7442
100
AcDbEntity
  8
TEXT
100
AcDbText
 10
257.0825331943746
 20
14.68055473353985
 30
0.0
 40
2.0
  1
315以下
 41
0.8
  7
K
 72
     2
 11
265.0672950991365
 21
15.68055473353985
 31
0.0
100
AcDbText
 73
     2
  0
TEXT
  5
74B8
330
7442
100
AcDbEntity
  8
TEXT
100
AcDbText
 10
247.2998740681349
 20
10.80833284012391
 30
0.0
 40
2.0
  1
315ｦｺｴ
 41
0.8
  7
K
 72
     2
 11
254.4313026395634
 21
11.8083328401239
 31
0.0
100
AcDbText
 73
     2
  0
TEXT
  5
74B9
330
7442
100
AcDbEntity
  8
TEXT
100
AcDbText
 10
247.2998740681349
 20
14.68055473353985
 30
0.0
 40
2.0
  1
120ｦｺｴ
 41
0.8
  7
K
 72
     2
 11
254.4313026395634
 21
15.68055473353985
 31
0.0
100
AcDbText
 73
     2
  0
TEXT
  5
74BA
330
7442
100
AcDbEntity
  8
TEXT
100
AcDbText
 10
248.8236835919444
 20
18.55277662695579
 30
0.0
 40
2.0
  1
30ｦｺｴ
 41
0.8
  7
K
 72
     2
 11
254.4313026395634
 21
19.55277662695579
 31
0.0
100
AcDbText
 73
     2
  0
TEXT
  5
74BB
330
7442
100
AcDbEntity
  8
TEXT
100
AcDbText
 10
243.6235286514975
 20
11.16190406596939
 30
0.0
 40
2.0
  1
)
  7
K
 11
243.6235286514975
 21
12.16190406596939
 31
0.0
100
AcDbText
 73
     2
  0
TEXT
  5
74BC
330
7442
100
AcDbEntity
  8
TEXT
100
AcDbText
 10
250.3474931157539
 20
22.42499852037173
 30
0.0
 40
2.0
  1
6ｦｺｴ
 41
0.8
  7
K
 72
     2
 11
254.4313026395634
 21
23.42499852037172
 31
0.0
100
AcDbText
 73
     2
  0
TEXT
  5
74BD
330
7442
100
AcDbEntity
  8
TEXT
100
AcDbText
 10
250.3474931157539
 20
26.29722041378767
 30
0.0
 40
2.0
  1
3ｦｺｴ
 41
0.8
  7
K
 72
     2
 11
254.4313026395634
 21
27.29722041378767
 31
0.0
100
AcDbText
 73
     2
  0
TEXT
  5
74BE
330
7442
100
AcDbEntity
  8
TEXT
100
AcDbText
 10
247.2084454967063
 20
30.16944230720361
 30
0.0
 40
2.0
  1
0.5以上
 41
0.8
  7
K
 72
     2
 11
254.4313026395634
 21
31.16944230720361
 31
0.0
100
AcDbText
 73
     2
  0
TEXT
  5
74BF
330
7442
100
AcDbEntity
  8
TEXT
100
AcDbText
 10
267.5
 20
14.68055473353985
 30
0.0
 40
2.0
  1
0.2
 41
0.8
  7
K
 11
267.5
 21
15.68055473353985
 31
0.0
100
AcDbText
 73
     2
  0
TEXT
  5
74C0
330
7442
100
AcDbEntity
  8
TEXT
100
AcDbText
 10
267.5
 20
10.80833284012391
 30
0.0
 40
2.0
  1
0.3
 41
0.8
  7
K
 11
267.5
 21
11.8083328401239
 31
0.0
100
AcDbText
 73
     2
  0
TEXT
  5
74C1
330
7442
100
AcDbEntity
  8
TEXT
100
AcDbText
 10
267.5
 20
18.55277662695579
 30
0.0
 40
2.0
  1
0.15
 41
0.8
  7
K
 11
267.5
 21
19.55277662695579
 31
0.0
100
AcDbText
 73
     2
  0
TEXT
  5
74C2
330
7442
100
AcDbEntity
  8
TEXT
100
AcDbText
 10
260.1301522419936
 20
26.29722041378767
 30
0.0
 40
2.0
  1
6以下
 41
0.8
  7
K
 72
     2
 11
265.0672950991365
 21
27.29722041378767
 31
0.0
100
AcDbText
 73
     2
  0
TEXT
  5
74C3
330
7442
100
AcDbEntity
  8
TEXT
100
AcDbText
 10
260.1301522419936
 20
30.16944230720361
 30
0.0
 40
2.0
  1
3以下
 41
0.8
  7
K
 72
     2
 11
265.0672950991365
 21
31.16944230720361
 31
0.0
100
AcDbText
 73
     2
  0
TEXT
  5
74C4
330
7442
100
AcDbEntity
  8
TEXT
100
AcDbText
 10
267.5
 20
26.29722041378767
 30
0.0
 40
2.0
  1
0.05
 41
0.8
  7
K
 11
267.5
 21
27.29722041378767
 31
0.0
100
AcDbText
 73
     2
  0
TEXT
  5
74C5
330
7442
100
AcDbEntity
  8
TEXT
100
AcDbText
 10
267.5
 20
22.42499852037173
 30
0.0
 40
2.0
  1
0.1
 41
0.8
  7
K
 11
267.5
 21
23.42499852037172
 31
0.0
100
AcDbText
 73
     2
  0
TEXT
  5
74C6
330
7442
100
AcDbEntity
  8
TEXT
100
AcDbText
 10
267.5
 20
30.16944230720361
 30
0.0
 40
2.0
  1
0.05
 41
0.8
  7
K
 11
267.5
 21
31.16944230720361
 31
0.0
100
AcDbText
 73
     2
  0
TEXT
  5
74C7
330
7442
100
AcDbEntity
  8
TEXT
100
AcDbText
 10
246.95
 20
33.50555325391157
 30
0.0
 40
2.7
  1
呼 ビ 寸 法
  7
K
 72
     1
 11
255.5
 21
34.85555325391158
 31
0.0
100
AcDbText
 73
     2
  0
TEXT
  5
74C8
330
7442
100
AcDbEntity
  8
TEXT
100
AcDbText
 10
268.6
 20
33.50555325391157
 30
0.0
 40
2.7
  1
J
  7
K
 72
     1
 11
269.4999999999999
 21
34.85555325391158
 31
0.0
100
AcDbText
 73
     2
  0
TEXT
  5
74C9
330
7442
100
AcDbEntity
  8
TEXT
100
AcDbText
 10
288.0
 20
8.0
 30
0.0
 40
3.0
  1
承認
  7
K
100
AcDbText
  0
LINE
  5
74CA
330
7442
100
AcDbEntity
  8
WAKU
100
AcDbLine
 10
324.0
 20
6.0
 30
0.0
 11
324.0
 21
19.0
 31
0.0
  0
LINE
  5
74CB
330
7442
100
AcDbEntity
  8
SUNPOU
100
AcDbLine
 10
308.0
 20
39.0
 30
0.0
 11
308.0
 21
6.0
 31
0.0
  0
LINE
  5
74CC
330
7442
100
AcDbEntity
  8
WAKU
100
AcDbLine
 10
287.0
 20
6.0
 30
0.0
 11
287.0
 21
39.0
 31
0.0
  0
LINE
  5
74CD
330
7442
100
AcDbEntity
  8
SUNPOU
100
AcDbLine
 10
296.0
 20
39.0
 30
0.0
 11
296.0
 21
6.0
 31
0.0
  0
LINE
  5
74CE
330
7442
100
AcDbEntity
  8
TEXT
100
AcDbLine
 10
280.0
 20
36.60555325391158
 30
0.0
 11
280.0
 21
6.0
 31
0.0
  0
TEXT
  5
74CF
330
7442
100
AcDbEntity
  8
TEXT
100
AcDbText
 10
281.4999999999999
 20
6.93611094670797
 30
0.0
 40
2.0
  1
3
 41
0.8
  7
K
 11
281.4999999999999
 21
7.93611094670797
 31
0.0
100
AcDbText
 73
     2
  0
CIRCLE
  5
74D0
330
7442
100
AcDbEntity
  8
JISSEN
100
AcDbCircle
 10
313.3333333333332
 20
7.0
 30
0.0
 40
0.2
  0
CIRCLE
  5
74D1
330
7442
100
AcDbEntity
  8
JISSEN
100
AcDbCircle
 10
318.6666666666667
 20
7.0
 30
0.0
 40
0.2
  0
LINE
  5
74D2
330
7442
100
AcDbEntity
  8
WAKU
100
AcDbLine
 10
287.0
 20
39.0
 30
0.0
 11
324.0
 21
39.0
 31
0.0
  0
LINE
  5
74D3
330
7442
100
AcDbEntity
  8
SUNPOU
100
AcDbLine
 10
287.0
 20
22.5
 30
0.0
 11
324.0
 21
22.5
 31
0.0
  0
LINE
  5
74D4
330
7442
100
AcDbEntity
  8
SUNPOU
100
AcDbLine
 10
324.0
 20
14.25
 30
0.0
 11
287.0
 21
14.25
 31
0.0
  0
LINE
  5
74D5
330
7442
100
AcDbEntity
  8
SUNPOU
100
AcDbLine
 10
324.0
 20
30.75
 30
0.0
 11
287.0
 21
30.75
 31
0.0
  0
TEXT
  5
74D6
330
7442
100
AcDbEntity
  8
TEXT
100
AcDbText
 10
288.0
 20
16.25
 30
0.0
 40
3.0
  1
検図
  7
K
100
AcDbText
  0
TEXT
  5
74D7
330
7442
100
AcDbEntity
  8
TEXT
100
AcDbText
 10
288.0
 20
24.5
 30
0.0
 40
3.0
  1
製図
  7
K
100
AcDbText
  0
TEXT
  5
74D8
330
7442
100
AcDbEntity
  8
TEXT
100
AcDbText
 10
281.4999999999999
 20
14.68055473353985
 30
0.0
 40
2.0
  1
1.2
 41
0.8
  7
K
 11
281.4999999999999
 21
15.68055473353985
 31
0.0
100
AcDbText
 73
     2
  0
TEXT
  5
74D9
330
7442
100
AcDbEntity
  8
TEXT
100
AcDbText
 10
281.4999999999999
 20
18.55277662695579
 30
0.0
 40
2.0
  1
0.8
 41
0.8
  7
K
 11
281.4999999999999
 21
19.55277662695579
 31
0.0
100
AcDbText
 73
     2
  0
TEXT
  5
74DA
330
7442
100
AcDbEntity
  8
TEXT
100
AcDbText
 10
281.4999999999999
 20
10.80833284012391
 30
0.0
 40
2.0
  1
2
 41
0.8
  7
K
 11
281.4999999999999
 21
11.8083328401239
 31
0.0
100
AcDbText
 73
     2
  0
LINE
  5
74DB
330
7442
100
AcDbEntity
  8
TEXT
100
AcDbLine
 10
281.4999999999999
 20
31.16944230720361
 30
0.0
 11
285.1060332593608
 21
31.16944230720361
 31
0.0
  0
TEXT
  5
74DC
330
7442
100
AcDbEntity
  8
TEXT
100
AcDbText
 10
281.4999999999999
 20
26.29722041378767
 30
0.0
 40
2.0
  1
0.2
 41
0.8
  7
K
 11
281.4999999999999
 21
27.29722041378767
 31
0.0
100
AcDbText
 73
     2
  0
TEXT
  5
74DD
330
7442
100
AcDbEntity
  8
TEXT
100
AcDbText
 10
281.4999999999999
 20
22.42499852037173
 30
0.0
 40
2.0
  1
0.5
 41
0.8
  7
K
 11
281.4999999999999
 21
23.42499852037172
 31
0.0
100
AcDbText
 73
     2
  0
TEXT
  5
74DE
330
7442
100
AcDbEntity
  8
TEXT
100
AcDbText
 10
288.0
 20
45.0
 30
0.0
 40
3.0
  1
品名
  7
K
100
AcDbText
  0
TEXT
  5
74DF
330
7442
100
AcDbEntity
  8
TEXT
100
AcDbText
 10
288.0
 20
32.75
 30
0.0
 40
3.0
  1
設計
  7
K
100
AcDbText
  0
LINE
  5
74E0
330
7442
100
AcDbEntity
  8
WAKU
100
AcDbLine
 10
287.0
 20
39.0
 30
0.0
 11
287.0
 21
55.0
 31
0.0
  0
TEXT
  5
74E1
330
7442
100
AcDbEntity
  8
TEXT
100
AcDbText
 10
282.2142857142857
 20
33.50555325391157
 30
0.0
 40
2.7
  1
L
  7
K
 72
     1
 11
283.4999999999999
 21
34.85555325391158
 31
0.0
100
AcDbText
 73
     2
  0
LINE
  5
74E2
330
7442
100
AcDbEntity
  8
SUNPOU
100
AcDbLine
 10
296.0
 20
55.0
 30
0.0
 11
296.0
 21
39.0
 31
0.0
  0
LINE
  5
74E3
330
7442
100
AcDbEntity
  8
WAKU
100
AcDbLine
 10
324.0
 20
32.0
 30
0.0
 11
324.0
 21
39.0
 31
0.0
  0
LINE
  5
74E4
330
7442
100
AcDbEntity
  8
WAKU
100
AcDbLine
 10
324.0
 20
19.0
 30
0.0
 11
324.0
 21
32.0
 31
0.0
  0
CIRCLE
  5
74E5
330
7442
100
AcDbEntity
  8
JISSEN
100
AcDbCircle
 10
313.3333333333332
 20
15.25
 30
0.0
 40
0.2
  0
CIRCLE
  5
74E6
330
7442
100
AcDbEntity
  8
JISSEN
100
AcDbCircle
 10
318.6666666666667
 20
15.25
 30
0.0
 40
0.2
  0
CIRCLE
  5
74E7
330
7442
100
AcDbEntity
  8
JISSEN
100
AcDbCircle
 10
313.3333333333332
 20
23.5
 30
0.0
 40
0.2
  0
CIRCLE
  5
74E8
330
7442
100
AcDbEntity
  8
JISSEN
100
AcDbCircle
 10
313.3333333333332
 20
31.75
 30
0.0
 40
0.2
  0
CIRCLE
  5
74E9
330
7442
100
AcDbEntity
  8
JISSEN
100
AcDbCircle
 10
318.6666666666667
 20
23.5
 30
0.0
 40
0.2
  0
CIRCLE
  5
74EA
330
7442
100
AcDbEntity
  8
JISSEN
100
AcDbCircle
 10
318.6666666666667
 20
31.75
 30
0.0
 40
0.2
  0
LINE
  5
74EB
330
7442
100
AcDbEntity
  8
SUNPOU
100
AcDbLine
 10
336.0
 20
32.0
 30
0.0
 11
336.0
 21
19.0
 31
0.0
  0
TEXT
  5
74EC
330
7442
100
AcDbEntity
  8
TEXT
100
AcDbText
 10
328.485167223504
 20
10.0
 30
0.0
 40
2.0
  1
株式会社
  7
K
100
AcDbText
  0
TEXT
  5
74ED
330
7442
100
AcDbEntity
  8
TEXT
100
AcDbText
 10
326.6999999999999
 20
24.0
 30
0.0
 40
3.0
  1
図番
  7
K
 72
     4
 11
330.0
 21
25.5
 31
0.0
100
AcDbText
  0
TEXT
  5
74EE
330
7442
100
AcDbEntity
  8
TEXT
100
AcDbText
 10
274.3
 20
57.23202258979018
 30
0.0
 40
3.0
  1
品         名
  7
K
 72
     1
 11
285.5
 21
58.73202258979017
 31
0.0
100
AcDbText
 73
     2
  0
TEXT
  5
74EF
330
7442
100
AcDbEntity
  8
TEXT
100
AcDbText
 10
229.0999999999999
 20
57.23202258979018
 30
0.0
 40
3.0
  1
図         番
  7
K
 72
     1
 11
240.5
 21
58.73202258979017
 31
0.0
100
AcDbText
 73
     2
  0
TEXT
  5
74F0
330
7442
100
AcDbEntity
  8
TEXT
100
AcDbText
 10
212.0714285714285
 20
57.73202258979018
 30
0.0
 40
2.0
  1
No.
  7
K
 72
     1
 11
214.5
 21
58.73202258979017
 31
0.0
100
AcDbText
 73
     2
  0
LINE
  5
74F1
330
7442
100
AcDbEntity
  8
WAKU
100
AcDbLine
 10
384.0
 20
55.0
 30
0.0
 11
349.0
 21
55.0
 31
0.0
  0
TEXT
  5
74F2
330
7442
100
AcDbEntity
  8
TEXT
100
AcDbText
 10
367.0633115578711
 20
33.41726061251677
 30
0.0
 40
2.5
  1
(単位mm)
  7
K
100
AcDbText
  0
LINE
  5
74F3
330
7442
100
AcDbEntity
  8
SUNPOU
100
AcDbLine
 10
349.0
 20
47.0
 30
0.0
 11
384.0
 21
47.0
 31
0.0
  0
LINE
  5
74F4
330
7442
100
AcDbEntity
  8
SUNPOU
100
AcDbLine
 10
356.0
 20
32.0
 30
0.0
 11
356.0
 21
39.0
 31
0.0
  0
LINE
  5
74F5
330
7442
100
AcDbEntity
  8
SUNPOU
100
AcDbLine
 10
347.0
 20
39.0
 30
0.0
 11
347.0
 21
32.0
 31
0.0
  0
TEXT
  5
74F6
330
7442
100
AcDbEntity
  8
TEXT
100
AcDbText
 10
350.0
 20
49.0
 30
0.0
 40
3.0
  1
材 質
  7
K
100
AcDbText
  0
TEXT
  5
74F7
330
7442
100
AcDbEntity
  8
TEXT
100
AcDbText
 10
350.0
 20
41.0
 30
0.0
 40
3.0
  1
板 厚
  7
K
100
AcDbText
  0
LINE
  5
74F8
330
7442
100
AcDbEntity
  8
WAKU
100
AcDbLine
 10
349.0
 20
55.0
 30
0.0
 11
349.0
 21
39.0
 31
0.0
  0
TEXT
  5
74F9
330
7442
100
AcDbEntity
  8
TEXT
100
AcDbText
 10
348.0
 20
34.0
 30
0.0
 40
3.0
  1
尺度
  7
K
100
AcDbText
  0
LINE
  5
74FA
330
7442
100
AcDbEntity
  8
SUNPOU
100
AcDbLine
 10
360.0
 20
55.0
 30
0.0
 11
360.0
 21
39.0
 31
0.0
  0
TEXT
  5
74FB
330
7442
100
AcDbEntity
  8
TEXT
100
AcDbText
 10
385.1333333333333
 20
99.60134216402344
 30
0.0
 40
4.0
  1
ず
  7
K
 72
     1
 11
387.0
 21
101.6013421640234
 31
0.0
100
AcDbText
 73
     2
  0
TEXT
  5
74FC
330
7442
100
AcDbEntity
  8
TEXT
100
AcDbText
 10
385.0346249501075
 20
64.86078937622085
 30
0.0
 40
4.0
  1
の
  7
K
 72
     4
 11
386.9012916167741
 21
66.86078937622085
 31
0.0
100
AcDbText
  0
TEXT
  5
74FD
330
7442
100
AcDbEntity
  8
TEXT
100
AcDbText
 10
385.1333333333333
 20
60.60134216402343
 30
0.0
 40
4.0
  1
こ
  7
K
 72
     1
 11
387.0
 21
62.60134216402343
 31
0.0
100
AcDbText
 73
     2
  0
TEXT
  5
74FE
330
7442
100
AcDbEntity
  8
TEXT
100
AcDbText
 10
385.1333333333333
 20
55.60134216402343
 30
0.0
 40
4.0
  1
と
  7
K
 72
     1
 11
387.0
 21
57.60134216402343
 31
0.0
100
AcDbText
 73
     2
  0
TEXT
  5
74FF
330
7442
100
AcDbEntity
  8
TEXT
100
AcDbText
 10
385.1333333333333
 20
69.60134216402344
 30
0.0
 40
4.0
  1
却
  7
K
 72
     1
 11
387.0
 21
71.60134216402344
 31
0.0
100
AcDbText
 73
     2
  0
TEXT
  5
7500
330
7442
100
AcDbEntity
  8
TEXT
100
AcDbText
 10
385.1333333333333
 20
74.60134216402344
 30
0.0
 40
4.0
  1
返
  7
K
 72
     1
 11
387.0
 21
76.60134216402344
 31
0.0
100
AcDbText
 73
     2
  0
TEXT
  5
7501
330
7442
100
AcDbEntity
  8
TEXT
100
AcDbText
 10
385.1333333333333
 20
89.60134216402343
 30
0.0
 40
4.0
  1
行
  7
K
 72
     1
 11
387.0
 21
91.60134216402344
 31
0.0
100
AcDbText
 73
     2
  0
TEXT
  5
7502
330
7442
100
AcDbEntity
  8
TEXT
100
AcDbText
 10
385.1333333333333
 20
84.60134216402343
 30
0.0
 40
4.0
  1
元
  7
K
 72
     1
 11
387.0
 21
86.60134216402344
 31
0.0
100
AcDbText
 73
     2
  0
TEXT
  5
7503
330
7442
100
AcDbEntity
  8
TEXT
100
AcDbText
 10
385.2666666666666
 20
79.60134216402344
 30
0.0
 40
4.0
  1
へ
  7
K
 72
     1
 11
387.0
 21
81.60134216402344
 31
0.0
100
AcDbText
 73
     2
  0
TEXT
  5
7504
330
7442
100
AcDbEntity
  8
TEXT
100
AcDbText
 10
385.1333333333333
 20
94.60134216402343
 30
0.0
 40
4.0
  1
発
  7
K
 72
     1
 11
387.0
 21
96.60134216402344
 31
0.0
100
AcDbText
 73
     2
  0
TEXT
  5
7505
330
7442
100
AcDbEntity
  8
TEXT
100
AcDbText
 10
385.1333333333333
 20
124.6013421640234
 30
0.0
 40
4.0
  1
済
  7
K
 72
     1
 11
387.0
 21
126.6013421640234
 31
0.0
100
AcDbText
 73
     2
  0
TEXT
  5
7506
330
7442
100
AcDbEntity
  8
TEXT
100
AcDbText
 10
385.1333333333333
 20
104.6013421640234
 30
0.0
 40
4.0
  1
必
  7
K
 72
     1
 11
387.0
 21
106.6013421640234
 31
0.0
100
AcDbText
 73
     2
  0
TEXT
  5
7507
330
7442
100
AcDbEntity
  8
TEXT
100
AcDbText
 10
387.9256954922052
 20
111.2049702787619
 30
0.0
 40
4.0
  1
、
  7
K
 72
     1
 11
388.4590288255385
 21
113.2049702787619
 31
0.0
100
AcDbText
 73
     2
  0
TEXT
  5
7508
330
7442
100
AcDbEntity
  8
TEXT
100
AcDbText
 10
385.1333333333333
 20
114.6013421640234
 30
0.0
 40
4.0
  1
後
  7
K
 72
     1
 11
387.0
 21
116.6013421640234
 31
0.0
100
AcDbText
 73
     2
  0
TEXT
  5
7509
330
7442
100
AcDbEntity
  8
TEXT
100
AcDbText
 10
385.2666666666666
 20
119.6013421640234
 30
0.0
 40
4.0
  1
み
  7
K
 72
     1
 11
387.0
 21
121.6013421640234
 31
0.0
100
AcDbText
 73
     2
  0
TEXT
  5
750A
330
7442
100
AcDbEntity
  8
TEXT
100
AcDbText
 10
385.1333333333333
 20
134.6013421640234
 30
0.0
 40
4.0
  1
は
  7
K
 72
     1
 11
387.0
 21
136.6013421640234
 31
0.0
100
AcDbText
 73
     2
  0
TEXT
  5
750B
330
7442
100
AcDbEntity
  8
TEXT
100
AcDbText
 10
385.2666666666666
 20
129.6013421640234
 30
0.0
 40
4.0
  1
用
  7
K
 72
     1
 11
387.0
 21
131.6013421640234
 31
0.0
100
AcDbText
 73
     2
  0
TEXT
  5
750C
330
7442
100
AcDbEntity
  8
TEXT
100
AcDbText
 10
385.1333333333333
 20
139.6013421640234
 30
0.0
 40
4.0
  1
図
  7
K
 72
     1
 11
387.0
 21
141.6013421640234
 31
0.0
100
AcDbText
 73
     2
  0
LINE
  5
750D
330
7442
100
AcDbEntity
  8
WAKU
100
AcDbLine
 10
211.0
 20
55.0
 30
0.0
 11
211.0
 21
6.0
 31
0.0
  0
ENDBLK
  5
750F
330
7442
100
AcDbEntity
  8
0
100
AcDbBlockEnd
  0
BLOCK
  5
756F
330
756E
100
AcDbEntity
  8
0
100
AcDbBlockBegin
  2
*D16
 70
     1
 10
0.0
 20
0.0
 30
0.0
  3
*D16
  1

  0
LINE
  5
7570
330
756E
100
AcDbEntity
  8
0
  6
BYBLOCK
 62
     0
100
AcDbLine
 10
722.2541575
 20
517.8555284499999
 30
0.0
 11
722.2541575
 21
712.8229144944493
 31
0.0
  0
LINE
  5
7571
330
756E
100
AcDbEntity
  8
0
  6
BYBLOCK
 62
     0
100
AcDbLine
 10
988.25415750212
 20
589.0411439666803
 30
0.0
 11
988.25415750212
 21
712.8229144944493
 31
0.0
  0
LINE
  5
7572
330
756E
100
AcDbEntity
  8
0
  6
BYBLOCK
 62
     0
100
AcDbLine
 10
737.2541575
 20
707.8229144944494
 30
0.0
 11
973.2541575021199
 21
707.8229144944494
 31
0.0
  0
INSERT
  5
7573
330
756E
100
AcDbEntity
  8
0
  6
BYBLOCK
 62
     0
100
AcDbBlockReference
  2
ARROW
 10
722.2541575
 20
707.8229144944494
 30
0.0
 41
15.0
 42
15.0
 43
15.0
 50
180.0
  0
INSERT
  5
7574
330
756E
100
AcDbEntity
  8
0
  6
BYBLOCK
 62
     0
100
AcDbBlockReference
  2
ARROW
 10
988.25415750212
 20
707.8229144944494
 30
0.0
 41
15.0
 42
15.0
 43
15.0
  0
MTEXT
  5
7575
330
756E
100
AcDbEntity
  8
0
  6
BYBLOCK
 62
     0
100
AcDbMText
 10
858.0968141149842
 20
722.8229144944493
 30
0.0
 40
15.0
 41
0.0
 71
     5
 72
     1
  1
\A1;266
1001
ACAD
1000
MTEXTBEGIN
1070
    73
1070
     1
1070
    44
1040
1.0
1070
    74
1070
     0
1000
MTEXTEND
  0
POINT
  5
7576
330
756E
100
AcDbEntity
  8
DEFPOINTS
  6
BYBLOCK
 62
     0
100
AcDbPoint
 10
722.2541575
 20
512.8555284499999
 30
0.0
  0
POINT
  5
7577
330
756E
100
AcDbEntity
  8
DEFPOINTS
  6
BYBLOCK
 62
     0
100
AcDbPoint
 10
988.25415750212
 20
584.0411439666803
 30
0.0
  0
POINT
  5
7578
330
756E
100
AcDbEntity
  8
DEFPOINTS
  6
BYBLOCK
 62
     0
100
AcDbPoint
 10
988.25415750212
 20
707.8229144944494
 30
0.0
  0
ENDBLK
  5
7579
330
756E
100
AcDbEntity
  8
0
100
AcDbBlockEnd
  0
BLOCK
  5
75A0
330
759F
100
AcDbEntity
  8
0
100
AcDbBlockBegin
  2
*D17
 70
     1
 10
0.0
 20
0.0
 30
0.0
  3
*D17
  1

  0
LINE
  5
75A1
330
759F
100
AcDbEntity
  8
0
  6
BYBLOCK
 62
     0
100
AcDbLine
 10
719.38584586
 20
275.7499936899999
 30
0.0
 11
663.9529103242844
 21
275.7499936899999
 31
0.0
  0
LINE
  5
75A2
330
759F
100
AcDbEntity
  8
0
  6
BYBLOCK
 62
     0
100
AcDbLine
 10
737.9446075001671
 20
455.74999369
 30
0.0
 11
663.9529103242844
 21
455.74999369
 31
0.0
  0
LINE
  5
75A3
330
759F
100
AcDbEntity
  8
0
  6
BYBLOCK
 62
     0
100
AcDbLine
 10
668.9529103242843
 20
290.7499936899999
 30
0.0
 11
668.9529103242843
 21
440.7499936899999
 31
0.0
  0
INSERT
  5
75A4
330
759F
100
AcDbEntity
  8
0
  6
BYBLOCK
 62
     0
100
AcDbBlockReference
  2
ARROW
 10
668.9529103242843
 20
275.7499936899999
 30
0.0
 41
15.0
 42
15.0
 43
15.0
 50
270.0
  0
INSERT
  5
75A5
330
759F
100
AcDbEntity
  8
0
  6
BYBLOCK
 62
     0
100
AcDbBlockReference
  2
ARROW
 10
668.9529103242843
 20
455.74999369
 30
0.0
 41
15.0
 42
15.0
 43
15.0
 50
90.0
  0
MTEXT
  5
75A6
330
759F
100
AcDbEntity
  8
0
  6
BYBLOCK
 62
     0
100
AcDbMText
 10
653.9529103242844
 20
369.3089470410809
 30
0.0
 40
15.0
 41
0.0
 71
     5
 72
     1
  1
\A1;180
 11
0.0000000000000001
 21
1.0
 31
0.0
1001
ACAD
1000
MTEXTBEGIN
1070
    73
1070
     1
1070
    44
1040
1.0
1070
    74
1070
     0
1000
MTEXTEND
  0
POINT
  5
75A7
330
759F
100
AcDbEntity
  8
DEFPOINTS
  6
BYBLOCK
 62
     0
100
AcDbPoint
 10
724.38584586
 20
275.7499936899999
 30
0.0
  0
POINT
  5
75A8
330
759F
100
AcDbEntity
  8
DEFPOINTS
  6
BYBLOCK
 62
     0
100
AcDbPoint
 10
742.9446075001671
 20
455.74999369
 30
0.0
  0
POINT
  5
75A9
330
759F
100
AcDbEntity
  8
DEFPOINTS
  6
BYBLOCK
 62
     0
100
AcDbPoint
 10
668.9529103242843
 20
455.74999369
 30
0.0
  0
ENDBLK
  5
75AA
330
759F
100
AcDbEntity
  8
0
100
AcDbBlockEnd
  0
ENDSEC
  0
SECTION
  2
ENTITIES
  0
MTEXT
  5
67D
330
DF
100
AcDbEntity
  8
SUNPOU
100
AcDbMText
 10
5227.136216033687
 20
-13932.05408441242
 30
0.0
 40
6.0
 41
0.0
 71
     6
 72
     1
  1
\A1;
1001
ACAD
1000
MTEXTBEGIN
1070
    73
1070
     1
1070
    44
1040
1.0
1070
    74
1070
     0
1000
MTEXTEND
  0
DIMENSION
  5
6F68
330
DF
100
AcDbEntity
  8
SUNPOU
100
AcDbDimension
  2
*D3
 10
278.9236013757666
 20
710.9982657750233
 30
0.0
 11
393.923601382573
 21
710.9982657750233
 31
0.0
 12
162.3838412291697
 22
0.0
 32
0.0
 70
   160
  3
IMCADLT
100
AcDbAlignedDimension
 13
508.923601382573
 23
520.59257203
 33
0.0
 14
278.9236013757666
 24
520.59257203
 34
0.0
100
AcDbRotatedDimension
1001
ACAD
1000
DSTYLE
1002
{
1070
    40
1040
5.0
1070
    41
1040
3.0
1002
}
  0
DIMENSION
  5
6F76
330
DF
100
AcDbEntity
  8
SUNPOU
100
AcDbDimension
  2
*D4
 10
506.9236013825729
 20
128.1665318335153
 30
0.0
 11
393.923601382573
 21
128.1665318335153
 31
0.0
 12
162.3838412291697
 22
0.0
 32
0.0
 70
   160
  3
IMCADLT
100
AcDbAlignedDimension
 13
280.9236013757666
 23
255.59257203
 33
0.0
 14
506.9236013825729
 24
255.59257203
 34
0.0
100
AcDbRotatedDimension
1001
ACAD
1000
DSTYLE
1002
{
1070
    40
1040
5.0
1070
    41
1040
3.0
1002
}
  0
LINE
  5
6F85
330
DF
100
AcDbEntity
  8
JISSEN
100
AcDbLine
 10
296.4236013791697
 20
250.59257203
 30
0.0
 11
297.6681035150488
 21
242.2958911241395
 31
0.0
  0
LINE
  5
6F86
330
DF
100
AcDbEntity
  8
JISSEN
100
AcDbLine
 10
299.6459762207854
 20
240.59257203
 30
0.0
 11
316.2012265375541
 21
240.59257203
 31
0.0
  0
LINE
  5
6F87
330
DF
100
AcDbEntity
  8
JISSEN
100
AcDbLine
 10
318.1790992432906
 20
242.2958911241395
 30
0.0
 11
319.4236013791698
 21
250.59257203
 31
0.0
  0
LINE
  5
6F88
330
DF
100
AcDbEntity
  8
JISSEN
100
AcDbLine
 10
469.6681035150487
 20
242.2958911241395
 30
0.0
 11
468.4236013791697
 21
250.5925720299999
 31
0.0
  0
LINE
  5
6F89
330
DF
100
AcDbEntity
  8
JISSEN
100
AcDbLine
 10
488.201226537554
 20
240.5925720299999
 30
0.0
 11
471.6459762207853
 21
240.5925720299999
 31
0.0
  0
LINE
  5
6F8A
330
DF
100
AcDbEntity
  8
JISSEN
100
AcDbLine
 10
491.4236013791698
 20
250.5925720299999
 30
0.0
 11
490.1790992432906
 21
242.2958911241394
 31
0.0
  0
LINE
  5
6F8C
330
DF
100
AcDbEntity
  8
JISSEN
100
AcDbLine
 10
506.9236013825729
 20
252.5925720299999
 30
0.0
 11
506.9236013825729
 21
485.59257203
 31
0.0
  0
LINE
  5
6F8F
330
DF
100
AcDbEntity
  8
JISSEN
100
AcDbLine
 10
282.9236013757666
 20
250.59257203
 30
0.0
 11
504.9236013791698
 21
250.5925720299999
 31
0.0
  0
LINE
  5
6F93
330
DF
100
AcDbEntity
  8
JISSEN
100
AcDbLine
 10
508.923601382573
 20
520.59257203
 30
0.0
 11
506.9236013825729
 21
485.59257203
 31
0.0
  0
LINE
  5
6F94
330
DF
100
AcDbEntity
  8
JISSEN
100
AcDbLine
 10
508.923601382573
 20
520.59257203
 30
0.0
 11
499.8118638626671
 21
628.0151616985111
 31
0.0
  0
LINE
  5
6F95
330
DF
100
AcDbEntity
  8
JISSEN
100
AcDbLine
 10
494.8297540715384
 20
632.5925720285712
 30
0.0
 11
293.0174486868011
 21
632.592572028571
 31
0.0
  0
LINE
  5
6F9A
330
DF
100
AcDbEntity
  8
JISSEN
100
AcDbLine
 10
278.9236013757666
 20
520.59257203
 30
0.0
 11
288.0353388956724
 21
628.0151616985111
 31
0.0
  0
LINE
  5
6F9B
330
DF
100
AcDbEntity
  8
JISSEN
100
AcDbLine
 10
278.9236013757666
 20
520.59257203
 30
0.0
 11
280.9236013757666
 21
485.5925720300001
 31
0.0
  0
LINE
  5
6F9C
330
DF
100
AcDbEntity
  8
JISSEN
100
AcDbLine
 10
280.9236013757666
 20
252.59257203
 30
0.0
 11
280.9236013757666
 21
442.8355294612714
 31
0.0
  0
ARC
  5
6F9D
330
DF
100
AcDbEntity
  8
JISSEN
100
AcDbCircle
 10
293.0174486868011
 20
627.5925720285711
 30
0.0
 40
5.0
100
AcDbArc
 50
90.00000000000003
 51
175.151695229815
  0
ARC
  5
6F9E
330
DF
100
AcDbEntity
  8
JISSEN
100
AcDbCircle
 10
494.8297540715384
 20
627.5925720285712
 30
0.0
 40
5.0
100
AcDbArc
 50
4.848304770184943
 51
90.00000000000005
  0
DIMENSION
  5
6FD9
330
DF
100
AcDbEntity
  8
SUNPOU
100
AcDbDimension
  2
*D5
 10
479.9236013791698
 20
169.9356575682152
 30
0.0
 11
391.0339391228017
 21
169.9356575682152
 31
0.0
 12
162.3838412291697
 22
0.0
 32
0.0
 70
   160
  3
IMCADLT
100
AcDbAlignedDimension
 13
307.9236013791697
 23
240.59257203
 33
0.0
 14
479.9236013791698
 24
240.5925720299999
 34
0.0
100
AcDbRotatedDimension
1001
ACAD
1000
DSTYLE
1002
{
1070
    40
1040
5.0
1070
    41
1040
3.0
1002
}
  0
ARC
  5
6FDA
330
DF
100
AcDbEntity
  8
JISSEN
100
AcDbCircle
 10
299.6459762207854
 20
242.59257203
 30
0.0
 40
2.0
100
AcDbArc
 50
188.5307656099479
 51
270.0
  0
ARC
  5
6FDB
330
DF
100
AcDbEntity
  8
JISSEN
100
AcDbCircle
 10
316.2012265375541
 20
242.59257203
 30
0.0
 40
2.0
100
AcDbArc
 50
270.0
 51
351.4692343900517
  0
ARC
  5
6FDC
330
DF
100
AcDbEntity
  8
JISSEN
100
AcDbCircle
 10
471.6459762207853
 20
242.5925720299999
 30
0.0
 40
2.0
100
AcDbArc
 50
188.5307656099481
 51
270.0
  0
ARC
  5
6FDD
330
DF
100
AcDbEntity
  8
JISSEN
100
AcDbCircle
 10
488.201226537554
 20
242.5925720299999
 30
0.0
 40
2.0
100
AcDbArc
 50
269.9999999999998
 51
351.4692343900518
  0
DIMENSION
  5
6FEA
330
DF
100
AcDbEntity
  8
SUNPOU
100
AcDbDimension
  2
*D6
 10
151.1022720700084
 20
632.592572028571
 30
0.0
 11
151.1022720700084
 21
448.1019807961786
 31
0.0
 12
162.3838412291697
 22
0.0
 32
0.0
 70
   160
  3
IMCADLT
100
AcDbAlignedDimension
 13
299.6459762207854
 23
240.59257203
 33
0.0
 14
293.0174486868011
 24
632.592572028571
 34
0.0
 50
90.0
100
AcDbRotatedDimension
1001
ACAD
1000
DSTYLE
1002
{
1070
    40
1040
5.0
1070
    41
1040
3.0
1002
}
  0
LINE
  5
7001
330
DF
100
AcDbEntity
  8
JISSEN
100
AcDbLine
 10
304.4236013791697
 20
280.59257203
 30
0.0
 11
304.4236013791697
 21
465.7523047494306
 31
0.0
  0
LINE
  5
7002
330
DF
100
AcDbEntity
  8
JISSEN
100
AcDbLine
 10
301.4236013791697
 20
280.59257203
 30
0.0
 11
301.4236013791697
 21
460.5561523267239
 31
0.0
  0
LINE
  5
7003
330
DF
100
AcDbEntity
  8
JISSEN
100
AcDbLine
 10
483.4236013791698
 20
280.59257203
 30
0.0
 11
483.4236013791698
 21
525.4988338902243
 31
0.0
  0
LINE
  5
7004
330
DF
100
AcDbEntity
  8
JISSEN
100
AcDbLine
 10
486.4236013791697
 20
280.59257203
 30
0.0
 11
486.4236013791698
 21
526.4225395251105
 31
0.0
  0
LINE
  5
7005
330
DF
100
AcDbEntity
  8
JISSEN
100
AcDbLine
 10
287.9236013791698
 20
275.59257203
 30
0.0
 11
499.9236013791698
 21
275.59257203
 31
0.0
  0
LINE
  5
7006
330
DF
100
AcDbEntity
  8
JISSEN
100
AcDbLine
 10
282.9236013723634
 20
280.59257203
 30
0.0
 11
504.923601382573
 21
280.59257203
 31
0.0
  0
LINE
  5
7007
330
DF
100
AcDbEntity
  8
JISSEN
100
AcDbLine
 10
501.9236013791697
 20
252.5925720299999
 30
0.0
 11
501.9236013791697
 21
273.59257203
 31
0.0
  0
LINE
  5
700A
330
DF
100
AcDbEntity
  8
JISSEN
100
AcDbLine
 10
285.9236013791698
 20
252.59257203
 30
0.0
 11
285.9236013791698
 21
273.59257203
 31
0.0
  0
LINE
  5
700B
330
DF
100
AcDbEntity
  8
JISSEN
100
AcDbLine
 10
501.3378149413435
 20
275.0067855925724
 30
0.0
 11
506.3378149447463
 21
280.0067855925719
 31
0.0
  0
LINE
  5
700C
330
DF
100
AcDbEntity
  8
JISSEN
100
AcDbLine
 10
286.5093878169961
 20
275.0067855925724
 30
0.0
 11
281.5093878118917
 21
280.0067855942736
 31
0.0
  0
ARC
  5
7011
330
DF
100
AcDbEntity
  8
JISSEN
100
AcDbCircle
 10
504.923601382573
 20
252.5925720299999
 30
0.0
 40
2.0
100
AcDbArc
 50
270.0
 51
0.0
  0
ARC
  5
7014
330
DF
100
AcDbEntity
  8
JISSEN
100
AcDbCircle
 10
287.9236013791698
 20
252.59257203
 30
0.0
 40
2.0
100
AcDbArc
 50
180.0
 51
270.0
  0
ARC
  5
7015
330
DF
100
AcDbEntity
  8
JISSEN
100
AcDbCircle
 10
282.9236013757666
 20
252.59257203
 30
0.0
 40
2.0
100
AcDbArc
 50
180.0
 51
270.0
  0
ARC
  5
7016
330
DF
100
AcDbEntity
  8
JISSEN
100
AcDbCircle
 10
499.9236013791698
 20
252.5925720299999
 30
0.0
 40
2.0
100
AcDbArc
 50
270.0
 51
359.9999999999998
  0
ARC
  5
7018
330
DF
100
AcDbEntity
  8
JISSEN
100
AcDbCircle
 10
499.9236013791698
 20
273.59257203
 30
0.0
 40
2.0
100
AcDbArc
 50
0.0000000000244267
 51
90.0
  0
ARC
  5
7019
330
DF
100
AcDbEntity
  8
JISSEN
100
AcDbCircle
 10
287.9236013791698
 20
273.59257203
 30
0.0
 40
2.0
100
AcDbArc
 50
90.0
 51
179.9999999999999
  0
ARC
  5
701B
330
DF
100
AcDbEntity
  8
JISSEN
100
AcDbCircle
 10
504.923601382573
 20
278.5925720299991
 30
0.0
 40
2.0
100
AcDbArc
 50
0.0000000000244267
 51
90.0
  0
ARC
  5
701F
330
DF
100
AcDbEntity
  8
JISSEN
100
AcDbCircle
 10
282.9236013723634
 20
278.5925720299991
 30
0.0
 40
2.0
100
AcDbArc
 50
90.0
 51
179.9999999999755
  0
LINE
  5
7020
330
DF
100
AcDbEntity
  8
JISSEN
100
AcDbLine
 10
483.4236013791698
 20
595.5925720285712
 30
0.0
 11
304.4236013791697
 21
595.5925720285711
 31
0.0
  0
LINE
  5
7021
330
DF
100
AcDbEntity
  8
JISSEN
100
AcDbLine
 10
445.1736013791698
 20
575.5925720285712
 30
0.0
 11
342.6736013791698
 21
575.5925720285712
 31
0.0
  0
LINE
  5
7022
330
DF
100
AcDbEntity
  8
JISSEN
100
AcDbLine
 10
499.8118638591698
 20
558.0925720285712
 30
0.0
 11
282.1044049482541
 21
558.0925720285711
 31
0.0
  0
LINE
  5
7023
330
DF
100
AcDbEntity
  8
JISSEN
100
AcDbLine
 10
458.4236013791698
 20
553.092572028571
 30
0.0
 11
311.9236013791698
 21
553.092572028571
 31
0.0
  0
LINE
  5
7024
330
DF
100
AcDbEntity
  8
JISSEN
100
AcDbLine
 10
458.4236013791697
 20
518.0925720285712
 30
0.0
 11
311.9236013791698
 21
518.0925720285711
 31
0.0
  0
LINE
  5
7028
330
DF
100
AcDbEntity
  8
JISSEN
100
AcDbLine
 10
332.6736013791697
 20
585.5925720285712
 30
0.0
 11
332.6736013791697
 21
595.5925720285711
 31
0.0
  0
LINE
  5
7029
330
DF
100
AcDbEntity
  8
JISSEN
100
AcDbLine
 10
455.1736013791698
 20
585.5925720285712
 30
0.0
 11
455.1736013791698
 21
595.5925720285712
 31
0.0
  0
ARC
  5
702A
330
DF
100
AcDbEntity
  8
JISSEN
100
AcDbCircle
 10
342.6736013791698
 20
585.5925720285712
 30
0.0
 40
10.0
100
AcDbArc
 50
180.0
 51
270.0
  0
ARC
  5
702B
330
DF
100
AcDbEntity
  8
JISSEN
100
AcDbCircle
 10
445.1736013791698
 20
585.5925720285712
 30
0.0
 40
10.0
100
AcDbArc
 50
270.0
 51
0.0
  0
LINE
  5
702E
330
DF
100
AcDbEntity
  8
JISSEN
100
AcDbLine
 10
499.8118638591698
 20
558.0925720285712
 30
0.0
 11
508.923601382573
 21
520.59257203
 31
0.0
  0
LINE
  5
702F
330
DF
100
AcDbEntity
  8
JISSEN
100
AcDbLine
 10
499.8118638591697
 20
280.59257203
 30
0.0
 11
499.8118638591697
 21
628.015161739743
 31
0.0
  0
LINE
  5
7030
330
DF
100
AcDbEntity
  8
JISSEN
100
AcDbLine
 10
288.0353388991697
 20
558.0925720285712
 30
0.0
 11
278.9236013757666
 21
520.59257203
 31
0.0
  0
LINE
  5
7031
330
DF
100
AcDbEntity
  8
JISSEN
100
AcDbLine
 10
288.0353388991698
 20
280.59257203
 30
0.0
 11
288.0353388991698
 21
447.927238635702
 31
0.0
  0
LINE
  5
7032
330
DF
100
AcDbEntity
  8
JISSEN
100
AcDbLine
 10
461.4236013791697
 20
521.0925720285712
 30
0.0
 11
461.4236013791697
 21
550.0925720285711
 31
0.0
  0
LINE
  5
7033
330
DF
100
AcDbEntity
  8
JISSEN
100
AcDbLine
 10
308.9236013791698
 20
521.0925720285711
 30
0.0
 11
308.9236013791698
 21
550.0925720285711
 31
0.0
  0
ARC
  5
7034
330
DF
100
AcDbEntity
  8
JISSEN
100
AcDbCircle
 10
458.4236013791698
 20
550.0925720285711
 30
0.0
 40
3.0
100
AcDbArc
 50
0.0
 51
90.0
  0
ARC
  5
7035
330
DF
100
AcDbEntity
  8
JISSEN
100
AcDbCircle
 10
458.4236013791697
 20
521.0925720285712
 30
0.0
 40
3.0
100
AcDbArc
 50
270.0
 51
0.0
  0
ARC
  5
7036
330
DF
100
AcDbEntity
  8
JISSEN
100
AcDbCircle
 10
311.9236013791698
 20
521.0925720285711
 30
0.0
 40
3.0
100
AcDbArc
 50
180.0
 51
270.0
  0
ARC
  5
7037
330
DF
100
AcDbEntity
  8
JISSEN
100
AcDbCircle
 10
311.9236013791698
 20
550.0925720285711
 30
0.0
 40
3.0
100
AcDbArc
 50
90.0
 51
180.0
  0
LINE
  5
7038
330
DF
100
AcDbEntity
  8
JISSEN
100
AcDbLine
 10
499.8118638591697
 20
505.5925720285712
 30
0.0
 11
288.0353388991699
 21
505.5925720285711
 31
0.0
  0
LINE
  5
703B
330
DF
100
AcDbEntity
  8
JISSEN
100
AcDbLine
 10
499.8118638591697
 20
458.0925720285712
 30
0.0
 11
460.6038211154123
 21
458.0925720285712
 31
0.0
  0
LINE
  5
703C
330
DF
100
AcDbEntity
  8
JISSEN
100
AcDbLine
 10
481.4236013791698
 20
463.0925720285712
 30
0.0
 11
470.870522645649
 21
463.0925720285712
 31
0.0
  0
LINE
  5
7040
330
DF
100
AcDbEntity
  8
JISSEN
100
AcDbLine
 10
481.4236013791698
 20
498.0925720285711
 30
0.0
 11
466.9236013791698
 21
498.0925720285712
 31
0.0
  0
LINE
  5
7041
330
DF
100
AcDbEntity
  8
JISSEN
100
AcDbLine
 10
409.4236013791697
 20
485.5925720285711
 30
0.0
 11
363.4236013791698
 21
485.5925720285711
 31
0.0
  0
LINE
  5
7044
330
DF
100
AcDbEntity
  8
JISSEN
100
AcDbLine
 10
406.4236013791698
 20
472.0925720285711
 30
0.0
 11
406.4236013791698
 21
451.5925720285711
 31
0.0
  0
LINE
  5
7045
330
DF
100
AcDbEntity
  8
JISSEN
100
AcDbLine
 10
366.4236013791697
 20
472.0925720285711
 30
0.0
 11
366.4236013791698
 21
451.5925720285711
 31
0.0
  0
LINE
  5
7048
330
DF
100
AcDbEntity
  8
JISSEN
100
AcDbLine
 10
406.2492659277905
 20
472.6567334001229
 30
0.0
 11
409.4236013791697
 21
485.5925720285711
 31
0.0
  0
LINE
  5
7049
330
DF
100
AcDbEntity
  8
JISSEN
100
AcDbLine
 10
366.5979368305491
 20
472.6567334001226
 30
0.0
 11
363.4236013791698
 21
485.5925720285711
 31
0.0
  0
LINE
  5
704A
330
DF
100
AcDbEntity
  8
JISSEN
100
AcDbLine
 10
406.6750451086281
 20
451.2211813522172
 30
0.0
 11
409.4236013791697
 21
463.0925720285711
 31
0.0
  0
LINE
  5
704B
330
DF
100
AcDbEntity
  8
JISSEN
100
AcDbLine
 10
366.1721576497114
 20
451.221181352217
 30
0.0
 11
363.4236013791698
 21
463.0925720285711
 31
0.0
  0
LINE
  5
704C
330
DF
100
AcDbEntity
  8
JISSEN
100
AcDbLine
 10
405.7465684177429
 20
450.5925720285712
 30
0.0
 11
367.1006343405966
 21
450.5925720285711
 31
0.0
  0
LINE
  5
704D
330
DF
100
AcDbEntity
  8
JISSEN
100
AcDbLine
 10
409.4236013791697
 20
485.5925720285711
 30
0.0
 11
409.4236013791697
 21
463.0925720285711
 31
0.0
  0
LINE
  5
704F
330
DF
100
AcDbEntity
  8
JISSEN
100
AcDbLine
 10
363.4236013791698
 20
463.0925720285711
 30
0.0
 11
363.4236013791698
 21
485.5925720285711
 31
0.0
  0
LINE
  5
7051
330
DF
100
AcDbEntity
  8
JISSEN
100
AcDbLine
 10
367.4236013791698
 20
473.0925720285711
 30
0.0
 11
405.4236013791698
 21
473.0925720285711
 31
0.0
  0
LINE
  5
7053
330
DF
100
AcDbEntity
  8
JISSEN
100
AcDbLine
 10
368.4236013791697
 20
470.092572028571
 30
0.0
 11
368.4236013791697
 21
453.592572028571
 31
0.0
  0
LINE
  5
7054
330
DF
100
AcDbEntity
  8
JISSEN
100
AcDbLine
 10
404.4236013791698
 20
470.0925720285712
 30
0.0
 11
404.4236013791698
 21
453.592572028571
 31
0.0
  0
LINE
  5
7055
330
DF
100
AcDbEntity
  8
JISSEN
100
AcDbLine
 10
403.4236013791697
 20
452.5925720285711
 30
0.0
 11
369.4236013791698
 21
452.5925720285711
 31
0.0
  0
LINE
  5
7056
330
DF
100
AcDbEntity
  8
JISSEN
100
AcDbLine
 10
369.4236013791698
 20
471.0925720285711
 30
0.0
 11
403.4236013791697
 21
471.0925720285712
 31
0.0
  0
LINE
  5
7057
330
DF
100
AcDbEntity
  8
JISSEN
100
AcDbLine
 10
363.4236013791698
 20
463.0925720285711
 30
0.0
 11
302.888003976809
 21
463.0925720285711
 31
0.0
  0
LINE
  5
7058
330
DF
100
AcDbEntity
  8
JISSEN
100
AcDbLine
 10
364.5812400861564
 20
458.0925720285711
 30
0.0
 11
300.0012526308609
 21
458.0925720285711
 31
0.0
  0
ARC
  5
7059
330
DF
100
AcDbEntity
  8
JISSEN
100
AcDbCircle
 10
369.4236013791698
 20
453.592572028571
 30
0.0
 40
1.0
100
AcDbArc
 50
180.0
 51
270.0
  0
ARC
  5
705A
330
DF
100
AcDbEntity
  8
JISSEN
100
AcDbCircle
 10
403.4236013791697
 20
453.592572028571
 30
0.0
 40
1.0
100
AcDbArc
 50
270.0000000000001
 51
0.0
  0
ARC
  5
705B
330
DF
100
AcDbEntity
  8
JISSEN
100
AcDbCircle
 10
405.4236013791698
 20
451.5925720285711
 30
0.0
 40
1.0
100
AcDbArc
 50
270.0
 51
0.0
  0
ARC
  5
705C
330
DF
100
AcDbEntity
  8
JISSEN
100
AcDbCircle
 10
367.4236013791698
 20
451.5925720285711
 30
0.0
 40
1.0
100
AcDbArc
 50
180.0
 51
270.0
  0
ARC
  5
705D
330
DF
100
AcDbEntity
  8
JISSEN
100
AcDbCircle
 10
367.4236013791698
 20
472.0925720285711
 30
0.0
 40
1.0
100
AcDbArc
 50
90.0
 51
180.0
  0
ARC
  5
705E
330
DF
100
AcDbEntity
  8
JISSEN
100
AcDbCircle
 10
405.4236013791698
 20
472.0925720285711
 30
0.0
 40
1.0
100
AcDbArc
 50
0.0000000000000509
 51
90.0
  0
ARC
  5
705F
330
DF
100
AcDbEntity
  8
JISSEN
100
AcDbCircle
 10
369.4236013791698
 20
470.092572028571
 30
0.0
 40
1.0
100
AcDbArc
 50
90.0
 51
179.9999999999999
  0
ARC
  5
7060
330
DF
100
AcDbEntity
  8
JISSEN
100
AcDbCircle
 10
403.4236013791697
 20
470.0925720285712
 30
0.0
 40
1.0
100
AcDbArc
 50
359.9999999999999
 51
90.0000000000001
  0
ARC
  5
7063
330
DF
100
AcDbEntity
  8
JISSEN
100
AcDbCircle
 10
405.7465684177429
 20
451.5925720285712
 30
0.0
 40
1.0
100
AcDbArc
 50
270.0
 51
338.1985905136482
  0
ARC
  5
7064
330
DF
100
AcDbEntity
  8
JISSEN
100
AcDbCircle
 10
367.1006343405966
 20
451.5925720285711
 30
0.0
 40
1.0
100
AcDbArc
 50
201.8014094863518
 51
270.0000000000001
  0
LINE
  5
7069
330
DF
100
AcDbEntity
  8
ITTEN
100
AcDbLine
 10
393.9236013791697
 20
217.32698238
 30
0.0
 11
393.9236013791697
 21
687.61238916
 31
0.0
  0
LINE
  5
7070
330
DF
100
AcDbEntity
  8
JISSEN
100
AcDbLine
 10
358.4236013791697
 20
476.84257203
 30
0.0
 11
358.4236013791698
 21
476.8425720299999
 31
0.0
  0
ARC
  5
7072
330
DF
100
AcDbEntity
  8
JISSEN
100
AcDbCircle
 10
353.4236013791698
 20
476.8425720299999
 30
0.0
 40
5.0
100
AcDbArc
 50
0.0
 51
90.0
  0
ARC
  5
7073
330
DF
100
AcDbEntity
  8
JISSEN
100
AcDbCircle
 10
353.4236013791697
 20
476.84257203
 30
0.0
 40
5.0
100
AcDbArc
 50
270.0
 51
0.0
  0
ARC
  5
7076
330
DF
100
AcDbEntity
  8
JISSEN
100
AcDbCircle
 10
353.4236013791697
 20
478.8425720299999
 30
0.0
 40
5.0
100
AcDbArc
 50
270.0
 51
348.4630409672359
  0
LINE
  5
7079
330
DF
100
AcDbEntity
  8
JISSEN
100
AcDbLine
 10
304.4236013791697
 20
481.8425720299999
 30
0.0
 11
353.4236013791698
 21
481.8425720299999
 31
0.0
  0
LINE
  5
707E
330
DF
100
AcDbEntity
  8
JISSEN
100
AcDbLine
 10
293.3893497173941
 20
460.640420247734
 30
0.0
 11
305.6304177562847
 21
481.8425720299999
 31
0.0
  0
LINE
  5
7080
330
DF
100
AcDbEntity
  8
JISSEN
100
AcDbLine
 10
287.9270512440505
 20
457.0226591386171
 30
0.0
 11
292.2912735060408
 21
459.5423440363807
 31
0.0
  0
LINE
  5
7081
330
DF
100
AcDbEntity
  8
JISSEN
100
AcDbLine
 10
298.5137053703763
 20
455.5160645947519
 30
0.0
 11
313.7133215249395
 21
481.8425720299999
 31
0.0
  0
ARC
  5
7085
330
DF
100
AcDbEntity
  8
JISSEN
100
AcDbCircle
 10
290.7912735060408
 20
462.140420247734
 30
0.0
 40
3.0
100
AcDbArc
 50
299.9999999999999
 51
329.9999999999999
  0
ARC
  5
7086
330
DF
100
AcDbEntity
  8
JISSEN
100
AcDbCircle
 10
295.915629159023
 20
457.0160645947519
 30
0.0
 40
3.0
100
AcDbArc
 50
299.9999999999999
 51
330.0
  0
LINE
  5
7088
330
DF
100
AcDbEntity
  8
JISSEN
100
AcDbLine
 10
309.0945193714225
 20
473.8425720299999
 30
0.0
 11
353.4236013791697
 21
473.8425720299999
 31
0.0
  0
LINE
  5
7089
330
DF
100
AcDbEntity
  8
JISSEN
100
AcDbLine
 10
307.9398188330433
 20
471.84257203
 30
0.0
 11
353.4236013791697
 21
471.84257203
 31
0.0
  0
LINE
  5
708A
330
DF
100
AcDbEntity
  8
JISSEN
100
AcDbLine
 10
272.2497810461903
 20
451.0073617092634
 30
0.0
 11
286.8422210851906
 21
457.2217800262571
 31
0.0
  0
LINE
  5
708B
330
DF
100
AcDbEntity
  8
JISSEN
100
AcDbLine
 10
278.0525492711108
 20
440.7799752041805
 30
0.0
 11
290.9690712245885
 21
450.0276693317874
 31
0.0
  0
LINE
  5
708F
330
DF
100
AcDbEntity
  8
JISSEN
100
AcDbLine
 10
288.1000615783201
 20
456.8017360404817
 30
0.0
 11
291.2529581489801
 21
451.3407589890887
 31
0.0
  0
ARC
  5
7091
330
DF
100
AcDbEntity
  8
JISSEN
100
AcDbCircle
 10
287.2340361745356
 20
456.3017360404817
 30
0.0
 40
1.0
100
AcDbArc
 50
29.99999999999984
 51
113.0674867992494
  0
ARC
  5
7092
330
DF
100
AcDbEntity
  8
JISSEN
100
AcDbCircle
 10
290.3869327451957
 20
450.8407589890887
 30
0.0
 40
1.0
100
AcDbArc
 50
305.6010928778473
 51
29.99999999999999
  0
LINE
  5
7093
330
DF
100
AcDbEntity
  8
JISSEN
100
AcDbLine
 10
291.3825046287486
 20
450.9347623117901
 30
0.0
 11
297.415629159023
 21
454.4179883833985
 31
0.0
  0
LINE
  5
7099
330
DF
100
AcDbEntity
  8
JISSEN
100
AcDbLine
 10
304.4236013791697
 20
479.7523047494305
 30
0.0
 11
304.4236013791699
 21
632.592572028571
 31
0.0
  0
LINE
  5
709A
330
DF
100
AcDbEntity
  8
JISSEN
100
AcDbLine
 10
301.4236013791697
 20
474.5561523267239
 30
0.0
 11
301.4236013791697
 21
632.592572028571
 31
0.0
  0
LINE
  5
709D
330
DF
100
AcDbEntity
  8
JISSEN
100
AcDbLine
 10
289.7801947291235
 20
458.0925720285711
 30
0.0
 11
288.0353388991699
 21
458.0925720285711
 31
0.0
  0
LINE
  5
70A2
330
DF
100
AcDbEntity
  8
JISSEN
100
AcDbLine
 10
271.0399355568189
 20
449.005858865885
 30
0.0
 11
271.4082503382301
 21
444.4571667496168
 31
0.0
  0
LINE
  5
70A3
330
DF
100
AcDbEntity
  8
JISSEN
100
AcDbLine
 10
272.330142325631
 20
442.929881406681
 30
0.0
 11
275.8166886316645
 21
440.7174543040195
 31
0.0
  0
ARC
  5
70A4
330
DF
100
AcDbEntity
  8
JISSEN
100
AcDbCircle
 10
273.0334112248803
 20
449.1672737377126
 30
0.0
 40
2.0
100
AcDbArc
 50
113.0674867992493
 51
184.6292303213068
  0
ARC
  5
70A5
330
DF
100
AcDbEntity
  8
JISSEN
100
AcDbCircle
 10
273.4017260062916
 20
444.6185816214445
 30
0.0
 40
2.0
100
AcDbArc
 50
184.629230321307
 51
237.6023719783252
  0
ARC
  5
70A6
330
DF
100
AcDbEntity
  8
JISSEN
100
AcDbCircle
 10
276.888272312325
 20
442.4061545187828
 30
0.0
 40
2.0
100
AcDbArc
 50
237.6023719783251
 51
305.6010928778472
  0
LINE
  5
70A8
330
DF
100
AcDbEntity
  8
JISSEN
100
AcDbLine
 10
280.9236013757666
 20
454.7012434583314
 30
0.0
 11
280.9236013757666
 21
485.5925720300001
 31
0.0
  0
DIMENSION
  5
70B8
330
DF
100
AcDbEntity
  8
SUNPOU
100
AcDbDimension
  2
*D7
 10
270.9236013791697
 20
748.6580430769991
 30
0.0
 11
389.9236013808713
 21
748.6580430769991
 31
0.0
 70
   160
  3
IMCADLT
100
AcDbAlignedDimension
 13
508.923601382573
 23
520.59257203
 33
0.0
 14
270.9236013791697
 24
449.2898406389913
 34
0.0
100
AcDbRotatedDimension
1001
ACAD
1000
DSTYLE
1002
{
1070
    40
1040
5.0
1070
    41
1040
3.0
1002
}
  0
LINE
  5
70D2
330
DF
100
AcDbEntity
  8
JISSEN
100
AcDbLine
 10
481.4236013791698
 20
497.0925720285711
 30
0.0
 11
306.4236013791697
 21
497.0925720285711
 31
0.0
  0
ARC
  5
70D3
330
DF
100
AcDbEntity
  8
JISSEN
100
AcDbCircle
 10
481.4236013791698
 20
495.092572028571
 30
0.0
 40
2.0
100
AcDbArc
 50
0.0
 51
90.0
  0
ARC
  5
70D4
330
DF
100
AcDbEntity
  8
JISSEN
100
AcDbCircle
 10
481.4236013791698
 20
496.0925720285711
 30
0.0
 40
2.0
100
AcDbArc
 50
0.0
 51
90.0
  0
ARC
  5
70D5
330
DF
100
AcDbEntity
  8
JISSEN
100
AcDbCircle
 10
306.4236013791697
 20
495.092572028571
 30
0.0
 40
2.0
100
AcDbArc
 50
90.00000000000003
 51
180.0
  0
ARC
  5
70D6
330
DF
100
AcDbEntity
  8
JISSEN
100
AcDbCircle
 10
306.4236013791698
 20
496.0925720285712
 30
0.0
 40
2.0
100
AcDbArc
 50
90.00000000000003
 51
180.0
  0
ARC
  5
70D7
330
DF
100
AcDbEntity
  8
JISSEN
100
AcDbCircle
 10
481.4236013791698
 20
465.0925720285711
 30
0.0
 40
2.0
100
AcDbArc
 50
270.0
 51
0.0
  0
LINE
  5
70DA
330
DF
100
AcDbEntity
  8
JISSEN
100
AcDbLine
 10
439.9236013791698
 20
498.0925720285711
 30
0.0
 11
306.4236013791698
 21
498.0925720285712
 31
0.0
  0
ELLIPSE
  5
70E4
330
DF
100
AcDbEntity
  8
JISSEN
100
AcDbEllipse
 10
453.4236013791697
 20
468.59257203
 30
0.0
 11
-20.0
 21
0.0
 31
0.0
210
0.0
220
0.0
230
1.0
 40
0.5625
 41
0.0
 42
6.283185307179586
  0
ELLIPSE
  5
70E6
330
DF
100
AcDbEntity
  8
JISSEN
100
AcDbEllipse
 10
453.4236013791697
 20
475.84257203
 30
0.0
 11
-20.0
 21
0.0
 31
0.0
210
0.0
220
0.0
230
1.0
 40
0.5625
 41
3.141592653589793
 42
6.283185307179586
  0
LINE
  5
70EA
330
DF
100
AcDbEntity
  8
JISSEN
100
AcDbLine
 10
473.4236013791697
 20
475.8425720300023
 30
0.0
 11
473.4236013791696
 21
468.5925720300023
 31
0.0
  0
LINE
  5
70EB
330
DF
100
AcDbEntity
  8
JISSEN
100
AcDbLine
 10
433.4236013791698
 20
475.8425720299953
 30
0.0
 11
433.4236013791697
 21
468.5925720299999
 31
0.0
  0
LINE
  5
70FE
330
DF
100
AcDbEntity
  8
JISSEN
100
AcDbLine
 10
465.9236013791698
 20
484.6246004652478
 30
0.0
 11
465.9236013791698
 21
497.0925720285712
 31
0.0
  0
LINE
  5
70FF
330
DF
100
AcDbEntity
  8
JISSEN
100
AcDbLine
 10
461.9236013791698
 20
486.0259972120053
 30
0.0
 11
461.9236013791698
 21
497.0925720285711
 31
0.0
  0
LINE
  5
7100
330
DF
100
AcDbEntity
  8
JISSEN
100
AcDbLine
 10
444.9236013791698
 20
486.0259972120054
 30
0.0
 11
444.9236013791698
 21
497.0925720285711
 31
0.0
  0
LINE
  5
7101
330
DF
100
AcDbEntity
  8
JISSEN
100
AcDbLine
 10
440.9236013791698
 20
484.6246004652478
 30
0.0
 11
440.9236013791698
 21
497.0925720285711
 31
0.0
  0
LINE
  5
7102
330
DF
100
AcDbEntity
  8
JISSEN
100
AcDbLine
 10
435.9766801126906
 20
463.0925720285711
 30
0.0
 11
409.4236013791697
 21
463.0925720285711
 31
0.0
  0
LINE
  5
7103
330
DF
100
AcDbEntity
  8
JISSEN
100
AcDbLine
 10
446.2433816429273
 20
458.0925720285711
 30
0.0
 11
408.2659626721831
 21
458.0925720285711
 31
0.0
  0
ELLIPSE
  5
7104
330
DF
100
AcDbEntity
  8
JISSEN
100
AcDbEllipse
 10
453.4236013791697
 20
468.59257203
 30
0.0
 11
-4.0
 21
0.0
 31
0.0
210
0.0
220
0.0
230
1.0
 40
0.5625
 41
0.0
 42
6.283185307179586
  0
ARC
  5
7105
330
DF
100
AcDbEntity
  8
JISSEN
100
AcDbCircle
 10
466.9236013791698
 20
497.0925720285712
 30
0.0
 40
1.0
100
AcDbArc
 50
90.0
 51
180.0
  0
ARC
  5
7106
330
DF
100
AcDbEntity
  8
JISSEN
100
AcDbCircle
 10
439.9236013791698
 20
497.0925720285711
 30
0.0
 40
1.0
100
AcDbArc
 50
0.0
 51
89.99999999999998
  0
LINE
  5
7108
330
DF
100
AcDbEntity
  8
JISSEN
100
AcDbLine
 10
492.7682451604767
 20
533.3136766962513
 30
0.0
 11
492.7682451604767
 21
536.7511766962479
 31
0.0
  0
ELLIPSE
  5
7109
330
DF
100
AcDbEntity
  8
JISSEN
100
AcDbEllipse
 10
477.7682451604768
 20
533.3136766962479
 30
0.0
 11
15.0
 21
-0.0000000000000018
 31
0.0
210
0.0
220
0.0
230
1.0
 40
0.5625
 41
3.141592653589793
 42
6.283185307179586
  0
ELLIPSE
  5
710A
330
DF
100
AcDbEntity
  8
JISSEN
100
AcDbEllipse
 10
477.7682451604767
 20
536.7511766962479
 30
0.0
 11
15.0
 21
-0.0000000000000018
 31
0.0
210
0.0
220
0.0
230
1.0
 40
0.5625
 41
0.0
 42
6.283185307179586
  0
LINE
  5
710B
330
DF
100
AcDbEntity
  8
JISSEN
100
AcDbLine
 10
462.7682451604767
 20
533.3136766962462
 30
0.0
 11
462.7682451604767
 21
536.7511766962461
 31
0.0
  0
LINE
  5
7115
330
DF
100
AcDbEntity
  8
JISSEN
100
AcDbLine
 10
470.2682451589163
 20
537.3040577530144
 30
0.0
 11
470.2682451589163
 21
532.6438037151701
 31
0.0
  0
LINE
  5
7116
330
DF
100
AcDbEntity
  8
JISSEN
100
AcDbLine
 10
470.2682451589163
 20
532.6438037151701
 30
0.0
 11
477.7682451589164
 21
528.313676696248
 31
0.0
  0
LINE
  5
7117
330
DF
100
AcDbEntity
  8
JISSEN
100
AcDbLine
 10
477.7682451589164
 20
528.313676696248
 30
0.0
 11
485.2682451589162
 21
532.6438037151699
 31
0.0
  0
LINE
  5
7118
330
DF
100
AcDbEntity
  8
JISSEN
100
AcDbLine
 10
485.2682451589162
 20
532.6438037151699
 30
0.0
 11
485.2682451589163
 21
537.3040577530144
 31
0.0
  0
LINE
  5
7119
330
DF
100
AcDbEntity
  8
JISSEN
100
AcDbLine
 10
485.2682451589163
 20
537.3040577530144
 30
0.0
 11
483.6311446953081
 21
538.249238146369
 31
0.0
  0
LINE
  5
711A
330
DF
100
AcDbEntity
  8
JISSEN
100
AcDbLine
 10
471.9053456166007
 20
538.249238142949
 30
0.0
 11
470.2682451589163
 21
537.3040577530144
 31
0.0
  0
ARC
  5
711E
330
DF
100
AcDbEntity
  8
JISSEN
100
AcDbCircle
 10
477.7682451563264
 20
536.9739307340924
 30
0.0
 40
6.0
100
AcDbArc
 50
103.1919161625089
 51
76.80808383749104
  0
CIRCLE
  5
7121
330
DF
100
AcDbEntity
  8
JISSEN
100
AcDbCircle
 10
477.7682451563264
 20
540.7239307340923
 30
0.0
 40
2.5
  0
LINE
  5
7122
330
DF
100
AcDbEntity
  8
JISSEN
100
AcDbLine
 10
486.4236013791698
 20
543.6423138673872
 30
0.0
 11
486.4236013791698
 21
632.5925720285712
 31
0.0
  0
LINE
  5
7123
330
DF
100
AcDbEntity
  8
JISSEN
100
AcDbLine
 10
483.4236013791698
 20
544.5660195022729
 30
0.0
 11
483.4236013791698
 21
632.5925720285712
 31
0.0
  0
LINE
  5
712E
330
DF
100
AcDbEntity
  8
JISSEN
100
AcDbLine
 10
869.3858458600001
 20
283.6481275855555
 30
0.0
 11
727.2194358011325
 21
275.7499936933963
 31
0.0
  0
LINE
  5
712F
330
DF
100
AcDbEntity
  8
JISSEN
100
AcDbLine
 10
724.38584586
 20
272.75461263378
 30
0.0
 11
724.3858458600001
 21
253.59257203
 31
0.0
  0
LINE
  5
7130
330
DF
100
AcDbEntity
  8
JISSEN
100
AcDbLine
 10
727.3858458600001
 20
250.59257203
 30
0.0
 11
987.38584586
 21
250.59257203
 31
0.0
  0
LINE
  5
7131
330
DF
100
AcDbEntity
  8
JISSEN
100
AcDbLine
 10
988.38584586
 20
251.59257203
 30
0.0
 11
988.3858458600002
 21
576.59257203
 31
0.0
  0
LINE
  5
7132
330
DF
100
AcDbEntity
  8
JISSEN
100
AcDbLine
 10
819.3858458600001
 20
449.6662027829074
 30
0.0
 11
819.3858458600001
 21
285.6002821348111
 31
0.0
  0
LINE
  5
7134
330
DF
100
AcDbEntity
  8
JISSEN
100
AcDbLine
 10
980.646201946222
 20
632.59257203
 30
0.0
 11
872.2878404400001
 21
632.59257203
 31
0.0
  0
LINE
  5
7136
330
DF
100
AcDbEntity
  8
JISSEN
100
AcDbLine
 10
814.1873007223614
 20
458.4380914737599
 30
0.0
 11
730.7963952002096
 21
504.0836397595698
 31
0.0
  0
LINE
  5
7138
330
DF
100
AcDbEntity
  8
JISSEN
100
AcDbLine
 10
791.4418280026116
 20
541.4476675900226
 30
0.0
 11
749.5336870991263
 21
568.7982437586131
 31
0.0
  0
ARC
  5
713F
330
DF
100
AcDbEntity
  8
JISSEN
100
AcDbCircle
 10
872.2878404374906
 20
482.59257203
 30
0.0
 40
150.0
100
AcDbArc
 50
89.99999999904144
 51
167.5161759202771
  0
ARC
  5
7140
330
DF
100
AcDbEntity
  8
JISSEN
100
AcDbCircle
 10
872.2878404374906
 20
482.59257203
 30
0.0
 40
100.0
100
AcDbArc
 50
89.99999999904144
 51
140.5134434845897
  0
LINE
  5
7142
330
DF
100
AcDbEntity
  8
JISSEN
100
AcDbLine
 10
869.3858458600001
 20
476.3348643948233
 30
0.0
 11
869.3858458600001
 21
250.59257203
 31
0.0
  0
ARC
  5
7147
330
DF
100
AcDbEntity
  8
JISSEN
100
AcDbCircle
 10
786.6634710183843
 20
242.5925720299999
 30
0.0
 40
2.0
100
AcDbArc
 50
270.0
 51
351.4692343900517
  0
ARC
  5
7148
330
DF
100
AcDbEntity
  8
JISSEN
100
AcDbCircle
 10
770.1082207016156
 20
242.5925720299999
 30
0.0
 40
2.0
100
AcDbArc
 50
188.5307656099479
 51
270.0
  0
LINE
  5
7149
330
DF
100
AcDbEntity
  8
JISSEN
100
AcDbLine
 10
788.641343724121
 20
242.2958911241395
 30
0.0
 11
789.88584586
 21
250.59257203
 31
0.0
  0
LINE
  5
714A
330
DF
100
AcDbEntity
  8
JISSEN
100
AcDbLine
 10
770.1082207016156
 20
240.59257203
 30
0.0
 11
786.6634710183843
 21
240.59257203
 31
0.0
  0
LINE
  5
714B
330
DF
100
AcDbEntity
  8
JISSEN
100
AcDbLine
 10
766.8858458599999
 20
250.59257203
 30
0.0
 11
768.1303479958789
 21
242.2958911241395
 31
0.0
  0
ARC
  5
714C
330
DF
100
AcDbEntity
  8
JISSEN
100
AcDbCircle
 10
971.6634710183845
 20
242.5925720299999
 30
0.0
 40
2.0
100
AcDbArc
 50
269.9999999999998
 51
351.4692343900518
  0
ARC
  5
714D
330
DF
100
AcDbEntity
  8
JISSEN
100
AcDbCircle
 10
955.1082207016158
 20
242.5925720299999
 30
0.0
 40
2.0
100
AcDbArc
 50
188.5307656099481
 51
270.0
  0
LINE
  5
714E
330
DF
100
AcDbEntity
  8
JISSEN
100
AcDbLine
 10
974.88584586
 20
250.59257203
 30
0.0
 11
973.641343724121
 21
242.2958911241395
 31
0.0
  0
LINE
  5
714F
330
DF
100
AcDbEntity
  8
JISSEN
100
AcDbLine
 10
971.6634710183845
 20
240.59257203
 30
0.0
 11
955.1082207016158
 21
240.59257203
 31
0.0
  0
LINE
  5
7150
330
DF
100
AcDbEntity
  8
JISSEN
100
AcDbLine
 10
953.1303479958792
 20
242.2958911241396
 30
0.0
 11
951.8858458600002
 21
250.59257203
 31
0.0
  0
LINE
  5
7153
330
DF
100
AcDbEntity
  8
JISSEN
100
AcDbLine
 10
791.9883646508536
 20
542.2851027768451
 30
0.0
 11
750.0802237473684
 21
569.6356789454354
 31
0.0
  0
LINE
  5
7159
330
DF
100
AcDbEntity
  8
JISSEN
100
AcDbLine
 10
814.3858458574465
 20
452.4030448897168
 30
0.0
 11
814.3858458599297
 21
285.3225043571037
 31
0.0
  0
ARC
  5
7162
330
DF
100
AcDbEntity
  8
JISSEN
100
AcDbCircle
 10
809.3858458599298
 20
285.3225043570294
 30
0.0
 40
5.0
100
AcDbArc
 50
273.1798301198642
 51
0.0000000008515363
  0
ARC
  5
7163
330
DF
100
AcDbEntity
  8
JISSEN
100
AcDbCircle
 10
814.38584586
 20
285.6002821348111
 30
0.0
 40
5.0
100
AcDbArc
 50
273.1798301198642
 51
0.0
  0
ARC
  5
7164
330
DF
100
AcDbEntity
  8
JISSEN
100
AcDbCircle
 10
727.38584586
 20
272.75461263378
 30
0.0
 40
3.0
100
AcDbArc
 50
93.17983011986424
 51
180.0
  0
ARC
  5
7165
330
DF
100
AcDbEntity
  8
JISSEN
100
AcDbCircle
 10
727.3858458600001
 20
253.59257203
 30
0.0
 40
3.0
100
AcDbArc
 50
180.0
 51
270.0
  0
LINE
  5
7166
330
DF
100
AcDbEntity
  8
JISSEN
100
AcDbLine
 10
874.38584586
 20
476.33486439
 30
0.0
 11
874.38584586
 21
250.59257203
 31
0.0
  0
LINE
  5
7168
330
DF
100
AcDbEntity
  8
JISSEN
100
AcDbLine
 10
987.3858458600002
 20
577.59257203
 30
0.0
 11
872.2878404400001
 21
577.59257203
 31
0.0
  0
ARC
  5
7169
330
DF
100
AcDbEntity
  8
JISSEN
100
AcDbCircle
 10
872.2878404374906
 20
482.59257203
 30
0.0
 40
95.0
100
AcDbArc
 50
89.99999999904144
 51
140.513443484591
  0
LINE
  5
716F
330
DF
100
AcDbEntity
  8
JISSEN
100
AcDbLine
 10
983.6338815656251
 20
629.8641792681276
 30
0.0
 11
988.25415750212
 21
579.0411439666804
 31
0.0
  0
ARC
  5
7170
330
DF
100
AcDbEntity
  8
JISSEN
100
AcDbCircle
 10
980.646201946222
 20
629.59257203
 30
0.0
 40
3.0
100
AcDbArc
 50
5.19442890773482
 51
90.0
  0
LINE
  5
7171
330
DF
100
AcDbEntity
  8
JISSEN
100
AcDbLine
 10
983.3858458599999
 20
250.59257203
 30
0.0
 11
983.3858458600001
 21
577.59257203
 31
0.0
  0
LINE
  5
7172
330
DF
100
AcDbEntity
  8
JISSEN
100
AcDbLine
 10
978.6132629214492
 20
629.8641792681276
 30
0.0
 11
983.3652272158239
 21
577.59257203
 31
0.0
  0
LINE
  5
7174
330
DF
100
AcDbEntity
  8
JISSEN
100
AcDbLine
 10
982.9106817612785
 20
582.59257203
 30
0.0
 11
872.2878404400001
 21
582.59257203
 31
0.0
  0
LINE
  5
7175
330
DF
100
AcDbEntity
  8
JISSEN
100
AcDbLine
 10
983.3652272158239
 20
577.59257203
 30
0.0
 11
987.3488000416948
 21
577.9547150141701
 31
0.0
  0
ARC
  5
7176
330
DF
100
AcDbEntity
  8
JISSEN
100
AcDbCircle
 10
975.625583302046
 20
629.59257203
 30
0.0
 40
3.0
100
AcDbArc
 50
5.194428907734566
 51
90.0
  0
ARC
  5
7177
330
DF
100
AcDbEntity
  8
JISSEN
100
AcDbCircle
 10
980.646201946222
 20
629.59257203
 30
0.0
 40
3.0
100
AcDbArc
 50
5.194428907734566
 51
90.0
  0
ARC
  5
7178
330
DF
100
AcDbEntity
  8
JISSEN
100
AcDbCircle
 10
987.3858458600002
 20
576.59257203
 30
0.0
 40
1.0
100
AcDbArc
 50
0.0
 51
90.0
  0
ARC
  5
7179
330
DF
100
AcDbEntity
  8
JISSEN
100
AcDbCircle
 10
987.2582642956523
 20
578.9506082206378
 30
0.0
 40
1.0
100
AcDbArc
 50
275.1944289077348
 51
5.194428907734552
  0
ARC
  5
717A
330
DF
100
AcDbEntity
  8
JISSEN
100
AcDbCircle
 10
987.38584586
 20
251.59257203
 30
0.0
 40
1.0
100
AcDbArc
 50
270.0
 51
359.9999999999999
  0
SPLINE
  5
717F
330
DF
100
AcDbEntity
  8
JISSEN
100
AcDbSpline
210
0.0
220
0.0
230
1.0
 70
     8
 71
     3
 72
    11
 73
     7
 74
     5
 42
0.0000000001
 43
0.0000000001
 44
0.0000000001
 40
0.0
 40
0.0
 40
0.0
 40
0.0
 40
9.903364549848676
 40
17.18093630216195
 40
21.9972431586304
 40
28.99033489637439
 40
28.99033489637439
 40
28.99033489637439
 40
28.99033489637439
 10
1059.134021827471
 20
310.1055837605595
 30
0.0
 10
1055.623741974898
 20
307.0248420421885
 30
0.0
 10
1049.533903087694
 20
301.6801910440028
 30
0.0
 10
1060.463844516539
 20
299.1661359616005
 30
0.0
 10
1059.563632680804
 20
291.5850736010349
 30
0.0
 10
1056.321874840629
 20
289.1834930468873
 30
0.0
 10
1054.402225013669
 20
287.7613653240609
 30
0.0
 11
1059.134021827471
 21
310.1055837605595
 31
0.0
 11
1053.462968595665
 21
301.9867301069193
 31
0.0
 11
1059.304256808161
 21
297.6459464646923
 31
0.0
 11
1059.219735693771
 21
292.8303812936155
 31
0.0
 11
1054.402225013669
 21
287.7613653240609
 31
0.0
  0
SPLINE
  5
7180
330
DF
100
AcDbEntity
  8
JISSEN
100
AcDbSpline
210
0.0
220
0.0
230
1.0
 70
     8
 71
     3
 72
    56
 73
    52
 74
     0
 42
0.0000000001
 43
0.0000000001
 40
0.0
 40
0.0
 40
0.0
 40
0.0
 40
0.943425776021794
 40
0.943425776021794
 40
2.830277328065382
 40
2.830277328065382
 40
4.539137381878086
 40
4.539137381878086
 40
6.247997435690789
 40
6.247997435690789
 40
7.33131001392477
 40
7.33131001392477
 40
8.217169656553545
 40
8.217169656553545
 40
9.10302929918232
 40
9.10302929918232
 40
9.71171118807811
 40
9.71171118807811
 40
10.13816962475659
 40
10.13816962475659
 40
10.56462806143507
 40
10.56462806143507
 40
11.64561061001192
 40
11.64561061001192
 40
12.72659315858877
 40
12.72659315858877
 40
13.80757570716562
 40
13.80757570716562
 40
15.25822344972975
 40
15.25822344972975
 40
16.43252597389821
 40
16.43252597389821
 40
17.0818501158139
 40
17.0818501158139
 40
17.51805693678398
 40
17.51805693678398
 40
17.95426375775406
 40
17.95426375775406
 40
18.82667739969422
 40
18.82667739969422
 40
20.56518551174403
 40
20.56518551174403
 40
21.83047636071274
 40
21.83047636071274
 40
23.7184639994345
 40
23.7184639994345
 40
25.60645163815627
 40
25.60645163815627
 40
27.49443927687804
 40
27.49443927687804
 40
28.99033489637439
 40
28.99033489637439
 40
28.99033489637439
 40
28.99033489637439
 10
1057.814771394377
 20
311.6087731347843
 30
0.0
 10
1057.480371052221
 20
311.3152919515211
 30
0.0
 10
1057.143686901606
 20
311.019816244224
 30
0.0
 10
1056.139114894995
 20
310.1299062236928
 30
0.0
 10
1055.476934608193
 20
309.5324601487345
 30
0.0
 10
1054.28744894699
 20
308.3904889549399
 30
0.0
 10
1053.753261791004
 20
307.8468268756416
 30
0.0
 10
1052.786980582471
 20
306.7425905860811
 30
0.0
 10
1052.353519828773
 20
306.1840263531124
 30
0.0
 10
1051.766613767831
 20
305.2032265743652
 30
0.0
 10
1051.567922348046
 20
304.8047570949868
 30
0.0
 10
1051.295981347654
 20
304.0133110595816
 30
0.0
 10
1051.206602207558
 20
303.6307711071107
 30
0.0
 10
1051.148161038232
 20
302.8110976453134
 30
0.0
 10
1051.1825338759
 20
302.3727196251447
 30
0.0
 10
1051.384524272968
 20
301.6500111092646
 30
0.0
 10
1051.50640811801
 20
301.3622899758439
 30
0.0
 10
1051.769484670498
 20
300.9098721012983
 30
0.0
 10
1051.894904299041
 20
300.7333576837563
 30
0.0
 10
1052.153430743573
 20
300.4199566968512
 30
0.0
 10
1052.287699788042
 20
300.2799914707186
 30
0.0
 10
1052.768695681895
 20
299.8272670642626
 30
0.0
 10
1053.124224372593
 20
299.575299018462
 30
0.0
 10
1053.836871937359
 20
299.1197564464686
 30
0.0
 10
1054.19569204603
 20
298.9181580421458
 30
0.0
 10
1054.902384326472
 20
298.5311674946019
 30
0.0
 10
1055.250156310226
 20
298.3463908624829
 30
0.0
 10
1056.018798216213
 20
297.9180921887399
 30
0.0
 10
1056.423596559767
 20
297.6749640382882
 30
0.0
 10
1057.015026757228
 20
297.2486088103843
 30
0.0
 10
1057.226751850616
 20
297.0635305169618
 30
0.0
 10
1057.456221988145
 20
296.8114316517029
 30
0.0
 10
1057.518764873111
 20
296.7290567694427
 30
0.0
 10
1057.597112537279
 20
296.6060382986272
 30
0.0
 10
1057.623017554617
 20
296.5586523099029
 30
0.0
 10
1057.673688194431
 20
296.4501300304592
 30
0.0
 10
1057.697056461911
 20
296.3911623337986
 30
0.0
 10
1057.760065993242
 20
296.1982164510384
 30
0.0
 10
1057.792485422655
 20
296.0476998718018
 30
0.0
 10
1057.846437375495
 20
295.5380634462499
 30
0.0
 10
1057.821480441029
 20
295.1200996455096
 30
0.0
 10
1057.663444016973
 20
294.3743450083455
 30
0.0
 10
1057.562960977185
 20
294.0537226812923
 30
0.0
 10
1057.254148086833
 20
293.3046264073778
 30
0.0
 10
1057.019169379332
 20
292.8998529524733
 30
0.0
 10
1056.441850624471
 20
292.116699350149
 30
0.0
 10
1056.098941523229
 20
291.7402709312669
 30
0.0
 10
1055.31433076607
 20
290.9968249126853
 30
0.0
 10
1054.873046090966
 20
290.6306080122239
 30
0.0
 10
1054.020528280662
 20
289.9678572756418
 30
0.0
 10
1053.622314001504
 20
289.6726217108598
 30
0.0
 10
1053.211680783064
 20
289.3684136851795
 30
0.0
  0
LINE
  5
7181
330
DF
100
AcDbEntity
  8
JISSEN
100
AcDbLine
 10
1105.27990409
 20
295.59257203
 30
0.0
 11
1105.27990409
 21
301.59257203
 31
0.0
  0
LINE
  5
7182
330
DF
100
AcDbEntity
  8
JISSEN
100
AcDbLine
 10
1107.27990409
 20
303.59257203
 30
0.0
 11
1115.27990409
 21
303.59257203
 31
0.0
  0
LINE
  5
7183
330
DF
100
AcDbEntity
  8
JISSEN
100
AcDbLine
 10
1107.27990409
 20
293.59257203
 30
0.0
 11
1115.27990409
 21
293.59257203
 31
0.0
  0
LINE
  5
7185
330
DF
100
AcDbEntity
  8
JISSEN
100
AcDbLine
 10
1115.27990409
 20
293.59257203
 30
0.0
 11
1115.27990409
 21
303.59257203
 31
0.0
  0
ARC
  5
7186
330
DF
100
AcDbEntity
  8
JISSEN
100
AcDbCircle
 10
1107.27990409
 20
301.59257203
 30
0.0
 40
2.0
100
AcDbArc
 50
90.0
 51
180.0
  0
ARC
  5
7187
330
DF
100
AcDbEntity
  8
JISSEN
100
AcDbCircle
 10
1107.27990409
 20
295.59257203
 30
0.0
 40
2.0
100
AcDbArc
 50
180.0
 51
270.0
  0
LINE
  5
7188
330
DF
100
AcDbEntity
  8
JISSEN
100
AcDbLine
 10
988.38584586
 20
301.59257203
 30
0.0
 11
1051.420627905389
 21
301.59257203
 31
0.0
  0
LINE
  5
7189
330
DF
100
AcDbEntity
  8
JISSEN
100
AcDbLine
 10
988.38584586
 20
295.59257203
 30
0.0
 11
1057.82613935732
 21
295.59257203
 31
0.0
  0
LINE
  5
718A
330
DF
100
AcDbEntity
  8
JISSEN
100
AcDbLine
 10
1053.811349798267
 20
301.59257203
 30
0.0
 11
1105.27990409
 21
301.59257203
 31
0.0
  0
LINE
  5
718B
330
DF
100
AcDbEntity
  8
JISSEN
100
AcDbLine
 10
1059.826681138153
 20
295.59257203
 30
0.0
 11
1105.27990409
 21
295.59257203
 31
0.0
  0
LINE
  5
718C
330
DF
100
AcDbEntity
  8
JISSEN
100
AcDbLine
 10
1115.27990409
 20
295.59257203
 30
0.0
 11
1121.27990409
 21
295.59257203
 31
0.0
  0
LINE
  5
718D
330
DF
100
AcDbEntity
  8
JISSEN
100
AcDbLine
 10
1115.27990409
 20
301.59257203
 30
0.0
 11
1121.27990409
 21
301.59257203
 31
0.0
  0
DIMENSION
  5
719E
330
DF
100
AcDbEntity
  8
SUNPOU
100
AcDbDimension
  2
*D8
 10
1156.406214800403
 20
240.59257203
 30
0.0
 11
1156.406214800403
 21
270.6272193281038
 31
0.0
 70
   160
  3
IMCADLT
100
AcDbAlignedDimension
 13
1115.27990409
 23
298.59257203
 33
0.0
 14
971.6634710183845
 24
240.59257203
 34
0.0
 50
90.0
100
AcDbRotatedDimension
1001
ACAD
1000
DSTYLE
1002
{
1070
    40
1040
5.0
1070
    41
1040
3.0
1002
}
  0
DIMENSION
  5
71B6
330
DF
100
AcDbEntity
  8
SUNPOU
100
AcDbDimension
  2
*D9
 10
963.38584586
 20
171.1650069748243
 30
0.0
 11
866.9942120866135
 21
171.1650069748243
 31
0.0
 70
   160
  3
IMCADLT
100
AcDbAlignedDimension
 13
778.38584586
 23
240.59257203
 33
0.0
 14
963.38584586
 24
240.59257203
 34
0.0
100
AcDbRotatedDimension
1001
ACAD
1000
DSTYLE
1002
{
1070
    40
1040
5.0
1070
    41
1040
3.0
1002
}
  0
DIMENSION
  5
71C2
330
DF
100
AcDbEntity
  8
SUNPOU
100
AcDbDimension
  2
*D10
 10
724.3858458600001
 20
171.1650069748243
 30
0.0
 11
751.38584586
 21
186.1650069748243
 31
0.0
 70
    32
  3
IMCADLT
100
AcDbAlignedDimension
 13
778.38584586
 23
240.59257203
 33
0.0
 14
724.3858458600001
 24
253.59257203
 34
0.0
100
AcDbRotatedDimension
1001
ACAD
1000
DSTYLE
1002
{
1070
   287
1070
     4
1070
    40
1040
5.0
1070
    41
1040
3.0
1070
    75
1070
     1
1070
   279
1070
     1
1002
}
  0
DIMENSION
  5
71CF
330
DF
100
AcDbEntity
  8
SUNPOU
100
AcDbDimension
  2
*D11
 10
988.38584586
 20
141.1650069748243
 30
0.0
 11
856.38584586
 21
156.1650069748243
 31
0.0
 70
    32
  3
IMCADLT
100
AcDbAlignedDimension
 13
724.3858458600001
 23
253.59257203
 33
0.0
 14
988.38584586
 24
251.59257203
 34
0.0
100
AcDbRotatedDimension
1001
ACAD
1000
DSTYLE
1002
{
1070
    40
1040
5.0
1070
    41
1040
3.0
1002
}
  0
ARC
  5
72F9
330
DF
100
AcDbEntity
  8
JISSEN
100
AcDbCircle
 10
802.6013044544541
 20
511.2784724199542
 30
0.0
 40
77.0
100
AcDbArc
 50
150.8188224673691
 51
163.9694275169949
  0
ARC
  5
72FA
330
DF
100
AcDbEntity
  8
JISSEN
100
AcDbCircle
 10
802.6013044544541
 20
511.2784724199542
 30
0.0
 40
78.0
100
AcDbArc
 50
152.2348754884356
 51
162.0783020736239
  0
ARC
  5
72FB
330
DF
100
AcDbEntity
  8
JISSEN
100
AcDbCircle
 10
802.6013044544541
 20
511.2784724199542
 30
0.0
 40
80.0
100
AcDbArc
 50
154.8368069169173
 51
158.8880356681523
  0
LINE
  5
72FC
330
DF
100
AcDbEntity
  8
JISSEN
100
AcDbLine
 10
737.8484663688718
 20
549.1211726468627
 30
0.0
 11
737.503395859445
 21
549.3463765582783
 31
0.0
  0
LINE
  5
72FD
330
DF
100
AcDbEntity
  8
JISSEN
100
AcDbLine
 10
730.0593313989658
 20
530.3221628505615
 30
0.0
 11
729.2173561190867
 21
530.8716625069036
 31
0.0
  0
ARC
  5
7302
330
DF
100
AcDbEntity
  8
JISSEN
100
AcDbCircle
 10
736.683590887082
 20
548.0902237780445
 30
0.0
 40
1.5
100
AcDbArc
 50
56.87026453158718
 51
150.8188224673686
  0
ARC
  5
7303
330
DF
100
AcDbEntity
  8
JISSEN
100
AcDbCircle
 10
730.0371610914498
 20
532.1278152871374
 30
0.0
 40
1.5
100
AcDbArc
 50
163.9694275169935
 51
236.8702645315865
  0
ARC
  5
7304
330
DF
100
AcDbEntity
  8
JISSEN
100
AcDbCircle
 10
734.4667227707902
 20
547.1487773920635
 30
0.0
 40
1.0
100
AcDbArc
 50
56.87026453158869
 51
152.234875488434
  0
ARC
  5
7305
330
DF
100
AcDbEntity
  8
JISSEN
100
AcDbCircle
 10
729.3375031039901
 20
534.9726787092508
 30
0.0
 40
1.0
100
AcDbArc
 50
162.0783020736252
 51
236.8702645315877
  0
LINE
  5
7306
330
DF
100
AcDbEntity
  8
JISSEN
100
AcDbLine
 10
732.3774058153092
 20
545.2284953937181
 30
0.0
 11
731.6449105166006
 21
545.7065449570858
 31
0.0
  0
LINE
  5
7307
330
DF
100
AcDbEntity
  8
JISSEN
100
AcDbLine
 10
729.4002571246372
 20
538.215559675593
 30
0.0
 11
728.3573788642119
 21
538.8961749613444
 31
0.0
  0
ARC
  5
7308
330
DF
100
AcDbEntity
  8
JISSEN
100
AcDbCircle
 10
731.0983738683586
 20
544.8691097702634
 30
0.0
 40
1.0
100
AcDbArc
 50
56.8702645315869
 51
154.8368069169143
  0
ARC
  5
7309
330
DF
100
AcDbEntity
  8
JISSEN
100
AcDbCircle
 10
728.9039155124539
 20
539.7336101481668
 30
0.0
 40
1.0
100
AcDbArc
 50
158.8880356681522
 51
236.8702645315859
  0
LINE
  5
731F
330
DF
100
AcDbEntity
  8
JISSEN
100
AcDbLine
 10
730.1932734811928
 20
545.2943077114066
 30
0.0
 11
716.6028426281468
 21
546.8846801345297
 31
0.0
  0
LINE
  5
7320
330
DF
100
AcDbEntity
  8
JISSEN
100
AcDbLine
 10
713.2541575021199
 20
543.9050125888314
 30
0.0
 11
713.2541575021199
 21
542.4862712345635
 31
0.0
  0
LINE
  5
7321
330
DF
100
AcDbEntity
  8
JISSEN
100
AcDbLine
 10
716.4565665724142
 20
539.493107261731
 30
0.0
 11
728.0418543601667
 21
540.27654824642
 31
0.0
  0
ARC
  5
7322
330
DF
100
AcDbEntity
  8
JISSEN
100
AcDbCircle
 10
716.2541575021199
 20
543.9050125888314
 30
0.0
 40
3.0
100
AcDbArc
 50
83.32551907822368
 51
180.0
  0
ARC
  5
7323
330
DF
100
AcDbEntity
  8
JISSEN
100
AcDbCircle
 10
716.2541575021199
 20
542.4862712345635
 30
0.0
 40
3.0
100
AcDbArc
 50
180.0
 51
273.868667413815
  0
DIMENSION
  5
7330
330
DF
100
AcDbEntity
  8
SUNPOU
100
AcDbDimension
  2
*D12
 10
713.2541575021199
 20
754.8017198291695
 30
0.0
 11
858.964845492987
 21
754.8017198291695
 31
0.0
 70
   160
  3
IMCADLT
100
AcDbAlignedDimension
 13
988.25415750212
 23
579.0411439666804
 33
0.0
 14
713.2541575021199
 24
542.4862712345635
 34
0.0
100
AcDbRotatedDimension
1001
ACAD
1000
DSTYLE
1002
{
1070
    40
1040
5.0
1070
    41
1040
3.0
1002
}
  0
ARC
  5
7337
330
DF
100
AcDbEntity
  8
JISSEN
100
AcDbCircle
 10
735.597850062571
 20
512.8555284504224
 30
0.0
 40
10.0
100
AcDbArc
 50
167.5161759202767
 51
241.305095620657
  0
ARC
  5
7338
330
DF
100
AcDbEntity
  8
JISSEN
100
AcDbCircle
 10
809.3858458599999
 20
449.6662027829074
 30
0.0
 40
10.0
100
AcDbArc
 50
0.0
 51
61.30509562065636
  0
ARC
  5
7339
330
DF
100
AcDbEntity
  8
JISSEN
100
AcDbCircle
 10
804.3858458574465
 20
452.4030448895682
 30
0.0
 40
10.0
100
AcDbArc
 50
0.0000000008515744
 51
61.30509562065631
  0
LINE
  5
733B
330
DF
100
AcDbEntity
  8
JISSEN
100
AcDbLine
 10
797.2799301347948
 20
450.5925720299999
 30
0.0
 11
753.1749442108293
 21
474.7342485357497
 31
0.0
  0
LINE
  5
733C
330
DF
100
AcDbEntity
  8
JISSEN
100
AcDbLine
 10
797.2799301347948
 20
450.5925720299999
 30
0.0
 11
803.2817487127468
 21
461.5574328935657
 31
0.0
  0
LINE
  5
733E
330
DF
100
AcDbEntity
  8
JISSEN
100
AcDbLine
 10
806.2325592660473
 20
459.9422523801801
 30
0.0
 11
735.736353568216
 21
498.5296491832038
 31
0.0
  0
LINE
  5
7340
330
DF
100
AcDbEntity
  8
JISSEN
100
AcDbLine
 10
734.9422668025177
 20
501.2443178938466
 30
0.0
 11
735.1823395456358
 21
501.6829123283891
 31
0.0
  0
ARC
  5
7341
330
DF
100
AcDbEntity
  8
JISSEN
100
AcDbCircle
 10
736.6966445406883
 20
500.2840269213742
 30
0.0
 40
2.0
100
AcDbArc
 50
151.3050956206561
 51
241.3050956206563
  0
LINE
  5
7342
330
DF
100
AcDbEntity
  8
JISSEN
100
AcDbLine
 10
808.9472279766901
 20
460.7363391458783
 30
0.0
 11
809.187300719808
 21
461.1749335804206
 31
0.0
  0
ARC
  5
7343
330
DF
100
AcDbEntity
  8
JISSEN
100
AcDbCircle
 10
807.1928502385196
 20
461.6966301183506
 30
0.0
 40
2.0
100
AcDbArc
 50
241.3050956206563
 51
331.3050956206561
  0
LINE
  5
7344
330
DF
100
AcDbEntity
  8
JISSEN
100
AcDbLine
 10
861.5880281535423
 20
489.4926974311021
 30
0.0
 11
799.4848845377861
 21
523.4859970944635
 31
0.0
  0
ARC
  5
7346
330
DF
100
AcDbEntity
  8
JISSEN
100
AcDbCircle
 10
806.6870668313283
 20
536.6438301307423
 30
0.0
 40
15.0
100
AcDbArc
 50
140.5134434845898
 51
241.305095620656
  0
ARC
  5
7347
330
DF
100
AcDbEntity
  8
JISSEN
100
AcDbCircle
 10
854.38584586
 20
476.3348643948233
 30
0.0
 40
15.0
100
AcDbArc
 50
0.0
 51
61.30509562065639
  0
LINE
  5
7348
330
DF
100
AcDbEntity
  8
JISSEN
100
AcDbLine
 10
863.9887555847229
 20
493.8786417765284
 30
0.0
 11
801.8856119689669
 21
527.8719414398898
 31
0.0
  0
ARC
  5
7349
330
DF
100
AcDbEntity
  8
JISSEN
100
AcDbCircle
 10
806.6870668313283
 20
536.6438301307423
 30
0.0
 40
10.0
100
AcDbArc
 50
140.5134434845898
 51
241.305095620656
  0
ARC
  5
734A
330
DF
100
AcDbEntity
  8
JISSEN
100
AcDbCircle
 10
854.38584586
 20
476.3348643948233
 30
0.0
 40
20.0
100
AcDbArc
 50
0.0
 51
61.30509562065639
  0
LINE
  5
7352
330
DF
100
AcDbEntity
  8
JISSEN
100
AcDbLine
 10
744.848238831542
 20
458.7567855923729
 30
0.0
 11
725.1766659724812
 21
478.4283584676268
 31
0.0
  0
LINE
  5
7353
330
DF
100
AcDbEntity
  8
JISSEN
100
AcDbLine
 10
752.0982388457731
 20
466.006785592373
 30
0.0
 11
732.426665971541
 21
485.6783584666788
 31
0.0
  0
LINE
  5
7354
330
DF
100
AcDbEntity
  8
JISSEN
100
AcDbLine
 10
725.1766659724812
 20
481.256785592373
 30
0.0
 11
729.5982388467924
 21
485.6783584666814
 31
0.0
  0
LINE
  5
7355
330
DF
100
AcDbEntity
  8
JISSEN
100
AcDbLine
 10
747.6766659562882
 20
458.7567855923729
 30
0.0
 11
752.098238843811
 21
463.1783584656647
 31
0.0
  0
ARC
  5
7356
330
DF
100
AcDbEntity
  8
JISSEN
100
AcDbCircle
 10
726.5908795348543
 20
479.8425720299999
 30
0.0
 40
2.0
100
AcDbArc
 50
135.0
 51
225.0
  0
ARC
  5
7357
330
DF
100
AcDbEntity
  8
JISSEN
100
AcDbCircle
 10
746.2624523939151
 20
460.170999154746
 30
0.0
 40
2.0
100
AcDbArc
 50
225.0
 51
315.0
  0
ARC
  5
7358
330
DF
100
AcDbEntity
  8
JISSEN
100
AcDbCircle
 10
750.6840252834
 20
464.5925720299999
 30
0.0
 40
2.0
100
AcDbArc
 50
314.9999999205088
 51
45.00000000000002
  0
ARC
  5
7359
330
DF
100
AcDbEntity
  8
JISSEN
100
AcDbCircle
 10
731.0124524091654
 20
484.2641449043084
 30
0.0
 40
2.0
100
AcDbArc
 50
44.99999999989618
 51
134.9999999999997
  0
LINE
  5
735B
330
DF
100
AcDbEntity
  8
JISSEN
100
AcDbLine
 10
736.2520447782437
 20
481.8529796792838
 30
0.0
 11
746.8470628951857
 21
492.4479977621255
 31
0.0
  0
LINE
  5
735C
330
DF
100
AcDbEntity
  8
JISSEN
100
AcDbLine
 10
748.2728600390703
 20
469.832164379768
 30
0.0
 11
762.3841710877549
 21
483.943475383035
 31
0.0
  0
LINE
  5
736B
330
DF
100
AcDbEntity
  8
JISSEN
100
AcDbLine
 10
288.0353388991698
 20
457.0851790454502
 30
0.0
 11
288.0353388991698
 21
628.015161739743
 31
0.0
  0
LINE
  5
736F
330
DF
100
AcDbEntity
  8
JISSEN
100
AcDbLine
 10
749.4292260492268
 20
444.0220339018954
 30
0.0
 11
763.8024058742879
 21
468.9171116252249
 31
0.0
  0
ARC
  5
7370
330
DF
100
AcDbEntity
  8
JISSEN
100
AcDbCircle
 10
747.6078429685762
 20
444.848208020057
 30
0.0
 40
2.0
100
AcDbArc
 50
267.6023719783251
 51
335.6010928778473
  0
ARC
  5
7371
330
DF
100
AcDbEntity
  8
JISSEN
100
AcDbCircle
 10
743.4821917447496
 20
445.0209529419664
 30
0.0
 40
2.0
100
AcDbArc
 50
214.629230321307
 51
267.6023719783253
  0
ARC
  5
7372
330
DF
100
AcDbEntity
  8
JISSEN
100
AcDbCircle
 10
740.8888757293241
 20
448.7760784779431
 30
0.0
 40
2.0
100
AcDbArc
 50
143.0674867992493
 51
214.6292303213068
  0
LINE
  5
7373
330
DF
100
AcDbEntity
  8
JISSEN
100
AcDbLine
 10
743.3985231623984
 20
443.0227038162747
 30
0.0
 11
747.5241743862251
 21
442.8499588943654
 31
0.0
  0
LINE
  5
7374
330
DF
100
AcDbEntity
  8
JISSEN
100
AcDbLine
 10
739.2431825948705
 20
447.6395512643612
 30
0.0
 11
741.836498610296
 21
443.8844257283844
 31
0.0
  0
LINE
  5
7378
330
DF
100
AcDbEntity
  8
JISSEN
100
AcDbLine
 10
744.8482388309599
 20
458.756785592955
 30
0.0
 11
739.2901881016309
 21
449.9778263171593
 31
0.0
  0
LINE
  5
737D
330
DF
100
AcDbEntity
  8
ITTEN
100
AcDbLine
 10
702.9049106100001
 20
958.087512512081
 30
0.0
 11
1053.31648416
 21
958.087512512081
 31
0.0
  0
LINE
  5
7380
330
DF
100
AcDbEntity
  8
JISSEN
100
AcDbLine
 10
1115.14821573
 20
901.087512512081
 30
0.0
 11
1121.148215729999
 21
901.087512512081
 31
0.0
  0
LINE
  5
7381
330
DF
100
AcDbEntity
  8
JISSEN
100
AcDbLine
 10
1115.14821573
 20
895.0875125120811
 30
0.0
 11
1121.14821573
 21
895.0875125120811
 31
0.0
  0
LINE
  5
7382
330
DF
100
AcDbEntity
  8
JISSEN
100
AcDbLine
 10
1059.694992778153
 20
895.0875125120811
 30
0.0
 11
1105.148215729999
 21
895.0875125120811
 31
0.0
  0
LINE
  5
7383
330
DF
100
AcDbEntity
  8
JISSEN
100
AcDbLine
 10
1053.679661438267
 20
901.087512512081
 30
0.0
 11
1105.148215729999
 21
901.087512512081
 31
0.0
  0
LINE
  5
7384
330
DF
100
AcDbEntity
  8
JISSEN
100
AcDbLine
 10
988.2541575000001
 20
895.0875125120811
 30
0.0
 11
1057.69445099732
 21
895.0875125120811
 31
0.0
  0
LINE
  5
7385
330
DF
100
AcDbEntity
  8
JISSEN
100
AcDbLine
 10
988.2541575000001
 20
901.087512512081
 30
0.0
 11
1051.288939545389
 21
901.087512512081
 31
0.0
  0
ARC
  5
7386
330
DF
100
AcDbEntity
  8
JISSEN
100
AcDbCircle
 10
1107.14821573
 20
895.0875125120811
 30
0.0
 40
2.0
100
AcDbArc
 50
180.0
 51
270.0
  0
ARC
  5
7387
330
DF
100
AcDbEntity
  8
JISSEN
100
AcDbCircle
 10
1107.14821573
 20
901.087512512081
 30
0.0
 40
2.0
100
AcDbArc
 50
90.0
 51
180.0
  0
LINE
  5
7388
330
DF
100
AcDbEntity
  8
JISSEN
100
AcDbLine
 10
1115.14821573
 20
893.087512512081
 30
0.0
 11
1115.14821573
 21
903.0875125120811
 31
0.0
  0
LINE
  5
7389
330
DF
100
AcDbEntity
  8
JISSEN
100
AcDbLine
 10
1107.14821573
 20
893.087512512081
 30
0.0
 11
1115.14821573
 21
893.087512512081
 31
0.0
  0
LINE
  5
738A
330
DF
100
AcDbEntity
  8
JISSEN
100
AcDbLine
 10
1107.14821573
 20
903.0875125120811
 30
0.0
 11
1115.14821573
 21
903.0875125120811
 31
0.0
  0
LINE
  5
738B
330
DF
100
AcDbEntity
  8
JISSEN
100
AcDbLine
 10
1105.148215729999
 20
895.0875125120811
 30
0.0
 11
1105.148215729999
 21
901.087512512081
 31
0.0
  0
SPLINE
  5
738C
330
DF
100
AcDbEntity
  8
JISSEN
100
AcDbSpline
210
0.0
220
0.0
230
1.0
 70
     8
 71
     3
 72
    56
 73
    52
 74
     0
 42
0.0000000001
 43
0.0000000001
 40
0.0
 40
0.0
 40
0.0
 40
0.0
 40
0.943425776021794
 40
0.943425776021794
 40
2.830277328065382
 40
2.830277328065382
 40
4.539137381878086
 40
4.539137381878086
 40
6.247997435690789
 40
6.247997435690789
 40
7.33131001392477
 40
7.33131001392477
 40
8.217169656553545
 40
8.217169656553545
 40
9.10302929918232
 40
9.10302929918232
 40
9.71171118807811
 40
9.71171118807811
 40
10.13816962475659
 40
10.13816962475659
 40
10.56462806143507
 40
10.56462806143507
 40
11.64561061001192
 40
11.64561061001192
 40
12.72659315858877
 40
12.72659315858877
 40
13.80757570716562
 40
13.80757570716562
 40
15.25822344972975
 40
15.25822344972975
 40
16.43252597389821
 40
16.43252597389821
 40
17.0818501158139
 40
17.0818501158139
 40
17.51805693678398
 40
17.51805693678398
 40
17.95426375775406
 40
17.95426375775406
 40
18.82667739969422
 40
18.82667739969422
 40
20.56518551174403
 40
20.56518551174403
 40
21.83047636071274
 40
21.83047636071274
 40
23.7184639994345
 40
23.7184639994345
 40
25.60645163815627
 40
25.60645163815627
 40
27.49443927687804
 40
27.49443927687804
 40
28.99033489637439
 40
28.99033489637439
 40
28.99033489637439
 40
28.99033489637439
 10
1057.683083034377
 20
911.1037136168654
 30
0.0
 10
1057.348682692221
 20
910.8102324336023
 30
0.0
 10
1057.011998541606
 20
910.5147567263053
 30
0.0
 10
1056.007426534995
 20
909.6248467057739
 30
0.0
 10
1055.345246248193
 20
909.0274006308156
 30
0.0
 10
1054.155760586989
 20
907.8854294370209
 30
0.0
 10
1053.621573431004
 20
907.3417673577228
 30
0.0
 10
1052.655292222471
 20
906.2375310681623
 30
0.0
 10
1052.221831468773
 20
905.6789668351935
 30
0.0
 10
1051.634925407831
 20
904.6981670564465
 30
0.0
 10
1051.436233988046
 20
904.2996975770678
 30
0.0
 10
1051.164292987653
 20
903.5082515416627
 30
0.0
 10
1051.074913847558
 20
903.1257115891916
 30
0.0
 10
1051.016472678232
 20
902.3060381273944
 30
0.0
 10
1051.0508455159
 20
901.8676601072259
 30
0.0
 10
1051.252835912968
 20
901.1449515913456
 30
0.0
 10
1051.37471975801
 20
900.8572304579249
 30
0.0
 10
1051.637796310498
 20
900.4048125833794
 30
0.0
 10
1051.763215939041
 20
900.2282981658375
 30
0.0
 10
1052.021742383573
 20
899.9148971789322
 30
0.0
 10
1052.156011428042
 20
899.7749319527997
 30
0.0
 10
1052.637007321895
 20
899.3222075463439
 30
0.0
 10
1052.992536012593
 20
899.0702395005429
 30
0.0
 10
1053.705183577359
 20
898.6146969285496
 30
0.0
 10
1054.06400368603
 20
898.413098524227
 30
0.0
 10
1054.770695966472
 20
898.0261079766831
 30
0.0
 10
1055.118467950226
 20
897.841331344564
 30
0.0
 10
1055.887109856213
 20
897.4130326708209
 30
0.0
 10
1056.291908199767
 20
897.1699045203695
 30
0.0
 10
1056.883338397228
 20
896.7435492924655
 30
0.0
 10
1057.095063490616
 20
896.558470999043
 30
0.0
 10
1057.324533628145
 20
896.3063721337839
 30
0.0
 10
1057.387076513111
 20
896.2239972515238
 30
0.0
 10
1057.465424177279
 20
896.1009787807084
 30
0.0
 10
1057.491329194617
 20
896.053592791984
 30
0.0
 10
1057.541999834431
 20
895.9450705125405
 30
0.0
 10
1057.565368101911
 20
895.8861028158796
 30
0.0
 10
1057.628377633242
 20
895.6931569331196
 30
0.0
 10
1057.660797062655
 20
895.542640353883
 30
0.0
 10
1057.714749015495
 20
895.033003928331
 30
0.0
 10
1057.689792081029
 20
894.6150401275909
 30
0.0
 10
1057.531755656974
 20
893.8692854904266
 30
0.0
 10
1057.431272617185
 20
893.5486631633734
 30
0.0
 10
1057.122459726833
 20
892.7995668894592
 30
0.0
 10
1056.887481019332
 20
892.3947934345545
 30
0.0
 10
1056.310162264471
 20
891.6116398322301
 30
0.0
 10
1055.967253163229
 20
891.2352114133481
 30
0.0
 10
1055.18264240607
 20
890.4917653947663
 30
0.0
 10
1054.741357730966
 20
890.1255484943051
 30
0.0
 10
1053.888839920662
 20
889.4627977577229
 30
0.0
 10
1053.490625641504
 20
889.167562192941
 30
0.0
 10
1053.079992423064
 20
888.8633541672607
 30
0.0
  0
SPLINE
  5
738D
330
DF
100
AcDbEntity
  8
JISSEN
100
AcDbSpline
210
0.0
220
0.0
230
1.0
 70
     8
 71
     3
 72
    11
 73
     7
 74
     5
 42
0.0000000001
 43
0.0000000001
 44
0.0000000001
 40
0.0
 40
0.0
 40
0.0
 40
0.0
 40
9.903364549848676
 40
17.18093630216195
 40
21.9972431586304
 40
28.99033489637439
 40
28.99033489637439
 40
28.99033489637439
 40
28.99033489637439
 10
1059.002333467471
 20
909.6005242426405
 30
0.0
 10
1055.492053614898
 20
906.5197825242698
 30
0.0
 10
1049.402214727694
 20
901.1751315260841
 30
0.0
 10
1060.33215615654
 20
898.6610764436816
 30
0.0
 10
1059.431944320803
 20
891.0800140831158
 30
0.0
 10
1056.190186480629
 20
888.6784335289684
 30
0.0
 10
1054.270536653669
 20
887.2563058061421
 30
0.0
 11
1059.002333467471
 21
909.6005242426405
 31
0.0
 11
1053.331280235665
 21
901.4816705890005
 31
0.0
 11
1059.172568448161
 21
897.1408869467735
 31
0.0
 11
1059.088047333771
 21
892.3253217756967
 31
0.0
 11
1054.270536653669
 21
887.2563058061421
 31
0.0
  0
DIMENSION
  5
739D
330
DF
100
AcDbEntity
  8
SUNPOU
100
AcDbDimension
  2
*D13
 10
1157.987967172059
 20
898.087512512081
 30
0.0
 11
1157.987967172059
 21
929.46090139553
 31
0.0
 12
0.0
 22
-142.4956947679188
 32
0.0
 70
   160
  3
IMCADLT
100
AcDbAlignedDimension
 13
1053.31648416
 23
958.087512512081
 33
0.0
 14
1115.14821573
 24
898.087512512081
 34
0.0
 50
90.0
100
AcDbRotatedDimension
1001
ACAD
1000
DSTYLE
1002
{
1070
    40
1040
5.0
1070
    41
1040
3.0
1002
}
  0
DIMENSION
  5
73AA
330
DF
100
AcDbEntity
  8
SUNPOU
100
AcDbDimension
  2
*D14
 10
1115.14821573
 20
796.0321198389506
 30
0.0
 11
1053.077065996053
 21
796.0321198389506
 31
0.0
 12
0.0
 22
-37.80498105899141
 32
0.0
 70
   160
  1
約2200
  3
IMCADLT
100
AcDbAlignedDimension
 13
988.2541575000001
 23
865.5875125120807
 33
0.0
 14
1115.14821573
 24
893.087512512081
 34
0.0
100
AcDbRotatedDimension
1001
ACAD
1000
DSTYLE
1002
{
1070
    40
1040
5.0
1070
    41
1040
3.0
1002
}
  0
LINE
  5
73B6
330
DF
100
AcDbEntity
  8
JISSEN
100
AcDbLine
 10
725.5978500600001
 20
1047.587512512081
 30
0.0
 11
987.2541575000001
 21
1047.587512512081
 31
0.0
  0
LINE
  5
73B7
330
DF
100
AcDbEntity
  8
JISSEN
100
AcDbLine
 10
725.5978500600001
 20
1050.587512512081
 30
0.0
 11
987.2541574999999
 21
1050.587512512081
 31
0.0
  0
LINE
  5
73B8
330
DF
100
AcDbEntity
  8
JISSEN
100
AcDbLine
 10
725.5978500600001
 20
868.587512512081
 30
0.0
 11
729.22050725398
 21
868.587512512081
 31
0.0
  0
LINE
  5
73B9
330
DF
100
AcDbEntity
  8
JISSEN
100
AcDbLine
 10
725.5978500600001
 20
865.5875125120811
 30
0.0
 11
730.1442128888688
 21
865.5875125120811
 31
0.0
  0
LINE
  5
73BA
330
DF
100
AcDbEntity
  8
JISSEN
100
AcDbLine
 10
750.0802237500001
 20
868.587512512081
 30
0.0
 11
750.0802237500001
 21
1047.587512512081
 31
0.0
  0
LINE
  5
73BF
330
DF
100
AcDbEntity
  8
JISSEN
100
AcDbLine
 10
796.6870668300002
 20
868.5875125120809
 30
0.0
 11
796.6870668300002
 21
1047.587512512081
 31
0.0
  0
LINE
  5
73C0
330
DF
100
AcDbEntity
  8
JISSEN
100
AcDbLine
 10
796.6870668300002
 20
843.0875125120811
 30
0.0
 11
980.9733962225051
 21
851.8529463664862
 31
0.0
  0
LINE
  5
73C1
330
DF
100
AcDbEntity
  8
JISSEN
100
AcDbLine
 10
988.2541575000001
 20
869.5875125120808
 30
0.0
 11
988.2541574999999
 21
1046.587512512081
 31
0.0
  0
LINE
  5
73C2
330
DF
100
AcDbEntity
  8
JISSEN
100
AcDbLine
 10
980.9733962225031
 20
1064.322078657675
 30
0.0
 11
796.6870668300002
 21
1073.087512512081
 31
0.0
  0
LINE
  5
73C3
330
DF
100
AcDbEntity
  8
JISSEN
100
AcDbLine
 10
725.5978500600001
 20
1059.575737694032
 30
0.0
 11
725.5978500600001
 21
877.327235210979
 31
0.0
  0
LINE
  5
73C4
330
DF
100
AcDbEntity
  8
JISSEN
100
AcDbLine
 10
729.9621839139701
 20
1064.535165942408
 30
0.0
 11
796.6870668300002
 21
1073.087512512081
 31
0.0
  0
LINE
  5
73C5
330
DF
100
AcDbEntity
  8
JISSEN
100
AcDbLine
 10
729.9621839139701
 20
851.6398590817534
 30
0.0
 11
796.6870668300002
 21
843.087512512081
 31
0.0
  0
ARC
  5
73C7
330
DF
100
AcDbEntity
  8
JISSEN
100
AcDbCircle
 10
730.5978500600001
 20
1059.575737694032
 30
0.0
 40
5.0
100
AcDbArc
 50
97.30396381740867
 51
180.0
  0
ARC
  5
73C8
330
DF
100
AcDbEntity
  8
JISSEN
100
AcDbCircle
 10
730.5978500600001
 20
856.5992873301295
 30
0.0
 40
5.0
100
AcDbArc
 50
180.0
 51
262.6960361825912
  0
LINE
  5
73CD
330
DF
100
AcDbEntity
  8
JISSEN
100
AcDbLine
 10
776.6870668300002
 20
906.8375125120985
 30
0.0
 11
776.6870668300005
 21
1009.337512512098
 31
0.0
  0
LINE
  5
73CE
330
DF
100
AcDbEntity
  8
JISSEN
100
AcDbLine
 10
786.6870668300005
 20
1019.337512512098
 30
0.0
 11
796.6870668300003
 21
1019.337512512098
 31
0.0
  0
LINE
  5
73CF
330
DF
100
AcDbEntity
  8
JISSEN
100
AcDbLine
 10
786.6870668300003
 20
896.8375125120985
 30
0.0
 11
796.6870668300003
 21
896.8375125120985
 31
0.0
  0
ARC
  5
73D0
330
DF
100
AcDbEntity
  8
JISSEN
100
AcDbCircle
 10
786.6870668300004
 20
1009.337512512098
 30
0.0
 40
10.0
100
AcDbArc
 50
89.99999999999998
 51
180.0
  0
ARC
  5
73D1
330
DF
100
AcDbEntity
  8
JISSEN
100
AcDbCircle
 10
786.6870668300003
 20
906.8375125120985
 30
0.0
 40
10.0
100
AcDbArc
 50
180.0
 51
270.0
  0
LINE
  5
73DD
330
DF
100
AcDbEntity
  8
JISSEN
100
AcDbLine
 10
730.59785006
 20
1043.087512512081
 30
0.0
 11
745.08022375
 21
1043.08751251208
 31
0.0
  0
LINE
  5
73DE
330
DF
100
AcDbEntity
  8
JISSEN
100
AcDbLine
 10
730.5978500600001
 20
890.5875125120807
 30
0.0
 11
745.08022375
 21
890.5875125120807
 31
0.0
  0
LINE
  5
73E1
330
DF
100
AcDbEntity
  8
JISSEN
100
AcDbLine
 10
728.59785006
 20
1041.087512512081
 30
0.0
 11
728.5978500600001
 21
892.5875125120809
 31
0.0
  0
LINE
  5
73E2
330
DF
100
AcDbEntity
  8
JISSEN
100
AcDbLine
 10
747.08022375
 20
892.5875125120809
 30
0.0
 11
747.08022375
 21
1041.08751251208
 31
0.0
  0
ARC
  5
73E3
330
DF
100
AcDbEntity
  8
JISSEN
100
AcDbCircle
 10
730.59785006
 20
1041.087512512081
 30
0.0
 40
2.0
100
AcDbArc
 50
90.0
 51
180.0
  0
ARC
  5
73E4
330
DF
100
AcDbEntity
  8
JISSEN
100
AcDbCircle
 10
745.08022375
 20
1041.08751251208
 30
0.0
 40
2.0
100
AcDbArc
 50
0.0
 51
90.0
  0
ARC
  5
73E5
330
DF
100
AcDbEntity
  8
JISSEN
100
AcDbCircle
 10
730.5978500600001
 20
892.5875125120809
 30
0.0
 40
2.0
100
AcDbArc
 50
180.0
 51
270.0
  0
ARC
  5
73E6
330
DF
100
AcDbEntity
  8
JISSEN
100
AcDbCircle
 10
745.08022375
 20
892.5875125120809
 30
0.0
 40
2.0
100
AcDbArc
 50
270.0
 51
0.0
  0
ELLIPSE
  5
73E7
330
DF
100
AcDbEntity
  8
JISSEN
100
AcDbEllipse
 10
740.4728500600002
 20
874.2428687307921
 30
0.0
 11
0.0000000000000064
 21
15.0
 31
0.0
210
0.0
220
0.0
230
1.0
 40
0.5625
 41
3.141592653589793
 42
6.283185307179586
  0
ELLIPSE
  5
73E8
330
DF
100
AcDbEntity
  8
JISSEN
100
AcDbEllipse
 10
737.0353500600002
 20
874.2428687307919
 30
0.0
 11
0.0000000000000064
 21
15.0
 31
0.0
210
0.0
220
0.0
230
1.0
 40
0.5625
 41
1.763381031983274
 42
7.661396928785666
  0
LINE
  5
73EC
330
DF
100
AcDbEntity
  8
JISSEN
100
AcDbLine
 10
740.4728500600021
 20
859.242868730792
 30
0.0
 11
737.035350060002
 21
859.242868730792
 31
0.0
  0
LINE
  5
73F2
330
DF
100
AcDbEntity
  8
JISSEN
100
AcDbLine
 10
740.4728500599969
 20
889.2428687307919
 30
0.0
 11
737.0353500600002
 21
889.2428687307919
 31
0.0
  0
ARC
  5
73F7
330
DF
100
AcDbEntity
  8
JISSEN
100
AcDbCircle
 10
716.2541575000001
 20
873.5334980550279
 30
0.0
 40
3.0
100
AcDbArc
 50
180.0
 51
273.868667413815
  0
ARC
  5
73F8
330
DF
100
AcDbEntity
  8
JISSEN
100
AcDbCircle
 10
716.2541575000001
 20
874.9522394092959
 30
0.0
 40
3.0
100
AcDbArc
 50
83.32551907822368
 51
180.0
  0
LINE
  5
73F9
330
DF
100
AcDbEntity
  8
JISSEN
100
AcDbLine
 10
713.2541575000001
 20
874.9522394092959
 30
0.0
 11
713.2541575000001
 21
873.5334980550279
 31
0.0
  0
LINE
  5
73FA
330
DF
100
AcDbEntity
  8
JISSEN
100
AcDbLine
 10
716.4565665702944
 20
870.5403340821954
 30
0.0
 11
737.0353500600002
 21
871.9319492665778
 31
0.0
  0
LINE
  5
73FD
330
DF
100
AcDbEntity
  8
JISSEN
100
AcDbLine
 10
716.4565665709166
 20
877.9454033814285
 30
0.0
 11
737.0353500600002
 21
876.5537881936147
 31
0.0
  0
LINE
  5
73FE
330
DF
100
AcDbEntity
  8
JISSEN
100
AcDbLine
 10
748.2876928660142
 20
868.5875125120537
 30
0.0
 11
987.2541574999997
 21
868.5875125120807
 31
0.0
  0
LINE
  5
73FF
330
DF
100
AcDbEntity
  8
JISSEN
100
AcDbLine
 10
747.3639872311423
 20
865.5875125121083
 30
0.0
 11
987.2541574999997
 21
865.5875125120807
 31
0.0
  0
ELLIPSE
  5
7402
330
DF
100
AcDbEntity
  8
JISSEN
100
AcDbEllipse
 10
737.0353500600002
 20
874.2428687307919
 30
0.0
 11
0.0000000000000032
 21
7.5
 31
0.0
210
0.0
220
0.0
230
1.0
 40
0.5625
 41
1.921801304887218
 42
7.502976655983342
  0
ELLIPSE
  5
7403
330
DF
100
AcDbEntity
  8
JISSEN
100
AcDbEllipse
 10
738.7541000600002
 20
874.2428687307919
 30
0.0
 11
0.0000000000000032
 21
7.5
 31
0.0
210
0.0
220
0.0
230
1.0
 40
0.5625
 41
3.141592653589793
 42
6.283185307179586
  0
LINE
  5
7404
330
DF
100
AcDbEntity
  8
JISSEN
100
AcDbLine
 10
738.7541000599985
 20
881.742868730792
 30
0.0
 11
737.0353500600002
 21
881.742868730792
 31
0.0
  0
LINE
  5
7405
330
DF
100
AcDbEntity
  8
JISSEN
100
AcDbLine
 10
738.7541000600012
 20
866.742868730792
 30
0.0
 11
737.0353500600011
 21
866.742868730792
 31
0.0
  0
ELLIPSE
  5
7408
330
DF
100
AcDbEntity
  8
JISSEN
100
AcDbEllipse
 10
737.0353500600002
 20
874.2428687300963
 30
0.0
 11
0.0
 21
2.310919463518416
 31
0.0
210
0.0
220
0.0
230
1.0
 40
0.6179415502044956
 41
3.141592653589793
 42
6.283185307179586
  0
LINE
  5
7409
330
DF
100
AcDbEntity
  8
JISSEN
100
AcDbLine
 10
725.5978500600001
 20
871.1585022511437
 30
0.0
 11
725.5978500600001
 21
856.5992873301295
 31
0.0
  0
LINE
  5
740A
330
DF
100
AcDbEntity
  8
JISSEN
100
AcDbLine
 10
985.5654728611099
 20
855.553204834212
 30
0.0
 11
987.916857953448
 21
864.3286934669783
 31
0.0
  0
ARC
  5
740B
330
DF
100
AcDbEntity
  8
JISSEN
100
AcDbCircle
 10
980.7358437296638
 20
856.8473000597228
 30
0.0
 40
5.0
100
AcDbArc
 50
272.7231761869111
 51
344.9999999999998
  0
ARC
  5
7417
330
DF
100
AcDbEntity
  8
JISSEN
100
AcDbCircle
 10
980.7358437296638
 20
1059.327724964439
 30
0.0
 40
5.0
100
AcDbArc
 50
15.00000000000009
 51
87.27682381308886
  0
LINE
  5
7418
330
DF
100
AcDbEntity
  8
JISSEN
100
AcDbLine
 10
985.5654728611092
 20
1060.621820189951
 30
0.0
 11
987.9168579534479
 21
1051.846331557183
 31
0.0
  0
LINE
  5
741A
330
DF
100
AcDbEntity
  8
JISSEN
100
AcDbLine
 10
982.4596443193085
 20
1060.769546476125
 30
0.0
 11
984.9893132589702
 21
1051.328693466978
 31
0.0
  0
ARC
  5
741E
330
DF
100
AcDbEntity
  8
JISSEN
100
AcDbCircle
 10
977.6300151884337
 20
1059.475451248483
 30
0.0
 40
5.0
100
AcDbArc
 50
15.00000000000009
 51
87.27682381308886
  0
ARC
  5
7421
330
DF
100
AcDbEntity
  8
JISSEN
100
AcDbCircle
 10
977.6300151884337
 20
856.6995737756787
 30
0.0
 40
5.0
100
AcDbArc
 50
272.7231761869111
 51
344.9999999999998
  0
LINE
  5
7422
330
DF
100
AcDbEntity
  8
JISSEN
100
AcDbLine
 10
982.4596443193085
 20
855.4054785480369
 30
0.0
 11
984.9893132589702
 21
864.8463315571834
 31
0.0
  0
LINE
  5
7424
330
DF
100
AcDbEntity
  8
JISSEN
100
AcDbLine
 10
985.2541575
 20
869.5875125120807
 30
0.0
 11
985.2541575
 21
1046.587512512081
 31
0.0
  0
ARC
  5
7426
330
DF
100
AcDbEntity
  8
JISSEN
100
AcDbCircle
 10
986.9509321271591
 20
864.5875125120808
 30
0.0
 40
1.0
100
AcDbArc
 50
345.0000000000004
 51
89.99999999999994
  0
ARC
  5
7427
330
DF
100
AcDbEntity
  8
JISSEN
100
AcDbCircle
 10
985.9552390852593
 20
864.5875125120809
 30
0.0
 40
1.0
100
AcDbArc
 50
89.99999999999994
 51
165.0000000000003
  0
ARC
  5
7428
330
DF
100
AcDbEntity
  8
JISSEN
100
AcDbCircle
 10
986.2541574999999
 20
869.5875125120807
 30
0.0
 40
1.0
100
AcDbArc
 50
180.0
 51
269.9999999999999
  0
ARC
  5
7429
330
DF
100
AcDbEntity
  8
JISSEN
100
AcDbCircle
 10
987.2541574999999
 20
869.5875125120808
 30
0.0
 40
1.0
100
AcDbArc
 50
270.0000000000032
 51
0.0000000000000254
  0
LINE
  5
742A
330
DF
100
AcDbEntity
  8
JISSEN
100
AcDbLine
 10
988.2541574999999
 20
866.5875125120807
 30
0.0
 11
988.2541574999999
 21
867.5875125120807
 31
0.0
  0
ARC
  5
742B
330
DF
100
AcDbEntity
  8
JISSEN
100
AcDbCircle
 10
987.2541574999999
 20
867.5875125120807
 30
0.0
 40
1.0
100
AcDbArc
 50
0.0
 51
90.00000000000651
  0
ARC
  5
742C
330
DF
100
AcDbEntity
  8
JISSEN
100
AcDbCircle
 10
987.2541574999999
 20
866.5875125120807
 30
0.0
 40
1.0
100
AcDbArc
 50
269.9999999999934
 51
0.0
  0
ARC
  5
742D
330
DF
100
AcDbEntity
  8
JISSEN
100
AcDbCircle
 10
987.2541574999999
 20
1049.587512512081
 30
0.0
 40
1.0
100
AcDbArc
 50
0.0
 51
90.00000000000659
  0
ARC
  5
742E
330
DF
100
AcDbEntity
  8
JISSEN
100
AcDbCircle
 10
987.2541574999999
 20
1048.587512512081
 30
0.0
 40
1.0
100
AcDbArc
 50
269.9999999999934
 51
0.0
  0
LINE
  5
742F
330
DF
100
AcDbEntity
  8
JISSEN
100
AcDbLine
 10
988.2541574999999
 20
1049.587512512081
 30
0.0
 11
988.2541574999999
 21
1048.587512512081
 31
0.0
  0
ARC
  5
7430
330
DF
100
AcDbEntity
  8
JISSEN
100
AcDbCircle
 10
987.2541574999999
 20
1046.587512512081
 30
0.0
 40
1.0
100
AcDbArc
 50
0.0
 51
89.99999999999676
  0
ARC
  5
7431
330
DF
100
AcDbEntity
  8
JISSEN
100
AcDbCircle
 10
986.2541574999999
 20
1046.587512512081
 30
0.0
 40
1.0
100
AcDbArc
 50
90.00000000000005
 51
179.9999999999999
  0
ARC
  5
7432
330
DF
100
AcDbEntity
  8
JISSEN
100
AcDbCircle
 10
985.9552390852593
 20
1051.587512512081
 30
0.0
 40
1.0
100
AcDbArc
 50
194.9999999999996
 51
270.0
  0
ARC
  5
7433
330
DF
100
AcDbEntity
  8
JISSEN
100
AcDbCircle
 10
986.9509321271591
 20
1051.587512512081
 30
0.0
 40
1.0
100
AcDbArc
 50
270.0
 51
14.99999999999964
  0
LINE
  5
7434
330
DF
100
AcDbEntity
  8
JISSEN
100
AcDbLine
 10
988.2541574999999
 20
1048.587512512082
 30
0.0
 11
988.2541574999999
 21
1049.587512512082
 31
0.0
  0
LINE
  5
7438
330
DF
100
AcDbEntity
  8
JISSEN
100
AcDbLine
 10
728.5757585369294
 20
852.0264166920812
 30
0.0
 11
979.4081048577195
 21
852.0264166920812
 31
0.0
  0
LINE
  5
743A
330
DF
100
AcDbEntity
  8
JISSEN
100
AcDbLine
 10
979.4081048577195
 20
852.0264166920812
 30
0.0
 11
979.4095392564766
 21
852.0264166920812
 31
0.0
  0
LINE
  5
743B
330
DF
100
AcDbEntity
  8
JISSEN
100
AcDbLine
 10
728.5757585369294
 20
1064.148608332081
 30
0.0
 11
979.4081048577195
 21
1064.148608332081
 31
0.0
  0
DIMENSION
  5
757A
330
DF
100
AcDbEntity
  8
SUNPOU
100
AcDbDimension
  2
*D16
 10
988.25415750212
 20
707.8229144944494
 30
0.0
 11
858.0968141149842
 21
707.8229144944494
 31
0.0
 70
   160
  3
IMCADLT
100
AcDbAlignedDimension
 13
722.2541575
 23
512.8555284499999
 33
0.0
 14
988.25415750212
 24
584.0411439666803
 34
0.0
100
AcDbRotatedDimension
1001
ACAD
1000
DSTYLE
1002
{
1070
    40
1040
5.0
1070
   173
1070
     0
1070
    41
1040
3.0
1002
}
  0
DIMENSION
  5
75AB
330
DF
100
AcDbEntity
  8
SUNPOU
100
AcDbDimension
  2
*D17
 10
668.9529103242843
 20
455.74999369
 30
0.0
 11
668.9529103242843
 21
369.3089470410809
 31
0.0
 70
   160
  3
IMCADLT
100
AcDbAlignedDimension
 13
724.38584586
 23
275.7499936899999
 33
0.0
 14
742.9446075001671
 24
455.74999369
 34
0.0
 50
90.0
100
AcDbRotatedDimension
1001
ACAD
1000
DSTYLE
1002
{
1070
    40
1040
5.0
1070
   173
1070
     0
1070
    41
1040
3.0
1002
}
  0
VIEWPORT
  5
4AEA
330
DC
100
AcDbEntity
 67
     1
  8
0
100
AcDbViewport
 10
1065.0074549372
 20
742.6568789040435
 30
0.0
 40
2912.512707772632
 41
1574.414140239578
 68
     1
 69
     1
1001
ACAD
1000
MVIEW
1002
{
1070
    16
1010
0.0
1020
0.0
1030
0.0
1010
0.0
1020
0.0
1030
1.0
1040
0.0
1040
1574.414140239578
1040
1065.0074549372
1040
742.6568789040435
1040
50.0
1040
0.0
1040
0.0
1070
     0
1070
   500
1070
     1
1070
     1
1070
     0
1070
     0
1070
     0
1070
     0
1040
0.0
1040
0.0
1040
0.0
1040
1.0
1040
1.0
1040
10.0
1040
10.0
1070
     0
1002
{
1002
}
1002
}
  0
VIEWPORT
  5
7440
330
DC
100
AcDbEntity
 67
     1
  8
WINDOW
100
AcDbViewport
 10
1049.9999958
 20
742.4999999999998
 30
0.0
 40
2099.9999916
 41
1484.999999999999
 68
     2
 69
     2
1001
ACAD
1000
MVIEW
1002
{
1070
    16
1010
0.0
1020
0.0
1030
0.0
1010
0.0
1020
0.0
1030
1.0
1040
0.0
1040
1484.999984786857
1040
1072.313842961644
1040
526.8138305423576
1040
50.0
1040
0.0
1040
0.0
1070
     0
1070
   500
1070
     1
1070
     0
1070
     0
1070
     0
1070
     0
1070
     0
1040
0.0
1040
0.0
1040
0.0
1040
1.0
1040
1.0
1040
10.0
1040
10.0
1070
     0
1002
{
1002
}
1002
}
  0
INSERT
  5
7510
330
DC
100
AcDbEntity
 67
     1
  8
WAKU
100
AcDbBlockReference
  2
S3
 10
0.0
 20
0.0
 30
0.0
 41
5.0
 42
5.0
 43
5.0
  0
MTEXT
  5
753D
330
DC
100
AcDbEntity
 67
     1
  8
SUNPOU
100
AcDbMText
 10
1233.637144078259
 20
1094.79058345872
 30
0.0
 40
15.0
 41
0.0
 71
     1
 72
     1
  3
\fＭＳ 明朝|b0|i0|c128|p17;\L　仕様　\P\l外形寸法：幅230mm×奥行266mm×高さ392mm\P質量：10kg\P全質量（包装含み）：11kg\P回転数：296/358rpm（50/60Hz）\P電源：単相100V　50/60Hz\P定格消費電力：150/180W（50/60Hz）\Pモーター：コンデンサー始動単相コンデンメ[誘導電動機 4P 60W\P電源スイッチ：トグル式\Pプロテクター：自動復帰式（モーター内蔵）\P定格時間：連続\P角氷入数：約18個\Pチップアイス入数：約450g\P氷削能力：1.0/1.3kg/min（50/60Hz）\P砕氷能力：8.0/9.5kg/min（50/60Hz）
  1
Tー誘導電動機 4P 60W\P電源スイッチ：トグル式\Pプロテクター：自動復帰式（モーター内蔵）\P定格時間：連続\P角氷入数：約18個\Pチップアイス入数：約450g\P氷削能力：1.0/1.3kg/min（50/60Hz）\P砕氷能力：8.0/9.5kg/min（50/60Hz）
1001
ACAD
1000
MTEXTBEGIN
1070
    73
1070
     1
1070
    44
1040
1.0
1070
    74
1070
     0
1000
MTEXTEND
  0
TEXT
  5
753F
330
DC
100
AcDbEntity
 67
     1
  8
SUNPOU
100
AcDbText
 10
1503.178413287305
 20
220.5659068164395
 30
0.0
 40
15.0
  1
CS-18C 外観図
  7
K
100
AcDbText
  0
LINE
  5
7540
330
DC
100
AcDbEntity
 67
     1
  8
SUNPOU
100
AcDbLine
 10
1252.003028797057
 20
258.3550804669157
 30
0.0
 11
1362.212634122583
 21
258.3550804669157
 31
0.0
  0
LINE
  5
7541
330
DC
100
AcDbEntity
 67
     1
  8
SUNPOU
100
AcDbLine
 10
1252.003028797057
 20
227.6976692234346
 30
0.0
 11
1362.212634122583
 21
227.6976692234346
 31
0.0
  0
LINE
  5
7542
330
DC
100
AcDbEntity
 67
     1
  8
SUNPOU
100
AcDbLine
 10
1252.003028797057
 20
197.0402579799541
 30
0.0
 11
1362.212634122583
 21
197.0402579799541
 31
0.0
  0
LINE
  5
7543
330
DC
100
AcDbEntity
 67
     1
  8
SUNPOU
100
AcDbLine
 10
1827.598694201008
 20
252.4946642599429
 30
0.0
 11
1892.955553050343
 21
252.4946642599429
 31
0.0
  0
LINE
  5
7544
330
DC
100
AcDbEntity
 67
     1
  8
SUNPOU
100
AcDbLine
 10
1827.598694201008
 20
212.4946642599429
 30
0.0
 11
1892.955553050343
 21
212.4946642599429
 31
0.0
  0
TEXT
  5
7545
330
DC
100
AcDbEntity
 67
     1
  8
SUNPOU
100
AcDbText
 10
1791.732576200641
 20
167.8343945743463
 30
0.0
 40
15.0
  1
1/5
  7
K
100
AcDbText
  0
TEXT
  5
7547
330
DC
100
AcDbEntity
 67
     1
  8
SUNPOU
100
AcDbText
 10
1544.72610045521
 20
162.7134838467195
 30
0.0
 40
15.0
  1
99 5 10
 41
0.8
  7
K
100
AcDbText
  0
TEXT
  5
7548
330
DC
100
AcDbEntity
 67
     1
  8
SUNPOU
100
AcDbText
 10
1544.72610045521
 20
121.4634838467195
 30
0.0
 40
15.0
  1
99 5 10
 41
0.8
  7
K
100
AcDbText
  0
TEXT
  5
754A
330
DC
100
AcDbEntity
 67
     1
  8
SUNPOU
100
AcDbText
 10
1544.72610045521
 20
38.96348384671955
 30
0.0
 40
15.0
  1
99 5 10
 41
0.8
  7
K
100
AcDbText
  0
TEXT
  5
754B
330
DC
100
AcDbEntity
 67
     1
  8
SUNPOU
100
AcDbText
 10
1490.517616023502
 20
40.17439638418181
 30
0.0
 40
15.0
  1
川村
  7
K
100
AcDbText
  0
TEXT
  5
754C
330
DC
100
AcDbEntity
 67
     1
  8
SUNPOU
100
AcDbText
 10
1693.863039802797
 20
117.8665732028575
 30
0.0
 40
15.0
  1
CS18C03015
  7
K
100
AcDbText
  0
TEXT
  5
754D
330
DC
100
AcDbEntity
 67
     1
  8
SUNPOU
100
AcDbText
 10
244.8810027763802
 20
1376.406075739613
 30
0.0
 40
15.0
  1
CS18C03015
 50
180.0
  7
K
100
AcDbText
  0
TEXT
  5
754E
330
DC
100
AcDbEntity
 67
     1
  8
SUNPOU
100
AcDbText
 10
30.0524699282887
 20
63.59601715648205
 30
0.0
 40
15.0
  1
1
  7
K
100
AcDbText
  0
TEXT
  5
754F
330
DC
100
AcDbEntity
 67
     1
  8
SUNPOU
100
AcDbText
 10
30.0524699282887
 20
93.59601715648205
 30
0.0
 40
15.0
  1
2
  7
K
100
AcDbText
  0
TEXT
  5
7550
330
DC
100
AcDbEntity
 67
     1
  8
SUNPOU
100
AcDbText
 10
86.43743532708777
 20
66.63628953966963
 30
0.0
 40
15.0
  1
新規出図
  7
K
100
AcDbText
  0
TEXT
  5
7551
330
DC
100
AcDbEntity
 67
     1
  8
SUNPOU
100
AcDbText
 10
86.43743532708777
 20
96.63628953966963
 30
0.0
 40
15.0
  1
CAD化
  7
K
100
AcDbText
  0
TEXT
  5
7552
330
DC
100
AcDbEntity
 67
     1
  8
SUNPOU
100
AcDbText
 10
278.6247757272722
 20
66.72574157892404
 30
0.0
 40
15.0
  1
6-125
  7
K
100
AcDbText
  0
TEXT
  5
7553
330
DC
100
AcDbEntity
 67
     1
  8
SUNPOU
100
AcDbText
 10
366.9793143514489
 20
66.71702126413492
 30
0.0
 40
15.0
  1
99.5.10
 41
0.8
  7
K
100
AcDbText
  0
TEXT
  5
7554
330
DC
100
AcDbEntity
 67
     1
  8
SUNPOU
100
AcDbText
 10
446.2312430321872
 20
67.38208768981849
 30
0.0
 40
15.0
  1
中島
  7
K
100
AcDbText
  0
TEXT
  5
7555
330
DC
100
AcDbEntity
 67
     1
  8
SUNPOU
100
AcDbText
 10
491.2312430321872
 20
67.38208768981849
 30
0.0
 40
15.0
  1
川村
  7
K
100
AcDbText
  0
TEXT
  5
7556
330
DC
100
AcDbEntity
 67
     1
  8
SUNPOU
100
AcDbText
 10
366.9793143514489
 20
96.71702126413492
 30
0.0
 40
15.0
  1
01.5.10
 41
0.8
  7
K
100
AcDbText
  0
TEXT
  5
7557
330
DC
100
AcDbEntity
 67
     1
  8
SUNPOU
100
AcDbText
 10
446.2312430321872
 20
97.38208768981849
 30
0.0
 40
15.0
  1
江崎
  7
K
100
AcDbText
  0
ENDSEC
  0
SECTION
  2
OBJECTS
  0
DICTIONARY
  5
D3
330
0
100
AcDbDictionary
  3
ACAD_GROUP
350
D4
  3
ACAD_MLINESTYLE
350
D5
  3
ACDBVARIABLEDICTIONARY
350
59C7
  3
CONTENTDICTIONARY
350
50D5
  3
ACAD_PLOTSTYLENAME
350
75AE
  3
ACAD_LAYOUT
350
75B0
  3
ACAD_PLOTSETTINGS
350
75B1
  3
ACDBHEADERROUNDTRIPXREC
350
75B8
  0
DICTIONARY
  5
75DB
330
DF
100
AcDbDictionary
280
     1
  3
ACAD_LAYOUTSELFREF
360
75DC
  0
DICTIONARY
  5
75D9
330
DC
100
AcDbDictionary
280
     1
  3
ACAD_LAYOUTSELFREF
360
75DA
  0
DICTIONARY
  5
D4
102
{ACAD_REACTORS
330
D3
102
}
330
D3
100
AcDbDictionary
  0
DICTIONARY
  5
D5
102
{ACAD_REACTORS
330
D3
102
}
330
D3
100
AcDbDictionary
  3
STANDARD
350
E2
  0
DICTIONARY
  5
59C7
102
{ACAD_REACTORS
330
D3
102
}
330
D3
100
AcDbDictionary
  3
SORTENTS
350
59C8
  0
DICTIONARY
  5
50D5
102
{ACAD_REACTORS
330
D3
102
}
330
D3
100
AcDbDictionary
  0
ACDBDICTIONARYWDFLT
  5
75AE
102
{ACAD_REACTORS
330
D3
102
}
330
D3
100
AcDbDictionary
281
     1
  3
Normal
350
75AF
100
AcDbDictionaryWithDefault
340
75AF
  0
DICTIONARY
  5
75B0
102
{ACAD_REACTORS
330
D3
102
}
330
D3
100
AcDbDictionary
  0
DICTIONARY
  5
75B1
102
{ACAD_REACTORS
330
D3
102
}
330
D3
100
AcDbDictionary
  0
DICTIONARY
  5
75B8
102
{ACAD_REACTORS
330
D3
102
}
330
D3
100
AcDbDictionary
  3
TSTACKALIGN
350
75B9
  3
TSTACKSIZE
350
75BA
  3
HYPERLINKBASE
350
75BB
  3
STYLESHEET
350
75BC
  3
LAYOUTDICT
350
75BD
  3
PLOTSETDICT
350
75BE
  3
PLOTSTYLNAMDICT
350
75BF
  3
LWETCUNION
350
75C0
  3
INSUNITS
350
75C1
  3
CEPSNTYPE
350
75C2
  3
FINGERPRINTGUID
350
75C3
  3
VERSIONGUID
350
75C4
  3
PSVPSCALE
350
75C5
  3
DIMSTYLEDATA
350
75C6
  3
PUCSORTHOREF
350
75C7
  3
PUCSORTHOVIEW
350
75C8
  3
PUCSBASE
350
75C9
  3
PUCSORGTOP
350
75CA
  3
PUCSORGBOTTOM
350
75CB
  3
PUCSORGLEFT
350
75CC
  3
PUCSORGRIGHT
350
75CD
  3
PUCSORGFRONT
350
75CE
  3
PUCSORGBACK
350
75CF
  3
UCSORTHOREF
350
75D0
  3
UCSORTHOVIEW
350
75D1
  3
UCSBASE
350
75D2
  3
UCSORGTOP
350
75D3
  3
UCSORGBOTTOM
350
75D4
  3
UCSORGLEFT
350
75D5
  3
UCSORGRIGHT
350
75D6
  3
UCSORGFRONT
350
75D7
  3
UCSORGBACK
350
75D8
  0
XRECORD
  5
75DC
102
{ACAD_REACTORS
330
75DB
102
}
330
75DB
100
AcDbXrecord
340
DF
  0
XRECORD
  5
75DA
102
{ACAD_REACTORS
330
75D9
102
}
330
75D9
100
AcDbXrecord
340
DC
  0
MLINESTYLE
  5
E2
102
{ACAD_REACTORS
330
D5
102
}
330
D5
100
AcDbMlineStyle
  2
STANDARD
 70
     0
  3

 62
     0
 51
90.0
 52
90.0
 71
     2
 49
0.5
 62
   256
  6
BYLAYER
 49
-0.5
 62
   256
  6
BYLAYER
  0
DICTIONARYVAR
  5
59C8
102
{ACAD_REACTORS
330
59C7
102
}
330
59C7
100
DictionaryVariables
280
     0
  1
96
  0
ACDBPLACEHOLDER
  5
75AF
102
{ACAD_REACTORS
330
75AE
102
}
330
75AE
100
AcDbPlaceHolder
280
     0
  0
XRECORD
  5
75B9
102
{ACAD_REACTORS
330
75B8
102
}
330
75B8
100
AcDbXrecord
 90
        1
  0
XRECORD
  5
75BA
102
{ACAD_REACTORS
330
75B8
102
}
330
75B8
100
AcDbXrecord
 90
       70
  0
XRECORD
  5
75BB
102
{ACAD_REACTORS
330
75B8
102
}
330
75B8
100
AcDbXrecord
  1

  0
XRECORD
  5
75BC
102
{ACAD_REACTORS
330
75B8
102
}
330
75B8
100
AcDbXrecord
  1

  0
XRECORD
  5
75BD
102
{ACAD_REACTORS
330
75B8
102
}
330
75B8
100
AcDbXrecord
340
75B0
  0
XRECORD
  5
75BE
102
{ACAD_REACTORS
330
75B8
102
}
330
75B8
100
AcDbXrecord
340
75B1
  0
XRECORD
  5
75BF
102
{ACAD_REACTORS
330
75B8
102
}
330
75B8
100
AcDbXrecord
340
75AE
  0
XRECORD
  5
75C0
102
{ACAD_REACTORS
330
75B8
102
}
330
75B8
100
AcDbXrecord
 90
    14877
  0
XRECORD
  5
75C1
102
{ACAD_REACTORS
330
75B8
102
}
330
75B8
100
AcDbXrecord
 90
        0
  0
XRECORD
  5
75C2
102
{ACAD_REACTORS
330
75B8
102
}
330
75B8
100
AcDbXrecord
 90
        0
  0
XRECORD
  5
75C3
102
{ACAD_REACTORS
330
75B8
102
}
330
75B8
100
AcDbXrecord
  1
{1A66B2F1-C096-4BB0-9257-F07417455524}
  0
XRECORD
  5
75C4
102
{ACAD_REACTORS
330
75B8
102
}
330
75B8
100
AcDbXrecord
  1
{5EE7B76C-444C-494A-B777-FBD32FFE83BC}
  0
XRECORD
  5
75C5
102
{ACAD_REACTORS
330
75B8
102
}
330
75B8
100
AcDbXrecord
 40
0.0
  0
XRECORD
  5
75C6
102
{ACAD_REACTORS
330
75B8
102
}
330
75B8
100
AcDbXrecord
1000
DSTYLE
1002
{
1070
   341
340
E3
1070
   342
340
E3
1070
   343
340
E3
1070
   344
340
E3
1002
}
  0
XRECORD
  5
75C7
102
{ACAD_REACTORS
330
75B8
102
}
330
75B8
100
AcDbXrecord
340
0
  0
XRECORD
  5
75C8
102
{ACAD_REACTORS
330
75B8
102
}
330
75B8
100
AcDbXrecord
 70
     0
  0
XRECORD
  5
75C9
102
{ACAD_REACTORS
330
75B8
102
}
330
75B8
100
AcDbXrecord
340
0
  0
XRECORD
  5
75CA
102
{ACAD_REACTORS
330
75B8
102
}
330
75B8
100
AcDbXrecord
 10
0.0
 20
0.0
 30
0.0
  0
XRECORD
  5
75CB
102
{ACAD_REACTORS
330
75B8
102
}
330
75B8
100
AcDbXrecord
 10
0.0
 20
0.0
 30
0.0
  0
XRECORD
  5
75CC
102
{ACAD_REACTORS
330
75B8
102
}
330
75B8
100
AcDbXrecord
 10
0.0
 20
0.0
 30
0.0
  0
XRECORD
  5
75CD
102
{ACAD_REACTORS
330
75B8
102
}
330
75B8
100
AcDbXrecord
 10
0.0
 20
0.0
 30
0.0
  0
XRECORD
  5
75CE
102
{ACAD_REACTORS
330
75B8
102
}
330
75B8
100
AcDbXrecord
 10
0.0
 20
0.0
 30
0.0
  0
XRECORD
  5
75CF
102
{ACAD_REACTORS
330
75B8
102
}
330
75B8
100
AcDbXrecord
 10
0.0
 20
0.0
 30
0.0
  0
XRECORD
  5
75D0
102
{ACAD_REACTORS
330
75B8
102
}
330
75B8
100
AcDbXrecord
340
0
  0
XRECORD
  5
75D1
102
{ACAD_REACTORS
330
75B8
102
}
330
75B8
100
AcDbXrecord
 70
     0
  0
XRECORD
  5
75D2
102
{ACAD_REACTORS
330
75B8
102
}
330
75B8
100
AcDbXrecord
340
0
  0
XRECORD
  5
75D3
102
{ACAD_REACTORS
330
75B8
102
}
330
75B8
100
AcDbXrecord
 10
0.0
 20
0.0
 30
0.0
  0
XRECORD
  5
75D4
102
{ACAD_REACTORS
330
75B8
102
}
330
75B8
100
AcDbXrecord
 10
0.0
 20
0.0
 30
0.0
  0
XRECORD
  5
75D5
102
{ACAD_REACTORS
330
75B8
102
}
330
75B8
100
AcDbXrecord
 10
0.0
 20
0.0
 30
0.0
  0
XRECORD
  5
75D6
102
{ACAD_REACTORS
330
75B8
102
}
330
75B8
100
AcDbXrecord
 10
0.0
 20
0.0
 30
0.0
  0
XRECORD
  5
75D7
102
{ACAD_REACTORS
330
75B8
102
}
330
75B8
100
AcDbXrecord
 10
0.0
 20
0.0
 30
0.0
  0
XRECORD
  5
75D8
102
{ACAD_REACTORS
330
75B8
102
}
330
75B8
100
AcDbXrecord
 10
0.0
 20
0.0
 30
0.0
  0
ENDSEC
  0
EOF
