  0
SECTION
  2
HEADER
  9
$ACADVER
  1
AC1014
  9
$ACADMAINTVER
 70
     9
  9
$DWGCODEPAGE
  3
ANSI_932
  9
$INSBASE
 10
0.0
 20
0.0
 30
0.0
  9
$EXTMIN
 10
-0.0640820246935618
 20
-29.04620008827896
 30
-0.0015258207003583
  9
$EXTMAX
 10
1930.554203910932
 20
1375.081607401001
 30
0.0000000349246037
  9
$LIMMIN
 10
0.0
 20
0.0
  9
$LIMMAX
 10
2100.0
 20
1485.0
  9
$ORTHOMODE
 70
     0
  9
$REGENMODE
 70
     1
  9
$FILLMODE
 70
     1
  9
$QTEXTMODE
 70
     0
  9
$MIRRTEXT
 70
     0
  9
$DRAGMODE
 70
     2
  9
$LTSCALE
 40
25.0
  9
$OSMODE
 70
    37
  9
$ATTMODE
 70
     1
  9
$TEXTSIZE
 40
15.0
  9
$TRACEWID
 40
0.05
  9
$TEXTSTYLE
  7
K
  9
$CLAYER
  8
HOJO
  9
$CELTYPE
  6
BYLAYER
  9
$CECOLOR
 62
   256
  9
$CELTSCALE
 40
1.0
  9
$DELOBJ
 70
     1
  9
$DISPSILH
 70
     0
  9
$DIMSCALE
 40
5.0
  9
$DIMASZ
 40
1.5
  9
$DIMEXO
 40
1.0
  9
$DIMDLI
 40
6.0
  9
$DIMRND
 40
0.0
  9
$DIMDLE
 40
0.0
  9
$DIMEXE
 40
1.0
  9
$DIMTP
 40
495.0
  9
$DIMTM
 40
0.0
  9
$DIMTXT
 40
3.0
  9
$DIMCEN
 40
0.0
  9
$DIMTSZ
 40
0.0
  9
$DIMTOL
 70
     0
  9
$DIMLIM
 70
     0
  9
$DIMTIH
 70
     0
  9
$DIMTOH
 70
     0
  9
$DIMSE1
 70
     0
  9
$DIMSE2
 70
     0
  9
$DIMTAD
 70
     1
  9
$DIMZIN
 70
     8
  9
$DIMBLK
  1
ARROW
  9
$DIMASO
 70
     1
  9
$DIMSHO
 70
     0
  9
$DIMPOST
  1

  9
$DIMAPOST
  1

  9
$DIMALT
 70
     0
  9
$DIMALTD
 70
     2
  9
$DIMALTF
 40
25.4
  9
$DIMLFAC
 40
1.0
  9
$DIMTOFL
 70
     1
  9
$DIMTVP
 40
0.0
  9
$DIMTIX
 70
     1
  9
$DIMSOXD
 70
     0
  9
$DIMSAH
 70
     0
  9
$DIMBLK1
  1
ARROW
  9
$DIMBLK2
  1
ARROW
  9
$DIMSTYLE
  2
IMAO
  9
$DIMCLRD
 70
     0
  9
$DIMCLRE
 70
     0
  9
$DIMCLRT
 70
     0
  9
$DIMTFAC
 40
1.0
  9
$DIMGAP
 40
0.09
  9
$DIMJUST
 70
     0
  9
$DIMSD1
 70
     0
  9
$DIMSD2
 70
     0
  9
$DIMTOLJ
 70
     1
  9
$DIMTZIN
 70
     0
  9
$DIMALTZ
 70
     0
  9
$DIMALTTZ
 70
     0
  9
$DIMFIT
 70
     3
  9
$DIMUPT
 70
     0
  9
$DIMUNIT
 70
     2
  9
$DIMDEC
 70
     4
  9
$DIMTDEC
 70
     4
  9
$DIMALTU
 70
     2
  9
$DIMALTTD
 70
     2
  9
$DIMTXSTY
  7
STANDARD
  9
$DIMAUNIT
 70
     0
  9
$LUNITS
 70
     2
  9
$LUPREC
 70
     2
  9
$SKETCHINC
 40
0.1
  9
$FILLETRAD
 40
10.0
  9
$AUNITS
 70
     0
  9
$AUPREC
 70
     2
  9
$MENU
  1
STDR12J
  9
$ELEVATION
 40
0.0
  9
$PELEVATION
 40
0.0
  9
$THICKNESS
 40
0.0
  9
$LIMCHECK
 70
     0
  9
$BLIPMODE
 70
     0
  9
$CHAMFERA
 40
0.0
  9
$CHAMFERB
 40
0.0
  9
$CHAMFERC
 40
0.0
  9
$CHAMFERD
 40
0.0
  9
$SKPOLY
 70
     0
  9
$TDCREATE
 40
2452335.394430752
  9
$TDUPDATE
 40
2453133.653226481
  9
$TDINDWG
 40
0.6347400000
  9
$TDUSRTIMER
 40
0.6347400000
  9
$USRTIMER
 70
     1
  9
$ANGBASE
 50
0.0
  9
$ANGDIR
 70
     0
  9
$PDMODE
 70
     3
  9
$PDSIZE
 40
0.0
  9
$PLINEWID
 40
0.0
  9
$COORDS
 70
     1
  9
$SPLFRAME
 70
     0
  9
$SPLINETYPE
 70
     6
  9
$SPLINESEGS
 70
     8
  9
$ATTDIA
 70
     0
  9
$ATTREQ
 70
     1
  9
$HANDLING
 70
 10241
  9
$HANDSEED
  5
1A6E
  9
$SURFTAB1
 70
     6
  9
$SURFTAB2
 70
     6
  9
$SURFTYPE
 70
     6
  9
$SURFU
 70
     6
  9
$SURFV
 70
     6
  9
$UCSNAME
  2

  9
$UCSORG
 10
0.0
 20
0.0
 30
0.0
  9
$UCSXDIR
 10
1.0
 20
0.0
 30
0.0
  9
$UCSYDIR
 10
0.0
 20
1.0
 30
0.0
  9
$PUCSNAME
  2

  9
$PUCSORG
 10
0.0
 20
0.0
 30
0.0
  9
$PUCSXDIR
 10
1.0
 20
0.0
 30
0.0
  9
$PUCSYDIR
 10
0.0
 20
1.0
 30
0.0
  9
$USERI1
 70
     3
  9
$USERI2
 70
     1
  9
$USERI3
 70
     5
  9
$USERI4
 70
     1
  9
$USERI5
 70
     1
  9
$USERR1
 40
5.0
  9
$USERR2
 40
3.0
  9
$USERR3
 40
3.0
  9
$USERR4
 40
1.5
  9
$USERR5
 40
10.0
  9
$WORLDVIEW
 70
     1
  9
$SHADEDGE
 70
     3
  9
$SHADEDIF
 70
    70
  9
$TILEMODE
 70
     1
  9
$MAXACTVP
 70
    16
  9
$PINSBASE
 10
0.0
 20
0.0
 30
0.0
  9
$PLIMCHECK
 70
     0
  9
$PEXTMIN
 10
1.000000000000000E+20
 20
1.000000000000000E+20
 30
1.000000000000000E+20
  9
$PEXTMAX
 10
-1.000000000000000E+20
 20
-1.000000000000000E+20
 30
-1.000000000000000E+20
  9
$PLIMMIN
 10
0.0
 20
0.0
  9
$PLIMMAX
 10
12.0
 20
9.0
  9
$UNITMODE
 70
     0
  9
$VISRETAIN
 70
     0
  9
$PLINEGEN
 70
     0
  9
$PSLTSCALE
 70
     0
  9
$TREEDEPTH
 70
     0
  9
$PICKSTYLE
 70
     1
  9
$CMLSTYLE
  2
STANDARD
  9
$CMLJUST
 70
     0
  9
$CMLSCALE
 40
1.0
  9
$PROXYGRAPHICS
 70
     1
  9
$MEASUREMENT
 70
     1
  0
ENDSEC
  0
SECTION
  2
CLASSES
  0
CLASS
  1
LWPOLYLINE
  2
AcDbPolyline
  3
AutoCAD 2000
 90
        0
280
     0
281
     1
  0
CLASS
  1
DICTIONARYVAR
  2
AcDbDictionaryVar
  3
AutoCAD 2000
 90
        0
280
     0
281
     0
  0
CLASS
  1
ACDBDICTIONARYWDFLT
  2
AcDbDictionaryWithDefault
  3
AutoCAD 2000
 90
        0
280
     0
281
     0
  0
CLASS
  1
ACDBPLACEHOLDER
  2
AcDbPlaceHolder
  3
AutoCAD 2000
 90
        0
280
     0
281
     0
  0
CLASS
  1
LAYOUT
  2
AcDbLayout
  3
AutoCAD 2000
 90
        0
280
     0
281
     0
  0
CLASS
  1
LONG_TRANSACTION
  2
AcDbLongTransaction
  3
AutoCAD 2000
 90
        0
280
     0
281
     0
  0
CLASS
  1
LWPOLYLINE
  2
AcDbPolyline
  3
AutoCAD 2000
 90
        0
280
     0
281
     1
  0
CLASS
  1
HATCH
  2
AcDbHatch
  3
AutoCAD 2000
 90
        0
280
     0
281
     1
  0
CLASS
  1
XRECORD
  2
AcDbXrecord
  3
AutoCAD 2000
 90
        0
280
     0
281
     0
  0
ENDSEC
  0
SECTION
  2
TABLES
  0
TABLE
  2
VPORT
  5
CF
330
0
100
AcDbSymbolTable
 70
    11
  0
VPORT
  5
F5
330
CF
100
AcDbSymbolTableRecord
100
AcDbViewportTableRecord
  2
2
 70
     0
 10
0.5
 20
0.0
 11
1.0
 21
1.0
 12
0.9240312421264802
 22
1.052650975462766
 13
0.0
 23
0.0
 14
1.0
 24
1.0
 15
10.0
 25
10.0
 16
0.0
 26
0.0
 36
1.0
 17
0.0
 27
0.0
 37
0.0
 40
2.105301950925533
 41
0.8778135048231511
 42
50.0
 43
0.0
 44
0.0
 50
0.0
 51
0.0
 71
     0
 72
   500
 73
     1
 74
     1
 75
     0
 76
     0
 77
     0
 78
     0
  0
VPORT
  5
F6
330
CF
100
AcDbSymbolTableRecord
100
AcDbViewportTableRecord
  2
2
 70
     0
 10
0.0
 20
0.0
 11
0.5
 21
1.0
 12
0.9240312421264802
 22
1.052650975462766
 13
0.0
 23
0.0
 14
1.0
 24
1.0
 15
10.0
 25
10.0
 16
0.0
 26
0.0
 36
1.0
 17
0.0
 27
0.0
 37
0.0
 40
2.105301950925533
 41
0.8778135048231511
 42
50.0
 43
0.0
 44
0.0
 50
0.0
 51
0.0
 71
     0
 72
   500
 73
     1
 74
     1
 75
     0
 76
     0
 77
     0
 78
     0
  0
VPORT
  5
F7
330
CF
100
AcDbSymbolTableRecord
100
AcDbViewportTableRecord
  2
3
 70
     0
 10
0.0
 20
0.5
 11
1.0
 21
1.0
 12
2.832169994473273
 22
1.052650975462766
 13
0.0
 23
0.0
 14
1.0
 24
1.0
 15
10.0
 25
10.0
 16
0.0
 26
0.0
 36
1.0
 17
0.0
 27
0.0
 37
0.0
 40
2.105301950925533
 41
3.571428571428571
 42
50.0
 43
0.0
 44
0.0
 50
0.0
 51
0.0
 71
     0
 72
   500
 73
     1
 74
     1
 75
     0
 76
     0
 77
     0
 78
     0
  0
VPORT
  5
F8
330
CF
100
AcDbSymbolTableRecord
100
AcDbViewportTableRecord
  2
3
 70
     0
 10
0.0
 20
0.0
 11
1.0
 21
0.5
 12
2.856741679241311
 22
1.052650975462766
 13
0.0
 23
0.0
 14
1.0
 24
1.0
 15
10.0
 25
10.0
 16
0.0
 26
0.0
 36
1.0
 17
0.0
 27
0.0
 37
0.0
 40
2.105301950925533
 41
3.594771241830065
 42
50.0
 43
0.0
 44
0.0
 50
0.0
 51
0.0
 71
     0
 72
   500
 73
     1
 74
     1
 75
     0
 76
     0
 77
     0
 78
     0
  0
VPORT
  5
F9
330
CF
100
AcDbSymbolTableRecord
100
AcDbViewportTableRecord
  2
4
 70
     0
 10
0.5
 20
0.0
 11
1.0
 21
0.5
 12
2.886857516709719
 22
1.052650975462766
 13
0.0
 23
0.0
 14
1.0
 24
1.0
 15
10.0
 25
10.0
 16
0.0
 26
0.0
 36
1.0
 17
0.0
 27
0.0
 37
0.0
 40
4.27520703030907
 41
1.784313725490195
 42
50.0
 43
0.0
 44
0.0
 50
0.0
 51
0.0
 71
     0
 72
   500
 73
     1
 74
     1
 75
     0
 76
     0
 77
     0
 78
     0
  0
VPORT
  5
FA
330
CF
100
AcDbSymbolTableRecord
100
AcDbViewportTableRecord
  2
4
 70
     0
 10
0.5
 20
0.5
 11
1.0
 21
1.0
 12
2.862090274555523
 22
1.052650975462766
 13
0.0
 23
0.0
 14
1.0
 24
1.0
 15
10.0
 25
10.0
 16
0.0
 26
0.0
 36
1.0
 17
0.0
 27
0.0
 37
0.0
 40
4.27520703030907
 41
1.772727272727272
 42
50.0
 43
0.0
 44
0.0
 50
0.0
 51
0.0
 71
     0
 72
   500
 73
     1
 74
     1
 75
     0
 76
     0
 77
     0
 78
     0
  0
VPORT
  5
FB
330
CF
100
AcDbSymbolTableRecord
100
AcDbViewportTableRecord
  2
4
 70
     0
 10
0.0
 20
0.5
 11
0.5
 21
1.0
 12
2.862090274555523
 22
1.052650975462766
 13
0.0
 23
0.0
 14
1.0
 24
1.0
 15
10.0
 25
10.0
 16
0.0
 26
0.0
 36
1.0
 17
0.0
 27
0.0
 37
0.0
 40
4.27520703030907
 41
1.772727272727272
 42
50.0
 43
0.0
 44
0.0
 50
0.0
 51
0.0
 71
     0
 72
   500
 73
     1
 74
     1
 75
     0
 76
     0
 77
     0
 78
     0
  0
VPORT
  5
FC
330
CF
100
AcDbSymbolTableRecord
100
AcDbViewportTableRecord
  2
4
 70
     0
 10
0.0
 20
0.0
 11
0.5
 21
0.5
 12
2.886857516709719
 22
1.052650975462766
 13
0.0
 23
0.0
 14
1.0
 24
1.0
 15
10.0
 25
10.0
 16
0.0
 26
0.0
 36
1.0
 17
0.0
 27
0.0
 37
0.0
 40
4.27520703030907
 41
1.784313725490195
 42
50.0
 43
0.0
 44
0.0
 50
0.0
 51
0.0
 71
     0
 72
   500
 73
     1
 74
     1
 75
     0
 76
     0
 77
     0
 78
     0
  0
VPORT
  5
19E5
330
CF
100
AcDbSymbolTableRecord
100
AcDbViewportTableRecord
  2
*ACTIVE
 70
     0
 10
0.0
 20
0.0
 11
1.0
 21
1.0
 12
1049.967958987653
 22
727.9768999558605
 13
0.0
 23
0.0
 14
1.0
 24
1.0
 15
10.0
 25
10.0
 16
0.0
 26
0.0
 36
1.0
 17
0.0
 27
0.0
 37
0.0
 40
1531.719891139893
 41
1.84990253411306
 42
50.0
 43
0.0
 44
0.0
 50
0.0
 51
0.0
 71
     0
 72
   500
 73
     1
 74
     0
 75
     0
 76
     0
 77
     0
 78
     0
  0
ENDTAB
  0
TABLE
  2
LTYPE
  5
CC
330
0
100
AcDbSymbolTable
 70
     5
  0
LTYPE
  5
D9
330
CC
100
AcDbSymbolTableRecord
100
AcDbLinetypeTableRecord
  2
BYBLOCK
 70
     0
  3

 72
    65
 73
     0
 40
0.0
  0
LTYPE
  5
DA
330
CC
100
AcDbSymbolTableRecord
100
AcDbLinetypeTableRecord
  2
BYLAYER
 70
     0
  3

 72
    65
 73
     0
 40
0.0
  0
LTYPE
  5
DB
330
CC
100
AcDbSymbolTableRecord
100
AcDbLinetypeTableRecord
  2
CONTINUOUS
 70
     0
  3
実線
 72
    65
 73
     0
 40
0.0
  0
LTYPE
  5
F1
330
CC
100
AcDbSymbolTableRecord
100
AcDbLinetypeTableRecord
  2
DASHED
 70
     0
  3
__ __ __ __ __ __ __ __ __ __ __ __ __ __ __
 72
    65
 73
     2
 40
0.75
 49
0.5
 74
     0
 49
-0.25
 74
     0
  0
LTYPE
  5
F2
330
CC
100
AcDbSymbolTableRecord
100
AcDbLinetypeTableRecord
  2
CENTER
 70
     0
  3
____ _ ____ _ ____ _ ____ _ ____ _ ____ _ ____
 72
    65
 73
     4
 40
2.0
 49
1.25
 74
     0
 49
-0.25
 74
     0
 49
0.25
 74
     0
 49
-0.25
 74
     0
  0
LTYPE
  5
F3
330
CC
100
AcDbSymbolTableRecord
100
AcDbLinetypeTableRecord
  2
PHANTOM
 70
     0
  3
_____ _ _ _____ _ _ _____ _ _ _____ _ _ ____
 72
    65
 73
     6
 40
2.5
 49
1.25
 74
     0
 49
-0.25
 74
     0
 49
0.25
 74
     0
 49
-0.25
 74
     0
 49
0.25
 74
     0
 49
-0.25
 74
     0
  0
LTYPE
  5
F4
330
CC
100
AcDbSymbolTableRecord
100
AcDbLinetypeTableRecord
  2
HIDDEN
 70
     0
  3
_ _ _ _ _ _ _ _ _ _ _ _ _ _ _ _ _ _ _ _ _ _ _
 72
    65
 73
     2
 40
0.375
 49
0.25
 74
     0
 49
-0.125
 74
     0
  0
ENDTAB
  0
TABLE
  2
LAYER
  5
C9
330
0
100
AcDbSymbolTable
 70
    15
  0
LAYER
  5
D6
330
C9
100
AcDbSymbolTableRecord
100
AcDbLayerTableRecord
  2
0
 70
     0
 62
     7
  6
CONTINUOUS
  0
LAYER
  5
100
330
C9
100
AcDbSymbolTableRecord
100
AcDbLayerTableRecord
  2
HASEN
 70
     0
 62
     2
  6
DASHED
  0
LAYER
  5
101
330
C9
100
AcDbSymbolTableRecord
100
AcDbLayerTableRecord
  2
ITTEN
 70
     0
 62
     1
  6
CENTER
  0
LAYER
  5
102
330
C9
100
AcDbSymbolTableRecord
100
AcDbLayerTableRecord
  2
NITEN
 70
     0
 62
     2
  6
PHANTOM
  0
LAYER
  5
103
330
C9
100
AcDbSymbolTableRecord
100
AcDbLayerTableRecord
  2
HATCH
 70
     0
 62
     4
  6
CONTINUOUS
  0
LAYER
  5
104
330
C9
100
AcDbSymbolTableRecord
100
AcDbLayerTableRecord
  2
SUNPOU
 70
     0
 62
     3
  6
CONTINUOUS
  0
LAYER
  5
105
330
C9
100
AcDbSymbolTableRecord
100
AcDbLayerTableRecord
  2
TEXT
 70
     0
 62
     3
  6
CONTINUOUS
  0
LAYER
  5
106
330
C9
100
AcDbSymbolTableRecord
100
AcDbLayerTableRecord
  2
SAISEN
 70
     0
 62
     4
  6
CONTINUOUS
  0
LAYER
  5
107
330
C9
100
AcDbSymbolTableRecord
100
AcDbLayerTableRecord
  2
JISSEN
 70
     0
 62
     7
  6
CONTINUOUS
  0
LAYER
  5
108
330
C9
100
AcDbSymbolTableRecord
100
AcDbLayerTableRecord
  2
HOJO
 70
     0
 62
     6
  6
CONTINUOUS
  0
LAYER
  5
109
330
C9
100
AcDbSymbolTableRecord
100
AcDbLayerTableRecord
  2
TENSEN
 70
     0
 62
     2
  6
HIDDEN
  0
LAYER
  5
10A
330
C9
100
AcDbSymbolTableRecord
100
AcDbLayerTableRecord
  2
HOJOORG
 70
     0
 62
     1
  6
CONTINUOUS
  0
LAYER
  5
10B
330
C9
100
AcDbSymbolTableRecord
100
AcDbLayerTableRecord
  2
WAKU
 70
     0
 62
     5
  6
CONTINUOUS
  0
LAYER
  5
10C
330
C9
100
AcDbSymbolTableRecord
100
AcDbLayerTableRecord
  2
POINT
 70
     0
 62
     7
  6
CONTINUOUS
  0
LAYER
  5
424
330
C9
100
AcDbSymbolTableRecord
100
AcDbLayerTableRecord
  2
DEFPOINTS
 70
     0
 62
     7
  6
CONTINUOUS
  0
ENDTAB
  0
TABLE
  2
STYLE
  5
CA
330
0
100
AcDbSymbolTable
 70
     2
  0
STYLE
  5
D7
330
CA
100
AcDbSymbolTableRecord
100
AcDbTextStyleTableRecord
  2
STANDARD
 70
     0
 40
0.0
 41
1.0
 50
0.0
 71
     0
 42
0.2
  3
ROMANS
  4
EXTFONT
  0
STYLE
  5
F0
330
CA
100
AcDbSymbolTableRecord
100
AcDbTextStyleTableRecord
  2
K
 70
     0
 40
0.0
 41
1.0
 50
0.0
 71
     0
 42
15.0
  3
ROMANS
  4
EXTFONT
  0
ENDTAB
  0
TABLE
  2
VIEW
  5
CD
330
0
100
AcDbSymbolTable
 70
     0
  0
ENDTAB
  0
TABLE
  2
UCS
  5
CE
330
0
100
AcDbSymbolTable
 70
     0
  0
ENDTAB
  0
TABLE
  2
APPID
  5
D0
330
0
100
AcDbSymbolTable
 70
     1
  0
APPID
  5
D8
330
D0
100
AcDbSymbolTableRecord
100
AcDbRegAppTableRecord
  2
ACAD
 70
     0
  0
ENDTAB
  0
TABLE
  2
DIMSTYLE
  5
D1
330
0
100
AcDbSymbolTable
 70
     2
  0
DIMSTYLE
105
FF
102
{ACAD_REACTORS
330
1843
330
18A9
330
18C1
330
18CE
330
18DD
330
1953
330
196B
330
1978
330
1985
330
1992
330
19CB
330
10D5
330
10D6
330
10D7
330
10D8
330
10D9
330
10DA
330
1279
330
127A
330
127B
330
127C
330
127D
330
12B2
330
12B3
330
1389
330
13A8
330
13A9
102
}
330
D1
100
AcDbSymbolTableRecord
100
AcDbDimStyleTableRecord
  2
IMAO
 70
     0
  3

  4

  5
ARROW
  6
ARROWANG
  7
ARROWANG
 40
1.0
 41
1.5
 42
1.0
 43
6.0
 44
1.0
 45
0.0
 46
0.0
 47
495.0
 48
0.0
140
3.0
141
0.0
142
0.0
143
25.4
144
1.0
145
0.0
146
1.0
147
0.09
 71
     0
 72
     0
 73
     0
 74
     0
 75
     0
 76
     0
 77
     1
 78
     8
170
     0
171
     2
172
     1
173
     0
174
     1
175
     0
176
     0
177
     0
178
     0
270
     2
271
     2
272
     2
273
     2
274
     2
340
F0
275
     0
280
     0
281
     0
282
     0
283
     1
284
     8
285
     8
286
     8
287
     5
288
     0
  0
DIMSTYLE
105
1FF
330
D1
100
AcDbSymbolTableRecord
100
AcDbDimStyleTableRecord
  2
ITM
 70
     0
  3

  4

  5
ARROWANG
  6
ARROWANG
  7
ARROWANG
 40
1.0
 41
1.5
 42
1.0
 43
6.0
 44
1.0
 45
0.0
 46
0.0
 47
495.0
 48
0.0
140
3.0
141
0.0
142
0.0
143
25.4
144
1.0
145
0.0
146
1.0
147
0.5
 71
     0
 72
     0
 73
     0
 74
     0
 75
     0
 76
     0
 77
     3
 78
     8
170
     0
171
     2
172
     1
173
     1
174
     1
175
     0
176
     0
177
     0
178
     0
270
     2
271
     4
272
     4
273
     2
274
     2
340
F0
275
     0
280
     0
281
     0
282
     0
283
     1
284
     0
285
     0
286
     0
287
     3
288
     0
  0
ENDTAB
  0
TABLE
  2
BLOCK_RECORD
  5
C8
330
0
100
AcDbSymbolTable
 70
    61
  0
BLOCK_RECORD
  5
DF
102
{ACAD_XDICTIONARY
360
1A09
102
}
330
C8
100
AcDbSymbolTableRecord
100
AcDbBlockTableRecord
  2
*MODEL_SPACE
  0
BLOCK_RECORD
  5
DC
102
{ACAD_XDICTIONARY
360
1A07
102
}
330
C8
100
AcDbSymbolTableRecord
100
AcDbBlockTableRecord
  2
*PAPER_SPACE
  0
BLOCK_RECORD
  5
E3
330
C8
100
AcDbSymbolTableRecord
100
AcDbBlockTableRecord
  2
ARROW
  0
BLOCK_RECORD
  5
E4
330
C8
100
AcDbSymbolTableRecord
100
AcDbBlockTableRecord
  2
HOJO
  0
BLOCK_RECORD
  5
E5
330
C8
100
AcDbSymbolTableRecord
100
AcDbBlockTableRecord
  2
HOJOANG
  0
BLOCK_RECORD
  5
E6
330
C8
100
AcDbSymbolTableRecord
100
AcDbBlockTableRecord
  2
HOJOORG
  0
BLOCK_RECORD
  5
E7
330
C8
100
AcDbSymbolTableRecord
100
AcDbBlockTableRecord
  2
WAKU
  0
BLOCK_RECORD
  5
E8
330
C8
100
AcDbSymbolTableRecord
100
AcDbBlockTableRecord
  2
DOT
  0
BLOCK_RECORD
  5
E9
330
C8
100
AcDbSymbolTableRecord
100
AcDbBlockTableRecord
  2
ARROWANG
  0
BLOCK_RECORD
  5
EA
330
C8
100
AcDbSymbolTableRecord
100
AcDbBlockTableRecord
  2
HOJOC
  0
BLOCK_RECORD
  5
EB
330
C8
100
AcDbSymbolTableRecord
100
AcDbBlockTableRecord
  2
HOJOORGC
  0
BLOCK_RECORD
  5
EC
330
C8
100
AcDbSymbolTableRecord
100
AcDbBlockTableRecord
  2
HOJOCR
  0
BLOCK_RECORD
  5
ED
330
C8
100
AcDbSymbolTableRecord
100
AcDbBlockTableRecord
  2
HOJOORGCR
  0
BLOCK_RECORD
  5
EE
330
C8
100
AcDbSymbolTableRecord
100
AcDbBlockTableRecord
  2
CENLINE
  0
BLOCK_RECORD
  5
EF
330
C8
100
AcDbSymbolTableRecord
100
AcDbBlockTableRecord
  2
CENCRS
  0
BLOCK_RECORD
  5
192
330
C8
100
AcDbSymbolTableRecord
100
AcDbBlockTableRecord
  2
A$C177A3D75
  0
BLOCK_RECORD
  5
1A3
330
C8
100
AcDbSymbolTableRecord
100
AcDbBlockTableRecord
  2
A$C7F7C75AF
  0
BLOCK_RECORD
  5
200
330
C8
100
AcDbSymbolTableRecord
100
AcDbBlockTableRecord
  2
A$C39A14254
  0
BLOCK_RECORD
  5
6FC
330
C8
100
AcDbSymbolTableRecord
100
AcDbBlockTableRecord
  2
A$C76DB6D64
  0
BLOCK_RECORD
  5
A16
330
C8
100
AcDbSymbolTableRecord
100
AcDbBlockTableRecord
  2
A$C53553078
  0
BLOCK_RECORD
  5
A3F
330
C8
100
AcDbSymbolTableRecord
100
AcDbBlockTableRecord
  2
A$C5E267045
  0
BLOCK_RECORD
  5
BA5
330
C8
100
AcDbSymbolTableRecord
100
AcDbBlockTableRecord
  2
A$C06C6236D
  0
BLOCK_RECORD
  5
BCF
330
C8
100
AcDbSymbolTableRecord
100
AcDbBlockTableRecord
  2
A$C23052AEC
  0
BLOCK_RECORD
  5
C05
330
C8
100
AcDbSymbolTableRecord
100
AcDbBlockTableRecord
  2
A$C29C57B06
  0
BLOCK_RECORD
  5
C30
330
C8
100
AcDbSymbolTableRecord
100
AcDbBlockTableRecord
  2
A$C2ED45F67
  0
BLOCK_RECORD
  5
1046
330
C8
100
AcDbSymbolTableRecord
100
AcDbBlockTableRecord
  2
A$C1D6227E0
  0
BLOCK_RECORD
  5
107D
330
C8
100
AcDbSymbolTableRecord
100
AcDbBlockTableRecord
  2
*D24
  0
BLOCK_RECORD
  5
1089
330
C8
100
AcDbSymbolTableRecord
100
AcDbBlockTableRecord
  2
*D25
  0
BLOCK_RECORD
  5
1097
330
C8
100
AcDbSymbolTableRecord
100
AcDbBlockTableRecord
  2
*D26
  0
BLOCK_RECORD
  5
10A3
330
C8
100
AcDbSymbolTableRecord
100
AcDbBlockTableRecord
  2
*D27
  0
BLOCK_RECORD
  5
10AF
330
C8
100
AcDbSymbolTableRecord
100
AcDbBlockTableRecord
  2
*D28
  0
BLOCK_RECORD
  5
10BB
330
C8
100
AcDbSymbolTableRecord
100
AcDbBlockTableRecord
  2
*D29
  0
BLOCK_RECORD
  5
10C7
330
C8
100
AcDbSymbolTableRecord
100
AcDbBlockTableRecord
  2
A$C1CF813AC
  0
BLOCK_RECORD
  5
11CE
330
C8
100
AcDbSymbolTableRecord
100
AcDbBlockTableRecord
  2
A$C32897E33
  0
BLOCK_RECORD
  5
1215
330
C8
100
AcDbSymbolTableRecord
100
AcDbBlockTableRecord
  2
*D32
  0
BLOCK_RECORD
  5
1221
330
C8
100
AcDbSymbolTableRecord
100
AcDbBlockTableRecord
  2
*D33
  0
BLOCK_RECORD
  5
122F
330
C8
100
AcDbSymbolTableRecord
100
AcDbBlockTableRecord
  2
*D34
  0
BLOCK_RECORD
  5
123B
330
C8
100
AcDbSymbolTableRecord
100
AcDbBlockTableRecord
  2
*D35
  0
BLOCK_RECORD
  5
1247
330
C8
100
AcDbSymbolTableRecord
100
AcDbBlockTableRecord
  2
*D36
  0
BLOCK_RECORD
  5
1253
330
C8
100
AcDbSymbolTableRecord
100
AcDbBlockTableRecord
  2
*D37
  0
BLOCK_RECORD
  5
125F
330
C8
100
AcDbSymbolTableRecord
100
AcDbBlockTableRecord
  2
*D38
  0
BLOCK_RECORD
  5
126B
330
C8
100
AcDbSymbolTableRecord
100
AcDbBlockTableRecord
  2
A$C4EE57C70
  0
BLOCK_RECORD
  5
12DC
330
C8
100
AcDbSymbolTableRecord
100
AcDbBlockTableRecord
  2
A$C24D528C3
  0
BLOCK_RECORD
  5
1364
330
C8
100
AcDbSymbolTableRecord
100
AcDbBlockTableRecord
  2
*D41
  0
BLOCK_RECORD
  5
1370
330
C8
100
AcDbSymbolTableRecord
100
AcDbBlockTableRecord
  2
*D42
  0
BLOCK_RECORD
  5
137C
330
C8
100
AcDbSymbolTableRecord
100
AcDbBlockTableRecord
  2
*D43
  0
BLOCK_RECORD
  5
1388
330
C8
100
AcDbSymbolTableRecord
100
AcDbBlockTableRecord
  2
A$C3512598C
  0
BLOCK_RECORD
  5
1837
330
C8
100
AcDbSymbolTableRecord
100
AcDbBlockTableRecord
  2
*D49
  0
BLOCK_RECORD
  5
189D
330
C8
100
AcDbSymbolTableRecord
100
AcDbBlockTableRecord
  2
*D50
  0
BLOCK_RECORD
  5
18B5
330
C8
100
AcDbSymbolTableRecord
100
AcDbBlockTableRecord
  2
*D51
  0
BLOCK_RECORD
  5
18C2
330
C8
100
AcDbSymbolTableRecord
100
AcDbBlockTableRecord
  2
*D52
  0
BLOCK_RECORD
  5
18D1
330
C8
100
AcDbSymbolTableRecord
100
AcDbBlockTableRecord
  2
*D53
  0
BLOCK_RECORD
  5
1947
330
C8
100
AcDbSymbolTableRecord
100
AcDbBlockTableRecord
  2
*D54
  0
BLOCK_RECORD
  5
195F
330
C8
100
AcDbSymbolTableRecord
100
AcDbBlockTableRecord
  2
*D55
  0
BLOCK_RECORD
  5
196C
330
C8
100
AcDbSymbolTableRecord
100
AcDbBlockTableRecord
  2
*D56
  0
BLOCK_RECORD
  5
1979
330
C8
100
AcDbSymbolTableRecord
100
AcDbBlockTableRecord
  2
*D57
  0
BLOCK_RECORD
  5
1986
330
C8
100
AcDbSymbolTableRecord
100
AcDbBlockTableRecord
  2
*D58
  0
BLOCK_RECORD
  5
1998
330
C8
100
AcDbSymbolTableRecord
100
AcDbBlockTableRecord
  2
A$C0E771AAF
  0
BLOCK_RECORD
  5
19BF
330
C8
100
AcDbSymbolTableRecord
100
AcDbBlockTableRecord
  2
*D60
  0
ENDTAB
  0
ENDSEC
  0
SECTION
  2
BLOCKS
  0
BLOCK
  5
10F
330
DF
100
AcDbEntity
  8
0
100
AcDbBlockBegin
  2
*MODEL_SPACE
 70
     0
 10
0.0
 20
0.0
 30
0.0
  3
*MODEL_SPACE
  1

  0
ENDBLK
  5
110
330
DF
100
AcDbEntity
  8
0
100
AcDbBlockEnd
  0
BLOCK
  5
10D
330
DC
100
AcDbEntity
 67
     1
  8
0
100
AcDbBlockBegin
  2
*PAPER_SPACE
 70
     0
 10
0.0
 20
0.0
 30
0.0
  3
*PAPER_SPACE
  1

  0
ENDBLK
  5
10E
330
DC
100
AcDbEntity
 67
     1
  8
0
100
AcDbBlockEnd
  0
BLOCK
  5
1
330
E3
100
AcDbEntity
  8
0
100
AcDbBlockBegin
  2
ARROW
 70
     0
 10
1.0
 20
0.5
 30
0.0
  3
ARROW
  1

  0
LINE
  5
2
330
E3
100
AcDbEntity
  8
0
100
AcDbLine
 10
1.0
 20
0.5
 30
0.0
 11
-0.5000000000000214
 21
0.0980762113533018
 31
0.0
  0
LINE
  5
3
330
E3
100
AcDbEntity
  8
0
100
AcDbLine
 10
0.0
 20
0.5
 30
0.0
 11
1.0
 21
0.5
 31
0.0
  0
LINE
  5
4
330
E3
100
AcDbEntity
  8
0
100
AcDbLine
 10
1.0
 20
0.5
 30
0.0
 11
-0.4999999999999574
 21
0.9019237886467408
 31
0.0
  0
ENDBLK
  5
5
330
E3
100
AcDbEntity
  8
0
100
AcDbBlockEnd
  0
BLOCK
  5
6
330
E4
100
AcDbEntity
  8
0
100
AcDbBlockBegin
  2
HOJO
 70
     0
 10
0.0
 20
0.0
 30
0.0
  3
HOJO
  1

  0
LINE
  5
7
330
E4
100
AcDbEntity
  8
HOJO
100
AcDbLine
 10
0.0
 20
0.0
 30
0.0
 11
2.0
 21
0.0
 31
0.0
  0
ENDBLK
  5
8
330
E4
100
AcDbEntity
  8
0
100
AcDbBlockEnd
  0
BLOCK
  5
9
330
E5
100
AcDbEntity
  8
0
100
AcDbBlockBegin
  2
HOJOANG
 70
     0
 10
1.0
 20
0.0
 30
0.0
  3
HOJOANG
  1

  0
LINE
  5
A
330
E5
100
AcDbEntity
  8
HOJO
100
AcDbLine
 10
0.0
 20
0.0
 30
0.0
 11
2.0
 21
0.0
 31
0.0
  0
ENDBLK
  5
B
330
E5
100
AcDbEntity
  8
0
100
AcDbBlockEnd
  0
BLOCK
  5
C
330
E6
100
AcDbEntity
  8
0
100
AcDbBlockBegin
  2
HOJOORG
 70
     0
 10
0.0
 20
0.0
 30
0.0
  3
HOJOORG
  1

  0
LINE
  5
D
330
E6
100
AcDbEntity
  8
HOJOORG
100
AcDbLine
 10
-1.0
 20
0.0
 30
0.0
 11
1.0
 21
0.0
 31
0.0
  0
ENDBLK
  5
E
330
E6
100
AcDbEntity
  8
0
100
AcDbBlockEnd
  0
BLOCK
  5
F
330
E7
100
AcDbEntity
  8
0
100
AcDbBlockBegin
  2
WAKU
 70
     0
 10
0.0
 20
0.0
 30
0.0
  3
WAKU
  1

  0
LINE
  5
10
330
E7
100
AcDbEntity
  8
WAKU
100
AcDbLine
 10
0.999999996
 20
0.0
 30
0.0
 11
0.999999996
 21
0.9999999999999998
 31
0.0
  0
LINE
  5
11
330
E7
100
AcDbEntity
  8
WAKU
100
AcDbLine
 10
0.0
 20
0.9999999999999998
 30
0.0
 11
0.999999996
 21
0.9999999999999998
 31
0.0
  0
LINE
  5
12
330
E7
100
AcDbEntity
  8
WAKU
100
AcDbLine
 10
0.999999996
 20
0.0
 30
0.0
 11
0.0
 21
0.0
 31
0.0
  0
LINE
  5
13
330
E7
100
AcDbEntity
  8
WAKU
100
AcDbLine
 10
0.0
 20
0.0
 30
0.0
 11
0.0
 21
0.9999999999999998
 31
0.0
  0
ENDBLK
  5
14
330
E7
100
AcDbEntity
  8
0
100
AcDbBlockEnd
  0
BLOCK
  5
15
330
E8
100
AcDbEntity
  8
0
100
AcDbBlockBegin
  2
DOT
 70
     0
 10
0.0
 20
0.0
 30
0.0
  3
DOT
  1

  0
LWPOLYLINE
  5
16
330
E8
100
AcDbEntity
  8
JISSEN
  6
BYBLOCK
 62
     0
100
AcDbPolyline
 90
        2
 70
     1
 43
0.5
 10
-0.25
 20
0.0
 42
1.0
 10
0.25
 20
0.0
 42
1.0
  0
LINE
  5
1A
330
E8
100
AcDbEntity
  8
JISSEN
  6
BYBLOCK
 62
     0
100
AcDbLine
 10
-0.5
 20
0.0
 30
0.0
 11
-1.0
 21
0.0
 31
0.0
  0
ENDBLK
  5
1B
330
E8
100
AcDbEntity
  8
0
100
AcDbBlockEnd
  0
BLOCK
  5
1D
330
E9
100
AcDbEntity
  8
0
100
AcDbBlockBegin
  2
ARROWANG
 70
     0
 10
0.0
 20
0.0
 30
0.0
  3
ARROWANG
  1

  0
LINE
  5
1E
330
E9
100
AcDbEntity
  8
SUNPOU
100
AcDbLine
 10
0.0
 20
0.0
 30
0.0
 11
-1.499999999999957
 21
0.4019237886467409
 31
0.0
  0
LINE
  5
1F
330
E9
100
AcDbEntity
  8
SUNPOU
100
AcDbLine
 10
0.0
 20
0.0
 30
0.0
 11
-1.500000000000028
 21
-0.4019237886467124
 31
0.0
  0
ENDBLK
  5
20
330
E9
100
AcDbEntity
  8
0
100
AcDbBlockEnd
  0
BLOCK
  5
27
330
EA
100
AcDbEntity
  8
0
100
AcDbBlockBegin
  2
HOJOC
 70
     0
 10
0.0
 20
0.0
 30
0.0
  3
HOJOC
  1

  0
CIRCLE
  5
7D
330
EA
100
AcDbEntity
  8
HOJO
100
AcDbCircle
 10
0.0
 20
0.0
 30
0.0
 40
1.0
  0
ENDBLK
  5
7F
330
EA
100
AcDbEntity
  8
0
100
AcDbBlockEnd
  0
BLOCK
  5
81
330
EB
100
AcDbEntity
  8
0
100
AcDbBlockBegin
  2
HOJOORGC
 70
     0
 10
0.0
 20
0.0
 30
0.0
  3
HOJOORGC
  1

  0
CIRCLE
  5
AA
330
EB
100
AcDbEntity
  8
HOJOORG
100
AcDbCircle
 10
0.0
 20
0.0
 30
0.0
 40
1.0
  0
ENDBLK
  5
AC
330
EB
100
AcDbEntity
  8
0
100
AcDbBlockEnd
  0
BLOCK
  5
B2
330
EC
100
AcDbEntity
  8
0
100
AcDbBlockBegin
  2
HOJOCR
 70
     0
 10
0.0
 20
0.0
 30
0.0
  3
HOJOCR
  1

  0
LINE
  5
B3
330
EC
100
AcDbEntity
  8
HOJO
100
AcDbLine
 10
-1.0
 20
0.0
 30
0.0
 11
1.0
 21
0.0
 31
0.0
  0
LINE
  5
B4
330
EC
100
AcDbEntity
  8
HOJO
100
AcDbLine
 10
0.0
 20
-1.0
 30
0.0
 11
0.0
 21
1.0
 31
0.0
  0
ENDBLK
  5
B5
330
EC
100
AcDbEntity
  8
0
100
AcDbBlockEnd
  0
BLOCK
  5
B8
330
ED
100
AcDbEntity
  8
0
100
AcDbBlockBegin
  2
HOJOORGCR
 70
     0
 10
0.0
 20
0.0
 30
0.0
  3
HOJOORGCR
  1

  0
INSERT
  5
B9
330
ED
100
AcDbEntity
  8
JISSEN
100
AcDbBlockReference
  2
HOJOORG
 10
0.0
 20
0.0
 30
0.0
 50
90.0
  0
INSERT
  5
BA
330
ED
100
AcDbEntity
  8
JISSEN
100
AcDbBlockReference
  2
HOJOORG
 10
0.0
 20
0.0
 30
0.0
  0
ENDBLK
  5
BB
330
ED
100
AcDbEntity
  8
0
100
AcDbBlockEnd
  0
BLOCK
  5
BD
330
EE
100
AcDbEntity
  8
0
100
AcDbBlockBegin
  2
CENLINE
 70
     0
 10
0.0
 20
0.0
 30
0.0
  3
CENLINE
  1

  0
LINE
  5
BE
330
EE
100
AcDbEntity
  8
ITTEN
100
AcDbLine
 10
0.0
 20
0.0
 30
0.0
 11
1.0
 21
0.0
 31
0.0
  0
ENDBLK
  5
BF
330
EE
100
AcDbEntity
  8
0
100
AcDbBlockEnd
  0
BLOCK
  5
C4
330
EF
100
AcDbEntity
  8
0
100
AcDbBlockBegin
  2
CENCRS
 70
     0
 10
0.0
 20
0.0
 30
0.0
  3
CENCRS
  1

  0
LINE
  5
C5
330
EF
100
AcDbEntity
  8
ITTEN
100
AcDbLine
 10
0.0
 20
0.5
 30
0.0
 11
0.0
 21
-0.5
 31
0.0
  0
LINE
  5
C6
330
EF
100
AcDbEntity
  8
ITTEN
100
AcDbLine
 10
-0.5
 20
0.0
 30
0.0
 11
0.5
 21
0.0
 31
0.0
  0
ENDBLK
  5
C7
330
EF
100
AcDbEntity
  8
0
100
AcDbBlockEnd
  0
BLOCK
  5
196
330
192
100
AcDbEntity
  8
0
100
AcDbBlockBegin
  2
A$C177A3D75
 70
     0
 10
0.0
 20
0.0
 30
0.0
  3
A$C177A3D75
  1

  0
ELLIPSE
  5
193
330
192
100
AcDbEntity
  8
JISSEN
100
AcDbEllipse
 10
139.9999985998383
 20
176.9999998089024
 30
0.0
 11
-333.9886521455913
 21
0.0000000000050412
 31
0.0
210
0.0
220
0.0
230
1.0
 40
0.5299581254121253
 41
1.165544440671902
 42
1.976048212917049
  0
ARC
  5
194
330
192
100
AcDbEntity
  8
JISSEN
100
AcDbCircle
 10
259.9999985998408
 20
30.57503618288023
 30
0.0
 40
20.0
100
AcDbArc
 50
305.7151272310024
 51
0.0
  0
ARC
  5
195
330
192
100
AcDbEntity
  8
JISSEN
100
AcDbCircle
 10
19.99999859980846
 20
30.57503618277337
 30
0.0
 40
20.0
100
AcDbArc
 50
180.0000000000509
 51
234.2848727681652
  0
ENDBLK
  5
197
330
192
100
AcDbEntity
  8
0
100
AcDbBlockEnd
  0
BLOCK
  5
1C4
330
1A3
100
AcDbEntity
  8
0
100
AcDbBlockBegin
  2
A$C7F7C75AF
 70
     0
 10
0.0
 20
0.0
 30
0.0
  3
A$C7F7C75AF
  1

  0
ARC
  5
1A4
330
1A3
100
AcDbEntity
  8
0
100
AcDbCircle
 10
134.999998599841
 20
5.000000334143919
 30
0.0
 40
5.0
100
AcDbArc
 50
180.0
 51
269.9999999999997
  0
ARC
  5
1A5
330
1A3
100
AcDbEntity
  8
0
100
AcDbCircle
 10
184.9999985998409
 20
5.000000334143578
 30
0.0
 40
5.0
100
AcDbArc
 50
269.9999999999998
 51
359.9999999999998
  0
ARC
  5
1A6
330
1A3
100
AcDbEntity
  8
JISSEN
100
AcDbCircle
 10
259.9999985997257
 20
354.4249639602728
 30
0.0
 40
20.0
100
AcDbArc
 50
0.0000000000509992
 51
54.28487276816525
  0
ARC
  5
1A7
330
1A3
100
AcDbEntity
  8
JISSEN
100
AcDbCircle
 10
19.99999859969335
 20
354.4249639601659
 30
0.0
 40
20.0
100
AcDbArc
 50
125.7151272310024
 51
180.0
  0
ELLIPSE
  5
1A8
330
1A3
100
AcDbEntity
  8
JISSEN
100
AcDbEllipse
 10
139.9999985996958
 20
208.0000003341438
 30
0.0
 11
333.9886521455913
 21
-0.0000000000050821
 31
0.0
210
0.0
220
0.0
230
1.0
 40
0.5299581254121253
 41
1.165544440671902
 42
1.976048212917049
  0
LINE
  5
1A9
330
1A3
100
AcDbEntity
  8
0
100
AcDbLine
 10
32.65190089376943
 20
40.39174193440146
 30
0.0
 11
29.99999859984098
 21
40.6237533218964
 31
0.0
  0
ELLIPSE
  5
1AA
330
1A3
100
AcDbEntity
  8
JISSEN
100
AcDbEllipse
 10
139.9999985998383
 20
208.0000003341438
 30
0.0
 11
-333.9886521455913
 21
0.0000000000050412
 31
0.0
210
0.0
220
0.0
230
1.0
 40
0.5299581254121253
 41
1.165544440671902
 42
1.976048212917049
  0
ARC
  5
1AB
330
1A3
100
AcDbEntity
  8
JISSEN
100
AcDbCircle
 10
19.99999859984098
 20
354.4249639601659
 30
0.0
 40
20.0
100
AcDbArc
 50
125.7151272309597
 51
180.0
  0
ARC
  5
1AC
330
1A3
100
AcDbEntity
  8
0
100
AcDbCircle
 10
112.9999985998409
 20
30.00000033414357
 30
0.0
 40
5.0
100
AcDbArc
 50
179.9999999999996
 51
270.0000000000001
  0
ARC
  5
1AD
330
1A3
100
AcDbEntity
  8
JISSEN
100
AcDbCircle
 10
19.99999859980846
 20
61.57503670801474
 30
0.0
 40
20.0
100
AcDbArc
 50
180.0000000000509
 51
234.2848727681652
  0
ARC
  5
1AE
330
1A3
100
AcDbEntity
  8
0
100
AcDbCircle
 10
259.9999985998408
 20
45.0000003341438
 30
0.0
 40
20.0
100
AcDbArc
 50
270.0000000000001
 51
359.9999999999999
  0
ARC
  5
1AF
330
1A3
100
AcDbEntity
  8
JISSEN
100
AcDbCircle
 10
259.9999985998408
 20
61.57503670812161
 30
0.0
 40
20.0
100
AcDbArc
 50
305.7151272310024
 51
0.0
  0
LINE
  5
1B0
330
1A3
100
AcDbEntity
  8
0
100
AcDbLine
 10
112.9999985998409
 20
25.00000033414357
 30
0.0
 11
259.9999985998408
 21
25.0000003341438
 31
0.0
  0
LINE
  5
1B1
330
1A3
100
AcDbEntity
  8
ITTEN
100
AcDbLine
 10
207.999998599841
 20
265.000000334144
 30
0.0
 11
207.9999985998409
 21
315.0000003341435
 31
0.0
  0
LINE
  5
1B2
330
1A3
100
AcDbEntity
  8
ITTEN
100
AcDbLine
 10
71.99999859984109
 20
265.0000003341438
 30
0.0
 11
71.99999859984103
 21
315.0000003341435
 31
0.0
  0
LINE
  5
1B3
330
1A3
100
AcDbEntity
  8
0
100
AcDbLine
 10
184.9999985998409
 20
285.0000003341438
 30
0.0
 11
184.9999985998409
 21
290.0000003341438
 31
0.0
  0
LINE
  5
1B4
330
1A3
100
AcDbEntity
  8
0
100
AcDbLine
 10
234.9999985998408
 20
285.0000003341438
 30
0.0
 11
234.9999985998408
 21
290.0000003341438
 31
0.0
  0
LINE
  5
1B5
330
1A3
100
AcDbEntity
  8
0
100
AcDbLine
 10
184.9999985998409
 20
290.0000003341438
 30
0.0
 11
234.9999985998408
 21
290.0000003341438
 31
0.0
  0
LINE
  5
1B6
330
1A3
100
AcDbEntity
  8
0
100
AcDbLine
 10
184.999998599841
 20
290.0000003341435
 30
0.0
 11
234.9999985998409
 21
290.0000003341438
 31
0.0
  0
LINE
  5
1B7
330
1A3
100
AcDbEntity
  8
0
100
AcDbLine
 10
29.99999859984098
 20
285.0000003341435
 30
0.0
 11
279.9999985998409
 21
285.0000003341438
 31
0.0
  0
LINE
  5
1B8
330
1A3
100
AcDbEntity
  8
0
100
AcDbLine
 10
46.99999859984103
 20
290.0000003341438
 30
0.0
 11
96.99999859984092
 21
290.0000003341438
 31
0.0
  0
LINE
  5
1B9
330
1A3
100
AcDbEntity
  8
0
100
AcDbLine
 10
96.99999859984092
 20
285.0000003341438
 30
0.0
 11
96.99999859984092
 21
290.0000003341438
 31
0.0
  0
LINE
  5
1BA
330
1A3
100
AcDbEntity
  8
0
100
AcDbLine
 10
46.99999859984103
 20
285.0000003341438
 30
0.0
 11
46.99999859984103
 21
290.0000003341438
 31
0.0
  0
LINE
  5
1BB
330
1A3
100
AcDbEntity
  8
0
100
AcDbLine
 10
-0.0000014001589648
 20
285.0000003341438
 30
0.0
 11
29.99999859984098
 21
285.0000003341438
 31
0.0
  0
LINE
  5
1BC
330
1A3
100
AcDbEntity
  8
0
100
AcDbLine
 10
29.99999859984098
 20
40.6237533218964
 30
0.0
 11
29.99999859984098
 21
375.1246456209844
 31
0.0
  0
LINE
  5
1BD
330
1A3
100
AcDbEntity
  8
0
100
AcDbLine
 10
249.9999985998408
 20
40.87535504731852
 30
0.0
 11
249.9999985998408
 21
375.1246456209526
 31
0.0
  0
LINE
  5
1BE
330
1A3
100
AcDbEntity
  8
0
100
AcDbLine
 10
107.9999985998409
 20
30.00000033414357
 30
0.0
 11
107.9999985998409
 21
31.8142919166986
 31
0.0
  0
LINE
  5
1BF
330
1A3
100
AcDbEntity
  8
0
100
AcDbLine
 10
-0.0000014001589648
 20
61.57503670801474
 30
0.0
 11
-0.0000014001590216
 21
354.4249639601659
 31
0.0
  0
LINE
  5
1C0
330
1A3
100
AcDbEntity
  8
0
100
AcDbLine
 10
279.9999985998408
 20
45.0000003341438
 30
0.0
 11
279.9999985998408
 21
354.4249639602728
 31
0.0
  0
LINE
  5
1C1
330
1A3
100
AcDbEntity
  8
0
100
AcDbLine
 10
129.999998599841
 20
5.000000334143919
 30
0.0
 11
129.9999985998409
 21
25.00000033414369
 31
0.0
  0
LINE
  5
1C2
330
1A3
100
AcDbEntity
  8
0
100
AcDbLine
 10
189.9999985998409
 20
5.000000334143578
 30
0.0
 11
189.999998599841
 21
25.0000003341438
 31
0.0
  0
LINE
  5
1C3
330
1A3
100
AcDbEntity
  8
0
100
AcDbLine
 10
134.999998599841
 20
0.0000003341439196
 30
0.0
 11
184.9999985998409
 21
0.0000003341435786
 31
0.0
  0
ENDBLK
  5
1C5
330
1A3
100
AcDbEntity
  8
0
100
AcDbBlockEnd
  0
BLOCK
  5
30D
330
200
100
AcDbEntity
  8
0
100
AcDbBlockBegin
  2
A$C39A14254
 70
     0
 10
0.0
 20
0.0
 30
0.0
  3
A$C39A14254
  1

  0
LINE
  5
201
330
200
100
AcDbEntity
  8
WAKU
100
AcDbLine
 10
1930.000001896394
 20
28.9999976748586
 30
0.0
 11
25.00000189639468
 21
28.9999976748586
 31
0.0
  0
LINE
  5
202
330
200
100
AcDbEntity
  8
WAKU
100
AcDbLine
 10
25.00000189639468
 20
1353.999997674858
 30
0.0
 11
1930.000001896394
 21
1353.999997674858
 31
0.0
  0
LINE
  5
203
330
200
100
AcDbEntity
  8
WAKU
100
AcDbLine
 10
25.00000189639468
 20
28.9999976748586
 30
0.0
 11
25.00000189639468
 21
1353.999997674858
 31
0.0
  0
LINE
  5
204
330
200
100
AcDbEntity
  8
SUNPOU
100
AcDbLine
 10
540.0000018963947
 20
58.9999976748586
 30
0.0
 11
75.00000189639468
 21
58.9999976748586
 31
0.0
  0
LINE
  5
205
330
200
100
AcDbEntity
  8
SUNPOU
100
AcDbLine
 10
75.00000189639468
 20
88.9999976748586
 30
0.0
 11
540.0000018963947
 21
88.9999976748586
 31
0.0
  0
LINE
  5
206
330
200
100
AcDbEntity
  8
SUNPOU
100
AcDbLine
 10
540.0000018963947
 20
118.9999976748586
 30
0.0
 11
75.00000189639468
 21
118.9999976748586
 31
0.0
  0
LINE
  5
207
330
200
100
AcDbEntity
  8
SUNPOU
100
AcDbLine
 10
75.00000189639468
 20
58.9999976748586
 30
0.0
 11
540.0000018963947
 21
58.9999976748586
 31
0.0
  0
LINE
  5
208
330
200
100
AcDbEntity
  8
SUNPOU
100
AcDbLine
 10
540.0000018963947
 20
88.9999976748586
 30
0.0
 11
75.00000189639468
 21
88.9999976748586
 31
0.0
  0
LINE
  5
209
330
200
100
AcDbEntity
  8
SUNPOU
100
AcDbLine
 10
75.00000189639468
 20
118.9999976748586
 30
0.0
 11
540.0000018963947
 21
118.9999976748586
 31
0.0
  0
LINE
  5
20A
330
200
100
AcDbEntity
  8
SUNPOU
100
AcDbLine
 10
540.0000018963947
 20
148.9999976748586
 30
0.0
 11
25.00000189639468
 21
148.9999976748586
 31
0.0
  0
LINE
  5
20B
330
200
100
AcDbEntity
  8
SUNPOU
100
AcDbLine
 10
47.50000189639467
 20
148.9999976748586
 30
0.0
 11
25.00000189639468
 21
118.9999976748586
 31
0.0
  0
LINE
  5
20C
330
200
100
AcDbEntity
  8
SUNPOU
100
AcDbLine
 10
47.50000189639467
 20
88.9999976748586
 30
0.0
 11
25.00000189639468
 21
58.9999976748586
 31
0.0
  0
LINE
  5
20D
330
200
100
AcDbEntity
  8
SUNPOU
100
AcDbLine
 10
47.50000189639467
 20
118.9999976748586
 30
0.0
 11
25.00000189639468
 21
88.9999976748586
 31
0.0
  0
LINE
  5
20E
330
200
100
AcDbEntity
  8
SUNPOU
100
AcDbLine
 10
70.00000189639468
 20
118.9999976748586
 30
0.0
 11
25.00000189639468
 21
118.9999976748586
 31
0.0
  0
LINE
  5
20F
330
200
100
AcDbEntity
  8
SUNPOU
100
AcDbLine
 10
25.00000189639468
 20
88.9999976748586
 30
0.0
 11
70.00000189639468
 21
88.9999976748586
 31
0.0
  0
LINE
  5
210
330
200
100
AcDbEntity
  8
SUNPOU
100
AcDbLine
 10
70.00000189639468
 20
58.9999976748586
 30
0.0
 11
25.00000189639468
 21
58.9999976748586
 31
0.0
  0
LINE
  5
211
330
200
100
AcDbEntity
  8
SUNPOU
100
AcDbLine
 10
70.00000189639468
 20
58.9999976748586
 30
0.0
 11
25.00000189639468
 21
58.9999976748586
 31
0.0
  0
LINE
  5
212
330
200
100
AcDbEntity
  8
SUNPOU
100
AcDbLine
 10
70.00000189639468
 20
88.9999976748586
 30
0.0
 11
25.00000189639468
 21
88.9999976748586
 31
0.0
  0
LINE
  5
213
330
200
100
AcDbEntity
  8
SUNPOU
100
AcDbLine
 10
70.00000189639468
 20
118.9999976748586
 30
0.0
 11
25.00000189639468
 21
118.9999976748586
 31
0.0
  0
TEXT
  5
214
330
200
100
AcDbEntity
  8
TEXT
100
AcDbText
 10
31.50000189639468
 20
36.4999976748586
 30
0.0
 40
15.0
  1
記号
  7
K
 72
     4
 11
47.50000189639467
 21
43.9999976748586
 31
0.0
100
AcDbText
  0
LINE
  5
215
330
200
100
AcDbEntity
  8
SUNPOU
100
AcDbLine
 10
75.00000189639468
 20
28.9999976748586
 30
0.0
 11
75.00000189639468
 21
148.9999976748586
 31
0.0
  0
LINE
  5
216
330
200
100
AcDbEntity
  8
SUNPOU
100
AcDbLine
 10
70.00000189639468
 20
148.9999976748586
 30
0.0
 11
70.00000189639468
 21
28.9999976748586
 31
0.0
  0
LINE
  5
217
330
200
100
AcDbEntity
  8
SUNPOU
100
AcDbLine
 10
70.00000189639468
 20
28.9999976748586
 30
0.0
 11
70.00000189639468
 21
148.9999976748586
 31
0.0
  0
LINE
  5
218
330
200
100
AcDbEntity
  8
SUNPOU
100
AcDbLine
 10
75.00000189639468
 20
148.9999976748586
 30
0.0
 11
75.00000189639468
 21
28.9999976748586
 31
0.0
  0
LINE
  5
219
330
200
100
AcDbEntity
  8
SUNPOU
100
AcDbLine
 10
275.0000018963946
 20
148.9999976748586
 30
0.0
 11
275.0000018963946
 21
28.9999976748586
 31
0.0
  0
TEXT
  5
21A
330
200
100
AcDbEntity
  8
TEXT
100
AcDbText
 10
114.5000018963946
 20
36.4999976748586
 30
0.0
 40
15.0
  1
変更内容・理由
  7
K
 72
     4
 11
175.0000018963946
 21
43.9999976748586
 31
0.0
100
AcDbText
  0
TEXT
  5
21B
330
200
100
AcDbEntity
  8
TEXT
100
AcDbText
 10
291.0000018963946
 20
36.4999976748586
 30
0.0
 40
15.0
  1
設変番号
  7
K
 72
     4
 11
325.0000018963946
 21
43.9999976748586
 31
0.0
100
AcDbText
  0
LINE
  5
21C
330
200
100
AcDbEntity
  8
SUNPOU
100
AcDbLine
 10
47.50000189639467
 20
118.9999976748586
 30
0.0
 11
70.00000189639468
 21
88.9999976748586
 31
0.0
  0
LINE
  5
21D
330
200
100
AcDbEntity
  8
SUNPOU
100
AcDbLine
 10
47.50000189639467
 20
88.9999976748586
 30
0.0
 11
70.00000189639468
 21
58.9999976748586
 31
0.0
  0
LINE
  5
21E
330
200
100
AcDbEntity
  8
SUNPOU
100
AcDbLine
 10
70.00000189639468
 20
118.9999976748586
 30
0.0
 11
47.50000189639467
 21
148.9999976748586
 31
0.0
  0
LINE
  5
21F
330
200
100
AcDbEntity
  8
WAKU
100
AcDbLine
 10
25.00000189639468
 20
713.9999976748586
 30
0.0
 11
0.0000018963946786
 21
713.9999976748586
 31
0.0
  0
LINE
  5
220
330
200
100
AcDbEntity
  8
WAKU
100
AcDbLine
 10
540.0000018963947
 20
148.9999976748586
 30
0.0
 11
540.0000018963947
 21
28.9999976748586
 31
0.0
  0
LINE
  5
221
330
200
100
AcDbEntity
  8
SUNPOU
100
AcDbLine
 10
495.0000018963947
 20
28.9999976748586
 30
0.0
 11
495.0000018963947
 21
148.9999976748586
 31
0.0
  0
LINE
  5
222
330
200
100
AcDbEntity
  8
SUNPOU
100
AcDbLine
 10
450.0000018963946
 20
148.9999976748586
 30
0.0
 11
450.0000018963946
 21
28.9999976748586
 31
0.0
  0
LINE
  5
223
330
200
100
AcDbEntity
  8
SUNPOU
100
AcDbLine
 10
375.0000018963946
 20
28.9999976748586
 30
0.0
 11
375.0000018963946
 21
148.9999976748586
 31
0.0
  0
TEXT
  5
224
330
200
100
AcDbEntity
  8
TEXT
100
AcDbText
 10
456.8214304678232
 20
36.4999976748586
 30
0.0
 40
15.0
  1
担当
  7
K
 72
     4
 11
472.5000018963946
 21
43.9999976748586
 31
0.0
100
AcDbText
  0
TEXT
  5
225
330
200
100
AcDbEntity
  8
TEXT
100
AcDbText
 10
370.5000018963946
 20
36.4999976748586
 30
0.0
 40
15.0
  1
 年 月 日
  7
K
 72
     4
 11
412.5000018963946
 21
43.9999976748586
 31
0.0
100
AcDbText
  0
TEXT
  5
226
330
200
100
AcDbEntity
  8
TEXT
100
AcDbText
 10
502.0000018963947
 20
36.4999976748586
 30
0.0
 40
15.0
  1
検図
  7
K
 72
     4
 11
517.5000018963946
 21
43.9999976748586
 31
0.0
100
AcDbText
  0
TEXT
  5
227
330
200
100
AcDbEntity
  8
TEXT
100
AcDbText
 10
45.16172300405654
 20
1386.221367643795
 30
0.0
 40
15.0
  1
5
 50
180.0
  7
K
100
AcDbText
  0
LINE
  5
228
330
200
100
AcDbEntity
  8
WAKU
100
AcDbLine
 10
325.0000018963946
 20
1403.999997674858
 30
0.0
 11
25.00000189639468
 21
1403.999997674858
 31
0.0
  0
LINE
  5
229
330
200
100
AcDbEntity
  8
WAKU
100
AcDbLine
 10
25.00000189639468
 20
1353.999997674858
 30
0.0
 11
25.00000189639468
 21
1403.999997674858
 31
0.0
  0
TEXT
  5
22A
330
200
100
AcDbEntity
  8
TEXT
100
AcDbText
 10
69.16172300405654
 20
1386.221367643795
 30
0.0
 40
15.0
  1
0
 50
180.0
  7
K
100
AcDbText
  0
TEXT
  5
22B
330
200
100
AcDbEntity
  8
TEXT
100
AcDbText
 10
117.1617230040565
 20
1386.221367643795
 30
0.0
 40
15.0
  1
3
 50
180.0
  7
K
100
AcDbText
  0
TEXT
  5
22C
330
200
100
AcDbEntity
  8
TEXT
100
AcDbText
 10
93.16172300405654
 20
1386.221367643795
 30
0.0
 40
15.0
  1
0
 50
180.0
  7
K
100
AcDbText
  0
LINE
  5
22D
330
200
100
AcDbEntity
  8
TENSEN
100
AcDbLine
 10
97.00000189639457
 20
1353.999997674858
 30
0.0
 11
97.00000189639457
 21
1403.999997674858
 31
0.0
  0
LINE
  5
22E
330
200
100
AcDbEntity
  8
TENSEN
100
AcDbLine
 10
73.00000189639479
 20
1403.999997674858
 30
0.0
 11
73.00000189639479
 21
1353.999997674858
 31
0.0
  0
LINE
  5
22F
330
200
100
AcDbEntity
  8
TENSEN
100
AcDbLine
 10
49.00000189639474
 20
1353.999997674858
 30
0.0
 11
49.00000189639474
 21
1403.999997674858
 31
0.0
  0
TEXT
  5
230
330
200
100
AcDbEntity
  8
TEXT
100
AcDbText
 10
141.1617230040565
 20
1386.221367643795
 30
0.0
 40
15.0
  1
0
 50
180.0
  7
K
100
AcDbText
  0
TEXT
  5
231
330
200
100
AcDbEntity
  8
TEXT
100
AcDbText
 10
189.1617230040565
 20
1386.221367643795
 30
0.0
 40
15.0
  1
S
 50
180.0
  7
K
100
AcDbText
  0
TEXT
  5
232
330
200
100
AcDbEntity
  8
TEXT
100
AcDbText
 10
165.1617230040565
 20
1386.221367643795
 30
0.0
 40
15.0
  1
0
 50
180.0
  7
K
100
AcDbText
  0
LINE
  5
233
330
200
100
AcDbEntity
  8
TENSEN
100
AcDbLine
 10
193.0000018963947
 20
1353.999997674858
 30
0.0
 11
193.0000018963947
 21
1403.999997674858
 31
0.0
  0
LINE
  5
234
330
200
100
AcDbEntity
  8
TENSEN
100
AcDbLine
 10
169.0000018963947
 20
1403.999997674858
 30
0.0
 11
169.0000018963947
 21
1353.999997674858
 31
0.0
  0
LINE
  5
235
330
200
100
AcDbEntity
  8
TENSEN
100
AcDbLine
 10
145.0000018963946
 20
1353.999997674858
 30
0.0
 11
145.0000018963946
 21
1403.999997674858
 31
0.0
  0
LINE
  5
236
330
200
100
AcDbEntity
  8
TENSEN
100
AcDbLine
 10
121.0000018963946
 20
1403.999997674858
 30
0.0
 11
121.0000018963946
 21
1353.999997674858
 31
0.0
  0
TEXT
  5
237
330
200
100
AcDbEntity
  8
TEXT
100
AcDbText
 10
310.9214807503282
 20
1386.48252282928
 30
0.0
 40
15.0
  1
図番
 50
180.0
  7
K
 72
     4
 11
294.4214807503282
 21
1378.98252282928
 31
0.0
100
AcDbText
  0
TEXT
  5
238
330
200
100
AcDbEntity
  8
TEXT
100
AcDbText
 10
237.1617230040565
 20
1386.221367643795
 30
0.0
 40
15.0
  1
C
 50
180.0
  7
K
100
AcDbText
  0
TEXT
  5
239
330
200
100
AcDbEntity
  8
TEXT
100
AcDbText
 10
213.1617230040565
 20
1386.221367643795
 30
0.0
 40
15.0
  1
6
 50
180.0
  7
K
100
AcDbText
  0
TEXT
  5
23A
330
200
100
AcDbEntity
  8
TEXT
100
AcDbText
 10
261.1617230040565
 20
1386.221367643795
 30
0.0
 40
15.0
  1
H
 50
180.0
  7
K
100
AcDbText
  0
LINE
  5
23B
330
200
100
AcDbEntity
  8
SUNPOU
100
AcDbLine
 10
265.0000018963946
 20
1353.999997674858
 30
0.0
 11
265.0000018963946
 21
1403.999997674858
 31
0.0
  0
LINE
  5
23C
330
200
100
AcDbEntity
  8
TENSEN
100
AcDbLine
 10
241.0000018963946
 20
1353.999997674858
 30
0.0
 11
241.0000018963946
 21
1403.999997674858
 31
0.0
  0
LINE
  5
23D
330
200
100
AcDbEntity
  8
TENSEN
100
AcDbLine
 10
217.0000018963945
 20
1403.999997674858
 30
0.0
 11
217.0000018963945
 21
1353.999997674858
 31
0.0
  0
LINE
  5
23E
330
200
100
AcDbEntity
  8
WAKU
100
AcDbLine
 10
325.0000018963946
 20
1403.999997674858
 30
0.0
 11
325.0000018963946
 21
1353.999997674858
 31
0.0
  0
TEXT
  5
23F
330
200
100
AcDbEntity
  8
TEXT
100
AcDbText
 10
1352.895797274477
 20
727.1278839891242
 30
0.0
 40
20.0
  1
定格時間：連続
  7
K
100
AcDbText
  0
LINE
  5
240
330
200
100
AcDbEntity
  8
WAKU
100
AcDbLine
 10
1930.000001896394
 20
1353.999997674858
 30
0.0
 11
1930.000001896394
 21
28.9999976748586
 31
0.0
  0
TEXT
  5
241
330
200
100
AcDbEntity
  8
TEXT
100
AcDbText
 10
1352.895797274477
 20
625.1278839891242
 30
0.0
 40
20.0
  1
          1.8Kg/min-60Hz
  7
K
100
AcDbText
  0
LINE
  5
242
330
200
100
AcDbEntity
  8
TEXT
100
AcDbLine
 10
1349.767736460098
 20
618.4844099386441
 30
0.0
 11
1901.449781928805
 21
618.4844099386441
 31
0.0
  0
LINE
  5
243
330
200
100
AcDbEntity
  8
TEXT
100
AcDbLine
 10
1349.767736460098
 20
652.4844099386442
 30
0.0
 11
1901.449781928805
 21
652.4844099386442
 31
0.0
  0
TEXT
  5
244
330
200
100
AcDbEntity
  8
TEXT
100
AcDbText
 10
1352.895797274477
 20
659.1278839891242
 30
0.0
 40
20.0
  1
氷削能力：1.5Kg/min-50Hz  
  7
K
100
AcDbText
  0
LINE
  5
245
330
200
100
AcDbEntity
  8
TEXT
100
AcDbLine
 10
1349.767736460098
 20
686.4844099386441
 30
0.0
 11
1901.449781928805
 21
686.4844099386441
 31
0.0
  0
TEXT
  5
246
330
200
100
AcDbEntity
  8
TEXT
100
AcDbText
 10
1352.895797274477
 20
693.1278839891242
 30
0.0
 40
20.0
  1
氷魂収容能力：約35個（30mm角)
  7
K
100
AcDbText
  0
LINE
  5
247
330
200
100
AcDbEntity
  8
TEXT
100
AcDbLine
 10
1349.767736460098
 20
720.4844099386441
 30
0.0
 11
1901.449781928805
 21
720.4844099386441
 31
0.0
  0
LINE
  5
248
330
200
100
AcDbEntity
  8
TEXT
100
AcDbLine
 10
1508.21252403602
 20
230.4899224868399
 30
0.0
 11
1726.991110920296
 21
230.4899224868399
 31
0.0
  0
TEXT
  5
249
330
200
100
AcDbEntity
  8
TEXT
100
AcDbText
 10
1655.53637926893
 20
168.9999976748586
 30
0.0
 40
15.0
  1
三 角 法
  7
K
100
AcDbText
  0
TEXT
  5
24A
330
200
100
AcDbEntity
  8
TEXT
100
AcDbText
 10
1652.425838013915
 20
48.9999976748586
 30
0.0
 40
10.0
  1
株式会社
  7
K
100
AcDbText
  0
LINE
  5
24B
330
200
100
AcDbEntity
  8
WAKU
100
AcDbLine
 10
1630.000001896394
 20
193.9999976748586
 30
0.0
 11
1930.000001896394
 21
193.9999976748586
 31
0.0
  0
LINE
  5
24C
330
200
100
AcDbEntity
  8
WAKU
100
AcDbLine
 10
1930.000001896394
 20
158.9999976748586
 30
0.0
 11
1630.000001896394
 21
158.9999976748586
 31
0.0
  0
LINE
  5
24D
330
200
100
AcDbEntity
  8
WAKU
100
AcDbLine
 10
1630.000001896394
 20
93.9999976748586
 30
0.0
 11
1930.000001896394
 21
93.9999976748586
 31
0.0
  0
LINE
  5
24E
330
200
100
AcDbEntity
  8
WAKU
100
AcDbLine
 10
1435.000001896394
 20
273.9999976748586
 30
0.0
 11
1755.000001896394
 21
273.9999976748586
 31
0.0
  0
TEXT
  5
24F
330
200
100
AcDbEntity
  8
TEXT
100
AcDbText
 10
1114.383556015447
 20
13.9999976748586
 30
0.0
 40
13.0
  1
複写図面配布先： 購買  →発注先 フード生産技術 フード品質保証 鋳造生産技術 ジョイテック （              ）
  7
K
100
AcDbText
  0
LINE
  5
250
330
200
100
AcDbEntity
  8
SUNPOU
100
AcDbLine
 10
1480.000001896394
 20
273.9999976748586
 30
0.0
 11
1480.000001896394
 21
193.9999976748586
 31
0.0
  0
LINE
  5
251
330
200
100
AcDbEntity
  8
WAKU
100
AcDbLine
 10
1435.000001896394
 20
193.9999976748586
 30
0.0
 11
1435.000001896394
 21
273.9999976748586
 31
0.0
  0
LINE
  5
252
330
200
100
AcDbEntity
  8
SUNPOU
100
AcDbLine
 10
1190.000001896394
 20
273.9999976748586
 30
0.0
 11
1190.000001896394
 21
152.7499976748586
 31
0.0
  0
LINE
  5
253
330
200
100
AcDbEntity
  8
WAKU
100
AcDbLine
 10
1055.000001896394
 20
273.9999976748586
 30
0.0
 11
1055.000001896394
 21
28.9999976748586
 31
0.0
  0
LINE
  5
254
330
200
100
AcDbEntity
  8
SUNPOU
100
AcDbLine
 10
1435.000001896394
 20
182.0277639444165
 30
0.0
 11
1330.000001896394
 21
28.9999976748586
 31
0.0
  0
TEXT
  5
255
330
200
100
AcDbEntity
  8
TEXT
100
AcDbText
 10
1343.000001896394
 20
166.5277639444165
 30
0.0
 40
13.5
  1
J
  7
K
 72
     1
 11
1347.500001896394
 21
173.2777639444165
 31
0.0
100
AcDbText
 73
     2
  0
TEXT
  5
256
330
200
100
AcDbEntity
  8
TEXT
100
AcDbText
 10
1337.500001896394
 20
111.1249902767172
 30
0.0
 40
10.0
  1
0.1
 41
0.8
  7
K
 11
1337.500001896394
 21
116.1249902767172
 31
0.0
100
AcDbText
 73
     2
  0
TEXT
  5
257
330
200
100
AcDbEntity
  8
TEXT
100
AcDbText
 10
1337.500001896394
 20
130.4860997437969
 30
0.0
 40
10.0
  1
0.05
 41
0.8
  7
K
 11
1337.500001896394
 21
135.4860997437969
 31
0.0
100
AcDbText
 73
     2
  0
TEXT
  5
258
330
200
100
AcDbEntity
  8
TEXT
100
AcDbText
 10
1337.500001896394
 20
149.8472092108766
 30
0.0
 40
10.0
  1
0.05
 41
0.8
  7
K
 11
1337.500001896394
 21
154.8472092108766
 31
0.0
100
AcDbText
 73
     2
  0
TEXT
  5
259
330
200
100
AcDbEntity
  8
TEXT
100
AcDbText
 10
1337.500001896394
 20
53.04166187547815
 30
0.0
 40
10.0
  1
0.3
 41
0.8
  7
K
 11
1337.500001896394
 21
58.04166187547815
 31
0.0
100
AcDbText
 73
     2
  0
TEXT
  5
25A
330
200
100
AcDbEntity
  8
TEXT
100
AcDbText
 10
1337.500001896394
 20
72.40277134255785
 30
0.0
 40
10.0
  1
0.2
 41
0.8
  7
K
 11
1337.500001896394
 21
77.40277134255785
 31
0.0
100
AcDbText
 73
     2
  0
TEXT
  5
25B
330
200
100
AcDbEntity
  8
TEXT
100
AcDbText
 10
1337.500001896394
 20
91.76388080963755
 30
0.0
 40
10.0
  1
0.15
 41
0.8
  7
K
 11
1337.500001896394
 21
96.76388080963755
 31
0.0
100
AcDbText
 73
     2
  0
TEXT
  5
25C
330
200
100
AcDbEntity
  8
TEXT
100
AcDbText
 10
1337.500001896394
 20
33.68055240839845
 30
0.0
 40
10.0
  1
0.5
 41
0.8
  7
K
 11
1337.500001896394
 21
38.68055240839845
 31
0.0
100
AcDbText
 73
     2
  0
LINE
  5
25D
330
200
100
AcDbEntity
  8
TEXT
100
AcDbLine
 10
1435.000001896394
 20
48.3611071419383
 30
0.0
 11
1225.000001896394
 21
48.3611071419383
 31
0.0
  0
LINE
  5
25E
330
200
100
AcDbEntity
  8
TEXT
100
AcDbLine
 10
1225.000001896394
 20
67.722216609018
 30
0.0
 11
1435.000001896394
 21
67.722216609018
 31
0.0
  0
LINE
  5
25F
330
200
100
AcDbEntity
  8
TEXT
100
AcDbLine
 10
1435.000001896394
 20
87.0833260760977
 30
0.0
 11
1225.000001896394
 21
87.0833260760977
 31
0.0
  0
LINE
  5
260
330
200
100
AcDbEntity
  8
TEXT
100
AcDbLine
 10
1225.000001896394
 20
106.4444355431774
 30
0.0
 11
1435.000001896394
 21
106.4444355431774
 31
0.0
  0
LINE
  5
261
330
200
100
AcDbEntity
  8
TEXT
100
AcDbLine
 10
1435.000001896394
 20
125.8055450102571
 30
0.0
 11
1225.000001896394
 21
125.8055450102571
 31
0.0
  0
LINE
  5
262
330
200
100
AcDbEntity
  8
TEXT
100
AcDbLine
 10
1225.000001896394
 20
145.1666544773368
 30
0.0
 11
1435.000001896394
 21
145.1666544773368
 31
0.0
  0
LINE
  5
263
330
200
100
AcDbEntity
  8
TEXT
100
AcDbLine
 10
1435.000001896394
 20
212.6851751878971
 30
0.0
 11
1055.000001896394
 21
212.6851751878971
 31
0.0
  0
LINE
  5
264
330
200
100
AcDbEntity
  8
TEXT
100
AcDbLine
 10
1055.000001896394
 20
243.3425864313779
 30
0.0
 11
1435.000001896394
 21
243.3425864313779
 31
0.0
  0
LINE
  5
265
330
200
100
AcDbEntity
  8
TEXT
100
AcDbLine
 10
1225.000001896394
 20
164.5277639444165
 30
0.0
 11
1435.000001896394
 21
164.5277639444165
 31
0.0
  0
LINE
  5
266
330
200
100
AcDbEntity
  8
WAKU
100
AcDbLine
 10
1435.000001896394
 20
182.0277639444165
 30
0.0
 11
1055.000001896394
 21
182.0277639444165
 31
0.0
  0
LINE
  5
267
330
200
100
AcDbEntity
  8
TEXT
100
AcDbLine
 10
1330.000001896394
 20
182.0277639444165
 30
0.0
 11
1330.000001896394
 21
28.9999976748586
 31
0.0
  0
TEXT
  5
268
330
200
100
AcDbEntity
  8
TEXT
100
AcDbText
 10
1228.880324618021
 20
33.68055240839845
 30
0.0
 40
10.0
  1
1000ｦｺｴ
 41
0.8
  7
K
 72
     2
 11
1272.156515094212
 21
38.68055240839845
 31
0.0
100
AcDbText
 73
     2
  0
LINE
  5
269
330
200
100
AcDbEntity
  8
TEXT
100
AcDbLine
 10
1225.000001896394
 20
182.0277639444165
 30
0.0
 11
1225.000001896394
 21
28.9999976748586
 31
0.0
  0
LINE
  5
26A
330
200
100
AcDbEntity
  8
SUNPOU
100
AcDbLine
 10
1190.000001896394
 20
152.7499976748586
 30
0.0
 11
1190.000001896394
 21
28.9999976748586
 31
0.0
  0
TEXT
  5
26B
330
200
100
AcDbEntity
  8
TEXT
100
AcDbText
 10
1277.79362024922
 20
33.68055240839845
 30
0.0
 40
10.0
  1
2000以下
 41
0.8
  7
K
 72
     2
 11
1325.336477392077
 21
38.68055240839845
 31
0.0
100
AcDbText
 73
     2
  0
TEXT
  5
26C
330
200
100
AcDbEntity
  8
TEXT
100
AcDbText
 10
1114.383556015447
 20
-0.0000023251414518
 30
0.0
 40
12.0
  1
（必要に応じて追加・抹消）
  7
K
100
AcDbText
  0
TEXT
  5
26D
330
200
100
AcDbEntity
  8
TEXT
100
AcDbText
 10
1062.500001896394
 20
33.43701394855537
 30
0.0
 40
10.0
  1
～
  7
K
 11
1062.500001896394
 21
38.43701394855537
 31
0.0
100
AcDbText
 73
     2
  0
LINE
  5
26E
330
200
100
AcDbEntity
  8
TEXT
100
AcDbLine
 10
1055.000001896394
 20
123.3701604118257
 30
0.0
 11
1190.000001896394
 21
123.3701604118257
 31
0.0
  0
LINE
  5
26F
330
200
100
AcDbEntity
  8
TEXT
100
AcDbLine
 10
1055.000001896394
 20
152.4148197256132
 30
0.0
 11
1190.000001896394
 21
152.4148197256132
 31
0.0
  0
TEXT
  5
270
330
200
100
AcDbEntity
  8
TEXT
100
AcDbText
 10
1062.500001896394
 20
108.9331441381289
 30
0.0
 40
10.0
  1
▽▽▽▽
  7
K
 11
1062.500001896394
 21
113.9331441381289
 31
0.0
100
AcDbText
 73
     2
  0
TEXT
  5
271
330
200
100
AcDbEntity
  8
TEXT
100
AcDbText
 10
1064.100001896394
 20
131.6315076147707
 30
0.0
 40
15.0
  1
(標準外ﾊ指定ﾉｺﾄ)
 41
0.8
  7
K
 72
     4
 11
1122.500001896394
 21
138.0600790433421
 31
0.0
100
AcDbText
  0
TEXT
  5
272
330
200
100
AcDbEntity
  8
TEXT
100
AcDbText
 10
1062.500001896394
 20
90.05911159073557
 30
0.0
 40
10.0
  1
▽▽▽
  7
K
 11
1062.500001896394
 21
95.05911159073557
 31
0.0
100
AcDbText
 73
     2
  0
TEXT
  5
273
330
200
100
AcDbEntity
  8
TEXT
100
AcDbText
 10
1062.500001896394
 20
52.31104649594877
 30
0.0
 40
10.0
  1
▽
  7
K
 11
1062.500001896394
 21
57.31104649594877
 31
0.0
100
AcDbText
 73
     2
  0
TEXT
  5
274
330
200
100
AcDbEntity
  8
TEXT
100
AcDbText
 10
1062.500001896394
 20
71.18507904334217
 30
0.0
 40
10.0
  1
▽▽
  7
K
 11
1062.500001896394
 21
76.18507904334217
 31
0.0
100
AcDbText
 73
     2
  0
TEXT
  5
275
330
200
100
AcDbEntity
  8
TEXT
100
AcDbText
 10
1164.880954277347
 20
90.05911159073557
 30
0.0
 40
10.0
  1
6Z
  7
K
 72
     2
 11
1182.500001896394
 21
95.05911159073557
 31
0.0
100
AcDbText
 73
     2
  0
TEXT
  5
276
330
200
100
AcDbEntity
  8
TEXT
100
AcDbText
 10
1155.357144753537
 20
52.31104649594877
 30
0.0
 40
10.0
  1
50Z
  7
K
 72
     2
 11
1182.500001896394
 21
57.31104649594877
 31
0.0
100
AcDbText
 73
     2
  0
TEXT
  5
277
330
200
100
AcDbEntity
  8
TEXT
100
AcDbText
 10
1155.357144753537
 20
71.18507904334217
 30
0.0
 40
10.0
  1
18Z
  7
K
 72
     2
 11
1182.500001896394
 21
76.18507904334217
 31
0.0
100
AcDbText
 73
     2
  0
TEXT
  5
278
330
200
100
AcDbEntity
  8
TEXT
100
AcDbText
 10
1150.595239991632
 20
108.9331441381289
 30
0.0
 40
10.0
  1
0.8Z
  7
K
 72
     2
 11
1182.500001896394
 21
113.9331441381289
 31
0.0
100
AcDbText
 73
     2
  0
TEXT
  5
279
330
200
100
AcDbEntity
  8
TEXT
100
AcDbText
 10
1070.32893419954
 20
220.5138808096375
 30
0.0
 40
15.0
  1
色調
  7
K
 11
1070.32893419954
 21
228.0138808096375
 31
0.0
100
AcDbText
 73
     2
  0
TEXT
  5
27A
330
200
100
AcDbEntity
  8
TEXT
100
AcDbText
 10
1062.500001896394
 20
159.7212918350148
 30
0.0
 40
15.0
  1
標準加工アラサ
  7
K
 72
     4
 11
1122.500001896394
 21
167.2212918350148
 31
0.0
100
AcDbText
  0
TEXT
  5
27B
330
200
100
AcDbEntity
  8
TEXT
100
AcDbText
 10
1070.32893419954
 20
189.8564695661567
 30
0.0
 40
15.0
  1
適用規格など
  7
K
 11
1070.32893419954
 21
197.3564695661567
 31
0.0
100
AcDbText
 73
     2
  0
TEXT
  5
27C
330
200
100
AcDbEntity
  8
TEXT
100
AcDbText
 10
1070.32893419954
 20
251.1712920531183
 30
0.0
 40
15.0
  1
表面処理
  7
K
 11
1070.32893419954
 21
258.6712920531183
 31
0.0
100
AcDbText
 73
     2
  0
TEXT
  5
27D
330
200
100
AcDbEntity
  8
TEXT
100
AcDbText
 10
1300.650763106363
 20
149.8472092108766
 30
0.0
 40
10.0
  1
3以下
 41
0.8
  7
K
 72
     2
 11
1325.336477392077
 21
154.8472092108766
 31
0.0
100
AcDbText
 73
     2
  0
TEXT
  5
27E
330
200
100
AcDbEntity
  8
TEXT
100
AcDbText
 10
1236.042229379926
 20
149.8472092108766
 30
0.0
 40
10.0
  1
0.5以上
 41
0.8
  7
K
 72
     2
 11
1272.156515094212
 21
154.8472092108766
 31
0.0
100
AcDbText
 73
     2
  0
TEXT
  5
27F
330
200
100
AcDbEntity
  8
TEXT
100
AcDbText
 10
1251.737467475164
 20
130.4860997437969
 30
0.0
 40
10.0
  1
3ｦｺｴ
 41
0.8
  7
K
 72
     2
 11
1272.156515094212
 21
135.4860997437969
 31
0.0
100
AcDbText
 73
     2
  0
TEXT
  5
280
330
200
100
AcDbEntity
  8
TEXT
100
AcDbText
 10
1251.737467475164
 20
111.1249902767172
 30
0.0
 40
10.0
  1
6ｦｺｴ
 41
0.8
  7
K
 72
     2
 11
1272.156515094212
 21
116.1249902767172
 31
0.0
100
AcDbText
 73
     2
  0
TEXT
  5
281
330
200
100
AcDbEntity
  8
TEXT
100
AcDbText
 10
1236.499372237069
 20
53.04166187547815
 30
0.0
 40
10.0
  1
315ｦｺｴ
 41
0.8
  7
K
 72
     2
 11
1272.156515094212
 21
58.04166187547815
 31
0.0
100
AcDbText
 73
     2
  0
TEXT
  5
282
330
200
100
AcDbEntity
  8
TEXT
100
AcDbText
 10
1244.118419856117
 20
91.76388080963755
 30
0.0
 40
10.0
  1
30ｦｺｴ
 41
0.8
  7
K
 72
     2
 11
1272.156515094212
 21
96.76388080963755
 31
0.0
100
AcDbText
 73
     2
  0
TEXT
  5
283
330
200
100
AcDbEntity
  8
TEXT
100
AcDbText
 10
1236.499372237069
 20
72.40277134255785
 30
0.0
 40
10.0
  1
120ｦｺｴ
 41
0.8
  7
K
 72
     2
 11
1272.156515094212
 21
77.40277134255785
 31
0.0
100
AcDbText
 73
     2
  0
TEXT
  5
284
330
200
100
AcDbEntity
  8
TEXT
100
AcDbText
 10
1201.200001896394
 20
93.54368271510233
 30
0.0
 40
13.5
  1
法
  7
K
 72
     1
 11
1207.500001896394
 21
93.54368271510233
 31
0.0
100
AcDbText
  0
TEXT
  5
285
330
200
100
AcDbEntity
  8
TEXT
100
AcDbText
 10
1196.785716182108
 20
50.21729338591137
 30
0.0
 40
7.5
  1
mm
  7
K
 72
     1
 11
1207.500001896394
 21
50.21729338591137
 31
0.0
100
AcDbText
  0
TEXT
  5
286
330
200
100
AcDbEntity
  8
TEXT
100
AcDbText
 10
1189.761906658299
 20
54.80951800470558
 30
0.0
 40
10.0
  1
(
  7
K
 72
     2
 11
1195.000001896394
 21
59.80951800470558
 31
0.0
100
AcDbText
 73
     2
  0
TEXT
  5
287
330
200
100
AcDbEntity
  8
TEXT
100
AcDbText
 10
1218.117645153882
 20
54.80951800470558
 30
0.0
 40
10.0
  1
)
  7
K
 11
1218.117645153882
 21
59.80951800470558
 31
0.0
100
AcDbText
 73
     2
  0
TEXT
  5
288
330
200
100
AcDbEntity
  8
TEXT
100
AcDbText
 10
1202.833335229728
 20
59.80951800470558
 30
0.0
 40
10.0
  1
±
  7
K
 72
     1
 11
1207.500001896394
 21
59.80951800470558
 31
0.0
100
AcDbText
  0
TEXT
  5
289
330
200
100
AcDbEntity
  8
TEXT
100
AcDbText
 10
1201.200001896394
 20
78.04368271510236
 30
0.0
 40
13.5
  1
差
  7
K
 72
     1
 11
1207.500001896394
 21
78.04368271510236
 31
0.0
100
AcDbText
  0
TEXT
  5
28A
330
200
100
AcDbEntity
  8
TEXT
100
AcDbText
 10
1201.200001896394
 20
124.5436827151024
 30
0.0
 40
13.5
  1
通
  7
K
 72
     1
 11
1207.500001896394
 21
124.5436827151024
 31
0.0
100
AcDbText
  0
TEXT
  5
28B
330
200
100
AcDbEntity
  8
TEXT
100
AcDbText
 10
1201.200001896394
 20
109.0436827151023
 30
0.0
 40
13.5
  1
寸
  7
K
 72
     1
 11
1207.500001896394
 21
109.0436827151023
 31
0.0
100
AcDbText
  0
TEXT
  5
28C
330
200
100
AcDbEntity
  8
TEXT
100
AcDbText
 10
1201.200001896394
 20
140.0436827151023
 30
0.0
 40
13.5
  1
普
  7
K
 72
     1
 11
1207.500001896394
 21
140.0436827151023
 31
0.0
100
AcDbText
  0
TEXT
  5
28D
330
200
100
AcDbEntity
  8
TEXT
100
AcDbText
 10
1285.412667868268
 20
91.76388080963755
 30
0.0
 40
10.0
  1
120以下
 41
0.8
  7
K
 72
     2
 11
1325.336477392077
 21
96.76388080963755
 31
0.0
100
AcDbText
 73
     2
  0
TEXT
  5
28E
330
200
100
AcDbEntity
  8
TEXT
100
AcDbText
 10
1285.412667868268
 20
72.40277134255785
 30
0.0
 40
10.0
  1
315以下
 41
0.8
  7
K
 72
     2
 11
1325.336477392077
 21
77.40277134255785
 31
0.0
100
AcDbText
 73
     2
  0
TEXT
  5
28F
330
200
100
AcDbEntity
  8
TEXT
100
AcDbText
 10
1277.79362024922
 20
53.04166187547815
 30
0.0
 40
10.0
  1
1000以下
 41
0.8
  7
K
 72
     2
 11
1325.336477392077
 21
58.04166187547815
 31
0.0
100
AcDbText
 73
     2
  0
TEXT
  5
290
330
200
100
AcDbEntity
  8
TEXT
100
AcDbText
 10
1300.650763106363
 20
130.4860997437969
 30
0.0
 40
10.0
  1
6以下
 41
0.8
  7
K
 72
     2
 11
1325.336477392077
 21
135.4860997437969
 31
0.0
100
AcDbText
 73
     2
  0
TEXT
  5
291
330
200
100
AcDbEntity
  8
TEXT
100
AcDbText
 10
1293.031715487315
 20
111.1249902767172
 30
0.0
 40
10.0
  1
30以下
 41
0.8
  7
K
 72
     2
 11
1325.336477392077
 21
116.1249902767172
 31
0.0
100
AcDbText
 73
     2
  0
TEXT
  5
292
330
200
100
AcDbEntity
  8
TEXT
100
AcDbText
 10
1234.750001896394
 20
166.5277639444165
 30
0.0
 40
13.5
  1
呼 ビ 寸 法
  7
K
 72
     1
 11
1277.500001896394
 21
173.2777639444165
 31
0.0
100
AcDbText
 73
     2
  0
LINE
  5
293
330
200
100
AcDbEntity
  8
TEXT
100
AcDbLine
 10
1291.160945725173
 20
196.2958737189815
 30
0.0
 11
1337.762805283942
 21
196.2958737189815
 31
0.0
  0
LINE
  5
294
330
200
100
AcDbEntity
  8
TEXT
100
AcDbLine
 10
1292.158464926283
 20
259.0509608699458
 30
0.0
 11
1338.760324485052
 21
259.0509608699458
 31
0.0
  0
LINE
  5
295
330
200
100
AcDbEntity
  8
TEXT
100
AcDbLine
 10
1291.437604786429
 20
226.6840326982373
 30
0.0
 11
1338.039464345199
 21
226.6840326982373
 31
0.0
  0
LINE
  5
296
330
200
100
AcDbEntity
  8
WAKU
100
AcDbLine
 10
1630.000001896394
 20
28.9999976748586
 30
0.0
 11
1630.000001896394
 21
93.9999976748586
 31
0.0
  0
TEXT
  5
297
330
200
100
AcDbEntity
  8
TEXT
100
AcDbText
 10
1407.500001896394
 20
33.68055240839845
 30
0.0
 40
10.0
  1
3
 41
0.8
  7
K
 11
1407.500001896394
 21
38.68055240839845
 31
0.0
100
AcDbText
 73
     2
  0
TEXT
  5
298
330
200
100
AcDbEntity
  8
TEXT
100
AcDbText
 10
1372.500001896394
 20
33.68055240839845
 30
0.0
 40
10.0
  1
1.2
 41
0.8
  7
K
 11
1372.500001896394
 21
38.68055240839845
 31
0.0
100
AcDbText
 73
     2
  0
TEXT
  5
299
330
200
100
AcDbEntity
  8
TEXT
100
AcDbText
 10
1440.000001896394
 20
38.9999976748586
 30
0.0
 40
15.0
  1
承認
  7
K
100
AcDbText
  0
LINE
  5
29A
330
200
100
AcDbEntity
  8
TEXT
100
AcDbLine
 10
1400.000001896394
 20
182.0277639444165
 30
0.0
 11
1400.000001896394
 21
28.9999976748586
 31
0.0
  0
LINE
  5
29B
330
200
100
AcDbEntity
  8
TEXT
100
AcDbLine
 10
1365.000001896394
 20
28.9999976748586
 30
0.0
 11
1365.000001896394
 21
182.0277639444165
 31
0.0
  0
LINE
  5
29C
330
200
100
AcDbEntity
  8
WAKU
100
AcDbLine
 10
1435.000001896394
 20
28.9999976748586
 30
0.0
 11
1435.000001896394
 21
193.9999976748586
 31
0.0
  0
LINE
  5
29D
330
200
100
AcDbEntity
  8
SUNPOU
100
AcDbLine
 10
1550.000001896394
 20
193.9999976748586
 30
0.0
 11
1550.000001896394
 21
28.9999976748586
 31
0.0
  0
LINE
  5
29E
330
200
100
AcDbEntity
  8
SUNPOU
100
AcDbLine
 10
1480.000001896394
 20
193.9999976748586
 30
0.0
 11
1480.000001896394
 21
28.9999976748586
 31
0.0
  0
CIRCLE
  5
29F
330
200
100
AcDbEntity
  8
JISSEN
100
AcDbCircle
 10
1576.666668563061
 20
33.9999976748586
 30
0.0
 40
1.0
  0
CIRCLE
  5
2A0
330
200
100
AcDbEntity
  8
JISSEN
100
AcDbCircle
 10
1603.333335229728
 20
33.9999976748586
 30
0.0
 40
1.0
  0
TEXT
  5
2A1
330
200
100
AcDbEntity
  8
TEXT
100
AcDbText
 10
1508.268950778827
 20
235.4135826712586
 30
0.0
 40
15.0
  1
キューブｱｲｽ ｽﾗｲｻｰ
  7
K
 72
     4
 11
1584.268950778827
 21
243.4135826712586
 31
0.0
100
AcDbText
  0
LINE
  5
2A2
330
200
100
AcDbEntity
  8
SUNPOU
100
AcDbLine
 10
1630.000001896394
 20
152.7499976748586
 30
0.0
 11
1435.000001896394
 21
152.7499976748586
 31
0.0
  0
LINE
  5
2A3
330
200
100
AcDbEntity
  8
SUNPOU
100
AcDbLine
 10
1630.000001896394
 20
70.2499976748586
 30
0.0
 11
1435.000001896394
 21
70.2499976748586
 31
0.0
  0
LINE
  5
2A4
330
200
100
AcDbEntity
  8
SUNPOU
100
AcDbLine
 10
1435.000001896394
 20
111.4999976748586
 30
0.0
 11
1630.000001896394
 21
111.4999976748586
 31
0.0
  0
LINE
  5
2A5
330
200
100
AcDbEntity
  8
WAKU
100
AcDbLine
 10
1435.000001896394
 20
193.9999976748586
 30
0.0
 11
1630.000001896394
 21
193.9999976748586
 31
0.0
  0
TEXT
  5
2A6
330
200
100
AcDbEntity
  8
TEXT
100
AcDbText
 10
1372.500001896394
 20
149.8472092108766
 30
0.0
 40
10.0
  1
0.1
 41
0.8
  7
K
 11
1372.500001896394
 21
154.8472092108766
 31
0.0
100
AcDbText
 73
     2
  0
TEXT
  5
2A7
330
200
100
AcDbEntity
  8
TEXT
100
AcDbText
 10
1407.500001896394
 20
91.76388080963755
 30
0.0
 40
10.0
  1
0.8
 41
0.8
  7
K
 11
1407.500001896394
 21
96.76388080963755
 31
0.0
100
AcDbText
 73
     2
  0
TEXT
  5
2A8
330
200
100
AcDbEntity
  8
TEXT
100
AcDbText
 10
1372.500001896394
 20
91.76388080963755
 30
0.0
 40
10.0
  1
0.3
 41
0.8
  7
K
 11
1372.500001896394
 21
96.76388080963755
 31
0.0
100
AcDbText
 73
     2
  0
TEXT
  5
2A9
330
200
100
AcDbEntity
  8
TEXT
100
AcDbText
 10
1372.500001896394
 20
53.04166187547815
 30
0.0
 40
10.0
  1
0.8
 41
0.8
  7
K
 11
1372.500001896394
 21
58.04166187547815
 31
0.0
100
AcDbText
 73
     2
  0
TEXT
  5
2AA
330
200
100
AcDbEntity
  8
TEXT
100
AcDbText
 10
1372.500001896394
 20
72.40277134255785
 30
0.0
 40
10.0
  1
0.5
 41
0.8
  7
K
 11
1372.500001896394
 21
77.40277134255785
 31
0.0
100
AcDbText
 73
     2
  0
TEXT
  5
2AB
330
200
100
AcDbEntity
  8
TEXT
100
AcDbText
 10
1407.500001896394
 20
53.04166187547815
 30
0.0
 40
10.0
  1
2
 41
0.8
  7
K
 11
1407.500001896394
 21
58.04166187547815
 31
0.0
100
AcDbText
 73
     2
  0
TEXT
  5
2AC
330
200
100
AcDbEntity
  8
TEXT
100
AcDbText
 10
1407.500001896394
 20
72.40277134255785
 30
0.0
 40
10.0
  1
1.2
 41
0.8
  7
K
 11
1407.500001896394
 21
77.40277134255785
 31
0.0
100
AcDbText
 73
     2
  0
TEXT
  5
2AD
330
200
100
AcDbEntity
  8
TEXT
100
AcDbText
 10
1372.500001896394
 20
111.1249902767172
 30
0.0
 40
10.0
  1
0.2
 41
0.8
  7
K
 11
1372.500001896394
 21
116.1249902767172
 31
0.0
100
AcDbText
 73
     2
  0
TEXT
  5
2AE
330
200
100
AcDbEntity
  8
TEXT
100
AcDbText
 10
1372.500001896394
 20
130.4860997437969
 30
0.0
 40
10.0
  1
0.1
 41
0.8
  7
K
 11
1372.500001896394
 21
135.4860997437969
 31
0.0
100
AcDbText
 73
     2
  0
TEXT
  5
2AF
330
200
100
AcDbEntity
  8
TEXT
100
AcDbText
 10
1407.500001896394
 20
111.1249902767172
 30
0.0
 40
10.0
  1
0.5
 41
0.8
  7
K
 11
1407.500001896394
 21
116.1249902767172
 31
0.0
100
AcDbText
 73
     2
  0
TEXT
  5
2B0
330
200
100
AcDbEntity
  8
TEXT
100
AcDbText
 10
1407.500001896394
 20
130.4860997437969
 30
0.0
 40
10.0
  1
0.2
 41
0.8
  7
K
 11
1407.500001896394
 21
135.4860997437969
 31
0.0
100
AcDbText
 73
     2
  0
LINE
  5
2B1
330
200
100
AcDbEntity
  8
TEXT
100
AcDbLine
 10
1407.500001896394
 20
154.8472092108766
 30
0.0
 11
1425.530168193199
 21
154.8472092108766
 31
0.0
  0
TEXT
  5
2B2
330
200
100
AcDbEntity
  8
TEXT
100
AcDbText
 10
1440.000001896394
 20
80.2499976748586
 30
0.0
 40
15.0
  1
検図
  7
K
100
AcDbText
  0
TEXT
  5
2B3
330
200
100
AcDbEntity
  8
TEXT
100
AcDbText
 10
1440.000001896394
 20
121.4999976748586
 30
0.0
 40
15.0
  1
製図
  7
K
100
AcDbText
  0
TEXT
  5
2B4
330
200
100
AcDbEntity
  8
TEXT
100
AcDbText
 10
1375.428573324966
 20
166.5277639444165
 30
0.0
 40
13.5
  1
K
  7
K
 72
     1
 11
1382.500001896394
 21
173.2777639444165
 31
0.0
100
AcDbText
 73
     2
  0
TEXT
  5
2B5
330
200
100
AcDbEntity
  8
TEXT
100
AcDbText
 10
1411.071430467823
 20
166.5277639444165
 30
0.0
 40
13.5
  1
L
  7
K
 72
     1
 11
1417.500001896394
 21
173.2777639444165
 31
0.0
100
AcDbText
 73
     2
  0
TEXT
  5
2B6
330
200
100
AcDbEntity
  8
TEXT
100
AcDbText
 10
1440.000001896394
 20
162.7499976748586
 30
0.0
 40
15.0
  1
設計
  7
K
100
AcDbText
  0
TEXT
  5
2B7
330
200
100
AcDbEntity
  8
TEXT
100
AcDbText
 10
1440.000001896394
 20
223.9999976748586
 30
0.0
 40
15.0
  1
品名
  7
K
100
AcDbText
  0
LINE
  5
2B8
330
200
100
AcDbEntity
  8
WAKU
100
AcDbLine
 10
1630.000001896394
 20
93.9999976748586
 30
0.0
 11
1630.000001896394
 21
158.9999976748586
 31
0.0
  0
CIRCLE
  5
2B9
330
200
100
AcDbEntity
  8
JISSEN
100
AcDbCircle
 10
1576.666668563061
 20
75.2499976748586
 30
0.0
 40
1.0
  0
CIRCLE
  5
2BA
330
200
100
AcDbEntity
  8
JISSEN
100
AcDbCircle
 10
1576.666668563061
 20
116.4999976748586
 30
0.0
 40
1.0
  0
CIRCLE
  5
2BB
330
200
100
AcDbEntity
  8
JISSEN
100
AcDbCircle
 10
1603.333335229728
 20
75.2499976748586
 30
0.0
 40
1.0
  0
CIRCLE
  5
2BC
330
200
100
AcDbEntity
  8
JISSEN
100
AcDbCircle
 10
1603.333335229728
 20
116.4999976748586
 30
0.0
 40
1.0
  0
TEXT
  5
2BD
330
200
100
AcDbEntity
  8
TEXT
100
AcDbText
 10
1643.500001896394
 20
118.9999976748586
 30
0.0
 40
15.0
  1
図番
  7
K
 72
     4
 11
1660.000001896394
 21
126.4999976748585
 31
0.0
100
AcDbText
  0
TEXT
  5
2BE
330
200
100
AcDbEntity
  8
TEXT
100
AcDbText
 10
1532.67985341947
 20
206.5464139305472
 30
0.0
 40
15.0
  1
ＨＣ－６Ｓ外観図
  7
K
 72
     4
 11
1603.17985341947
 21
214.0464139305472
 31
0.0
100
AcDbText
  0
CIRCLE
  5
2BF
330
200
100
AcDbEntity
  8
JISSEN
100
AcDbCircle
 10
1576.666668563061
 20
157.7499976748585
 30
0.0
 40
1.0
  0
LINE
  5
2C0
330
200
100
AcDbEntity
  8
WAKU
100
AcDbLine
 10
1630.000001896394
 20
158.9999976748586
 30
0.0
 11
1630.000001896394
 21
193.9999976748586
 31
0.0
  0
CIRCLE
  5
2C1
330
200
100
AcDbEntity
  8
JISSEN
100
AcDbCircle
 10
1603.333335229728
 20
157.7499976748585
 30
0.0
 40
1.0
  0
LINE
  5
2C2
330
200
100
AcDbEntity
  8
SUNPOU
100
AcDbLine
 10
1810.000001896394
 20
273.9999976748586
 30
0.0
 11
1810.000001896394
 21
193.9999976748586
 31
0.0
  0
LINE
  5
2C3
330
200
100
AcDbEntity
  8
WAKU
100
AcDbLine
 10
1755.000001896394
 20
273.9999976748586
 30
0.0
 11
1755.000001896394
 21
193.9999976748586
 31
0.0
  0
LINE
  5
2C4
330
200
100
AcDbEntity
  8
SUNPOU
100
AcDbLine
 10
1755.000001896394
 20
233.9999976748586
 30
0.0
 11
1930.000001896394
 21
233.9999976748586
 31
0.0
  0
TEXT
  5
2C5
330
200
100
AcDbEntity
  8
TEXT
100
AcDbText
 10
1702.305593398506
 20
48.9999976748586
 30
0.0
 40
17.5
  1
中部コーポレーション
  7
K
100
AcDbText
  0
LINE
  5
2C6
330
200
100
AcDbEntity
  8
TENSEN
100
AcDbLine
 10
1834.000001896394
 20
93.9999976748586
 30
0.0
 11
1834.000001896394
 21
158.9999976748586
 31
0.0
  0
LINE
  5
2C7
330
200
100
AcDbEntity
  8
TENSEN
100
AcDbLine
 10
1810.000001896394
 20
158.9999976748586
 30
0.0
 11
1810.000001896394
 21
93.9999976748586
 31
0.0
  0
LINE
  5
2C8
330
200
100
AcDbEntity
  8
TENSEN
100
AcDbLine
 10
1786.000001896394
 20
93.9999976748586
 30
0.0
 11
1786.000001896394
 21
158.9999976748586
 31
0.0
  0
LINE
  5
2C9
330
200
100
AcDbEntity
  8
TENSEN
100
AcDbLine
 10
1762.000001896394
 20
158.9999976748586
 30
0.0
 11
1762.000001896394
 21
93.9999976748586
 31
0.0
  0
LINE
  5
2CA
330
200
100
AcDbEntity
  8
TENSEN
100
AcDbLine
 10
1738.000001896394
 20
93.9999976748586
 30
0.0
 11
1738.000001896394
 21
158.9999976748586
 31
0.0
  0
LINE
  5
2CB
330
200
100
AcDbEntity
  8
TENSEN
100
AcDbLine
 10
1714.000001896394
 20
158.9999976748586
 30
0.0
 11
1714.000001896394
 21
93.9999976748586
 31
0.0
  0
LINE
  5
2CC
330
200
100
AcDbEntity
  8
SUNPOU
100
AcDbLine
 10
1690.000001896394
 20
158.9999976748586
 30
0.0
 11
1690.000001896394
 21
93.9999976748586
 31
0.0
  0
TEXT
  5
2CD
330
200
100
AcDbEntity
  8
TEXT
100
AcDbText
 10
1695.608976641064
 20
113.1670354097745
 30
0.0
 40
15.0
  1
H
  7
K
100
AcDbText
  0
TEXT
  5
2CE
330
200
100
AcDbEntity
  8
TEXT
100
AcDbText
 10
1743.608976641064
 20
113.1670354097745
 30
0.0
 40
15.0
  1
6
  7
K
100
AcDbText
  0
TEXT
  5
2CF
330
200
100
AcDbEntity
  8
TEXT
100
AcDbText
 10
1719.608976641065
 20
113.1670354097745
 30
0.0
 40
15.0
  1
C
  7
K
100
AcDbText
  0
TEXT
  5
2D0
330
200
100
AcDbEntity
  8
TEXT
100
AcDbText
 10
1791.608976641064
 20
113.1670354097745
 30
0.0
 40
15.0
  1
0
  7
K
100
AcDbText
  0
TEXT
  5
2D1
330
200
100
AcDbEntity
  8
TEXT
100
AcDbText
 10
1767.608976641065
 20
113.1670354097745
 30
0.0
 40
15.0
  1
S
  7
K
100
AcDbText
  0
TEXT
  5
2D2
330
200
100
AcDbEntity
  8
TEXT
100
AcDbText
 10
1815.608976641065
 20
113.1670354097745
 30
0.0
 40
15.0
  1
0
  7
K
100
AcDbText
  0
TEXT
  5
2D3
330
200
100
AcDbEntity
  8
TEXT
100
AcDbText
 10
1750.000001896395
 20
168.9999976748586
 30
0.0
 40
15.0
  1
尺度
  7
K
100
AcDbText
  0
LINE
  5
2D4
330
200
100
AcDbEntity
  8
SUNPOU
100
AcDbLine
 10
1745.000001896394
 20
193.9999976748586
 30
0.0
 11
1745.000001896394
 21
158.9999976748586
 31
0.0
  0
TEXT
  5
2D5
330
200
100
AcDbEntity
  8
TEXT
100
AcDbText
 10
1760.000001896394
 20
203.9999976748585
 30
0.0
 40
15.0
  1
板 厚
  7
K
100
AcDbText
  0
LINE
  5
2D6
330
200
100
AcDbEntity
  8
SUNPOU
100
AcDbLine
 10
1790.000001896394
 20
158.9999976748586
 30
0.0
 11
1790.000001896394
 21
193.9999976748586
 31
0.0
  0
TEXT
  5
2D7
330
200
100
AcDbEntity
  8
TEXT
100
AcDbText
 10
1804.766401483389
 20
169.0976889450066
 30
0.0
 40
10.0
  1
1/5
  7
K
100
AcDbText
  0
TEXT
  5
2D8
330
200
100
AcDbEntity
  8
TEXT
100
AcDbText
 10
1760.000001896394
 20
243.9999976748586
 30
0.0
 40
15.0
  1
材 質
  7
K
100
AcDbText
  0
LINE
  5
2D9
330
200
100
AcDbEntity
  8
TENSEN
100
AcDbLine
 10
1906.000001896394
 20
158.9999976748586
 30
0.0
 11
1906.000001896394
 21
93.9999976748586
 31
0.0
  0
LINE
  5
2DA
330
200
100
AcDbEntity
  8
TENSEN
100
AcDbLine
 10
1882.000001896394
 20
93.9999976748586
 30
0.0
 11
1882.000001896394
 21
158.9999976748586
 31
0.0
  0
LINE
  5
2DB
330
200
100
AcDbEntity
  8
TENSEN
100
AcDbLine
 10
1858.000001896394
 20
158.9999976748586
 30
0.0
 11
1858.000001896394
 21
93.9999976748586
 31
0.0
  0
TEXT
  5
2DC
330
200
100
AcDbEntity
  8
TEXT
100
AcDbText
 10
1911.608976641065
 20
113.1670354097745
 30
0.0
 40
15.0
  1
5
  7
K
100
AcDbText
  0
TEXT
  5
2DD
330
200
100
AcDbEntity
  8
TEXT
100
AcDbText
 10
1839.608976641065
 20
113.1670354097745
 30
0.0
 40
15.0
  1
3
  7
K
100
AcDbText
  0
TEXT
  5
2DE
330
200
100
AcDbEntity
  8
TEXT
100
AcDbText
 10
1863.608976641065
 20
113.1670354097745
 30
0.0
 40
15.0
  1
0
  7
K
100
AcDbText
  0
TEXT
  5
2DF
330
200
100
AcDbEntity
  8
TEXT
100
AcDbText
 10
1887.608976641065
 20
113.1670354097745
 30
0.0
 40
15.0
  1
0
  7
K
100
AcDbText
  0
TEXT
  5
2E0
330
200
100
AcDbEntity
  8
TEXT
100
AcDbText
 10
1845.31655968575
 20
166.0863007374424
 30
0.0
 40
12.5
  1
(単位mm)
  7
K
100
AcDbText
  0
LINE
  5
2E1
330
200
100
AcDbEntity
  8
TEXT
100
AcDbLine
 10
1843.618615654755
 20
211.6374532489908
 30
0.0
 11
1890.220475213524
 21
211.6374532489908
 31
0.0
  0
LINE
  5
2E2
330
200
100
AcDbEntity
  8
TEXT
100
AcDbLine
 10
1843.618615654755
 20
249.4434623896068
 30
0.0
 11
1890.220475213524
 21
249.4434623896068
 31
0.0
  0
TEXT
  5
2E3
330
200
100
AcDbEntity
  8
TEXT
100
AcDbText
 10
1936.73717315052
 20
497.0067084949757
 30
0.0
 40
20.0
  1
ず
  7
K
 72
     1
 11
1946.070506483853
 21
507.0067084949758
 31
0.0
100
AcDbText
 73
     2
  0
TEXT
  5
2E4
330
200
100
AcDbEntity
  8
TEXT
100
AcDbText
 10
1935.666668563061
 20
497.0067084949757
 30
0.0
 40
20.0
  1
ず
  7
K
 72
     1
 11
1945.000001896394
 21
507.0067084949758
 31
0.0
100
AcDbText
 73
     2
  0
LINE
  5
2E5
330
200
100
AcDbEntity
  8
WAKU
100
AcDbLine
 10
1930.000001896394
 20
273.9999976748586
 30
0.0
 11
1755.000001896394
 21
273.9999976748586
 31
0.0
  0
TEXT
  5
2E6
330
200
100
AcDbEntity
  8
TEXT
100
AcDbText
 10
1935.666668563061
 20
372.0067084949757
 30
0.0
 40
20.0
  1
返
  7
K
 72
     1
 11
1945.000001896394
 21
382.0067084949757
 31
0.0
100
AcDbText
 73
     2
  0
TEXT
  5
2E7
330
200
100
AcDbEntity
  8
TEXT
100
AcDbText
 10
1935.173126646932
 20
323.3039445559628
 30
0.0
 40
20.0
  1
の
  7
K
 72
     4
 11
1944.506459980265
 21
333.3039445559628
 31
0.0
100
AcDbText
  0
TEXT
  5
2E8
330
200
100
AcDbEntity
  8
TEXT
100
AcDbText
 10
1935.666668563061
 20
277.0067084949757
 30
0.0
 40
20.0
  1
と
  7
K
 72
     1
 11
1945.000001896394
 21
287.0067084949758
 31
0.0
100
AcDbText
 73
     2
  0
TEXT
  5
2E9
330
200
100
AcDbEntity
  8
TEXT
100
AcDbText
 10
1935.666668563061
 20
302.0067084949757
 30
0.0
 40
20.0
  1
こ
  7
K
 72
     1
 11
1945.000001896394
 21
312.0067084949758
 31
0.0
100
AcDbText
 73
     2
  0
TEXT
  5
2EA
330
200
100
AcDbEntity
  8
TEXT
100
AcDbText
 10
1935.666668563061
 20
347.0067084949757
 30
0.0
 40
20.0
  1
却
  7
K
 72
     1
 11
1945.000001896394
 21
357.0067084949757
 31
0.0
100
AcDbText
 73
     2
  0
TEXT
  5
2EB
330
200
100
AcDbEntity
  8
TEXT
100
AcDbText
 10
1936.333335229727
 20
397.0067084949758
 30
0.0
 40
20.0
  1
へ
  7
K
 72
     1
 11
1945.000001896394
 21
407.0067084949758
 31
0.0
100
AcDbText
 73
     2
  0
TEXT
  5
2EC
330
200
100
AcDbEntity
  8
TEXT
100
AcDbText
 10
1935.666668563061
 20
422.0067084949757
 30
0.0
 40
20.0
  1
元
  7
K
 72
     1
 11
1945.000001896394
 21
432.0067084949758
 31
0.0
100
AcDbText
 73
     2
  0
TEXT
  5
2ED
330
200
100
AcDbEntity
  8
TEXT
100
AcDbText
 10
1935.666668563061
 20
472.0067084949757
 30
0.0
 40
20.0
  1
発
  7
K
 72
     1
 11
1945.000001896394
 21
482.0067084949758
 31
0.0
100
AcDbText
 73
     2
  0
TEXT
  5
2EE
330
200
100
AcDbEntity
  8
TEXT
100
AcDbText
 10
1935.666668563061
 20
447.0067084949757
 30
0.0
 40
20.0
  1
行
  7
K
 72
     1
 11
1945.000001896394
 21
457.0067084949758
 31
0.0
100
AcDbText
 73
     2
  0
TEXT
  5
2EF
330
200
100
AcDbEntity
  8
TEXT
100
AcDbText
 10
1935.666668563061
 20
522.0067084949757
 30
0.0
 40
20.0
  1
必
  7
K
 72
     1
 11
1945.000001896394
 21
532.0067084949758
 31
0.0
100
AcDbText
 73
     2
  0
TEXT
  5
2F0
330
200
100
AcDbEntity
  8
TEXT
100
AcDbText
 10
1949.628479357421
 20
555.0248490686683
 30
0.0
 40
20.0
  1
、
  7
K
 72
     1
 11
1952.295146024087
 21
565.0248490686683
 31
0.0
100
AcDbText
 73
     2
  0
TEXT
  5
2F1
330
200
100
AcDbEntity
  8
TEXT
100
AcDbText
 10
1935.666668563061
 20
572.0067084949757
 30
0.0
 40
20.0
  1
後
  7
K
 72
     1
 11
1945.000001896394
 21
582.0067084949758
 31
0.0
100
AcDbText
 73
     2
  0
TEXT
  5
2F2
330
200
100
AcDbEntity
  8
TEXT
100
AcDbText
 10
1936.333335229727
 20
597.0067084949757
 30
0.0
 40
20.0
  1
み
  7
K
 72
     1
 11
1945.000001896394
 21
607.0067084949758
 31
0.0
100
AcDbText
 73
     2
  0
TEXT
  5
2F3
330
200
100
AcDbEntity
  8
TEXT
100
AcDbText
 10
1935.666668563061
 20
672.0067084949757
 30
0.0
 40
20.0
  1
は
  7
K
 72
     1
 11
1945.000001896394
 21
682.0067084949758
 31
0.0
100
AcDbText
 73
     2
  0
TEXT
  5
2F4
330
200
100
AcDbEntity
  8
TEXT
100
AcDbText
 10
1936.333335229727
 20
647.0067084949757
 30
0.0
 40
20.0
  1
用
  7
K
 72
     1
 11
1945.000001896394
 21
657.0067084949758
 31
0.0
100
AcDbText
 73
     2
  0
TEXT
  5
2F5
330
200
100
AcDbEntity
  8
TEXT
100
AcDbText
 10
1935.666668563061
 20
622.0067084949757
 30
0.0
 40
20.0
  1
済
  7
K
 72
     1
 11
1945.000001896394
 21
632.0067084949758
 31
0.0
100
AcDbText
 73
     2
  0
TEXT
  5
2F6
330
200
100
AcDbEntity
  8
TEXT
100
AcDbText
 10
1935.666668563061
 20
697.0067084949757
 30
0.0
 40
20.0
  1
図
  7
K
 72
     1
 11
1945.000001896394
 21
707.0067084949758
 31
0.0
100
AcDbText
 73
     2
  0
LINE
  5
2F7
330
200
100
AcDbEntity
  8
TEXT
100
AcDbLine
 10
1349.767736460098
 20
754.4844099386441
 30
0.0
 11
1901.449781928805
 21
754.4844099386441
 31
0.0
  0
LINE
  5
2F8
330
200
100
AcDbEntity
  8
TEXT
100
AcDbLine
 10
1349.767736460098
 20
788.4844099386441
 30
0.0
 11
1901.449781928805
 21
788.4844099386441
 31
0.0
  0
LINE
  5
2F9
330
200
100
AcDbEntity
  8
TEXT
100
AcDbLine
 10
1349.767736460098
 20
822.4844099386441
 30
0.0
 11
1901.449781928805
 21
822.4844099386441
 31
0.0
  0
TEXT
  5
2FA
330
200
100
AcDbEntity
  8
TEXT
100
AcDbText
 10
1352.895797274477
 20
829.1278839891242
 30
0.0
 40
20.0
  1
モーター：分相始動形単相誘導電動機 200W 4P
  7
K
100
AcDbText
  0
LINE
  5
2FB
330
200
100
AcDbEntity
  8
TEXT
100
AcDbLine
 10
1349.767736460098
 20
856.4844099386441
 30
0.0
 11
1901.449781928805
 21
856.4844099386441
 31
0.0
  0
TEXT
  5
2FC
330
200
100
AcDbEntity
  8
TEXT
100
AcDbText
 10
1352.895797274477
 20
863.1278839891242
 30
0.0
 40
20.0
  1
定格消費電力：240/200W
  7
K
100
AcDbText
  0
LINE
  5
2FD
330
200
100
AcDbEntity
  8
TEXT
100
AcDbLine
 10
1349.767736460098
 20
890.4844099386441
 30
0.0
 11
1901.449781928805
 21
890.4844099386441
 31
0.0
  0
TEXT
  5
2FE
330
200
100
AcDbEntity
  8
TEXT
100
AcDbText
 10
1352.895797274477
 20
897.1278839891242
 30
0.0
 40
20.0
  1
電  源  ：単相100V  50/60 Hz
  7
K
100
AcDbText
  0
TEXT
  5
2FF
330
200
100
AcDbEntity
  8
TEXT
100
AcDbText
 10
1352.895797274477
 20
999.1278839891242
 30
0.0
 40
20.0
  1
外形寸法：巾290  ×奥行362  ×高さ412
  7
K
100
AcDbText
  0
LINE
  5
300
330
200
100
AcDbEntity
  8
TEXT
100
AcDbLine
 10
1349.767736460098
 20
992.4844099386442
 30
0.0
 11
1901.449781928805
 21
992.4844099386442
 31
0.0
  0
LINE
  5
301
330
200
100
AcDbEntity
  8
TEXT
100
AcDbLine
 10
1349.767736460098
 20
958.4844099386442
 30
0.0
 11
1901.449781928805
 21
958.4844099386442
 31
0.0
  0
LINE
  5
302
330
200
100
AcDbEntity
  8
TEXT
100
AcDbLine
 10
1349.767736460098
 20
924.484409938644
 30
0.0
 11
1901.449781928805
 21
924.484409938644
 31
0.0
  0
TEXT
  5
303
330
200
100
AcDbEntity
  8
TEXT
100
AcDbText
 10
1352.895797274477
 20
965.1278839891242
 30
0.0
 40
20.0
  1
重  量  ：18K
  7
K
100
AcDbText
  0
TEXT
  5
304
330
200
100
AcDbEntity
  8
TEXT
100
AcDbText
 10
1527.824710245386
 20
967.2102397806261
 30
0.0
 40
20.0
  1
g
  7
K
100
AcDbText
  0
TEXT
  5
305
330
200
100
AcDbEntity
  8
TEXT
100
AcDbText
 10
1352.895797274477
 20
761.1278839891242
 30
0.0
 40
20.0
  1
プロテクター：手動復帰式
  7
K
100
AcDbText
  0
TEXT
  5
306
330
200
100
AcDbEntity
  8
TEXT
100
AcDbText
 10
1352.895797274477
 20
795.1278839891243
 30
0.0
 40
20.0
  1
電源スイッチ：トグル式
  7
K
100
AcDbText
  0
TEXT
  5
307
330
200
100
AcDbEntity
  8
TEXT
100
AcDbText
 10
1352.895797274477
 20
931.1278839891242
 30
0.0
 40
20.0
  1
回 転 数：350/420 rpm
  7
K
100
AcDbText
  0
LINE
  5
308
330
200
100
AcDbEntity
  8
TEXT
100
AcDbLine
 10
1349.767736460098
 20
1026.484409938644
 30
0.0
 11
1418.467978139628
 21
1026.484409938644
 31
0.0
  0
TEXT
  5
309
330
200
100
AcDbEntity
  8
TEXT
100
AcDbText
 10
1352.895797274477
 20
1033.127883989124
 30
0.0
 40
20.0
  1
仕 様
  7
K
100
AcDbText
  0
TEXT
  5
30A
330
200
100
AcDbEntity
  8
TEXT
100
AcDbText
 10
1552.615616806542
 20
996.8795914372613
 30
0.0
 40
10.0
  1
mm
  7
K
100
AcDbText
  0
TEXT
  5
30B
330
200
100
AcDbEntity
  8
TEXT
100
AcDbText
 10
1705.282232234479
 20
998.4786572427474
 30
0.0
 40
10.0
  1
mm
  7
K
100
AcDbText
  0
TEXT
  5
30C
330
200
100
AcDbEntity
  8
TEXT
100
AcDbText
 10
1859.389778072674
 20
996.8795914372613
 30
0.0
 40
10.0
  1
mm
  7
K
100
AcDbText
  0
ENDBLK
  5
30E
330
200
100
AcDbEntity
  8
0
100
AcDbBlockEnd
  0
BLOCK
  5
6FE
330
6FC
100
AcDbEntity
  8
0
100
AcDbBlockBegin
  2
A$C76DB6D64
 70
     0
 10
0.0
 20
0.0
 30
0.0
  3
A$C76DB6D64
  1

  0
ELLIPSE
  5
6FD
330
6FC
100
AcDbEntity
  8
SUNPOU
100
AcDbEllipse
 10
140.0000032777986
 20
284.6530036303681
 30
0.0
 11
-430.646511795
 21
0.0
 31
0.0
210
0.0
220
0.0
230
1.0
 40
0.661204382727119
 41
1.239686667381419
 42
1.901905986208373
  0
ENDBLK
  5
6FF
330
6FC
100
AcDbEntity
  8
0
100
AcDbBlockEnd
  0
BLOCK
  5
A1C
330
A16
100
AcDbEntity
  8
0
100
AcDbBlockBegin
  2
A$C53553078
 70
     0
 10
0.0
 20
0.0
 30
0.0
  3
A$C53553078
  1

  0
ARC
  5
A17
330
A16
100
AcDbEntity
  8
0
100
AcDbCircle
 10
110.0000004698517
 20
9.999997701675852
 30
0.0
 40
10.0
100
AcDbArc
 50
270.0
 51
0.0
  0
ARC
  5
A18
330
A16
100
AcDbEntity
  8
0
100
AcDbCircle
 10
10.00000046985155
 20
9.999997701675738
 30
0.0
 40
10.0
100
AcDbArc
 50
180.0
 51
270.0
  0
LINE
  5
A19
330
A16
100
AcDbEntity
  8
0
100
AcDbLine
 10
120.0000004698517
 20
9.999997701675852
 30
0.0
 11
120.0000004698516
 21
19.99999770167562
 31
0.0
  0
LINE
  5
A1A
330
A16
100
AcDbEntity
  8
0
100
AcDbLine
 10
0.0000004698515568
 20
9.999997701675738
 30
0.0
 11
0.0000004698515568
 21
19.99999770167562
 31
0.0
  0
LINE
  5
A1B
330
A16
100
AcDbEntity
  8
0
100
AcDbLine
 10
10.00000046985155
 20
-0.0000022983242616
 30
0.0
 11
110.0000004698517
 21
-0.0000022983241479
 31
0.0
  0
ENDBLK
  5
A1D
330
A16
100
AcDbEntity
  8
0
100
AcDbBlockEnd
  0
BLOCK
  5
A44
330
A3F
100
AcDbEntity
  8
0
100
AcDbBlockBegin
  2
A$C5E267045
 70
     0
 10
0.0
 20
0.0
 30
0.0
  3
A$C5E267045
  1

  0
ELLIPSE
  5
A40
330
A3F
100
AcDbEntity
  8
0
100
AcDbEllipse
 10
15.00000074239551
 20
12.99926800444564
 30
0.0
 11
-15.0
 21
0.0
 31
0.0
210
0.0
220
0.0
230
1.0
 40
0.7333333333333333
 41
0.0
 42
6.283185307179586
  0
SPLINE
  5
A41
330
A3F
100
AcDbEntity
  8
0
100
AcDbSpline
210
0.0
220
0.0
230
1.0
 70
     8
 71
     3
 72
    18
 73
    14
 74
     0
 42
0.0000000001
 43
0.0000000001
 40
6.755352898440496
 40
6.755352898440496
 40
6.755352898440496
 40
6.755352898440496
 40
7.029450609078767
 40
7.029450609078767
 40
7.310180095569728
 40
7.310180095569728
 40
7.712652521378497
 40
7.712652521378497
 40
8.115124947187267
 40
8.115124947187267
 40
8.517597372996037
 40
8.517597372996037
 40
8.871823228425228
 40
8.871823228425228
 40
8.871823228425228
 40
8.871823228425228
 10
0.0000007423967645
 20
6.853315150291109
 30
0.0
 10
0.7442297376490501
 20
5.78470475356039
 30
0.0
 10
1.673512351130227
 20
4.81317548452364
 30
0.0
 10
3.839932511309825
 20
3.094993184171698
 30
0.0
 10
5.084105025541532
 20
2.353753769475474
 30
0.0
 10
8.35580735852136
 20
0.9031467463350963
 30
0.0
 10
10.48975544696116
 20
0.3482181904112167
 30
0.0
 10
14.86937854170571
 20
-0.1087383192095785
 30
0.0
 10
17.11406012469143
 20
-0.0105028827973683
 30
0.0
 10
21.40078712344478
 20
0.8296120207292005
 30
0.0
 10
23.44212552171183
 20
1.571090097576416
 30
0.0
 10
26.81182514594974
 20
3.503290170350737
 30
0.0
 10
28.19702657150338
 20
4.630538494177926
 30
0.0
 10
29.29484532886181
 20
5.934350258224299
 30
0.0
  0
ARC
  5
A42
330
A3F
100
AcDbEntity
  8
0
100
AcDbCircle
 10
27.00000074231155
 20
7.866625684642713
 30
0.0
 40
3.0
100
AcDbArc
 50
319.9023834794244
 51
359.9999999999608
  0
LINE
  5
A43
330
A3F
100
AcDbEntity
  8
0
100
AcDbLine
 10
30.00000074231673
 20
7.866625684640325
 30
0.0
 11
30.00000074231673
 21
12.99926800444564
 31
0.0
  0
ENDBLK
  5
A45
330
A3F
100
AcDbEntity
  8
0
100
AcDbBlockEnd
  0
BLOCK
  5
BA8
330
BA5
100
AcDbEntity
  8
0
100
AcDbBlockBegin
  2
A$C06C6236D
 70
     0
 10
0.0
 20
0.0
 30
0.0
  3
A$C06C6236D
  1

  0
ARC
  5
BA6
330
BA5
100
AcDbEntity
  8
HOJO
100
AcDbCircle
 10
12.49999630975355
 20
-0.0000028062615911
 30
0.0
 40
12.5
100
AcDbArc
 50
0.0
 51
90.0
  0
ARC
  5
BA7
330
BA5
100
AcDbEntity
  8
HOJO
100
AcDbCircle
 10
12.49999630975355
 20
-0.0000028062615911
 30
0.0
 40
12.5
100
AcDbArc
 50
90.0
 51
180.0
  0
ENDBLK
  5
BA9
330
BA5
100
AcDbEntity
  8
0
100
AcDbBlockEnd
  0
BLOCK
  5
BDD
330
BCF
100
AcDbEntity
  8
0
100
AcDbBlockBegin
  2
A$C23052AEC
 70
     0
 10
0.0
 20
0.0
 30
0.0
  3
A$C23052AEC
  1

  0
LINE
  5
BD0
330
BCF
100
AcDbEntity
  8
0
100
AcDbLine
 10
0.0000020939951355
 20
12.63059064282652
 30
0.0
 11
54.84657498141405
 21
12.63059064282629
 31
0.0
  0
LINE
  5
BD1
330
BCF
100
AcDbEntity
  8
0
100
AcDbLine
 10
0.0000020939951355
 20
5.630590642826518
 30
0.0
 11
54.84657498141405
 21
5.630590642826518
 31
0.0
  0
LINE
  5
BD2
330
BCF
100
AcDbEntity
  8
0
100
AcDbLine
 10
54.84657498141405
 20
-0.0000019102868691
 30
0.0
 11
54.84657498141405
 21
18.47961691971318
 31
0.0
  0
LINE
  5
BD3
330
BCF
100
AcDbEntity
  8
0
100
AcDbLine
 10
54.84657498141382
 20
-0.0000019102867554
 30
0.0
 11
72.78757435141392
 21
-0.0000019102867554
 31
0.0
  0
LINE
  5
BD4
330
BCF
100
AcDbEntity
  8
0
100
AcDbLine
 10
54.84657498141382
 20
18.47961691971318
 30
0.0
 11
72.78757435141392
 21
18.47961691971318
 31
0.0
  0
LINE
  5
BD5
330
BCF
100
AcDbEntity
  8
0
100
AcDbLine
 10
72.78757435141369
 20
6.92850373971305
 30
0.0
 11
72.78757435141347
 21
13.92850373971305
 31
0.0
  0
LINE
  5
BD6
330
BCF
100
AcDbEntity
  8
0
100
AcDbLine
 10
72.78757435141392
 20
-0.0000019102867554
 30
0.0
 11
72.78757435141392
 21
18.47961691971318
 31
0.0
  0
LINE
  5
BD7
330
BCF
100
AcDbEntity
  8
0
100
AcDbLine
 10
82.18398207141399
 20
2.530417579713002
 30
0.0
 11
82.18398207141399
 21
5.665159789713129
 31
0.0
  0
LINE
  5
BD8
330
BCF
100
AcDbEntity
  8
0
100
AcDbLine
 10
82.18398207141399
 20
10.54142266971302
 30
0.0
 11
82.18398207141399
 21
13.92850373971305
 31
0.0
  0
LINE
  5
BD9
330
BCF
100
AcDbEntity
  8
0
100
AcDbLine
 10
72.78757435141415
 20
2.530417579713116
 30
0.0
 11
82.18398207141445
 21
2.530417579713116
 31
0.0
  0
LINE
  5
BDA
330
BCF
100
AcDbEntity
  8
0
100
AcDbLine
 10
72.78757435141415
 20
5.665159789713243
 30
0.0
 11
82.18398207141445
 21
5.665159789713243
 31
0.0
  0
LINE
  5
BDB
330
BCF
100
AcDbEntity
  8
0
100
AcDbLine
 10
72.78757435141392
 20
10.54142266971302
 30
0.0
 11
82.18398207141399
 21
10.54142266971302
 31
0.0
  0
LINE
  5
BDC
330
BCF
100
AcDbEntity
  8
0
100
AcDbLine
 10
72.78757435141369
 20
13.92850373971305
 30
0.0
 11
82.18398207141399
 21
13.92850373971305
 31
0.0
  0
ENDBLK
  5
BDE
330
BCF
100
AcDbEntity
  8
0
100
AcDbBlockEnd
  0
BLOCK
  5
C13
330
C05
100
AcDbEntity
  8
0
100
AcDbBlockBegin
  2
A$C29C57B06
 70
     0
 10
0.0
 20
0.0
 30
0.0
  3
A$C29C57B06
  1

  0
LINE
  5
C06
330
C05
100
AcDbEntity
  8
0
100
AcDbLine
 10
0.0000020939951355
 20
12.63059064282652
 30
0.0
 11
54.84657498141405
 21
12.63059064282629
 31
0.0
  0
LINE
  5
C07
330
C05
100
AcDbEntity
  8
0
100
AcDbLine
 10
0.0000020939951355
 20
5.630590642826518
 30
0.0
 11
54.84657498141405
 21
5.630590642826518
 31
0.0
  0
LINE
  5
C08
330
C05
100
AcDbEntity
  8
0
100
AcDbLine
 10
54.84657498141405
 20
-0.0000019102868691
 30
0.0
 11
54.84657498141405
 21
18.47961691971318
 31
0.0
  0
LINE
  5
C09
330
C05
100
AcDbEntity
  8
0
100
AcDbLine
 10
54.84657498141382
 20
-0.0000019102867554
 30
0.0
 11
72.78757435141392
 21
-0.0000019102867554
 31
0.0
  0
LINE
  5
C0A
330
C05
100
AcDbEntity
  8
0
100
AcDbLine
 10
54.84657498141382
 20
18.47961691971318
 30
0.0
 11
72.78757435141392
 21
18.47961691971318
 31
0.0
  0
LINE
  5
C0B
330
C05
100
AcDbEntity
  8
0
100
AcDbLine
 10
72.78757435141369
 20
6.92850373971305
 30
0.0
 11
72.78757435141347
 21
13.92850373971305
 31
0.0
  0
LINE
  5
C0C
330
C05
100
AcDbEntity
  8
0
100
AcDbLine
 10
72.78757435141392
 20
-0.0000019102867554
 30
0.0
 11
72.78757435141392
 21
18.47961691971318
 31
0.0
  0
LINE
  5
C0D
330
C05
100
AcDbEntity
  8
0
100
AcDbLine
 10
82.18398207141399
 20
2.530417579713002
 30
0.0
 11
82.18398207141399
 21
5.665159789713129
 31
0.0
  0
LINE
  5
C0E
330
C05
100
AcDbEntity
  8
0
100
AcDbLine
 10
82.18398207141399
 20
10.54142266971302
 30
0.0
 11
82.18398207141399
 21
13.92850373971305
 31
0.0
  0
LINE
  5
C0F
330
C05
100
AcDbEntity
  8
0
100
AcDbLine
 10
72.78757435141415
 20
2.530417579713116
 30
0.0
 11
82.18398207141445
 21
2.530417579713116
 31
0.0
  0
LINE
  5
C10
330
C05
100
AcDbEntity
  8
0
100
AcDbLine
 10
72.78757435141415
 20
5.665159789713243
 30
0.0
 11
82.18398207141445
 21
5.665159789713243
 31
0.0
  0
LINE
  5
C11
330
C05
100
AcDbEntity
  8
0
100
AcDbLine
 10
72.78757435141392
 20
10.54142266971302
 30
0.0
 11
82.18398207141399
 21
10.54142266971302
 31
0.0
  0
LINE
  5
C12
330
C05
100
AcDbEntity
  8
0
100
AcDbLine
 10
72.78757435141369
 20
13.92850373971305
 30
0.0
 11
82.18398207141399
 21
13.92850373971305
 31
0.0
  0
ENDBLK
  5
C14
330
C05
100
AcDbEntity
  8
0
100
AcDbBlockEnd
  0
BLOCK
  5
C32
330
C30
100
AcDbEntity
  8
0
100
AcDbBlockBegin
  2
A$C2ED45F67
 70
     0
 10
0.0
 20
0.0
 30
0.0
  3
A$C2ED45F67
  1

  0
TEXT
  5
C31
330
C30
100
AcDbEntity
  8
TEXT
100
AcDbText
 10
-2.666668226458568
 20
0.0000023802685973
 30
0.0
 40
20.0
  1
モーター：コンデンサー始動形自動復帰形ｻｰﾏﾙプロテクタ内蔵 85W 
  7
K
100
AcDbText
  0
ENDBLK
  5
C33
330
C30
100
AcDbEntity
  8
0
100
AcDbBlockEnd
  0
BLOCK
  5
1054
330
1046
100
AcDbEntity
  8
0
100
AcDbBlockBegin
  2
A$C1D6227E0
 70
     0
 10
0.0
 20
0.0
 30
0.0
  3
A$C1D6227E0
  1

  0
LINE
  5
1047
330
1046
100
AcDbEntity
  8
0
100
AcDbLine
 10
19.32195423537814
 20
33.49342252492317
 30
0.0
 11
19.32195423537814
 21
33.55918095699917
 31
0.0
  0
LINE
  5
1048
330
1046
100
AcDbEntity
  8
0
100
AcDbLine
 10
22.32195423537735
 20
31.83753353900681
 30
0.0
 11
29.59609010487111
 21
27.66303445972653
 31
0.0
  0
LINE
  5
1049
330
1046
100
AcDbEntity
  8
0
100
AcDbLine
 10
19.32195423537814
 20
31.83753353900681
 30
0.0
 11
22.32195423537825
 21
31.83753353900681
 31
0.0
  0
LINE
  5
104A
330
1046
100
AcDbEntity
  8
0
100
AcDbLine
 10
26.59609010487111
 20
27.66303445972653
 30
0.0
 11
29.59609010487122
 21
27.66303445972653
 31
0.0
  0
LINE
  5
104B
330
1046
100
AcDbEntity
  8
0
100
AcDbLine
 10
19.32195423537814
 20
31.83753353900681
 30
0.0
 11
26.59609010487111
 21
27.66303445972653
 31
0.0
  0
LINE
  5
104C
330
1046
100
AcDbEntity
  8
0
100
AcDbLine
 10
19.32195423537814
 20
0.173433994582922
 30
0.0
 11
19.32195423537814
 21
31.83753353900669
 31
0.0
  0
LINE
  5
104D
330
1046
100
AcDbEntity
  8
0
100
AcDbLine
 10
29.59609010487111
 20
5.790719159960531
 30
0.0
 11
29.59609010487111
 21
27.66303445972653
 31
0.0
  0
LINE
  5
104E
330
1046
100
AcDbEntity
  8
0
100
AcDbLine
 10
26.59609010487111
 20
4.150497956913056
 30
0.0
 11
26.59609010487111
 21
27.66303445972653
 31
0.0
  0
LINE
  5
104F
330
1046
100
AcDbEntity
  8
0
100
AcDbLine
 10
19.32195423537814
 20
33.55918095699917
 30
0.0
 11
19.44185018096686
 21
33.49037477528225
 31
0.0
  0
LINE
  5
1050
330
1046
100
AcDbEntity
  8
0
100
AcDbLine
 10
19.32195423537814
 20
0.173433994582922
 30
0.0
 11
29.59609010487111
 21
5.790719159960531
 31
0.0
  0
ELLIPSE
  5
1051
330
1046
100
AcDbEntity
  8
0
100
AcDbEllipse
 10
19.49428090024889
 20
14.97996119002891
 30
0.0
 11
-0.9526949154629777
 21
18.50118220427349
 31
0.0
210
0.0
220
0.0
230
1.0
 40
0.7678641535702465
 41
6.189455079097946
 42
8.636758086860075
  0
ELLIPSE
  5
1052
330
1046
100
AcDbEntity
  8
0
100
AcDbEllipse
 10
19.49428090024889
 20
14.97996119002891
 30
0.0
 11
-0.9526949154629777
 21
18.50118220427349
 31
0.0
210
0.0
220
0.0
230
1.0
 40
0.7678641535702465
 41
5.427462728861332
 42
5.594139082400647
  0
ARC
  5
1053
330
1046
100
AcDbEntity
  8
0
100
AcDbCircle
 10
16.86795220087424
 20
16.86630747579056
 30
0.0
 40
16.8722894428993
100
AcDbArc
 50
49.65274929918302
 51
318.9713294597896
  0
ENDBLK
  5
1055
330
1046
100
AcDbEntity
  8
0
100
AcDbBlockEnd
  0
BLOCK
  5
1087
330
107D
100
AcDbEntity
  8
0
100
AcDbBlockBegin
  2
*D24
 70
     1
 10
0.0
 20
0.0
 30
0.0
  3
*D24
  1

  0
LINE
  5
107E
330
107D
100
AcDbEntity
  8
0
  6
BYBLOCK
 62
     0
100
AcDbLine
 10
604.5306148756154
 20
415.5362392827501
 30
0.0
 11
557.2635489750028
 21
415.5362392827501
 31
0.0
  0
LINE
  5
107F
330
107D
100
AcDbEntity
  8
0
  6
BYBLOCK
 62
     0
100
AcDbLine
 10
609.5306148756153
 20
225.5362392827501
 30
0.0
 11
557.2635489750028
 21
225.5362392827501
 31
0.0
  0
LINE
  5
1080
330
107D
100
AcDbEntity
  8
0
  6
BYBLOCK
 62
     0
100
AcDbLine
 10
562.2635489750027
 20
408.0362392827501
 30
0.0
 11
562.2635489750027
 21
233.0362392827501
 31
0.0
  0
INSERT
  5
1081
330
107D
100
AcDbEntity
  8
0
  6
BYBLOCK
 62
     0
100
AcDbBlockReference
  2
ARROW
 10
562.2635489750027
 20
415.5362392827501
 30
0.0
 41
7.5
 42
7.5
 43
7.5
 50
90.0
  0
INSERT
  5
1082
330
107D
100
AcDbEntity
  8
0
  6
BYBLOCK
 62
     0
100
AcDbBlockReference
  2
ARROW
 10
562.2635489750027
 20
225.5362392827501
 30
0.0
 41
7.5
 42
7.5
 43
7.5
 50
270.0
  0
MTEXT
  5
1083
330
107D
100
AcDbEntity
  8
0
  6
BYBLOCK
 62
     0
100
AcDbMText
 10
554.3135489750027
 20
320.5362392827501
 30
0.0
 40
15.0
 41
0.0
 71
     5
 72
     1
  1
\A1;190
 11
0.0000000000000001
 21
1.0
 31
0.0
1001
ACAD
1000
MTEXTBEGIN
1070
    73
1070
     1
1070
    44
1040
1.0
1070
    74
1070
     0
1000
MTEXTEND
  0
POINT
  5
1084
330
107D
100
AcDbEntity
  8
DEFPOINTS
  6
BYBLOCK
 62
     0
100
AcDbPoint
 10
609.5306148756153
 20
415.5362392827501
 30
0.0
  0
POINT
  5
1085
330
107D
100
AcDbEntity
  8
DEFPOINTS
  6
BYBLOCK
 62
     0
100
AcDbPoint
 10
614.5306148756153
 20
225.5362392827501
 30
0.0
  0
POINT
  5
1086
330
107D
100
AcDbEntity
  8
DEFPOINTS
  6
BYBLOCK
 62
     0
100
AcDbPoint
 10
562.2635489750027
 20
225.5362392827501
 30
0.0
  0
ENDBLK
  5
1088
330
107D
100
AcDbEntity
  8
0
100
AcDbBlockEnd
  0
BLOCK
  5
1095
330
1089
100
AcDbEntity
  8
0
100
AcDbBlockBegin
  2
*D25
 70
     1
 10
0.0
 20
0.0
 30
0.0
  3
*D25
  1

  0
LINE
  5
108A
330
1089
100
AcDbEntity
  8
0
  6
BYBLOCK
 62
     0
100
AcDbLine
 10
973.5306148756153
 20
245.5362392827501
 30
0.0
 11
934.735563954856
 21
245.5362392827501
 31
0.0
  0
LINE
  5
108B
330
1089
100
AcDbEntity
  8
0
  6
BYBLOCK
 62
     0
100
AcDbLine
 10
973.5306148756153
 20
225.5362392827501
 30
0.0
 11
934.735563954856
 21
225.5362392827501
 31
0.0
  0
LINE
  5
108C
330
1089
100
AcDbEntity
  8
0
  6
BYBLOCK
 62
     0
100
AcDbLine
 10
939.7355639548559
 20
253.03623928275
 30
0.0
 11
939.7355639548559
 21
260.5362392827501
 31
0.0
  0
LINE
  5
108D
330
1089
100
AcDbEntity
  8
0
  6
BYBLOCK
 62
     0
100
AcDbLine
 10
939.7355639548559
 20
218.03623928275
 30
0.0
 11
939.7355639548559
 21
210.5362392827501
 31
0.0
  0
LINE
  5
108E
330
1089
100
AcDbEntity
  8
0
  6
BYBLOCK
 62
     0
100
AcDbLine
 10
939.7355639548559
 20
245.5362392827501
 30
0.0
 11
939.7355639548559
 21
225.5362392827501
 31
0.0
  0
INSERT
  5
108F
330
1089
100
AcDbEntity
  8
0
  6
BYBLOCK
 62
     0
100
AcDbBlockReference
  2
ARROW
 10
939.7355639548559
 20
245.5362392827501
 30
0.0
 41
7.5
 42
7.5
 43
7.5
 50
270.0
  0
INSERT
  5
1090
330
1089
100
AcDbEntity
  8
0
  6
BYBLOCK
 62
     0
100
AcDbBlockReference
  2
ARROW
 10
939.7355639548559
 20
225.5362392827501
 30
0.0
 41
7.5
 42
7.5
 43
7.5
 50
90.0
  0
MTEXT
  5
1091
330
1089
100
AcDbEntity
  8
0
  6
BYBLOCK
 62
     0
100
AcDbMText
 10
931.7855639548559
 20
235.5362392827501
 30
0.0
 40
15.0
 41
0.0
 71
     5
 72
     1
  1
\A1;20
 11
0.0000000000000001
 21
1.0
 31
0.0
1001
ACAD
1000
MTEXTBEGIN
1070
    73
1070
     1
1070
    44
1040
1.0
1070
    74
1070
     0
1000
MTEXTEND
  0
POINT
  5
1092
330
1089
100
AcDbEntity
  8
DEFPOINTS
  6
BYBLOCK
 62
     0
100
AcDbPoint
 10
978.5306148756154
 20
245.5362392827501
 30
0.0
  0
POINT
  5
1093
330
1089
100
AcDbEntity
  8
DEFPOINTS
  6
BYBLOCK
 62
     0
100
AcDbPoint
 10
978.5306148756154
 20
225.5362392827501
 30
0.0
  0
POINT
  5
1094
330
1089
100
AcDbEntity
  8
DEFPOINTS
  6
BYBLOCK
 62
     0
100
AcDbPoint
 10
939.7355639548559
 20
225.5362392827501
 30
0.0
  0
ENDBLK
  5
1096
330
1089
100
AcDbEntity
  8
0
100
AcDbBlockEnd
  0
BLOCK
  5
10A1
330
1097
100
AcDbEntity
  8
0
100
AcDbBlockBegin
  2
*D26
 70
     1
 10
0.0
 20
0.0
 30
0.0
  3
*D26
  1

  0
LINE
  5
1098
330
1097
100
AcDbEntity
  8
0
  6
BYBLOCK
 62
     0
100
AcDbLine
 10
936.2408845957515
 20
817.5362392827501
 30
0.0
 11
1031.785843515884
 21
817.5362392827501
 31
0.0
  0
LINE
  5
1099
330
1097
100
AcDbEntity
  8
0
  6
BYBLOCK
 62
     0
100
AcDbLine
 10
1003.530614875615
 20
225.5362392827501
 30
0.0
 11
1031.785843515884
 21
225.5362392827501
 31
0.0
  0
LINE
  5
109A
330
1097
100
AcDbEntity
  8
0
  6
BYBLOCK
 62
     0
100
AcDbLine
 10
1026.785843515884
 20
810.03623928275
 30
0.0
 11
1026.785843515884
 21
233.0362392827501
 31
0.0
  0
INSERT
  5
109B
330
1097
100
AcDbEntity
  8
0
  6
BYBLOCK
 62
     0
100
AcDbBlockReference
  2
ARROW
 10
1026.785843515884
 20
817.5362392827501
 30
0.0
 41
7.5
 42
7.5
 43
7.5
 50
90.0
  0
INSERT
  5
109C
330
1097
100
AcDbEntity
  8
0
  6
BYBLOCK
 62
     0
100
AcDbBlockReference
  2
ARROW
 10
1026.785843515884
 20
225.5362392827501
 30
0.0
 41
7.5
 42
7.5
 43
7.5
 50
270.0
  0
MTEXT
  5
109D
330
1097
100
AcDbEntity
  8
0
  6
BYBLOCK
 62
     0
100
AcDbMText
 10
1018.835843515884
 20
521.5362392827501
 30
0.0
 40
15.0
 41
0.0
 71
     5
 72
     1
  1
\A1;592
 11
0.0000000000000001
 21
1.0
 31
0.0
1001
ACAD
1000
MTEXTBEGIN
1070
    73
1070
     1
1070
    44
1040
1.0
1070
    74
1070
     0
1000
MTEXTEND
  0
POINT
  5
109E
330
1097
100
AcDbEntity
  8
DEFPOINTS
  6
BYBLOCK
 62
     0
100
AcDbPoint
 10
931.2408845957516
 20
817.5362392827501
 30
0.0
  0
POINT
  5
109F
330
1097
100
AcDbEntity
  8
DEFPOINTS
  6
BYBLOCK
 62
     0
100
AcDbPoint
 10
998.5306148756153
 20
225.5362392827501
 30
0.0
  0
POINT
  5
10A0
330
1097
100
AcDbEntity
  8
DEFPOINTS
  6
BYBLOCK
 62
     0
100
AcDbPoint
 10
1026.785843515884
 20
225.5362392827501
 30
0.0
  0
ENDBLK
  5
10A2
330
1097
100
AcDbEntity
  8
0
100
AcDbBlockEnd
  0
BLOCK
  5
10AD
330
10A3
100
AcDbEntity
  8
0
100
AcDbBlockBegin
  2
*D27
 70
     1
 10
0.0
 20
0.0
 30
0.0
  3
*D27
  1

  0
LINE
  5
10A4
330
10A3
100
AcDbEntity
  8
0
  6
BYBLOCK
 62
     0
100
AcDbLine
 10
959.1330894152356
 20
225.5362392827501
 30
0.0
 11
1028.236252290796
 21
225.5362392827501
 31
0.0
  0
LINE
  5
10A5
330
10A3
100
AcDbEntity
  8
0
  6
BYBLOCK
 62
     0
100
AcDbLine
 10
877.1330894152356
 20
847.5362392827502
 30
0.0
 11
1028.236252290796
 21
847.53623928275
 31
0.0
  0
LINE
  5
10A6
330
10A3
100
AcDbEntity
  8
0
  6
BYBLOCK
 62
     0
100
AcDbLine
 10
1023.236252290796
 20
233.0362392827501
 30
0.0
 11
1023.236252290796
 21
840.0362392827501
 31
0.0
  0
INSERT
  5
10A7
330
10A3
100
AcDbEntity
  8
0
  6
BYBLOCK
 62
     0
100
AcDbBlockReference
  2
ARROW
 10
1023.236252290796
 20
225.5362392827501
 30
0.0
 41
7.5
 42
7.5
 43
7.5
 50
270.0
  0
INSERT
  5
10A8
330
10A3
100
AcDbEntity
  8
0
  6
BYBLOCK
 62
     0
100
AcDbBlockReference
  2
ARROW
 10
1023.236252290796
 20
847.53623928275
 30
0.0
 41
7.5
 42
7.5
 43
7.5
 50
90.0
  0
MTEXT
  5
10A9
330
10A3
100
AcDbEntity
  8
0
  6
BYBLOCK
 62
     0
100
AcDbMText
 10
1015.286252290796
 20
536.5362392827501
 30
0.0
 40
15.0
 41
0.0
 71
     5
 72
     1
  1
\A1;622
 11
0.0000000000000001
 21
1.0
 31
0.0
1001
ACAD
1000
MTEXTBEGIN
1070
    73
1070
     1
1070
    44
1040
1.0
1070
    74
1070
     0
1000
MTEXTEND
  0
POINT
  5
10AA
330
10A3
100
AcDbEntity
  8
DEFPOINTS
  6
BYBLOCK
 62
     0
100
AcDbPoint
 10
954.1330894152356
 20
225.5362392827501
 30
0.0
  0
POINT
  5
10AB
330
10A3
100
AcDbEntity
  8
DEFPOINTS
  6
BYBLOCK
 62
     0
100
AcDbPoint
 10
872.1330894152357
 20
847.5362392827502
 30
0.0
  0
POINT
  5
10AC
330
10A3
100
AcDbEntity
  8
DEFPOINTS
  6
BYBLOCK
 62
     0
100
AcDbPoint
 10
1023.236252290796
 20
847.53623928275
 30
0.0
  0
ENDBLK
  5
10AE
330
10A3
100
AcDbEntity
  8
0
100
AcDbBlockEnd
  0
BLOCK
  5
10B9
330
10AF
100
AcDbEntity
  8
0
100
AcDbBlockBegin
  2
*D28
 70
     1
 10
0.0
 20
0.0
 30
0.0
  3
*D28
  1

  0
LINE
  5
10B0
330
10AF
100
AcDbEntity
  8
0
  6
BYBLOCK
 62
     0
100
AcDbLine
 10
762.1330894152356
 20
852.5362392827501
 30
0.0
 11
762.1330894152356
 21
964.4995968958765
 31
0.0
  0
LINE
  5
10B1
330
10AF
100
AcDbEntity
  8
0
  6
BYBLOCK
 62
     0
100
AcDbLine
 10
482.1330894152356
 20
491.5362392827498
 30
0.0
 11
482.1330894152357
 21
964.4995968958765
 31
0.0
  0
LINE
  5
10B2
330
10AF
100
AcDbEntity
  8
0
  6
BYBLOCK
 62
     0
100
AcDbLine
 10
754.6330894152356
 20
959.4995968958764
 30
0.0
 11
489.6330894152357
 21
959.4995968958764
 31
0.0
  0
INSERT
  5
10B3
330
10AF
100
AcDbEntity
  8
0
  6
BYBLOCK
 62
     0
100
AcDbBlockReference
  2
ARROW
 10
762.1330894152356
 20
959.4995968958764
 30
0.0
 41
7.5
 42
7.5
 43
7.5
  0
INSERT
  5
10B4
330
10AF
100
AcDbEntity
  8
0
  6
BYBLOCK
 62
     0
100
AcDbBlockReference
  2
ARROW
 10
482.1330894152357
 20
959.4995968958764
 30
0.0
 41
7.5
 42
7.5
 43
7.5
 50
180.0
  0
MTEXT
  5
10B5
330
10AF
100
AcDbEntity
  8
0
  6
BYBLOCK
 62
     0
100
AcDbMText
 10
622.1330894152356
 20
967.4495968958765
 30
0.0
 40
15.0
 41
0.0
 71
     5
 72
     1
  1
\A1;280
1001
ACAD
1000
MTEXTBEGIN
1070
    73
1070
     1
1070
    44
1040
1.0
1070
    74
1070
     0
1000
MTEXTEND
  0
POINT
  5
10B6
330
10AF
100
AcDbEntity
  8
DEFPOINTS
  6
BYBLOCK
 62
     0
100
AcDbPoint
 10
762.1330894152356
 20
847.5362392827502
 30
0.0
  0
POINT
  5
10B7
330
10AF
100
AcDbEntity
  8
DEFPOINTS
  6
BYBLOCK
 62
     0
100
AcDbPoint
 10
482.1330894152356
 20
486.5362392827498
 30
0.0
  0
POINT
  5
10B8
330
10AF
100
AcDbEntity
  8
DEFPOINTS
  6
BYBLOCK
 62
     0
100
AcDbPoint
 10
482.1330894152357
 20
959.4995968958764
 30
0.0
  0
ENDBLK
  5
10BA
330
10AF
100
AcDbEntity
  8
0
100
AcDbBlockEnd
  0
BLOCK
  5
10C5
330
10BB
100
AcDbEntity
  8
0
100
AcDbBlockBegin
  2
*D29
 70
     1
 10
0.0
 20
0.0
 30
0.0
  3
*D29
  1

  0
LINE
  5
10BC
330
10BB
100
AcDbEntity
  8
0
  6
BYBLOCK
 62
     0
100
AcDbLine
 10
1465.527894292622
 20
291.861877422968
 30
0.0
 11
1465.527894292622
 21
246.0485759204766
 31
0.0
  0
LINE
  5
10BD
330
10BB
100
AcDbEntity
  8
0
  6
BYBLOCK
 62
     0
100
AcDbLine
 10
1071.527894292622
 20
291.861877422968
 30
0.0
 11
1071.527894292622
 21
246.0485759204766
 31
0.0
  0
LINE
  5
10BE
330
10BB
100
AcDbEntity
  8
0
  6
BYBLOCK
 62
     0
100
AcDbLine
 10
1458.027894292622
 20
251.0485759204766
 30
0.0
 11
1079.027894292622
 21
251.0485759204766
 31
0.0
  0
INSERT
  5
10BF
330
10BB
100
AcDbEntity
  8
0
  6
BYBLOCK
 62
     0
100
AcDbBlockReference
  2
ARROW
 10
1465.527894292622
 20
251.0485759204766
 30
0.0
 41
7.5
 42
7.5
 43
7.5
  0
INSERT
  5
10C0
330
10BB
100
AcDbEntity
  8
0
  6
BYBLOCK
 62
     0
100
AcDbBlockReference
  2
ARROW
 10
1071.527894292622
 20
251.0485759204766
 30
0.0
 41
7.5
 42
7.5
 43
7.5
 50
180.0
  0
MTEXT
  5
10C1
330
10BB
100
AcDbEntity
  8
0
  6
BYBLOCK
 62
     0
100
AcDbMText
 10
1268.527894292622
 20
258.9985759204766
 30
0.0
 40
15.0
 41
0.0
 71
     5
 72
     1
  1
\A1;394
1001
ACAD
1000
MTEXTBEGIN
1070
    73
1070
     1
1070
    44
1040
1.0
1070
    74
1070
     0
1000
MTEXTEND
  0
POINT
  5
10C2
330
10BB
100
AcDbEntity
  8
DEFPOINTS
  6
BYBLOCK
 62
     0
100
AcDbPoint
 10
1465.527894292622
 20
296.861877422968
 30
0.0
  0
POINT
  5
10C3
330
10BB
100
AcDbEntity
  8
DEFPOINTS
  6
BYBLOCK
 62
     0
100
AcDbPoint
 10
1071.527894292622
 20
296.861877422968
 30
0.0
  0
POINT
  5
10C4
330
10BB
100
AcDbEntity
  8
DEFPOINTS
  6
BYBLOCK
 62
     0
100
AcDbPoint
 10
1071.527894292622
 20
251.0485759204766
 30
0.0
  0
ENDBLK
  5
10C6
330
10BB
100
AcDbEntity
  8
0
100
AcDbBlockEnd
  0
BLOCK
  5
1117
330
10C7
100
AcDbEntity
  8
0
100
AcDbBlockBegin
  2
A$C1CF813AC
 70
     0
 10
0.0
 20
0.0
 30
0.0
  3
A$C1CF813AC
  1

  0
ARC
  5
10C8
330
10C7
100
AcDbEntity
  8
0
100
AcDbCircle
 10
192.3469463978499
 20
257.9728629100172
 30
0.0
 40
16.8722894428993
100
AcDbArc
 50
229.652749299183
 51
138.9713294597896
  0
ELLIPSE
  5
10C9
330
10C7
100
AcDbEntity
  8
0
100
AcDbEllipse
 10
189.7206176984752
 20
259.8592091957789
 30
0.0
 11
0.9526949154629754
 21
-18.50118220427349
 31
0.0
210
0.0
220
0.0
230
1.0
 40
0.7678641535702465
 41
5.427462728861332
 42
5.594139082400647
  0
ELLIPSE
  5
10CA
330
10C7
100
AcDbEntity
  8
0
100
AcDbEllipse
 10
189.7206176984752
 20
259.8592091957789
 30
0.0
 11
0.9526949154629754
 21
-18.50118220427349
 31
0.0
210
0.0
220
0.0
230
1.0
 40
0.7678641535702465
 41
6.189455079097946
 42
8.636758086860075
  0
LINE
  5
10CB
330
10C7
100
AcDbEntity
  8
0
100
AcDbLine
 10
189.892944363346
 20
274.665736391225
 30
0.0
 11
179.618808493853
 21
269.0484512258473
 31
0.0
  0
LINE
  5
10CC
330
10C7
100
AcDbEntity
  8
0
100
AcDbLine
 10
189.892944363346
 20
241.2799894288086
 30
0.0
 11
189.7730484177573
 21
241.3487956105256
 31
0.0
  0
LINE
  5
10CD
330
10C7
100
AcDbEntity
  8
0
100
AcDbLine
 10
182.618808493853
 20
270.6886724288948
 30
0.0
 11
182.618808493853
 21
247.1761359260813
 31
0.0
  0
LINE
  5
10CE
330
10C7
100
AcDbEntity
  8
0
100
AcDbLine
 10
179.618808493853
 20
269.0484512258473
 30
0.0
 11
179.618808493853
 21
247.1761359260813
 31
0.0
  0
LINE
  5
10CF
330
10C7
100
AcDbEntity
  8
0
100
AcDbLine
 10
189.892944363346
 20
274.665736391225
 30
0.0
 11
189.892944363346
 21
243.0016368468011
 31
0.0
  0
LINE
  5
10D0
330
10C7
100
AcDbEntity
  8
0
100
AcDbLine
 10
189.892944363346
 20
243.001636846801
 30
0.0
 11
182.618808493853
 21
247.1761359260813
 31
0.0
  0
LINE
  5
10D1
330
10C7
100
AcDbEntity
  8
0
100
AcDbLine
 10
182.618808493853
 20
247.1761359260813
 30
0.0
 11
179.6188084938528
 21
247.1761359260813
 31
0.0
  0
LINE
  5
10D2
330
10C7
100
AcDbEntity
  8
0
100
AcDbLine
 10
189.892944363346
 20
243.001636846801
 30
0.0
 11
186.8929443633458
 21
243.001636846801
 31
0.0
  0
LINE
  5
10D3
330
10C7
100
AcDbEntity
  8
0
100
AcDbLine
 10
186.8929443633467
 20
243.001636846801
 30
0.0
 11
179.618808493853
 21
247.1761359260813
 31
0.0
  0
LINE
  5
10D4
330
10C7
100
AcDbEntity
  8
0
100
AcDbLine
 10
189.892944363346
 20
241.3457478608846
 30
0.0
 11
189.892944363346
 21
241.2799894288086
 31
0.0
  0
DIMENSION
  5
10D5
330
10C7
100
AcDbEntity
  8
SUNPOU
100
AcDbDimension
  2
*D29
 10
83.0000018771634
 20
4.999998163678355
 30
0.0
 11
280.0000018771634
 21
12.94999816367834
 31
0.0
 12
-988.527892415459
 22
-246.0485777567983
 32
0.0
  3
IMAO
100
AcDbAlignedDimension
 13
477.0000018771634
 23
50.81329966616976
 33
0.0
 14
83.0000018771634
 24
50.81329966616976
 34
0.0
100
AcDbRotatedDimension
1001
ACAD
1000
DSTYLE
1002
{
1070
   287
1070
     3
1070
    40
1040
5.0
1070
   271
1070
     4
1070
   272
1070
     4
1070
   279
1070
     0
1070
   284
1070
     0
1070
   285
1070
     0
1070
   286
1070
     0
1070
   340
1005
D7
1070
     6
1000
ARROW
1070
     7
1000
ARROW
1002
}
  0
DIMENSION
  5
10D6
330
10C7
100
AcDbEntity
  8
SUNPOU
100
AcDbDimension
  2
*D28
 10
0.0000018771634132
 20
764.7766572792961
 30
0.0
 11
140.0000018771634
 21
772.7266572792962
 31
0.0
 12
-482.1330875380722
 22
-194.7229396165803
 32
0.0
  3
IMAO
100
AcDbAlignedDimension
 13
280.0000018771634
 23
652.8132996661699
 33
0.0
 14
0.0000018771634132
 24
291.8132996661695
 34
0.0
100
AcDbRotatedDimension
1001
ACAD
1000
DSTYLE
1002
{
1070
   287
1070
     3
1070
    40
1040
5.0
1070
   271
1070
     4
1070
   272
1070
     4
1070
   279
1070
     0
1070
   284
1070
     0
1070
   285
1070
     0
1070
   286
1070
     0
1070
   340
1005
D7
1070
     6
1000
ARROW
1070
     7
1000
ARROW
1002
}
  0
DIMENSION
  5
10D7
330
10C7
100
AcDbEntity
  8
SUNPOU
100
AcDbDimension
  2
*D27
 10
541.1031647527238
 20
652.8132996661697
 30
0.0
 11
533.1531647527238
 21
341.8132996661697
 31
0.0
 12
-482.1330875380722
 22
-194.7229396165803
 32
0.0
  3
IMAO
100
AcDbAlignedDimension
 13
472.0000018771634
 23
30.81329966616976
 33
0.0
 14
390.0000018771634
 24
652.8132996661699
 34
0.0
 50
90.0
100
AcDbRotatedDimension
1001
ACAD
1000
DSTYLE
1002
{
1070
   287
1070
     3
1070
    40
1040
5.0
1070
   271
1070
     4
1070
   272
1070
     4
1070
   279
1070
     0
1070
   284
1070
     0
1070
   285
1070
     0
1070
   286
1070
     0
1070
   340
1005
D7
1070
     6
1000
ARROW
1070
     7
1000
ARROW
1002
}
  0
DIMENSION
  5
10D8
330
10C7
100
AcDbEntity
  8
SUNPOU
100
AcDbDimension
  2
*D26
 10
500.2552305174321
 20
30.81329966616976
 30
0.0
 11
492.3052305174321
 21
326.8132996661697
 31
0.0
 12
-526.5306129984519
 22
-194.7229396165803
 32
0.0
  3
IMAO
100
AcDbAlignedDimension
 13
404.7102715972996
 23
622.8132996661697
 33
0.0
 14
472.0000018771634
 24
30.81329966616976
 34
0.0
 50
90.0
100
AcDbRotatedDimension
1001
ACAD
1000
DSTYLE
1002
{
1070
   287
1070
     3
1070
    40
1040
5.0
1070
   271
1070
     4
1070
   272
1070
     4
1070
   279
1070
     0
1070
   284
1070
     0
1070
   285
1070
     0
1070
   286
1070
     0
1070
   340
1005
D7
1070
     6
1000
ARROW
1070
     7
1000
ARROW
1002
}
  0
DIMENSION
  5
10D9
330
10C7
100
AcDbEntity
  8
SUNPOU
100
AcDbDimension
  2
*D25
 10
413.204950956404
 20
30.81329966616976
 30
0.0
 11
405.2549509564039
 21
40.81329966616976
 31
0.0
 12
-526.5306129984519
 22
-194.7229396165803
 32
0.0
  3
IMAO
100
AcDbAlignedDimension
 13
452.0000018771634
 23
50.81329966616976
 33
0.0
 14
452.0000018771634
 24
30.81329966616976
 34
0.0
 50
90.0
100
AcDbRotatedDimension
1001
ACAD
1000
DSTYLE
1002
{
1070
   287
1070
     3
1070
    40
1040
5.0
1070
   271
1070
     4
1070
   272
1070
     4
1070
   279
1070
     0
1070
   284
1070
     0
1070
   285
1070
     0
1070
   286
1070
     0
1070
   340
1005
D7
1070
     6
1000
ARROW
1070
     7
1000
ARROW
1002
}
  0
DIMENSION
  5
10DA
330
10C7
100
AcDbEntity
  8
SUNPOU
100
AcDbDimension
  2
*D24
 10
35.73293597655083
 20
30.81329966616976
 30
0.0
 11
27.78293597655078
 21
125.8132996661697
 31
0.0
 12
-526.5306129984519
 22
-194.7229396165803
 32
0.0
  3
IMAO
100
AcDbAlignedDimension
 13
83.0000018771634
 23
220.8132996661697
 33
0.0
 14
88.0000018771634
 24
30.81329966616976
 34
0.0
 50
90.0
100
AcDbRotatedDimension
1001
ACAD
1000
DSTYLE
1002
{
1070
   287
1070
     3
1070
    40
1040
5.0
1070
   271
1070
     4
1070
   272
1070
     4
1070
   279
1070
     0
1070
   284
1070
     0
1070
   285
1070
     0
1070
   286
1070
     0
1070
   340
1005
D7
1070
     6
1000
ARROW
1070
     7
1000
ARROW
1002
}
  0
CIRCLE
  5
10DB
330
10C7
100
AcDbEntity
  8
0
100
AcDbCircle
 10
65.81085406246074
 20
495.7382457681896
 30
0.0
 40
5.793029950987429
  0
ARC
  5
10DC
330
10C7
100
AcDbEntity
  8
0
100
AcDbCircle
 10
66.54981683197275
 20
497.0937444589737
 30
0.0
 40
9.0
100
AcDbArc
 50
359.9999999999985
 51
90.00000000000072
  0
ARC
  5
10DD
330
10C7
100
AcDbEntity
  8
0
100
AcDbCircle
 10
65.54981683197275
 20
496.0937444589736
 30
0.0
 40
10.0
100
AcDbArc
 50
89.99999999999934
 51
180.0
  0
LINE
  5
10DE
330
10C7
100
AcDbEntity
  8
0
100
AcDbLine
 10
65.54981683197275
 20
506.0937444589735
 30
0.0
 11
66.54981683197275
 21
506.0937444589735
 31
0.0
  0
LINE
  5
10DF
330
10C7
100
AcDbEntity
  8
0
100
AcDbLine
 10
55.54981683197275
 20
496.0937444589736
 30
0.0
 11
55.54981683197275
 21
421.9815969910015
 31
0.0
  0
LINE
  5
10E0
330
10C7
100
AcDbEntity
  8
0
100
AcDbLine
 10
75.54981683197275
 20
497.0937444589735
 30
0.0
 11
75.54981683197275
 21
431.8146702607434
 31
0.0
  0
LINE
  5
10E1
330
10C7
100
AcDbEntity
  8
0
100
AcDbLine
 10
93.0000018771634
 20
478.8132996661698
 30
0.0
 11
93.0000018771634
 21
448.8132996661699
 31
0.0
  0
LINE
  5
10E2
330
10C7
100
AcDbEntity
  8
0
100
AcDbLine
 10
143.0000018771636
 20
478.8132996661696
 30
0.0
 11
83.0000018771634
 21
478.8132996661698
 31
0.0
  0
LINE
  5
10E3
330
10C7
100
AcDbEntity
  8
0
100
AcDbLine
 10
23.00000187716341
 20
448.8132996661697
 30
0.0
 11
54.95499785421316
 21
411.9990981908111
 31
0.0
  0
LINE
  5
10E4
330
10C7
100
AcDbEntity
  8
0
100
AcDbLine
 10
30.00000187716341
 20
448.8132996661696
 30
0.0
 11
59.93886680462674
 21
417.3723391900742
 31
0.0
  0
LINE
  5
10E5
330
10C7
100
AcDbEntity
  8
0
100
AcDbLine
 10
23.00000187716341
 20
541.0937444589735
 30
0.0
 11
30.00000187716341
 21
541.0937444589735
 31
0.0
  0
LINE
  5
10E6
330
10C7
100
AcDbEntity
  8
0
100
AcDbLine
 10
23.00000187716341
 20
541.0937444589735
 30
0.0
 11
23.00000187716341
 21
448.8132996661697
 31
0.0
  0
LINE
  5
10E7
330
10C7
100
AcDbEntity
  8
0
100
AcDbLine
 10
30.00000187716341
 20
541.0937444589735
 30
0.0
 11
30.00000187716341
 21
448.8132996661697
 31
0.0
  0
CIRCLE
  5
10E8
330
10C7
100
AcDbEntity
  8
0
100
AcDbCircle
 10
236.726926738941
 20
255.6479606377633
 30
0.0
 40
10.0
  0
ELLIPSE
  5
10E9
330
10C7
100
AcDbEntity
  8
TENSEN
100
AcDbEllipse
 10
143.0000018771647
 20
220.8133774913511
 30
0.0
 11
-0.0000000000013642
 21
22.99992217481861
 31
0.0
210
0.0
220
0.0
230
1.0
 40
0.9130324137956908
 41
7.143534577975087
 42
8.564437617186886
  0
ELLIPSE
  5
10EA
330
10C7
100
AcDbEntity
  8
TENSEN
100
AcDbEllipse
 10
143.0000018771647
 20
220.8133774913511
 30
0.0
 11
-0.0000000000013642
 21
22.99992217481861
 31
0.0
210
0.0
220
0.0
230
1.0
 40
0.9130324137956908
 41
9.339239407932685
 42
9.424777960769379
  0
ELLIPSE
  5
10EB
330
10C7
100
AcDbEntity
  8
TENSEN
100
AcDbEllipse
 10
143.0000018771647
 20
220.8133774913511
 30
0.0
 11
-0.0000000000013642
 21
22.99992217481861
 31
0.0
210
0.0
220
0.0
230
1.0
 40
0.9130324137956908
 41
6.28312805952093
 42
6.285968948738251
  0
ELLIPSE
  5
10EC
330
10C7
100
AcDbEntity
  8
HOJO
100
AcDbEllipse
 10
143.0000018771647
 20
220.8133774913511
 30
0.0
 11
-0.0000000000013642
 21
22.99992217481861
 31
0.0
210
0.0
220
0.0
230
1.0
 40
0.9130324137956908
 41
4.653824270326261
 42
4.72990816217672
  0
ELLIPSE
  5
10ED
330
10C7
100
AcDbEntity
  8
TENSEN
100
AcDbEllipse
 10
143.0000018771634
 20
220.8132996661697
 30
0.0
 11
0.0
 21
-15.0
 31
0.0
210
0.0
220
0.0
230
1.0
 40
0.8666666666666667
 41
3.141592653589793
 42
6.283185307179586
  0
LINE
  5
10EE
330
10C7
100
AcDbEntity
  8
ITTEN
100
AcDbLine
 10
143.0000018771661
 20
175.8132996661697
 30
0.0
 11
143.0000018771661
 21
256.8131440158067
 31
0.0
  0
LINE
  5
10EF
330
10C7
100
AcDbEntity
  8
0
100
AcDbLine
 10
96.54436149967843
 20
205.8132996661697
 30
0.0
 11
143.0000018771661
 21
205.8132996661697
 31
0.0
  0
LINE
  5
10F0
330
10C7
100
AcDbEntity
  8
0
100
AcDbLine
 10
96.54436149967843
 20
235.8132996661697
 30
0.0
 11
143.0000018771634
 21
235.8132996661697
 31
0.0
  0
CIRCLE
  5
10F1
330
10C7
100
AcDbEntity
  8
0
100
AcDbCircle
 10
99.31285937232951
 20
220.8132996661697
 30
0.0
 40
12.25334653349466
  0
CIRCLE
  5
10F2
330
10C7
100
AcDbEntity
  8
0
100
AcDbCircle
 10
99.31285937232951
 20
220.8132996661697
 30
0.0
 40
15.25334653349466
  0
SPLINE
  5
10F3
330
10C7
100
AcDbEntity
  8
0
100
AcDbSpline
210
0.0
220
0.0
230
1.0
 70
     8
 71
     3
 72
    45
 73
    41
 74
     0
 42
0.0000000001
 43
0.0000000001
 40
2.306227421583527
 40
2.306227421583527
 40
2.306227421583527
 40
2.306227421583527
 40
2.363915844809297
 40
2.363915844809297
 40
2.682176616171325
 40
2.682176616171325
 40
2.9314237568572
 40
2.9314237568572
 40
3.180670897543074
 40
3.180670897543074
 40
3.429918038228949
 40
3.429918038228949
 40
3.679165178914823
 40
3.679165178914823
 40
3.928412319600698
 40
3.928412319600698
 40
4.177659460286572
 40
4.177659460286572
 40
4.426906600972446
 40
4.426906600972446
 40
4.855016457756462
 40
4.855016457756462
 40
5.283126314540479
 40
5.283126314540479
 40
5.58190875506254
 40
5.58190875506254
 40
5.880691195584602
 40
5.880691195584602
 40
6.127556924218256
 40
6.127556924218256
 40
6.283185307179586
 40
6.283185307179586
 40
6.283185307179586
 40
6.449659678172341
 40
6.449659678172341
 40
6.701098328328999
 40
6.701098328328999
 40
6.952536978485658
 40
6.952536978485658
 40
7.118549623311436
 40
7.118549623311436
 40
7.118549623311436
 40
7.118549623311436
 10
127.0646819095873
 20
205.8132996661697
 30
0.0
 10
127.3249613285379
 20
205.4812847240739
 30
0.0
 10
127.5946654351782
 20
205.1565059771032
 30
0.0
 10
129.4125660039658
 20
203.0910731164326
 30
0.0
 10
131.2349233699451
 20
201.5822949161454
 30
0.0
 10
134.8628680251138
 20
199.5113454794827
 30
0.0
 10
136.5854390367353
 20
198.8159010652356
 30
0.0
 10
140.1662497257973
 20
197.9345298785804
 30
0.0
 10
142.023434925147
 20
197.749646265349
 30
0.0
 10
145.7134231637578
 20
197.9161136202712
 30
0.0
 10
147.5446322785042
 20
198.2672319371789
 30
0.0
 10
151.0289436208474
 20
199.4596301060273
 30
0.0
 10
152.6813812252066
 20
200.2996980348362
 30
0.0
 10
155.6995589632379
 20
202.3757447648263
 30
0.0
 10
157.0656735735001
 20
203.6107971621324
 30
0.0
 10
159.4509768343689
 20
206.3709060259366
 30
0.0
 10
160.4707452408058
 20
207.8957010601418
 30
0.0
 10
162.1340411698035
 20
211.1359963597197
 30
0.0
 10
162.7779162586934
 20
212.8515679376578
 30
0.0
 10
163.9982111038068
 20
217.6489617976167
 30
0.0
 10
164.193263371086
 20
220.8278764209156
 30
0.0
 10
163.4202423190167
 20
227.0390987633975
 30
0.0
 10
162.4512581256042
 20
230.0731947138657
 30
0.0
 10
159.868748852908
 20
234.7145891131787
 30
0.0
 10
158.5383528174438
 20
236.4756583198825
 30
0.0
 10
155.4027113938555
 20
239.5310017513456
 30
0.0
 10
153.5960364855063
 20
240.8241048081559
 30
0.0
 10
149.9865083809099
 20
242.5972283169237
 30
0.0
 10
148.2384869508832
 20
243.1784906545406
 30
0.0
 10
145.3064150872196
 20
243.7092987103681
 30
0.0
 10
144.1532480996204
 20
243.8132996661697
 30
0.0
 10
143.0000018771634
 20
243.8132996661697
 30
0.0
 10
141.7663841023709
 20
243.8132996661697
 30
0.0
 10
140.5328769593775
 20
243.6942245042802
 30
0.0
 10
137.495960293606
 20
243.1054265627271
 30
0.0
 10
135.7244871966768
 20
242.4869270858148
 30
0.0
 10
132.4270965540502
 20
240.7973757201142
 30
0.0
 10
130.9012176321082
 20
239.7275626401815
 30
0.0
 10
128.641299531429
 20
237.6644326796431
 30
0.0
 10
127.8141022683103
 20
236.7688663206005
 30
0.0
 10
127.0647234680059
 20
235.8132996661697
 30
0.0
  0
ELLIPSE
  5
10F4
330
10C7
100
AcDbEntity
  8
0
100
AcDbEllipse
 10
143.0000018771634
 20
220.8132996661697
 30
0.0
 11
0.0
 21
15.0
 31
0.0
210
0.0
220
0.0
230
1.0
 40
0.8666666666666667
 41
3.141592653589793
 42
6.283185307179586
  0
LINE
  5
10F5
330
10C7
100
AcDbEntity
  8
ITTEN
100
AcDbLine
 10
163.999607610026
 20
220.8132996661697
 30
0.0
 11
83.0000018771634
 21
220.8132996661697
 31
0.0
  0
LINE
  5
10F6
330
10C7
100
AcDbEntity
  8
0
100
AcDbLine
 10
330.0000018771634
 20
566.8132996661695
 30
0.0
 11
330.0000018771634
 21
556.8132996661696
 31
0.0
  0
LINE
  5
10F7
330
10C7
100
AcDbEntity
  8
0
100
AcDbLine
 10
230.0000018771634
 20
566.8132996661698
 30
0.0
 11
230.0000018771634
 21
556.8132996661697
 31
0.0
  0
LINE
  5
10F8
330
10C7
100
AcDbEntity
  8
0
100
AcDbLine
 10
210.0000018771634
 20
556.8132996661695
 30
0.0
 11
350.0000018771634
 21
556.8132996661696
 31
0.0
  0
LINE
  5
10F9
330
10C7
100
AcDbEntity
  8
0
100
AcDbLine
 10
210.0000018771634
 20
566.8132996661695
 30
0.0
 11
350.0000018771634
 21
566.8132996661696
 31
0.0
  0
LINE
  5
10FA
330
10C7
100
AcDbEntity
  8
0
100
AcDbLine
 10
210.0000018771634
 20
566.8132996661696
 30
0.0
 11
210.0000018771634
 21
556.8132996661696
 31
0.0
  0
LINE
  5
10FB
330
10C7
100
AcDbEntity
  8
0
100
AcDbLine
 10
350.0000018771634
 20
566.8132996661695
 30
0.0
 11
350.0000018771634
 21
556.8132996661696
 31
0.0
  0
LINE
  5
10FC
330
10C7
100
AcDbEntity
  8
0
100
AcDbLine
 10
477.0000018771634
 20
556.8132996661697
 30
0.0
 11
478.0000018771634
 21
556.8132996661697
 31
0.0
  0
LINE
  5
10FD
330
10C7
100
AcDbEntity
  8
0
100
AcDbLine
 10
477.0000018771634
 20
566.8132996661698
 30
0.0
 11
478.0000018771634
 21
566.8132996661698
 31
0.0
  0
LINE
  5
10FE
330
10C7
100
AcDbEntity
  8
0
100
AcDbLine
 10
83.0000018771634
 20
278.8132996661697
 30
0.0
 11
83.0000018771634
 21
50.81329966616976
 31
0.0
  0
ELLIPSE
  5
10FF
330
10C7
100
AcDbEntity
  8
0
100
AcDbEllipse
 10
143.0000018771634
 20
278.8132996661696
 30
0.0
 11
43.5789474985018
 21
183.1877272720695
 31
0.0
210
0.0
220
0.0
230
1.0
 40
0.7592767636575945
 41
0.5983486202072808
 42
1.67960336799759
  0
LINE
  5
1100
330
10C7
100
AcDbEntity
  8
0
100
AcDbLine
 10
143.0000018771634
 20
448.8132996661696
 30
0.0
 11
93.0000018771634
 21
448.8132996661697
 31
0.0
  0
LINE
  5
1101
330
10C7
100
AcDbEntity
  8
0
100
AcDbLine
 10
143.0000018771634
 20
278.8132996661696
 30
0.0
 11
0.0000018771634132
 21
278.8132996661697
 31
0.0
  0
LINE
  5
1102
330
10C7
100
AcDbEntity
  8
0
100
AcDbLine
 10
143.0000018771634
 20
580.8132996661696
 30
0.0
 11
143.0000018771634
 21
278.8132996661696
 31
0.0
  0
LINE
  5
1103
330
10C7
100
AcDbEntity
  8
0
100
AcDbLine
 10
0.0000018771634132
 20
278.8132996661697
 30
0.0
 11
0.0000018771634132
 21
291.8132996661698
 31
0.0
  0
LINE
  5
1104
330
10C7
100
AcDbEntity
  8
0
100
AcDbLine
 10
477.0000018771634
 20
291.8132996661697
 30
0.0
 11
477.0000018771634
 21
580.8132996661697
 31
0.0
  0
LINE
  5
1105
330
10C7
100
AcDbEntity
  8
0
100
AcDbLine
 10
472.0000018771634
 20
285.8132996661698
 30
0.0
 11
472.0000018771634
 21
291.8132996661698
 31
0.0
  0
LINE
  5
1106
330
10C7
100
AcDbEntity
  8
0
100
AcDbLine
 10
477.0000018771634
 20
291.8132996661697
 30
0.0
 11
143.0000018771634
 21
291.8132996661697
 31
0.0
  0
LINE
  5
1107
330
10C7
100
AcDbEntity
  8
0
100
AcDbLine
 10
477.0000018771634
 20
285.8132996661698
 30
0.0
 11
143.0000018771634
 21
285.8132996661698
 31
0.0
  0
LINE
  5
1108
330
10C7
100
AcDbEntity
  8
0
100
AcDbLine
 10
83.0000018771634
 20
580.8132996661696
 30
0.0
 11
83.0000018771634
 21
478.8132996661698
 31
0.0
  0
LINE
  5
1109
330
10C7
100
AcDbEntity
  8
0
100
AcDbLine
 10
477.0000018771634
 20
50.81329966616976
 30
0.0
 11
477.0000018771634
 21
285.8132996661698
 31
0.0
  0
LINE
  5
110A
330
10C7
100
AcDbEntity
  8
0
100
AcDbLine
 10
452.0000018771634
 20
30.81329966616976
 30
0.0
 11
472.0000018771634
 21
30.81329966616976
 31
0.0
  0
LINE
  5
110B
330
10C7
100
AcDbEntity
  8
0
100
AcDbLine
 10
270.0000018771634
 20
30.81329966616976
 30
0.0
 11
290.0000018771634
 21
30.81329966616976
 31
0.0
  0
LINE
  5
110C
330
10C7
100
AcDbEntity
  8
0
100
AcDbLine
 10
88.0000018771634
 20
30.81329966616976
 30
0.0
 11
108.0000018771634
 21
30.81329966616976
 31
0.0
  0
LINE
  5
110D
330
10C7
100
AcDbEntity
  8
0
100
AcDbLine
 10
472.0000018771634
 20
30.81329966616976
 30
0.0
 11
472.0000018771634
 21
50.81329966616976
 31
0.0
  0
LINE
  5
110E
330
10C7
100
AcDbEntity
  8
0
100
AcDbLine
 10
452.0000018771634
 20
30.81329966616976
 30
0.0
 11
452.0000018771634
 21
50.81329966616976
 31
0.0
  0
LINE
  5
110F
330
10C7
100
AcDbEntity
  8
0
100
AcDbLine
 10
108.0000018771634
 20
30.81329966616976
 30
0.0
 11
108.0000018771634
 21
50.81329966616976
 31
0.0
  0
LINE
  5
1110
330
10C7
100
AcDbEntity
  8
0
100
AcDbLine
 10
88.0000018771634
 20
30.81329966616976
 30
0.0
 11
88.0000018771634
 21
50.81329966616976
 31
0.0
  0
LINE
  5
1111
330
10C7
100
AcDbEntity
  8
0
100
AcDbLine
 10
472.0000018771634
 20
30.81329966616976
 30
0.0
 11
472.0000018771634
 21
50.81329966616976
 31
0.0
  0
LINE
  5
1112
330
10C7
100
AcDbEntity
  8
0
100
AcDbLine
 10
88.0000018771634
 20
30.81329966616976
 30
0.0
 11
88.0000018771634
 21
50.81329966616976
 31
0.0
  0
LINE
  5
1113
330
10C7
100
AcDbEntity
  8
0
100
AcDbLine
 10
270.0000018771634
 20
30.81329966616976
 30
0.0
 11
270.0000018771634
 21
50.81329966616976
 31
0.0
  0
LINE
  5
1114
330
10C7
100
AcDbEntity
  8
0
100
AcDbLine
 10
290.0000018771634
 20
30.81329966616976
 30
0.0
 11
290.0000018771634
 21
50.81329966616976
 31
0.0
  0
LINE
  5
1115
330
10C7
100
AcDbEntity
  8
0
100
AcDbLine
 10
477.0000018771634
 20
50.81329966616976
 30
0.0
 11
83.0000018771634
 21
50.81329966616976
 31
0.0
  0
LINE
  5
1116
330
10C7
100
AcDbEntity
  8
ITTEN
100
AcDbLine
 10
280.0000018771634
 20
652.8132996661699
 30
0.0
 11
280.0000018771634
 21
30.81329966616976
 31
0.0
  0
ENDBLK
  5
1118
330
10C7
100
AcDbEntity
  8
0
100
AcDbBlockEnd
  0
BLOCK
  5
11D3
330
11CE
100
AcDbEntity
  8
0
100
AcDbBlockBegin
  2
A$C32897E33
 70
     0
 10
0.0
 20
0.0
 30
0.0
  3
A$C32897E33
  1

  0
LINE
  5
11CF
330
11CE
100
AcDbEntity
  8
0
100
AcDbLine
 10
59.40018746863188
 20
0.2533480211259302
 30
0.0
 11
12.94454709114416
 21
0.2533480211259302
 31
0.0
  0
LINE
  5
11D0
330
11CE
100
AcDbEntity
  8
0
100
AcDbLine
 10
59.40018746863188
 20
30.25334802112593
 30
0.0
 11
12.94454709114688
 21
30.25334802112593
 31
0.0
  0
ELLIPSE
  5
11D1
330
11CE
100
AcDbEntity
  8
0
100
AcDbEllipse
 10
12.94454709114688
 20
15.25334802112593
 30
0.0
 11
0.0
 21
15.0
 31
0.0
210
0.0
220
0.0
230
-1.0
 40
0.8666666666666667
 41
3.141592653589793
 42
6.283185307179586
  0
CIRCLE
  5
11D2
330
11CE
100
AcDbEntity
  8
0
100
AcDbCircle
 10
56.63168959598078
 20
15.25334802112593
 30
0.0
 40
15.25334653349466
  0
ENDBLK
  5
11D4
330
11CE
100
AcDbEntity
  8
0
100
AcDbBlockEnd
  0
BLOCK
  5
121F
330
1215
100
AcDbEntity
  8
0
100
AcDbBlockBegin
  2
*D32
 70
     1
 10
0.0
 20
0.0
 30
0.0
  3
*D32
  1

  0
LINE
  5
1216
330
1215
100
AcDbEntity
  8
0
  6
BYBLOCK
 62
     0
100
AcDbLine
 10
604.5306148756154
 20
415.5362392827501
 30
0.0
 11
557.2635489750028
 21
415.5362392827501
 31
0.0
  0
LINE
  5
1217
330
1215
100
AcDbEntity
  8
0
  6
BYBLOCK
 62
     0
100
AcDbLine
 10
609.5306148756153
 20
225.5362392827501
 30
0.0
 11
557.2635489750028
 21
225.5362392827501
 31
0.0
  0
LINE
  5
1218
330
1215
100
AcDbEntity
  8
0
  6
BYBLOCK
 62
     0
100
AcDbLine
 10
562.2635489750027
 20
408.0362392827501
 30
0.0
 11
562.2635489750027
 21
233.0362392827501
 31
0.0
  0
INSERT
  5
1219
330
1215
100
AcDbEntity
  8
0
  6
BYBLOCK
 62
     0
100
AcDbBlockReference
  2
ARROW
 10
562.2635489750027
 20
415.5362392827501
 30
0.0
 41
7.5
 42
7.5
 43
7.5
 50
90.0
  0
INSERT
  5
121A
330
1215
100
AcDbEntity
  8
0
  6
BYBLOCK
 62
     0
100
AcDbBlockReference
  2
ARROW
 10
562.2635489750027
 20
225.5362392827501
 30
0.0
 41
7.5
 42
7.5
 43
7.5
 50
270.0
  0
MTEXT
  5
121B
330
1215
100
AcDbEntity
  8
0
  6
BYBLOCK
 62
     0
100
AcDbMText
 10
554.3135489750027
 20
320.5362392827501
 30
0.0
 40
15.0
 41
0.0
 71
     5
 72
     1
  1
\A1;190
 11
0.0000000000000001
 21
1.0
 31
0.0
1001
ACAD
1000
MTEXTBEGIN
1070
    73
1070
     1
1070
    44
1040
1.0
1070
    74
1070
     0
1000
MTEXTEND
  0
POINT
  5
121C
330
1215
100
AcDbEntity
  8
DEFPOINTS
  6
BYBLOCK
 62
     0
100
AcDbPoint
 10
609.5306148756153
 20
415.5362392827501
 30
0.0
  0
POINT
  5
121D
330
1215
100
AcDbEntity
  8
DEFPOINTS
  6
BYBLOCK
 62
     0
100
AcDbPoint
 10
614.5306148756153
 20
225.5362392827501
 30
0.0
  0
POINT
  5
121E
330
1215
100
AcDbEntity
  8
DEFPOINTS
  6
BYBLOCK
 62
     0
100
AcDbPoint
 10
562.2635489750027
 20
225.5362392827501
 30
0.0
  0
ENDBLK
  5
1220
330
1215
100
AcDbEntity
  8
0
100
AcDbBlockEnd
  0
BLOCK
  5
122D
330
1221
100
AcDbEntity
  8
0
100
AcDbBlockBegin
  2
*D33
 70
     1
 10
0.0
 20
0.0
 30
0.0
  3
*D33
  1

  0
LINE
  5
1222
330
1221
100
AcDbEntity
  8
0
  6
BYBLOCK
 62
     0
100
AcDbLine
 10
973.5306148756153
 20
245.5362392827501
 30
0.0
 11
934.735563954856
 21
245.5362392827501
 31
0.0
  0
LINE
  5
1223
330
1221
100
AcDbEntity
  8
0
  6
BYBLOCK
 62
     0
100
AcDbLine
 10
973.5306148756153
 20
225.5362392827501
 30
0.0
 11
934.735563954856
 21
225.5362392827501
 31
0.0
  0
LINE
  5
1224
330
1221
100
AcDbEntity
  8
0
  6
BYBLOCK
 62
     0
100
AcDbLine
 10
939.7355639548559
 20
253.03623928275
 30
0.0
 11
939.7355639548559
 21
260.5362392827501
 31
0.0
  0
LINE
  5
1225
330
1221
100
AcDbEntity
  8
0
  6
BYBLOCK
 62
     0
100
AcDbLine
 10
939.7355639548559
 20
218.03623928275
 30
0.0
 11
939.7355639548559
 21
210.5362392827501
 31
0.0
  0
LINE
  5
1226
330
1221
100
AcDbEntity
  8
0
  6
BYBLOCK
 62
     0
100
AcDbLine
 10
939.7355639548559
 20
245.5362392827501
 30
0.0
 11
939.7355639548559
 21
225.5362392827501
 31
0.0
  0
INSERT
  5
1227
330
1221
100
AcDbEntity
  8
0
  6
BYBLOCK
 62
     0
100
AcDbBlockReference
  2
ARROW
 10
939.7355639548559
 20
245.5362392827501
 30
0.0
 41
7.5
 42
7.5
 43
7.5
 50
270.0
  0
INSERT
  5
1228
330
1221
100
AcDbEntity
  8
0
  6
BYBLOCK
 62
     0
100
AcDbBlockReference
  2
ARROW
 10
939.7355639548559
 20
225.5362392827501
 30
0.0
 41
7.5
 42
7.5
 43
7.5
 50
90.0
  0
MTEXT
  5
1229
330
1221
100
AcDbEntity
  8
0
  6
BYBLOCK
 62
     0
100
AcDbMText
 10
931.7855639548559
 20
235.5362392827501
 30
0.0
 40
15.0
 41
0.0
 71
     5
 72
     1
  1
\A1;20
 11
0.0000000000000001
 21
1.0
 31
0.0
1001
ACAD
1000
MTEXTBEGIN
1070
    73
1070
     1
1070
    44
1040
1.0
1070
    74
1070
     0
1000
MTEXTEND
  0
POINT
  5
122A
330
1221
100
AcDbEntity
  8
DEFPOINTS
  6
BYBLOCK
 62
     0
100
AcDbPoint
 10
978.5306148756154
 20
245.5362392827501
 30
0.0
  0
POINT
  5
122B
330
1221
100
AcDbEntity
  8
DEFPOINTS
  6
BYBLOCK
 62
     0
100
AcDbPoint
 10
978.5306148756154
 20
225.5362392827501
 30
0.0
  0
POINT
  5
122C
330
1221
100
AcDbEntity
  8
DEFPOINTS
  6
BYBLOCK
 62
     0
100
AcDbPoint
 10
939.7355639548559
 20
225.5362392827501
 30
0.0
  0
ENDBLK
  5
122E
330
1221
100
AcDbEntity
  8
0
100
AcDbBlockEnd
  0
BLOCK
  5
1239
330
122F
100
AcDbEntity
  8
0
100
AcDbBlockBegin
  2
*D34
 70
     1
 10
0.0
 20
0.0
 30
0.0
  3
*D34
  1

  0
LINE
  5
1230
330
122F
100
AcDbEntity
  8
0
  6
BYBLOCK
 62
     0
100
AcDbLine
 10
936.2408845957515
 20
817.5362392827501
 30
0.0
 11
1031.785843515884
 21
817.5362392827501
 31
0.0
  0
LINE
  5
1231
330
122F
100
AcDbEntity
  8
0
  6
BYBLOCK
 62
     0
100
AcDbLine
 10
1003.530614875615
 20
225.5362392827501
 30
0.0
 11
1031.785843515884
 21
225.5362392827501
 31
0.0
  0
LINE
  5
1232
330
122F
100
AcDbEntity
  8
0
  6
BYBLOCK
 62
     0
100
AcDbLine
 10
1026.785843515884
 20
810.03623928275
 30
0.0
 11
1026.785843515884
 21
233.0362392827501
 31
0.0
  0
INSERT
  5
1233
330
122F
100
AcDbEntity
  8
0
  6
BYBLOCK
 62
     0
100
AcDbBlockReference
  2
ARROW
 10
1026.785843515884
 20
817.5362392827501
 30
0.0
 41
7.5
 42
7.5
 43
7.5
 50
90.0
  0
INSERT
  5
1234
330
122F
100
AcDbEntity
  8
0
  6
BYBLOCK
 62
     0
100
AcDbBlockReference
  2
ARROW
 10
1026.785843515884
 20
225.5362392827501
 30
0.0
 41
7.5
 42
7.5
 43
7.5
 50
270.0
  0
MTEXT
  5
1235
330
122F
100
AcDbEntity
  8
0
  6
BYBLOCK
 62
     0
100
AcDbMText
 10
1018.835843515884
 20
521.5362392827501
 30
0.0
 40
15.0
 41
0.0
 71
     5
 72
     1
  1
\A1;592
 11
0.0000000000000001
 21
1.0
 31
0.0
1001
ACAD
1000
MTEXTBEGIN
1070
    73
1070
     1
1070
    44
1040
1.0
1070
    74
1070
     0
1000
MTEXTEND
  0
POINT
  5
1236
330
122F
100
AcDbEntity
  8
DEFPOINTS
  6
BYBLOCK
 62
     0
100
AcDbPoint
 10
931.2408845957516
 20
817.5362392827501
 30
0.0
  0
POINT
  5
1237
330
122F
100
AcDbEntity
  8
DEFPOINTS
  6
BYBLOCK
 62
     0
100
AcDbPoint
 10
998.5306148756153
 20
225.5362392827501
 30
0.0
  0
POINT
  5
1238
330
122F
100
AcDbEntity
  8
DEFPOINTS
  6
BYBLOCK
 62
     0
100
AcDbPoint
 10
1026.785843515884
 20
225.5362392827501
 30
0.0
  0
ENDBLK
  5
123A
330
122F
100
AcDbEntity
  8
0
100
AcDbBlockEnd
  0
BLOCK
  5
1245
330
123B
100
AcDbEntity
  8
0
100
AcDbBlockBegin
  2
*D35
 70
     1
 10
0.0
 20
0.0
 30
0.0
  3
*D35
  1

  0
LINE
  5
123C
330
123B
100
AcDbEntity
  8
0
  6
BYBLOCK
 62
     0
100
AcDbLine
 10
959.1330894152356
 20
225.5362392827501
 30
0.0
 11
1028.236252290796
 21
225.5362392827501
 31
0.0
  0
LINE
  5
123D
330
123B
100
AcDbEntity
  8
0
  6
BYBLOCK
 62
     0
100
AcDbLine
 10
877.1330894152356
 20
847.5362392827502
 30
0.0
 11
1028.236252290796
 21
847.53623928275
 31
0.0
  0
LINE
  5
123E
330
123B
100
AcDbEntity
  8
0
  6
BYBLOCK
 62
     0
100
AcDbLine
 10
1023.236252290796
 20
233.0362392827501
 30
0.0
 11
1023.236252290796
 21
840.0362392827501
 31
0.0
  0
INSERT
  5
123F
330
123B
100
AcDbEntity
  8
0
  6
BYBLOCK
 62
     0
100
AcDbBlockReference
  2
ARROW
 10
1023.236252290796
 20
225.5362392827501
 30
0.0
 41
7.5
 42
7.5
 43
7.5
 50
270.0
  0
INSERT
  5
1240
330
123B
100
AcDbEntity
  8
0
  6
BYBLOCK
 62
     0
100
AcDbBlockReference
  2
ARROW
 10
1023.236252290796
 20
847.53623928275
 30
0.0
 41
7.5
 42
7.5
 43
7.5
 50
90.0
  0
MTEXT
  5
1241
330
123B
100
AcDbEntity
  8
0
  6
BYBLOCK
 62
     0
100
AcDbMText
 10
1015.286252290796
 20
536.5362392827501
 30
0.0
 40
15.0
 41
0.0
 71
     5
 72
     1
  1
\A1;622
 11
0.0000000000000001
 21
1.0
 31
0.0
1001
ACAD
1000
MTEXTBEGIN
1070
    73
1070
     1
1070
    44
1040
1.0
1070
    74
1070
     0
1000
MTEXTEND
  0
POINT
  5
1242
330
123B
100
AcDbEntity
  8
DEFPOINTS
  6
BYBLOCK
 62
     0
100
AcDbPoint
 10
954.1330894152356
 20
225.5362392827501
 30
0.0
  0
POINT
  5
1243
330
123B
100
AcDbEntity
  8
DEFPOINTS
  6
BYBLOCK
 62
     0
100
AcDbPoint
 10
872.1330894152357
 20
847.5362392827502
 30
0.0
  0
POINT
  5
1244
330
123B
100
AcDbEntity
  8
DEFPOINTS
  6
BYBLOCK
 62
     0
100
AcDbPoint
 10
1023.236252290796
 20
847.53623928275
 30
0.0
  0
ENDBLK
  5
1246
330
123B
100
AcDbEntity
  8
0
100
AcDbBlockEnd
  0
BLOCK
  5
1251
330
1247
100
AcDbEntity
  8
0
100
AcDbBlockBegin
  2
*D36
 70
     1
 10
0.0
 20
0.0
 30
0.0
  3
*D36
  1

  0
LINE
  5
1248
330
1247
100
AcDbEntity
  8
0
  6
BYBLOCK
 62
     0
100
AcDbLine
 10
967.1330894152356
 20
799.0362392827501
 30
0.0
 11
967.1330894152356
 21
906.8349824675223
 31
0.0
  0
LINE
  5
1249
330
1247
100
AcDbEntity
  8
0
  6
BYBLOCK
 62
     0
100
AcDbLine
 10
557.1330894152356
 20
799.0362392827501
 30
0.0
 11
557.1330894152356
 21
906.8349824675223
 31
0.0
  0
LINE
  5
124A
330
1247
100
AcDbEntity
  8
0
  6
BYBLOCK
 62
     0
100
AcDbLine
 10
959.6330894152357
 20
901.8349824675224
 30
0.0
 11
564.6330894152356
 21
901.8349824675224
 31
0.0
  0
INSERT
  5
124B
330
1247
100
AcDbEntity
  8
0
  6
BYBLOCK
 62
     0
100
AcDbBlockReference
  2
ARROW
 10
967.1330894152356
 20
901.8349824675224
 30
0.0
 41
7.5
 42
7.5
 43
7.5
  0
INSERT
  5
124C
330
1247
100
AcDbEntity
  8
0
  6
BYBLOCK
 62
     0
100
AcDbBlockReference
  2
ARROW
 10
557.1330894152356
 20
901.8349824675224
 30
0.0
 41
7.5
 42
7.5
 43
7.5
 50
180.0
  0
MTEXT
  5
124D
330
1247
100
AcDbEntity
  8
0
  6
BYBLOCK
 62
     0
100
AcDbMText
 10
791.7440904168334
 20
909.7849824675224
 30
0.0
 40
15.0
 41
0.0
 71
     5
 72
     1
  1
\A1;410
1001
ACAD
1000
MTEXTBEGIN
1070
    73
1070
     1
1070
    44
1040
1.0
1070
    74
1070
     0
1000
MTEXTEND
  0
POINT
  5
124E
330
1247
100
AcDbEntity
  8
DEFPOINTS
  6
BYBLOCK
 62
     0
100
AcDbPoint
 10
967.1330894152356
 20
794.0362392827501
 30
0.0
  0
POINT
  5
124F
330
1247
100
AcDbEntity
  8
DEFPOINTS
  6
BYBLOCK
 62
     0
100
AcDbPoint
 10
557.1330894152356
 20
794.0362392827501
 30
0.0
  0
POINT
  5
1250
330
1247
100
AcDbEntity
  8
DEFPOINTS
  6
BYBLOCK
 62
     0
100
AcDbPoint
 10
557.1330894152356
 20
901.8349824675224
 30
0.0
  0
ENDBLK
  5
1252
330
1247
100
AcDbEntity
  8
0
100
AcDbBlockEnd
  0
BLOCK
  5
125D
330
1253
100
AcDbEntity
  8
0
100
AcDbBlockBegin
  2
*D37
 70
     1
 10
0.0
 20
0.0
 30
0.0
  3
*D37
  1

  0
LINE
  5
1254
330
1253
100
AcDbEntity
  8
0
  6
BYBLOCK
 62
     0
100
AcDbLine
 10
762.1330894152356
 20
852.5362392827501
 30
0.0
 11
762.1330894152356
 21
964.4995968958765
 31
0.0
  0
LINE
  5
1255
330
1253
100
AcDbEntity
  8
0
  6
BYBLOCK
 62
     0
100
AcDbLine
 10
482.1330894152356
 20
491.5362392827498
 30
0.0
 11
482.1330894152357
 21
964.4995968958765
 31
0.0
  0
LINE
  5
1256
330
1253
100
AcDbEntity
  8
0
  6
BYBLOCK
 62
     0
100
AcDbLine
 10
754.6330894152356
 20
959.4995968958764
 30
0.0
 11
489.6330894152357
 21
959.4995968958764
 31
0.0
  0
INSERT
  5
1257
330
1253
100
AcDbEntity
  8
0
  6
BYBLOCK
 62
     0
100
AcDbBlockReference
  2
ARROW
 10
762.1330894152356
 20
959.4995968958764
 30
0.0
 41
7.5
 42
7.5
 43
7.5
  0
INSERT
  5
1258
330
1253
100
AcDbEntity
  8
0
  6
BYBLOCK
 62
     0
100
AcDbBlockReference
  2
ARROW
 10
482.1330894152357
 20
959.4995968958764
 30
0.0
 41
7.5
 42
7.5
 43
7.5
 50
180.0
  0
MTEXT
  5
1259
330
1253
100
AcDbEntity
  8
0
  6
BYBLOCK
 62
     0
100
AcDbMText
 10
622.1330894152356
 20
967.4495968958765
 30
0.0
 40
15.0
 41
0.0
 71
     5
 72
     1
  1
\A1;280
1001
ACAD
1000
MTEXTBEGIN
1070
    73
1070
     1
1070
    44
1040
1.0
1070
    74
1070
     0
1000
MTEXTEND
  0
POINT
  5
125A
330
1253
100
AcDbEntity
  8
DEFPOINTS
  6
BYBLOCK
 62
     0
100
AcDbPoint
 10
762.1330894152356
 20
847.5362392827502
 30
0.0
  0
POINT
  5
125B
330
1253
100
AcDbEntity
  8
DEFPOINTS
  6
BYBLOCK
 62
     0
100
AcDbPoint
 10
482.1330894152356
 20
486.5362392827498
 30
0.0
  0
POINT
  5
125C
330
1253
100
AcDbEntity
  8
DEFPOINTS
  6
BYBLOCK
 62
     0
100
AcDbPoint
 10
482.1330894152357
 20
959.4995968958764
 30
0.0
  0
ENDBLK
  5
125E
330
1253
100
AcDbEntity
  8
0
100
AcDbBlockEnd
  0
BLOCK
  5
1269
330
125F
100
AcDbEntity
  8
0
100
AcDbBlockBegin
  2
*D38
 70
     1
 10
0.0
 20
0.0
 30
0.0
  3
*D38
  1

  0
LINE
  5
1260
330
125F
100
AcDbEntity
  8
0
  6
BYBLOCK
 62
     0
100
AcDbLine
 10
1465.527894292622
 20
291.861877422968
 30
0.0
 11
1465.527894292622
 21
246.0485759204766
 31
0.0
  0
LINE
  5
1261
330
125F
100
AcDbEntity
  8
0
  6
BYBLOCK
 62
     0
100
AcDbLine
 10
1071.527894292622
 20
291.861877422968
 30
0.0
 11
1071.527894292622
 21
246.0485759204766
 31
0.0
  0
LINE
  5
1262
330
125F
100
AcDbEntity
  8
0
  6
BYBLOCK
 62
     0
100
AcDbLine
 10
1458.027894292622
 20
251.0485759204766
 30
0.0
 11
1079.027894292622
 21
251.0485759204766
 31
0.0
  0
INSERT
  5
1263
330
125F
100
AcDbEntity
  8
0
  6
BYBLOCK
 62
     0
100
AcDbBlockReference
  2
ARROW
 10
1465.527894292622
 20
251.0485759204766
 30
0.0
 41
7.5
 42
7.5
 43
7.5
  0
INSERT
  5
1264
330
125F
100
AcDbEntity
  8
0
  6
BYBLOCK
 62
     0
100
AcDbBlockReference
  2
ARROW
 10
1071.527894292622
 20
251.0485759204766
 30
0.0
 41
7.5
 42
7.5
 43
7.5
 50
180.0
  0
MTEXT
  5
1265
330
125F
100
AcDbEntity
  8
0
  6
BYBLOCK
 62
     0
100
AcDbMText
 10
1268.527894292622
 20
258.9985759204766
 30
0.0
 40
15.0
 41
0.0
 71
     5
 72
     1
  1
\A1;394
1001
ACAD
1000
MTEXTBEGIN
1070
    73
1070
     1
1070
    44
1040
1.0
1070
    74
1070
     0
1000
MTEXTEND
  0
POINT
  5
1266
330
125F
100
AcDbEntity
  8
DEFPOINTS
  6
BYBLOCK
 62
     0
100
AcDbPoint
 10
1465.527894292622
 20
296.861877422968
 30
0.0
  0
POINT
  5
1267
330
125F
100
AcDbEntity
  8
DEFPOINTS
  6
BYBLOCK
 62
     0
100
AcDbPoint
 10
1071.527894292622
 20
296.861877422968
 30
0.0
  0
POINT
  5
1268
330
125F
100
AcDbEntity
  8
DEFPOINTS
  6
BYBLOCK
 62
     0
100
AcDbPoint
 10
1071.527894292622
 20
251.0485759204766
 30
0.0
  0
ENDBLK
  5
126A
330
125F
100
AcDbEntity
  8
0
100
AcDbBlockEnd
  0
BLOCK
  5
12D8
330
126B
100
AcDbEntity
  8
0
100
AcDbBlockBegin
  2
A$C4EE57C70
 70
     0
 10
0.0
 20
0.0
 30
0.0
  3
A$C4EE57C70
  1

  0
ARC
  5
126C
330
126B
100
AcDbEntity
  8
0
100
AcDbCircle
 10
192.3469463978499
 20
257.9728629100172
 30
0.0
 40
16.8722894428993
100
AcDbArc
 50
229.652749299183
 51
138.9713294597896
  0
ELLIPSE
  5
126D
330
126B
100
AcDbEntity
  8
0
100
AcDbEllipse
 10
189.7206176984752
 20
259.8592091957789
 30
0.0
 11
0.9526949154629754
 21
-18.50118220427349
 31
0.0
210
0.0
220
0.0
230
1.0
 40
0.7678641535702465
 41
5.427462728861332
 42
5.594139082400647
  0
ELLIPSE
  5
126E
330
126B
100
AcDbEntity
  8
0
100
AcDbEllipse
 10
189.7206176984752
 20
259.8592091957789
 30
0.0
 11
0.9526949154629754
 21
-18.50118220427349
 31
0.0
210
0.0
220
0.0
230
1.0
 40
0.7678641535702465
 41
6.189455079097946
 42
8.636758086860075
  0
LINE
  5
126F
330
126B
100
AcDbEntity
  8
0
100
AcDbLine
 10
189.892944363346
 20
274.665736391225
 30
0.0
 11
179.618808493853
 21
269.0484512258473
 31
0.0
  0
LINE
  5
1270
330
126B
100
AcDbEntity
  8
0
100
AcDbLine
 10
189.892944363346
 20
241.2799894288086
 30
0.0
 11
189.7730484177573
 21
241.3487956105256
 31
0.0
  0
LINE
  5
1271
330
126B
100
AcDbEntity
  8
0
100
AcDbLine
 10
182.618808493853
 20
270.6886724288948
 30
0.0
 11
182.618808493853
 21
247.1761359260813
 31
0.0
  0
LINE
  5
1272
330
126B
100
AcDbEntity
  8
0
100
AcDbLine
 10
179.618808493853
 20
269.0484512258473
 30
0.0
 11
179.618808493853
 21
247.1761359260813
 31
0.0
  0
LINE
  5
1273
330
126B
100
AcDbEntity
  8
0
100
AcDbLine
 10
189.892944363346
 20
274.665736391225
 30
0.0
 11
189.892944363346
 21
243.0016368468011
 31
0.0
  0
LINE
  5
1274
330
126B
100
AcDbEntity
  8
0
100
AcDbLine
 10
189.892944363346
 20
243.001636846801
 30
0.0
 11
182.618808493853
 21
247.1761359260813
 31
0.0
  0
LINE
  5
1275
330
126B
100
AcDbEntity
  8
0
100
AcDbLine
 10
182.618808493853
 20
247.1761359260813
 30
0.0
 11
179.6188084938528
 21
247.1761359260813
 31
0.0
  0
LINE
  5
1276
330
126B
100
AcDbEntity
  8
0
100
AcDbLine
 10
189.892944363346
 20
243.001636846801
 30
0.0
 11
186.8929443633458
 21
243.001636846801
 31
0.0
  0
LINE
  5
1277
330
126B
100
AcDbEntity
  8
0
100
AcDbLine
 10
186.8929443633467
 20
243.001636846801
 30
0.0
 11
179.618808493853
 21
247.1761359260813
 31
0.0
  0
LINE
  5
1278
330
126B
100
AcDbEntity
  8
0
100
AcDbLine
 10
189.892944363346
 20
241.3457478608846
 30
0.0
 11
189.892944363346
 21
241.2799894288086
 31
0.0
  0
DIMENSION
  5
1279
330
126B
100
AcDbEntity
  8
SUNPOU
100
AcDbDimension
  2
*D37
 10
0.0000018771634132
 20
764.7766572792961
 30
0.0
 11
140.0000018771634
 21
772.7266572792962
 31
0.0
 12
-482.1330875380722
 22
-194.7229396165803
 32
0.0
  3
IMAO
100
AcDbAlignedDimension
 13
280.0000018771634
 23
652.8132996661699
 33
0.0
 14
0.0000018771634132
 24
291.8132996661695
 34
0.0
100
AcDbRotatedDimension
1001
ACAD
1000
DSTYLE
1002
{
1070
   287
1070
     3
1070
    40
1040
5.0
1070
   271
1070
     4
1070
   272
1070
     4
1070
   279
1070
     0
1070
   284
1070
     0
1070
   285
1070
     0
1070
   286
1070
     0
1070
   340
1005
D7
1070
     6
1000
ARROW
1070
     7
1000
ARROW
1002
}
  0
DIMENSION
  5
127A
330
126B
100
AcDbEntity
  8
SUNPOU
100
AcDbDimension
  2
*D35
 10
541.1031647527238
 20
652.8132996661697
 30
0.0
 11
533.1531647527238
 21
341.8132996661697
 31
0.0
 12
-482.1330875380722
 22
-194.7229396165803
 32
0.0
  3
IMAO
100
AcDbAlignedDimension
 13
472.0000018771634
 23
30.81329966616976
 33
0.0
 14
390.0000018771634
 24
652.8132996661699
 34
0.0
 50
90.0
100
AcDbRotatedDimension
1001
ACAD
1000
DSTYLE
1002
{
1070
   287
1070
     3
1070
    40
1040
5.0
1070
   271
1070
     4
1070
   272
1070
     4
1070
   279
1070
     0
1070
   284
1070
     0
1070
   285
1070
     0
1070
   286
1070
     0
1070
   340
1005
D7
1070
     6
1000
ARROW
1070
     7
1000
ARROW
1002
}
  0
DIMENSION
  5
127B
330
126B
100
AcDbEntity
  8
SUNPOU
100
AcDbDimension
  2
*D34
 10
500.2552305174321
 20
30.81329966616976
 30
0.0
 11
492.3052305174321
 21
326.8132996661697
 31
0.0
 12
-526.5306129984519
 22
-194.7229396165803
 32
0.0
  3
IMAO
100
AcDbAlignedDimension
 13
404.7102715972996
 23
622.8132996661697
 33
0.0
 14
472.0000018771634
 24
30.81329966616976
 34
0.0
 50
90.0
100
AcDbRotatedDimension
1001
ACAD
1000
DSTYLE
1002
{
1070
   287
1070
     3
1070
    40
1040
5.0
1070
   271
1070
     4
1070
   272
1070
     4
1070
   279
1070
     0
1070
   284
1070
     0
1070
   285
1070
     0
1070
   286
1070
     0
1070
   340
1005
D7
1070
     6
1000
ARROW
1070
     7
1000
ARROW
1002
}
  0
DIMENSION
  5
127C
330
126B
100
AcDbEntity
  8
SUNPOU
100
AcDbDimension
  2
*D33
 10
413.204950956404
 20
30.81329966616976
 30
0.0
 11
405.2549509564039
 21
40.81329966616976
 31
0.0
 12
-526.5306129984519
 22
-194.7229396165803
 32
0.0
  3
IMAO
100
AcDbAlignedDimension
 13
452.0000018771634
 23
50.81329966616976
 33
0.0
 14
452.0000018771634
 24
30.81329966616976
 34
0.0
 50
90.0
100
AcDbRotatedDimension
1001
ACAD
1000
DSTYLE
1002
{
1070
   287
1070
     3
1070
    40
1040
5.0
1070
   271
1070
     4
1070
   272
1070
     4
1070
   279
1070
     0
1070
   284
1070
     0
1070
   285
1070
     0
1070
   286
1070
     0
1070
   340
1005
D7
1070
     6
1000
ARROW
1070
     7
1000
ARROW
1002
}
  0
DIMENSION
  5
127D
330
126B
100
AcDbEntity
  8
SUNPOU
100
AcDbDimension
  2
*D32
 10
35.73293597655083
 20
30.81329966616976
 30
0.0
 11
27.78293597655078
 21
125.8132996661697
 31
0.0
 12
-526.5306129984519
 22
-194.7229396165803
 32
0.0
  3
IMAO
100
AcDbAlignedDimension
 13
83.0000018771634
 23
220.8132996661697
 33
0.0
 14
88.0000018771634
 24
30.81329966616976
 34
0.0
 50
90.0
100
AcDbRotatedDimension
1001
ACAD
1000
DSTYLE
1002
{
1070
   287
1070
     3
1070
    40
1040
5.0
1070
   271
1070
     4
1070
   272
1070
     4
1070
   279
1070
     0
1070
   284
1070
     0
1070
   285
1070
     0
1070
   286
1070
     0
1070
   340
1005
D7
1070
     6
1000
ARROW
1070
     7
1000
ARROW
1002
}
  0
CIRCLE
  5
127E
330
126B
100
AcDbEntity
  8
0
100
AcDbCircle
 10
65.81085406246074
 20
495.7382457681896
 30
0.0
 40
5.793029950987429
  0
ARC
  5
127F
330
126B
100
AcDbEntity
  8
0
100
AcDbCircle
 10
66.54981683197275
 20
497.0937444589737
 30
0.0
 40
9.0
100
AcDbArc
 50
359.9999999999985
 51
90.00000000000072
  0
ARC
  5
1280
330
126B
100
AcDbEntity
  8
0
100
AcDbCircle
 10
65.54981683197275
 20
496.0937444589736
 30
0.0
 40
10.0
100
AcDbArc
 50
89.99999999999934
 51
180.0
  0
LINE
  5
1281
330
126B
100
AcDbEntity
  8
0
100
AcDbLine
 10
65.54981683197275
 20
506.0937444589735
 30
0.0
 11
66.54981683197275
 21
506.0937444589735
 31
0.0
  0
LINE
  5
1282
330
126B
100
AcDbEntity
  8
0
100
AcDbLine
 10
55.54981683197275
 20
496.0937444589736
 30
0.0
 11
55.54981683197275
 21
421.9815969910015
 31
0.0
  0
LINE
  5
1283
330
126B
100
AcDbEntity
  8
0
100
AcDbLine
 10
75.54981683197275
 20
497.0937444589735
 30
0.0
 11
75.54981683197275
 21
431.8146702607434
 31
0.0
  0
LINE
  5
1284
330
126B
100
AcDbEntity
  8
0
100
AcDbLine
 10
93.0000018771634
 20
506.0937444589735
 30
0.0
 11
93.0000018771634
 21
448.8132996661699
 31
0.0
  0
LINE
  5
1285
330
126B
100
AcDbEntity
  8
0
100
AcDbLine
 10
93.0000018771634
 20
506.0937444589735
 30
0.0
 11
83.0000018771634
 21
506.0937444589736
 31
0.0
  0
LINE
  5
1286
330
126B
100
AcDbEntity
  8
0
100
AcDbLine
 10
23.00000187716341
 20
448.8132996661697
 30
0.0
 11
54.95499785421316
 21
411.9990981908111
 31
0.0
  0
LINE
  5
1287
330
126B
100
AcDbEntity
  8
0
100
AcDbLine
 10
30.00000187716341
 20
448.8132996661696
 30
0.0
 11
59.93886680462674
 21
417.3723391900742
 31
0.0
  0
LINE
  5
1288
330
126B
100
AcDbEntity
  8
0
100
AcDbLine
 10
23.00000187716341
 20
541.0937444589735
 30
0.0
 11
30.00000187716341
 21
541.0937444589735
 31
0.0
  0
LINE
  5
1289
330
126B
100
AcDbEntity
  8
0
100
AcDbLine
 10
23.00000187716341
 20
541.0937444589735
 30
0.0
 11
23.00000187716341
 21
448.8132996661697
 31
0.0
  0
LINE
  5
128A
330
126B
100
AcDbEntity
  8
0
100
AcDbLine
 10
30.00000187716341
 20
541.0937444589735
 30
0.0
 11
30.00000187716341
 21
448.8132996661697
 31
0.0
  0
CIRCLE
  5
128B
330
126B
100
AcDbEntity
  8
0
100
AcDbCircle
 10
236.726926738941
 20
255.6479606377633
 30
0.0
 40
10.0
  0
ELLIPSE
  5
128C
330
126B
100
AcDbEntity
  8
TENSEN
100
AcDbEllipse
 10
143.0000018771647
 20
220.8133774913511
 30
0.0
 11
-0.0000000000013642
 21
22.99992217481861
 31
0.0
210
0.0
220
0.0
230
1.0
 40
0.9130324137956908
 41
7.143534577975087
 42
8.564437617186886
  0
ELLIPSE
  5
128D
330
126B
100
AcDbEntity
  8
TENSEN
100
AcDbEllipse
 10
143.0000018771647
 20
220.8133774913511
 30
0.0
 11
-0.0000000000013642
 21
22.99992217481861
 31
0.0
210
0.0
220
0.0
230
1.0
 40
0.9130324137956908
 41
9.339239407932685
 42
9.424777960769379
  0
ELLIPSE
  5
128E
330
126B
100
AcDbEntity
  8
TENSEN
100
AcDbEllipse
 10
143.0000018771647
 20
220.8133774913511
 30
0.0
 11
-0.0000000000013642
 21
22.99992217481861
 31
0.0
210
0.0
220
0.0
230
1.0
 40
0.9130324137956908
 41
6.28312805952093
 42
6.285968948738251
  0
ELLIPSE
  5
128F
330
126B
100
AcDbEntity
  8
HOJO
100
AcDbEllipse
 10
143.0000018771647
 20
220.8133774913511
 30
0.0
 11
-0.0000000000013642
 21
22.99992217481861
 31
0.0
210
0.0
220
0.0
230
1.0
 40
0.9130324137956908
 41
4.653824270326261
 42
4.72990816217672
  0
ELLIPSE
  5
1290
330
126B
100
AcDbEntity
  8
TENSEN
100
AcDbEllipse
 10
143.0000018771634
 20
220.8132996661697
 30
0.0
 11
0.0
 21
-15.0
 31
0.0
210
0.0
220
0.0
230
1.0
 40
0.8666666666666667
 41
3.141592653589793
 42
6.283185307179586
  0
LINE
  5
1291
330
126B
100
AcDbEntity
  8
ITTEN
100
AcDbLine
 10
143.0000018771661
 20
175.8132996661697
 30
0.0
 11
143.0000018771661
 21
256.8131440158067
 31
0.0
  0
LINE
  5
1292
330
126B
100
AcDbEntity
  8
0
100
AcDbLine
 10
96.54436149967843
 20
205.8132996661697
 30
0.0
 11
143.0000018771661
 21
205.8132996661697
 31
0.0
  0
LINE
  5
1293
330
126B
100
AcDbEntity
  8
0
100
AcDbLine
 10
96.54436149967843
 20
235.8132996661697
 30
0.0
 11
143.0000018771634
 21
235.8132996661697
 31
0.0
  0
CIRCLE
  5
1294
330
126B
100
AcDbEntity
  8
0
100
AcDbCircle
 10
99.31285937232951
 20
220.8132996661697
 30
0.0
 40
12.25334653349466
  0
CIRCLE
  5
1295
330
126B
100
AcDbEntity
  8
0
100
AcDbCircle
 10
99.31285937232951
 20
220.8132996661697
 30
0.0
 40
15.25334653349466
  0
SPLINE
  5
1296
330
126B
100
AcDbEntity
  8
0
100
AcDbSpline
210
0.0
220
0.0
230
1.0
 70
     8
 71
     3
 72
    45
 73
    41
 74
     0
 42
0.0000000001
 43
0.0000000001
 40
2.306227421583527
 40
2.306227421583527
 40
2.306227421583527
 40
2.306227421583527
 40
2.363915844809297
 40
2.363915844809297
 40
2.682176616171325
 40
2.682176616171325
 40
2.9314237568572
 40
2.9314237568572
 40
3.180670897543074
 40
3.180670897543074
 40
3.429918038228949
 40
3.429918038228949
 40
3.679165178914823
 40
3.679165178914823
 40
3.928412319600698
 40
3.928412319600698
 40
4.177659460286572
 40
4.177659460286572
 40
4.426906600972446
 40
4.426906600972446
 40
4.855016457756462
 40
4.855016457756462
 40
5.283126314540479
 40
5.283126314540479
 40
5.58190875506254
 40
5.58190875506254
 40
5.880691195584602
 40
5.880691195584602
 40
6.127556924218256
 40
6.127556924218256
 40
6.283185307179586
 40
6.283185307179586
 40
6.283185307179586
 40
6.449659678172341
 40
6.449659678172341
 40
6.701098328328999
 40
6.701098328328999
 40
6.952536978485658
 40
6.952536978485658
 40
7.118549623311436
 40
7.118549623311436
 40
7.118549623311436
 40
7.118549623311436
 10
127.0646819095873
 20
205.8132996661697
 30
0.0
 10
127.3249613285379
 20
205.4812847240739
 30
0.0
 10
127.5946654351782
 20
205.1565059771032
 30
0.0
 10
129.4125660039658
 20
203.0910731164326
 30
0.0
 10
131.2349233699451
 20
201.5822949161454
 30
0.0
 10
134.8628680251138
 20
199.5113454794827
 30
0.0
 10
136.5854390367353
 20
198.8159010652356
 30
0.0
 10
140.1662497257973
 20
197.9345298785804
 30
0.0
 10
142.023434925147
 20
197.749646265349
 30
0.0
 10
145.7134231637578
 20
197.9161136202712
 30
0.0
 10
147.5446322785042
 20
198.2672319371789
 30
0.0
 10
151.0289436208474
 20
199.4596301060273
 30
0.0
 10
152.6813812252066
 20
200.2996980348362
 30
0.0
 10
155.6995589632379
 20
202.3757447648263
 30
0.0
 10
157.0656735735001
 20
203.6107971621324
 30
0.0
 10
159.4509768343689
 20
206.3709060259366
 30
0.0
 10
160.4707452408058
 20
207.8957010601418
 30
0.0
 10
162.1340411698035
 20
211.1359963597197
 30
0.0
 10
162.7779162586934
 20
212.8515679376578
 30
0.0
 10
163.9982111038068
 20
217.6489617976167
 30
0.0
 10
164.193263371086
 20
220.8278764209156
 30
0.0
 10
163.4202423190167
 20
227.0390987633975
 30
0.0
 10
162.4512581256042
 20
230.0731947138657
 30
0.0
 10
159.868748852908
 20
234.7145891131787
 30
0.0
 10
158.5383528174438
 20
236.4756583198825
 30
0.0
 10
155.4027113938555
 20
239.5310017513456
 30
0.0
 10
153.5960364855063
 20
240.8241048081559
 30
0.0
 10
149.9865083809099
 20
242.5972283169237
 30
0.0
 10
148.2384869508832
 20
243.1784906545406
 30
0.0
 10
145.3064150872196
 20
243.7092987103681
 30
0.0
 10
144.1532480996204
 20
243.8132996661697
 30
0.0
 10
143.0000018771634
 20
243.8132996661697
 30
0.0
 10
141.7663841023709
 20
243.8132996661697
 30
0.0
 10
140.5328769593775
 20
243.6942245042802
 30
0.0
 10
137.495960293606
 20
243.1054265627271
 30
0.0
 10
135.7244871966768
 20
242.4869270858148
 30
0.0
 10
132.4270965540502
 20
240.7973757201142
 30
0.0
 10
130.9012176321082
 20
239.7275626401815
 30
0.0
 10
128.641299531429
 20
237.6644326796431
 30
0.0
 10
127.8141022683103
 20
236.7688663206005
 30
0.0
 10
127.0647234680059
 20
235.8132996661697
 30
0.0
  0
ELLIPSE
  5
1297
330
126B
100
AcDbEntity
  8
0
100
AcDbEllipse
 10
143.0000018771634
 20
220.8132996661697
 30
0.0
 11
0.0
 21
15.0
 31
0.0
210
0.0
220
0.0
230
1.0
 40
0.8666666666666667
 41
3.141592653589793
 42
6.283185307179586
  0
LINE
  5
1298
330
126B
100
AcDbEntity
  8
ITTEN
100
AcDbLine
 10
163.999607610026
 20
220.8132996661697
 30
0.0
 11
83.0000018771634
 21
220.8132996661697
 31
0.0
  0
LINE
  5
1299
330
126B
100
AcDbEntity
  8
0
100
AcDbLine
 10
83.0000018771634
 20
278.8132996661697
 30
0.0
 11
83.0000018771634
 21
50.81329966616976
 31
0.0
  0
ELLIPSE
  5
129A
330
126B
100
AcDbEntity
  8
0
100
AcDbEllipse
 10
143.0000018771634
 20
278.8132996661696
 30
0.0
 11
43.5789474985018
 21
183.1877272720695
 31
0.0
210
0.0
220
0.0
230
1.0
 40
0.7592767636575945
 41
0.5983486202072808
 42
1.67960336799759
  0
LINE
  5
129B
330
126B
100
AcDbEntity
  8
0
100
AcDbLine
 10
143.0000018771634
 20
448.8132996661696
 30
0.0
 11
93.0000018771634
 21
448.8132996661697
 31
0.0
  0
LINE
  5
129C
330
126B
100
AcDbEntity
  8
0
100
AcDbLine
 10
143.0000018771634
 20
278.8132996661696
 30
0.0
 11
0.0000018771634132
 21
278.8132996661697
 31
0.0
  0
LINE
  5
129D
330
126B
100
AcDbEntity
  8
0
100
AcDbLine
 10
143.0000018771634
 20
580.8132996661696
 30
0.0
 11
143.0000018771634
 21
278.8132996661696
 31
0.0
  0
LINE
  5
129E
330
126B
100
AcDbEntity
  8
0
100
AcDbLine
 10
0.0000018771634132
 20
278.8132996661697
 30
0.0
 11
0.0000018771634132
 21
291.8132996661698
 31
0.0
  0
LINE
  5
129F
330
126B
100
AcDbEntity
  8
0
100
AcDbLine
 10
477.0000018771634
 20
291.8132996661697
 30
0.0
 11
477.0000018771634
 21
580.8132996661697
 31
0.0
  0
LINE
  5
12A0
330
126B
100
AcDbEntity
  8
0
100
AcDbLine
 10
472.0000018771634
 20
285.8132996661698
 30
0.0
 11
472.0000018771634
 21
291.8132996661698
 31
0.0
  0
LINE
  5
12A1
330
126B
100
AcDbEntity
  8
0
100
AcDbLine
 10
477.0000018771634
 20
291.8132996661697
 30
0.0
 11
143.0000018771634
 21
291.8132996661697
 31
0.0
  0
LINE
  5
12A2
330
126B
100
AcDbEntity
  8
0
100
AcDbLine
 10
477.0000018771634
 20
285.8132996661698
 30
0.0
 11
143.0000018771634
 21
285.8132996661698
 31
0.0
  0
LINE
  5
12A3
330
126B
100
AcDbEntity
  8
0
100
AcDbLine
 10
83.0000018771634
 20
580.8132996661696
 30
0.0
 11
83.0000018771634
 21
506.0937444589735
 31
0.0
  0
LINE
  5
12A4
330
126B
100
AcDbEntity
  8
0
100
AcDbLine
 10
477.0000018771634
 20
50.81329966616976
 30
0.0
 11
477.0000018771634
 21
285.8132996661698
 31
0.0
  0
LINE
  5
12A5
330
126B
100
AcDbEntity
  8
0
100
AcDbLine
 10
452.0000018771634
 20
30.81329966616976
 30
0.0
 11
472.0000018771634
 21
30.81329966616976
 31
0.0
  0
LINE
  5
12A6
330
126B
100
AcDbEntity
  8
0
100
AcDbLine
 10
270.0000018771634
 20
30.81329966616976
 30
0.0
 11
290.0000018771634
 21
30.81329966616976
 31
0.0
  0
LINE
  5
12A7
330
126B
100
AcDbEntity
  8
0
100
AcDbLine
 10
88.0000018771634
 20
30.81329966616976
 30
0.0
 11
108.0000018771634
 21
30.81329966616976
 31
0.0
  0
LINE
  5
12A8
330
126B
100
AcDbEntity
  8
0
100
AcDbLine
 10
472.0000018771634
 20
30.81329966616976
 30
0.0
 11
472.0000018771634
 21
50.81329966616976
 31
0.0
  0
LINE
  5
12A9
330
126B
100
AcDbEntity
  8
0
100
AcDbLine
 10
452.0000018771634
 20
30.81329966616976
 30
0.0
 11
452.0000018771634
 21
50.81329966616976
 31
0.0
  0
LINE
  5
12AA
330
126B
100
AcDbEntity
  8
0
100
AcDbLine
 10
108.0000018771634
 20
30.81329966616976
 30
0.0
 11
108.0000018771634
 21
50.81329966616976
 31
0.0
  0
LINE
  5
12AB
330
126B
100
AcDbEntity
  8
0
100
AcDbLine
 10
88.0000018771634
 20
30.81329966616976
 30
0.0
 11
88.0000018771634
 21
50.81329966616976
 31
0.0
  0
LINE
  5
12AC
330
126B
100
AcDbEntity
  8
0
100
AcDbLine
 10
472.0000018771634
 20
30.81329966616976
 30
0.0
 11
472.0000018771634
 21
50.81329966616976
 31
0.0
  0
LINE
  5
12AD
330
126B
100
AcDbEntity
  8
0
100
AcDbLine
 10
88.0000018771634
 20
30.81329966616976
 30
0.0
 11
88.0000018771634
 21
50.81329966616976
 31
0.0
  0
LINE
  5
12AE
330
126B
100
AcDbEntity
  8
0
100
AcDbLine
 10
270.0000018771634
 20
30.81329966616976
 30
0.0
 11
270.0000018771634
 21
50.81329966616976
 31
0.0
  0
LINE
  5
12AF
330
126B
100
AcDbEntity
  8
0
100
AcDbLine
 10
290.0000018771634
 20
30.81329966616976
 30
0.0
 11
290.0000018771634
 21
50.81329966616976
 31
0.0
  0
LINE
  5
12B0
330
126B
100
AcDbEntity
  8
0
100
AcDbLine
 10
477.0000018771634
 20
50.81329966616976
 30
0.0
 11
83.0000018771634
 21
50.81329966616976
 31
0.0
  0
LINE
  5
12B1
330
126B
100
AcDbEntity
  8
ITTEN
100
AcDbLine
 10
280.0000018771634
 20
652.8132996661699
 30
0.0
 11
280.0000018771634
 21
30.81329966616976
 31
0.0
  0
DIMENSION
  5
12B2
330
126B
100
AcDbEntity
  8
SUNPOU
100
AcDbDimension
  2
*D38
 10
83.0000018771634
 20
4.999998163678355
 30
0.0
 11
280.0000018771634
 21
12.94999816367834
 31
0.0
 12
-988.527892415459
 22
-246.0485777567983
 32
0.0
  3
IMAO
100
AcDbAlignedDimension
 13
477.0000018771634
 23
50.81329966616976
 33
0.0
 14
83.0000018771634
 24
50.81329966616976
 34
0.0
100
AcDbRotatedDimension
1001
ACAD
1000
DSTYLE
1002
{
1070
   287
1070
     3
1070
    40
1040
5.0
1070
   271
1070
     4
1070
   272
1070
     4
1070
   279
1070
     0
1070
   284
1070
     0
1070
   285
1070
     0
1070
   286
1070
     0
1070
   340
1005
D7
1070
     6
1000
ARROW
1070
     7
1000
ARROW
1002
}
  0
DIMENSION
  5
12B3
330
126B
100
AcDbEntity
  8
SUNPOU
100
AcDbDimension
  2
*D36
 10
75.00000187716342
 20
707.1120428509421
 30
0.0
 11
309.6110028787611
 21
707.1120428509421
 31
0.0
 12
-482.1330875380722
 22
-194.7229396165803
 32
0.0
 70
   128
  3
IMAO
100
AcDbAlignedDimension
 13
485.0000018771634
 23
599.3132996661698
 33
0.0
 14
75.00000187716342
 24
599.3132996661698
 34
0.0
100
AcDbRotatedDimension
1001
ACAD
1000
DSTYLE
1002
{
1070
   287
1070
     3
1070
    40
1040
5.0
1070
   271
1070
     4
1070
   272
1070
     4
1070
   279
1070
     0
1070
   284
1070
     0
1070
   285
1070
     0
1070
   286
1070
     0
1070
   340
1005
D7
1070
     6
1000
ARROW
1070
     7
1000
ARROW
1002
}
  0
CIRCLE
  5
12B4
330
126B
100
AcDbEntity
  8
0
100
AcDbCircle
 10
364.7102715972996
 20
622.8132996661697
 30
0.0
 40
8.0
  0
LINE
  5
12B5
330
126B
100
AcDbEntity
  8
ITTEN
100
AcDbLine
 10
324.7102715972996
 20
622.8132996661697
 30
0.0
 11
404.7102715972996
 21
622.8132996661697
 31
0.0
  0
ARC
  5
12B6
330
126B
100
AcDbEntity
  8
0
100
AcDbCircle
 10
348.0000018771634
 20
622.8132996661696
 30
0.0
 40
8.0
100
AcDbArc
 50
180.0000000000007
 51
270.0
  0
ARC
  5
12B7
330
126B
100
AcDbEntity
  8
0
100
AcDbCircle
 10
348.0000018771634
 20
622.8132996661697
 30
0.0
 40
8.0
100
AcDbArc
 50
89.99999999999998
 51
180.0000000000004
  0
LINE
  5
12B8
330
126B
100
AcDbEntity
  8
ITTEN
100
AcDbLine
 10
340.0000018771634
 20
622.8132996661697
 30
0.0
 11
340.0000018771634
 21
622.8132996661695
 31
0.0
  0
LINE
  5
12B9
330
126B
100
AcDbEntity
  8
0
100
AcDbLine
 10
400.0000018771634
 20
630.8132996661698
 30
0.0
 11
400.0000018771634
 21
614.8132996661696
 31
0.0
  0
LINE
  5
12BA
330
126B
100
AcDbEntity
  8
0
100
AcDbLine
 10
348.0000018771634
 20
630.8132996661697
 30
0.0
 11
400.0000018771634
 21
630.8132996661697
 31
0.0
  0
LINE
  5
12BB
330
126B
100
AcDbEntity
  8
0
100
AcDbLine
 10
348.0000018771634
 20
614.8132996661696
 30
0.0
 11
400.0000018771634
 21
614.8132996661697
 31
0.0
  0
LINE
  5
12BC
330
126B
100
AcDbEntity
  8
0
100
AcDbLine
 10
330.0000018771634
 20
566.8132996661695
 30
0.0
 11
330.0000018771634
 21
556.8132996661696
 31
0.0
  0
LINE
  5
12BD
330
126B
100
AcDbEntity
  8
0
100
AcDbLine
 10
230.0000018771634
 20
566.8132996661698
 30
0.0
 11
230.0000018771634
 21
556.8132996661697
 31
0.0
  0
LINE
  5
12BE
330
126B
100
AcDbEntity
  8
0
100
AcDbLine
 10
210.0000018771634
 20
556.8132996661695
 30
0.0
 11
350.0000018771634
 21
556.8132996661696
 31
0.0
  0
LINE
  5
12BF
330
126B
100
AcDbEntity
  8
0
100
AcDbLine
 10
210.0000018771634
 20
566.8132996661695
 30
0.0
 11
350.0000018771634
 21
566.8132996661696
 31
0.0
  0
LINE
  5
12C0
330
126B
100
AcDbEntity
  8
0
100
AcDbLine
 10
210.0000018771634
 20
566.8132996661696
 30
0.0
 11
210.0000018771634
 21
556.8132996661696
 31
0.0
  0
LINE
  5
12C1
330
126B
100
AcDbEntity
  8
0
100
AcDbLine
 10
350.0000018771634
 20
566.8132996661695
 30
0.0
 11
350.0000018771634
 21
556.8132996661696
 31
0.0
  0
LINE
  5
12C2
330
126B
100
AcDbEntity
  8
0
100
AcDbLine
 10
477.0000018771634
 20
556.8132996661697
 30
0.0
 11
478.0000018771634
 21
556.8132996661697
 31
0.0
  0
LINE
  5
12C3
330
126B
100
AcDbEntity
  8
0
100
AcDbLine
 10
477.0000018771634
 20
566.8132996661698
 30
0.0
 11
478.0000018771634
 21
566.8132996661698
 31
0.0
  0
ARC
  5
12C4
330
126B
100
AcDbEntity
  8
0
100
AcDbCircle
 10
82.00000187716341
 20
587.8132996661697
 30
0.0
 40
7.0
100
AcDbArc
 50
180.0
 51
270.0
  0
ARC
  5
12C5
330
126B
100
AcDbEntity
  8
0
100
AcDbCircle
 10
82.00000187716341
 20
588.8132996661697
 30
0.0
 40
7.0
100
AcDbArc
 50
90.00000000000046
 51
180.0
  0
ARC
  5
12C6
330
126B
100
AcDbEntity
  8
0
100
AcDbCircle
 10
478.0000018771638
 20
587.8132996661697
 30
0.0
 40
7.0
100
AcDbArc
 50
269.9999999999972
 51
0.0
  0
ARC
  5
12C7
330
126B
100
AcDbEntity
  8
0
100
AcDbCircle
 10
478.0000018771636
 20
588.81329966617
 30
0.0
 40
7.0
100
AcDbArc
 50
359.9999999999981
 51
90.00000000000186
  0
LINE
  5
12C8
330
126B
100
AcDbEntity
  8
0
100
AcDbLine
 10
485.0000018771634
 20
588.8132996661697
 30
0.0
 11
485.0000018771634
 21
587.8132996661697
 31
0.0
  0
LINE
  5
12C9
330
126B
100
AcDbEntity
  8
0
100
AcDbLine
 10
75.00000187716342
 20
588.8132996661697
 30
0.0
 11
75.00000187716342
 21
587.8132996661697
 31
0.0
  0
ARC
  5
12CA
330
126B
100
AcDbEntity
  8
0
100
AcDbCircle
 10
78.50000187716341
 20
599.3132996661698
 30
0.0
 40
3.5
100
AcDbArc
 50
180.0
 51
270.0
  0
ARC
  5
12CB
330
126B
100
AcDbEntity
  8
0
100
AcDbCircle
 10
78.50000187716341
 20
599.3132996661698
 30
0.0
 40
3.5
100
AcDbArc
 50
89.99999999999998
 51
180.0
  0
ARC
  5
12CC
330
126B
100
AcDbEntity
  8
0
100
AcDbCircle
 10
481.5000018771634
 20
599.3132996661698
 30
0.0
 40
3.5
100
AcDbArc
 50
270.0
 51
0.0
  0
ARC
  5
12CD
330
126B
100
AcDbEntity
  8
0
100
AcDbCircle
 10
481.5000018771634
 20
599.3132996661696
 30
0.0
 40
3.5
100
AcDbArc
 50
0.0
 51
90.0
  0
LINE
  5
12CE
330
126B
100
AcDbEntity
  8
0
100
AcDbLine
 10
82.00000187716341
 20
580.8132996661697
 30
0.0
 11
478.0000018771634
 21
580.8132996661697
 31
0.0
  0
LINE
  5
12CF
330
126B
100
AcDbEntity
  8
0
100
AcDbLine
 10
75.00000187716342
 20
599.3132996661698
 30
0.0
 11
75.00000187716342
 21
599.3132996661698
 31
0.0
  0
LINE
  5
12D0
330
126B
100
AcDbEntity
  8
0
100
AcDbLine
 10
485.0000018771634
 20
599.3132996661696
 30
0.0
 11
485.0000018771634
 21
599.3132996661698
 31
0.0
  0
LINE
  5
12D1
330
126B
100
AcDbEntity
  8
0
100
AcDbLine
 10
78.50000187716341
 20
595.8132996661698
 30
0.0
 11
481.5000018771634
 21
595.8132996661698
 31
0.0
  0
ARC
  5
12D2
330
126B
100
AcDbEntity
  8
0
100
AcDbCircle
 10
140.0000018771634
 20
622.8132996661699
 30
0.0
 40
30.0
100
AcDbArc
 50
90.0
 51
180.0
  0
ARC
  5
12D3
330
126B
100
AcDbEntity
  8
0
100
AcDbCircle
 10
420.0000018771634
 20
622.8132996661697
 30
0.0
 40
30.0
100
AcDbArc
 50
0.0
 51
90.0
  0
LINE
  5
12D4
330
126B
100
AcDbEntity
  8
0
100
AcDbLine
 10
140.0000018771634
 20
652.81329966617
 30
0.0
 11
420.0000018771634
 21
652.8132996661697
 31
0.0
  0
LINE
  5
12D5
330
126B
100
AcDbEntity
  8
0
100
AcDbLine
 10
110.0000018771634
 20
622.8132996661699
 30
0.0
 11
110.0000018771634
 21
602.8132996661697
 31
0.0
  0
LINE
  5
12D6
330
126B
100
AcDbEntity
  8
0
100
AcDbLine
 10
450.0000018771634
 20
622.8132996661697
 30
0.0
 11
450.0000018771634
 21
602.8132996661697
 31
0.0
  0
LINE
  5
12D7
330
126B
100
AcDbEntity
  8
0
100
AcDbLine
 10
78.50000187716341
 20
602.8132996661697
 30
0.0
 11
481.5000018771634
 21
602.8132996661696
 31
0.0
  0
ENDBLK
  5
12D9
330
126B
100
AcDbEntity
  8
0
100
AcDbBlockEnd
  0
BLOCK
  5
1360
330
12DC
100
AcDbEntity
  8
0
100
AcDbBlockBegin
  2
A$C24D528C3
 70
     0
 10
0.0
 20
0.0
 30
0.0
  3
A$C24D528C3
  1

  0
LINE
  5
12DD
330
12DC
100
AcDbEntity
  8
0
100
AcDbLine
 10
239.9999992365937
 20
472.6444058234826
 30
0.0
 11
199.9999992365937
 21
472.6444058234829
 31
0.0
  0
LINE
  5
12DE
330
12DC
100
AcDbEntity
  8
0
100
AcDbLine
 10
268.9169633690024
 20
284.0345966571147
 30
0.0
 11
370.9999992365938
 21
284.0345966571149
 31
0.0
  0
LINE
  5
12DF
330
12DC
100
AcDbEntity
  8
0
100
AcDbLine
 10
199.9999992365937
 20
430.4824714567322
 30
0.0
 11
128.9999992365937
 21
430.4824714567321
 31
0.0
  0
LINE
  5
12E0
330
12DC
100
AcDbEntity
  8
0
100
AcDbLine
 10
199.9999992365938
 20
439.1632680982938
 30
0.0
 11
109.9999992365938
 21
439.1632680982938
 31
0.0
  0
LINE
  5
12E1
330
12DC
100
AcDbEntity
  8
0
100
AcDbLine
 10
370.9999992365938
 20
430.4824714567321
 30
0.0
 11
299.9999992365939
 21
430.4824714567322
 31
0.0
  0
LINE
  5
12E2
330
12DC
100
AcDbEntity
  8
0
100
AcDbLine
 10
128.9999992365937
 20
284.0345966571149
 30
0.0
 11
231.0634840838813
 21
284.0345966571149
 31
0.0
  0
LINE
  5
12E3
330
12DC
100
AcDbEntity
  8
0
100
AcDbLine
 10
128.9999992365937
 20
430.4824714567321
 30
0.0
 11
128.9999992365937
 21
284.0345966571149
 31
0.0
  0
LINE
  5
12E4
330
12DC
100
AcDbEntity
  8
0
100
AcDbLine
 10
370.9999992365938
 20
430.4824714567321
 30
0.0
 11
370.9999992365938
 21
284.0345966571149
 31
0.0
  0
LINE
  5
12E5
330
12DC
100
AcDbEntity
  8
0
100
AcDbLine
 10
169.9999992365936
 20
417.9999999999998
 30
0.0
 11
329.9999992365936
 21
418.0
 31
0.0
  0
LINE
  5
12E6
330
12DC
100
AcDbEntity
  8
0
100
AcDbLine
 10
380.9999992365939
 20
439.1632680982938
 30
0.0
 11
389.9999992365938
 21
439.1632680982938
 31
0.0
  0
LINE
  5
12E7
330
12DC
100
AcDbEntity
  8
0
100
AcDbLine
 10
389.9999992365938
 20
439.1632680982938
 30
0.0
 11
299.9999992365939
 21
439.1632680982938
 31
0.0
  0
LINE
  5
12E8
330
12DC
100
AcDbEntity
  8
0
100
AcDbLine
 10
265.6261368567303
 20
296.2938006621361
 30
0.0
 11
329.9999992365937
 21
296.2938006621361
 31
0.0
  0
LINE
  5
12E9
330
12DC
100
AcDbEntity
  8
0
100
AcDbLine
 10
169.9999992365937
 20
296.2938006621361
 30
0.0
 11
234.2949044232992
 21
296.293800662136
 31
0.0
  0
LINE
  5
12EA
330
12DC
100
AcDbEntity
  8
0
100
AcDbLine
 10
169.9999992365937
 20
418.0
 30
0.0
 11
169.9999992365937
 21
296.2938006621361
 31
0.0
  0
LINE
  5
12EB
330
12DC
100
AcDbEntity
  8
0
100
AcDbLine
 10
329.9999992365937
 20
418.0
 30
0.0
 11
329.9999992365939
 21
296.2938006621361
 31
0.0
  0
LINE
  5
12EC
330
12DC
100
AcDbEntity
  8
0
100
AcDbLine
 10
239.9999992365938
 20
451.4062103242602
 30
0.0
 11
219.9999992365937
 21
451.4062103242602
 31
0.0
  0
LINE
  5
12ED
330
12DC
100
AcDbEntity
  8
0
100
AcDbLine
 10
279.9999992365938
 20
451.4062103242605
 30
0.0
 11
259.9999992365938
 21
451.4062103242604
 31
0.0
  0
LINE
  5
12EE
330
12DC
100
AcDbEntity
  8
0
100
AcDbLine
 10
279.9999992365937
 20
472.6444058234829
 30
0.0
 11
279.9999992365939
 21
418.0000000000001
 31
0.0
  0
LINE
  5
12EF
330
12DC
100
AcDbEntity
  8
0
100
AcDbLine
 10
219.9999992365937
 20
472.6444058234829
 30
0.0
 11
219.9999992365938
 21
418.0000000000001
 31
0.0
  0
LINE
  5
12F0
330
12DC
100
AcDbEntity
  8
0
100
AcDbLine
 10
199.9999992365937
 20
472.6444058234829
 30
0.0
 11
199.9999992365938
 21
418.0000000000001
 31
0.0
  0
LINE
  5
12F1
330
12DC
100
AcDbEntity
  8
0
100
AcDbLine
 10
299.9999992365938
 20
472.6444058234829
 30
0.0
 11
299.9999992365939
 21
418.0000000000001
 31
0.0
  0
LINE
  5
12F2
330
12DC
100
AcDbEntity
  8
0
100
AcDbLine
 10
299.9999992365938
 20
472.6444058234829
 30
0.0
 11
259.9999992365937
 21
472.644405823483
 31
0.0
  0
ARC
  5
12F3
330
12DC
100
AcDbEntity
  8
0
100
AcDbCircle
 10
255.9999992365936
 20
506.2804447928037
 30
0.0
 40
4.0
100
AcDbArc
 50
0.0
 51
90.0
  0
ARC
  5
12F4
330
12DC
100
AcDbEntity
  8
0
100
AcDbCircle
 10
243.9999992365937
 20
506.2804447928037
 30
0.0
 40
4.0
100
AcDbArc
 50
90.0
 51
180.0
  0
LINE
  5
12F5
330
12DC
100
AcDbEntity
  8
0
100
AcDbLine
 10
255.9999992365936
 20
510.2804447928037
 30
0.0
 11
243.9999992365937
 21
510.2804447928037
 31
0.0
  0
LINE
  5
12F6
330
12DC
100
AcDbEntity
  8
0
100
AcDbLine
 10
239.9999992365938
 20
329.9999999999979
 30
0.0
 11
239.9999992365937
 21
506.2804447928037
 31
0.0
  0
LINE
  5
12F7
330
12DC
100
AcDbEntity
  8
0
100
AcDbLine
 10
259.9999992365937
 20
330.0000000000041
 30
0.0
 11
259.9999992365936
 21
506.2804447928037
 31
0.0
  0
LINE
  5
12F8
330
12DC
100
AcDbEntity
  8
ITTEN
100
AcDbLine
 10
233.9999992365938
 20
330.0000000000041
 30
0.0
 11
263.9999992365938
 21
330.0000000000041
 31
0.0
  0
LINE
  5
12F9
330
12DC
100
AcDbEntity
  8
0
100
AcDbLine
 10
271.9999992365937
 20
280.0
 30
0.0
 11
271.9999992365937
 21
265.0
 31
0.0
  0
LINE
  5
12FA
330
12DC
100
AcDbEntity
  8
0
100
AcDbLine
 10
227.9999992365938
 20
280.0
 30
0.0
 11
227.9999992365937
 21
265.0
 31
0.0
  0
LINE
  5
12FB
330
12DC
100
AcDbEntity
  8
0
100
AcDbLine
 10
271.9999992365937
 20
265.0000000000001
 30
0.0
 11
227.9999992365937
 21
265.0
 31
0.0
  0
LINE
  5
12FC
330
12DC
100
AcDbEntity
  8
0
100
AcDbLine
 10
258.1381075755931
 20
324.1887012929372
 30
0.0
 11
269.9999992365937
 21
280.0
 31
0.0
  0
LINE
  5
12FD
330
12DC
100
AcDbEntity
  8
0
100
AcDbLine
 10
241.7067190357745
 20
324.4123794410589
 30
0.0
 11
229.9999992365937
 21
280.0
 31
0.0
  0
LINE
  5
12FE
330
12DC
100
AcDbEntity
  8
0
100
AcDbLine
 10
271.9999992365937
 20
280.0
 30
0.0
 11
227.9999992365937
 21
280.0
 31
0.0
  0
CIRCLE
  5
12FF
330
12DC
100
AcDbEntity
  8
0
100
AcDbCircle
 10
249.9999992365938
 20
330.0
 30
0.0
 40
10.0
  0
LINE
  5
1300
330
12DC
100
AcDbEntity
  8
0
100
AcDbLine
 10
118.9999992365937
 20
439.1632680982938
 30
0.0
 11
118.9999992365937
 21
260.0
 31
0.0
  0
LINE
  5
1301
330
12DC
100
AcDbEntity
  8
0
100
AcDbLine
 10
380.9999992365938
 20
439.1632680982938
 30
0.0
 11
380.9999992365938
 21
259.9999999999998
 31
0.0
  0
LINE
  5
1302
330
12DC
100
AcDbEntity
  8
0
100
AcDbLine
 10
109.9999992365938
 20
254.9999999999998
 30
0.0
 11
52.99999923659374
 21
255.0
 31
0.0
  0
LINE
  5
1303
330
12DC
100
AcDbEntity
  8
0
100
AcDbLine
 10
109.9999992365938
 20
260.9999999999998
 30
0.0
 11
52.99999923659374
 21
261.0
 31
0.0
  0
LINE
  5
1304
330
12DC
100
AcDbEntity
  8
0
100
AcDbLine
 10
118.9999992365937
 20
260.0
 30
0.0
 11
380.9999992365938
 21
259.9999999999998
 31
0.0
  0
LINE
  5
1305
330
12DC
100
AcDbEntity
  8
0
100
AcDbLine
 10
115.9999992365937
 20
254.0
 30
0.0
 11
383.9999992365937
 21
253.9999999999998
 31
0.0
  0
LINE
  5
1306
330
12DC
100
AcDbEntity
  8
0
100
AcDbLine
 10
383.9999992365937
 20
439.1632680982938
 30
0.0
 11
383.9999992365937
 21
253.9999999999998
 31
0.0
  0
LINE
  5
1307
330
12DC
100
AcDbEntity
  8
0
100
AcDbLine
 10
115.9999992365937
 20
439.1632680982938
 30
0.0
 11
115.9999992365937
 21
254.0
 31
0.0
  0
LINE
  5
1308
330
12DC
100
AcDbEntity
  8
0
100
AcDbLine
 10
109.9999992365938
 20
248.0
 30
0.0
 11
389.9999992365938
 21
248.0
 31
0.0
  0
LINE
  5
1309
330
12DC
100
AcDbEntity
  8
0
100
AcDbLine
 10
389.9999992365938
 20
439.1632680982938
 30
0.0
 11
389.9999992365938
 21
248.0
 31
0.0
  0
LINE
  5
130A
330
12DC
100
AcDbEntity
  8
ITTEN
100
AcDbLine
 10
249.9999992365937
 20
550.0
 30
0.0
 11
249.9999992365938
 21
0.0
 31
0.0
  0
LINE
  5
130B
330
12DC
100
AcDbEntity
  8
0
100
AcDbLine
 10
109.9999992365938
 20
439.1632680982938
 30
0.0
 11
109.9999992365938
 21
248.0
 31
0.0
  0
LINE
  5
130C
330
12DC
100
AcDbEntity
  8
0
100
AcDbLine
 10
109.9999992365938
 20
439.1632680982938
 30
0.0
 11
118.9999992365937
 21
439.1632680982938
 31
0.0
  0
LINE
  5
130D
330
12DC
100
AcDbEntity
  8
0
100
AcDbLine
 10
52.99999923659374
 20
526.0
 30
0.0
 11
52.99999923659379
 21
20.0
 31
0.0
  0
LINE
  5
130E
330
12DC
100
AcDbEntity
  8
0
100
AcDbLine
 10
52.99999923659374
 20
526.0
 30
0.0
 11
52.99999923659379
 21
448.0
 31
0.0
  0
LINE
  5
130F
330
12DC
100
AcDbEntity
  8
0
100
AcDbLine
 10
446.9999992365938
 20
536.0
 30
0.0
 11
446.9999992365938
 21
550.0
 31
0.0
  0
ARC
  5
1310
330
12DC
100
AcDbEntity
  8
0
100
AcDbCircle
 10
495.9999992365937
 20
530.0
 30
0.0
 40
4.0
100
AcDbArc
 50
270.0
 51
0.0
  0
ARC
  5
1311
330
12DC
100
AcDbEntity
  8
0
100
AcDbCircle
 10
495.9999992365937
 20
531.9999999999997
 30
0.0
 40
4.0
100
AcDbArc
 50
0.0
 51
90.0
  0
ARC
  5
1312
330
12DC
100
AcDbEntity
  8
0
100
AcDbCircle
 10
3.999999236593851
 20
530.0
 30
0.0
 40
4.0
100
AcDbArc
 50
179.9999999999994
 51
270.0
  0
ARC
  5
1313
330
12DC
100
AcDbEntity
  8
0
100
AcDbCircle
 10
3.999999236593851
 20
531.9999999999997
 30
0.0
 40
4.0
100
AcDbArc
 50
90.0
 51
179.9999999999998
  0
LINE
  5
1314
330
12DC
100
AcDbEntity
  8
0
100
AcDbLine
 10
426.9999992365938
 20
535.9999999999997
 30
0.0
 11
495.9999992365937
 21
535.9999999999997
 31
0.0
  0
LINE
  5
1315
330
12DC
100
AcDbEntity
  8
0
100
AcDbLine
 10
426.9999992365938
 20
525.9999999999998
 30
0.0
 11
495.9999992365937
 21
526.0
 31
0.0
  0
LINE
  5
1316
330
12DC
100
AcDbEntity
  8
0
100
AcDbLine
 10
72.99999923659374
 20
261.0
 30
0.0
 11
72.99999923659379
 21
20.0
 31
0.0
  0
LINE
  5
1317
330
12DC
100
AcDbEntity
  8
0
100
AcDbLine
 10
72.99999923659379
 20
535.9999999999997
 30
0.0
 11
72.99999923659379
 21
525.9999999999998
 31
0.0
  0
LINE
  5
1318
330
12DC
100
AcDbEntity
  8
0
100
AcDbLine
 10
426.9999992365938
 20
525.9999999999998
 30
0.0
 11
426.9999992365938
 21
535.9999999999997
 31
0.0
  0
LINE
  5
1319
330
12DC
100
AcDbEntity
  8
0
100
AcDbLine
 10
72.99999923659379
 20
535.9999999999997
 30
0.0
 11
3.999999236593851
 21
535.9999999999997
 31
0.0
  0
LINE
  5
131A
330
12DC
100
AcDbEntity
  8
0
100
AcDbLine
 10
72.99999923659379
 20
525.9999999999998
 30
0.0
 11
3.999999236593851
 21
526.0
 31
0.0
  0
LINE
  5
131B
330
12DC
100
AcDbEntity
  8
0
100
AcDbLine
 10
-0.000000763406149
 20
531.9999999999997
 30
0.0
 11
-0.000000763406149
 21
530.0
 31
0.0
  0
LINE
  5
131C
330
12DC
100
AcDbEntity
  8
0
100
AcDbLine
 10
499.9999992365937
 20
531.9999999999997
 30
0.0
 11
499.9999992365937
 21
530.0
 31
0.0
  0
LINE
  5
131D
330
12DC
100
AcDbEntity
  8
0
100
AcDbLine
 10
416.4547147631083
 20
250.9094128847824
 30
0.0
 11
416.4547147631083
 21
250.9751713168584
 31
0.0
  0
LINE
  5
131E
330
12DC
100
AcDbEntity
  8
0
100
AcDbLine
 10
419.4547147631075
 20
249.2535238988661
 30
0.0
 11
426.7288506326012
 21
245.0790248195858
 31
0.0
  0
LINE
  5
131F
330
12DC
100
AcDbEntity
  8
0
100
AcDbLine
 10
416.4547147631083
 20
249.2535238988661
 30
0.0
 11
419.4547147631084
 21
249.2535238988661
 31
0.0
  0
LINE
  5
1320
330
12DC
100
AcDbEntity
  8
0
100
AcDbLine
 10
423.7288506326012
 20
245.0790248195858
 30
0.0
 11
426.7288506326013
 21
245.0790248195858
 31
0.0
  0
LINE
  5
1321
330
12DC
100
AcDbEntity
  8
0
100
AcDbLine
 10
416.4547147631083
 20
249.2535238988661
 30
0.0
 11
423.7288506326012
 21
245.0790248195858
 31
0.0
  0
LINE
  5
1322
330
12DC
100
AcDbEntity
  8
0
100
AcDbLine
 10
416.4547147631083
 20
217.5894243544421
 30
0.0
 11
416.4547147631083
 21
249.2535238988659
 31
0.0
  0
LINE
  5
1323
330
12DC
100
AcDbEntity
  8
0
100
AcDbLine
 10
426.7288506326012
 20
223.2067095198198
 30
0.0
 11
426.7288506326012
 21
245.0790248195858
 31
0.0
  0
LINE
  5
1324
330
12DC
100
AcDbEntity
  8
0
100
AcDbLine
 10
423.7288506326012
 20
221.5664883167723
 30
0.0
 11
423.7288506326012
 21
245.0790248195858
 31
0.0
  0
LINE
  5
1325
330
12DC
100
AcDbEntity
  8
0
100
AcDbLine
 10
416.4547147631083
 20
250.9751713168584
 30
0.0
 11
416.574610708697
 21
250.9063651351415
 31
0.0
  0
LINE
  5
1326
330
12DC
100
AcDbEntity
  8
0
100
AcDbLine
 10
416.4547147631083
 20
217.5894243544421
 30
0.0
 11
426.7288506326012
 21
223.2067095198198
 31
0.0
  0
ELLIPSE
  5
1327
330
12DC
100
AcDbEntity
  8
0
100
AcDbEllipse
 10
416.627041427979
 20
232.3959515498882
 30
0.0
 11
-0.9526949154629777
 21
18.50118220427349
 31
0.0
210
0.0
220
0.0
230
1.0
 40
0.7678641535702465
 41
6.189455079097946
 42
8.636758086860075
  0
ELLIPSE
  5
1328
330
12DC
100
AcDbEntity
  8
0
100
AcDbEllipse
 10
416.627041427979
 20
232.3959515498882
 30
0.0
 11
-0.9526949154629777
 21
18.50118220427349
 31
0.0
210
0.0
220
0.0
230
1.0
 40
0.7678641535702465
 41
5.427462728861332
 42
5.594139082400647
  0
ARC
  5
1329
330
12DC
100
AcDbEntity
  8
0
100
AcDbCircle
 10
414.0007127286044
 20
234.2822978356498
 30
0.0
 40
16.8722894428993
100
AcDbArc
 50
49.65274929918302
 51
318.9713294597896
  0
ELLIPSE
  5
132A
330
12DC
100
AcDbEntity
  8
TENSEN
100
AcDbEllipse
 10
386.9999992365924
 20
190.0000778251813
 30
0.0
 11
0.0000000000013642
 21
22.99992217481861
 31
0.0
210
0.0
220
0.0
230
-1.0
 40
0.9130324137956908
 41
7.143534577975087
 42
8.564437617186886
  0
ELLIPSE
  5
132B
330
12DC
100
AcDbEntity
  8
TENSEN
100
AcDbEllipse
 10
386.9999992365924
 20
190.0000778251813
 30
0.0
 11
0.0000000000013642
 21
22.99992217481861
 31
0.0
210
0.0
220
0.0
230
-1.0
 40
0.9130324137956908
 41
9.339239407932685
 42
9.424777960769379
  0
ELLIPSE
  5
132C
330
12DC
100
AcDbEntity
  8
TENSEN
100
AcDbEllipse
 10
386.9999992365924
 20
190.0000778251813
 30
0.0
 11
0.0000000000013642
 21
22.99992217481861
 31
0.0
210
0.0
220
0.0
230
-1.0
 40
0.9130324137956908
 41
6.28312805952093
 42
6.285968948738251
  0
ELLIPSE
  5
132D
330
12DC
100
AcDbEntity
  8
HOJO
100
AcDbEllipse
 10
386.9999992365924
 20
190.0000778251813
 30
0.0
 11
0.0000000000013642
 21
22.99992217481861
 31
0.0
210
0.0
220
0.0
230
-1.0
 40
0.9130324137956908
 41
4.653824270326261
 42
4.72990816217672
  0
ELLIPSE
  5
132E
330
12DC
100
AcDbEntity
  8
TENSEN
100
AcDbEllipse
 10
386.9999992365937
 20
190.0
 30
0.0
 11
0.0
 21
-15.0
 31
0.0
210
0.0
220
0.0
230
-1.0
 40
0.8666666666666667
 41
3.141592653589793
 42
6.283185307179586
  0
LINE
  5
132F
330
12DC
100
AcDbEntity
  8
ITTEN
100
AcDbLine
 10
386.999999236591
 20
144.9999999999999
 30
0.0
 11
386.999999236591
 21
225.9998443496369
 31
0.0
  0
LINE
  5
1330
330
12DC
100
AcDbEntity
  8
0
100
AcDbLine
 10
433.4556396140787
 20
175.0
 30
0.0
 11
386.999999236591
 21
175.0
 31
0.0
  0
LINE
  5
1331
330
12DC
100
AcDbEntity
  8
0
100
AcDbLine
 10
433.4556396140787
 20
205.0
 30
0.0
 11
386.9999992365937
 21
205.0
 31
0.0
  0
CIRCLE
  5
1332
330
12DC
100
AcDbEntity
  8
0
100
AcDbCircle
 10
430.6871417414277
 20
190.0
 30
0.0
 40
12.25334653349466
  0
CIRCLE
  5
1333
330
12DC
100
AcDbEntity
  8
0
100
AcDbCircle
 10
430.6871417414277
 20
190.0
 30
0.0
 40
15.25334653349466
  0
SPLINE
  5
1334
330
12DC
100
AcDbEntity
  8
0
100
AcDbSpline
210
0.0
220
0.0
230
1.0
 70
     8
 71
     3
 72
    45
 73
    41
 74
     0
 42
0.0000000001
 43
0.0000000001
 40
2.306227421583527
 40
2.306227421583527
 40
2.306227421583527
 40
2.306227421583527
 40
2.363915844809297
 40
2.363915844809297
 40
2.682176616171325
 40
2.682176616171325
 40
2.9314237568572
 40
2.9314237568572
 40
3.180670897543074
 40
3.180670897543074
 40
3.429918038228949
 40
3.429918038228949
 40
3.679165178914823
 40
3.679165178914823
 40
3.928412319600698
 40
3.928412319600698
 40
4.177659460286572
 40
4.177659460286572
 40
4.426906600972446
 40
4.426906600972446
 40
4.855016457756462
 40
4.855016457756462
 40
5.283126314540479
 40
5.283126314540479
 40
5.58190875506254
 40
5.58190875506254
 40
5.880691195584602
 40
5.880691195584602
 40
6.127556924218256
 40
6.127556924218256
 40
6.283185307179586
 40
6.283185307179586
 40
6.283185307179586
 40
6.449659678172341
 40
6.449659678172341
 40
6.701098328328999
 40
6.701098328328999
 40
6.952536978485658
 40
6.952536978485658
 40
7.118549623311436
 40
7.118549623311436
 40
7.118549623311436
 40
7.118549623311436
 10
402.9353192041699
 20
175.0
 30
0.0
 10
402.6750397852192
 20
174.6679850579042
 30
0.0
 10
402.4053356785789
 20
174.3432063109335
 30
0.0
 10
400.5874351097913
 20
172.2777734502628
 30
0.0
 10
398.765077743812
 20
170.7689952499756
 30
0.0
 10
395.1371330886434
 20
168.6980458133129
 30
0.0
 10
393.4145620770218
 20
168.0026013990658
 30
0.0
 10
389.8337513879598
 20
167.1212302124106
 30
0.0
 10
387.9765661886101
 20
166.9363465991792
 30
0.0
 10
384.2865779499993
 20
167.1028139541014
 30
0.0
 10
382.455368835253
 20
167.4539322710091
 30
0.0
 10
378.9710574929097
 20
168.6463304398575
 30
0.0
 10
377.3186198885505
 20
169.4863983686665
 30
0.0
 10
374.3004421505192
 20
171.5624450986565
 30
0.0
 10
372.934327540257
 20
172.7974974959626
 30
0.0
 10
370.5490242793882
 20
175.5576063597669
 30
0.0
 10
369.5292558729513
 20
177.082401393972
 30
0.0
 10
367.8659599439536
 20
180.3226966935499
 30
0.0
 10
367.2220848550637
 20
182.038268271488
 30
0.0
 10
366.0017900099503
 20
186.8356621314469
 30
0.0
 10
365.8067377426712
 20
190.0145767547459
 30
0.0
 10
366.5797587947404
 20
196.2257990972277
 30
0.0
 10
367.5487429881529
 20
199.2598950476959
 30
0.0
 10
370.1312522608491
 20
203.9012894470089
 30
0.0
 10
371.4616482963133
 20
205.6623586537127
 30
0.0
 10
374.5972897199017
 20
208.7177020851759
 30
0.0
 10
376.4039646282508
 20
210.0108051419861
 30
0.0
 10
380.0134927328472
 20
211.7839286507539
 30
0.0
 10
381.7615141628739
 20
212.3651909883708
 30
0.0
 10
384.6935860265375
 20
212.8959990441983
 30
0.0
 10
385.8467530141367
 20
213.0
 30
0.0
 10
386.9999992365937
 20
213.0
 30
0.0
 10
388.2336170113863
 20
213.0
 30
0.0
 10
389.4671241543797
 20
212.8809248381104
 30
0.0
 10
392.5040408201512
 20
212.2921268965574
 30
0.0
 10
394.2755139170803
 20
211.673627419645
 30
0.0
 10
397.572904559707
 20
209.9840760539444
 30
0.0
 10
399.0987834816489
 20
208.9142629740117
 30
0.0
 10
401.3587015823281
 20
206.8511330134733
 30
0.0
 10
402.1858988454469
 20
205.9555666544307
 30
0.0
 10
402.9352776457512
 20
205.0
 30
0.0
  0
ELLIPSE
  5
1335
330
12DC
100
AcDbEntity
  8
0
100
AcDbEllipse
 10
386.9999992365937
 20
190.0
 30
0.0
 11
0.0
 21
15.0
 31
0.0
210
0.0
220
0.0
230
-1.0
 40
0.8666666666666667
 41
3.141592653589793
 42
6.283185307179586
  0
LINE
  5
1336
330
12DC
100
AcDbEntity
  8
ITTEN
100
AcDbLine
 10
366.0003935037311
 20
190.0
 30
0.0
 11
446.9999992365938
 21
190.0
 31
0.0
  0
LINE
  5
1337
330
12DC
100
AcDbEntity
  8
0
100
AcDbLine
 10
446.9999992365938
 20
20.0
 30
0.0
 11
52.99999923659379
 21
20.0
 31
0.0
  0
LINE
  5
1338
330
12DC
100
AcDbEntity
  8
0
100
AcDbLine
 10
259.9999992365937
 20
0.0
 30
0.0
 11
259.9999992365937
 21
20.0
 31
0.0
  0
LINE
  5
1339
330
12DC
100
AcDbEntity
  8
0
100
AcDbLine
 10
239.9999992365938
 20
0.0
 30
0.0
 11
239.9999992365938
 21
20.0
 31
0.0
  0
LINE
  5
133A
330
12DC
100
AcDbEntity
  8
0
100
AcDbLine
 10
57.99999923659379
 20
0.0
 30
0.0
 11
57.99999923659379
 21
20.0
 31
0.0
  0
LINE
  5
133B
330
12DC
100
AcDbEntity
  8
0
100
AcDbLine
 10
441.9999992365937
 20
0.0
 30
0.0
 11
441.9999992365937
 21
20.0
 31
0.0
  0
LINE
  5
133C
330
12DC
100
AcDbEntity
  8
0
100
AcDbLine
 10
57.99999923659379
 20
0.0
 30
0.0
 11
57.99999923659379
 21
20.0
 31
0.0
  0
LINE
  5
133D
330
12DC
100
AcDbEntity
  8
0
100
AcDbLine
 10
77.99999923659379
 20
0.0
 30
0.0
 11
77.99999923659379
 21
20.0
 31
0.0
  0
LINE
  5
133E
330
12DC
100
AcDbEntity
  8
0
100
AcDbLine
 10
421.9999992365938
 20
0.0
 30
0.0
 11
421.9999992365938
 21
20.0
 31
0.0
  0
LINE
  5
133F
330
12DC
100
AcDbEntity
  8
0
100
AcDbLine
 10
441.9999992365937
 20
0.0
 30
0.0
 11
441.9999992365937
 21
20.0
 31
0.0
  0
LINE
  5
1340
330
12DC
100
AcDbEntity
  8
0
100
AcDbLine
 10
57.99999923659379
 20
0.0
 30
0.0
 11
77.99999923659379
 21
0.0
 31
0.0
  0
LINE
  5
1341
330
12DC
100
AcDbEntity
  8
0
100
AcDbLine
 10
239.9999992365938
 20
0.0
 30
0.0
 11
259.9999992365937
 21
0.0
 31
0.0
  0
LINE
  5
1342
330
12DC
100
AcDbEntity
  8
0
100
AcDbLine
 10
421.9999992365938
 20
0.0
 30
0.0
 11
441.9999992365937
 21
0.0
 31
0.0
  0
LINE
  5
1343
330
12DC
100
AcDbEntity
  8
0
100
AcDbLine
 10
48.49999923659379
 20
572.0
 30
0.0
 11
451.4999992365938
 21
571.9999999999998
 31
0.0
  0
LINE
  5
1344
330
12DC
100
AcDbEntity
  8
0
100
AcDbLine
 10
419.9999992365937
 20
592.0
 30
0.0
 11
419.9999992365937
 21
572.0
 31
0.0
  0
LINE
  5
1345
330
12DC
100
AcDbEntity
  8
0
100
AcDbLine
 10
79.99999923659379
 20
592.0
 30
0.0
 11
79.99999923659379
 21
572.0
 31
0.0
  0
LINE
  5
1346
330
12DC
100
AcDbEntity
  8
0
100
AcDbLine
 10
109.9999992365938
 20
622.0000000000001
 30
0.0
 11
389.9999992365938
 21
622.0
 31
0.0
  0
ARC
  5
1347
330
12DC
100
AcDbEntity
  8
0
100
AcDbCircle
 10
389.9999992365938
 20
592.0
 30
0.0
 40
30.0
100
AcDbArc
 50
0.0
 51
90.0
  0
ARC
  5
1348
330
12DC
100
AcDbEntity
  8
0
100
AcDbCircle
 10
109.9999992365938
 20
592.0
 30
0.0
 40
30.0
100
AcDbArc
 50
90.0
 51
180.0
  0
LINE
  5
1349
330
12DC
100
AcDbEntity
  8
0
100
AcDbLine
 10
48.49999923659379
 20
565.0
 30
0.0
 11
451.4999992365938
 21
565.0
 31
0.0
  0
LINE
  5
134A
330
12DC
100
AcDbEntity
  8
0
100
AcDbLine
 10
454.9999992365938
 20
568.4999999999998
 30
0.0
 11
454.9999992365938
 21
568.5
 31
0.0
  0
LINE
  5
134B
330
12DC
100
AcDbEntity
  8
0
100
AcDbLine
 10
44.99999923659379
 20
568.5
 30
0.0
 11
44.99999923659379
 21
568.5
 31
0.0
  0
LINE
  5
134C
330
12DC
100
AcDbEntity
  8
0
100
AcDbLine
 10
51.9999992365938
 20
550.0
 30
0.0
 11
447.9999992365938
 21
550.0
 31
0.0
  0
ARC
  5
134D
330
12DC
100
AcDbEntity
  8
0
100
AcDbCircle
 10
451.4999992365938
 20
568.4999999999998
 30
0.0
 40
3.5
100
AcDbArc
 50
0.0
 51
90.0
  0
ARC
  5
134E
330
12DC
100
AcDbEntity
  8
0
100
AcDbCircle
 10
451.4999992365938
 20
568.5
 30
0.0
 40
3.5
100
AcDbArc
 50
270.0
 51
0.0
  0
ARC
  5
134F
330
12DC
100
AcDbEntity
  8
0
100
AcDbCircle
 10
48.49999923659379
 20
568.5
 30
0.0
 40
3.5
100
AcDbArc
 50
89.99999999999998
 51
180.0
  0
ARC
  5
1350
330
12DC
100
AcDbEntity
  8
0
100
AcDbCircle
 10
48.49999923659379
 20
568.5
 30
0.0
 40
3.5
100
AcDbArc
 50
180.0
 51
270.0
  0
LINE
  5
1351
330
12DC
100
AcDbEntity
  8
0
100
AcDbLine
 10
44.99999923659379
 20
558.0
 30
0.0
 11
44.99999923659379
 21
557.0
 31
0.0
  0
LINE
  5
1352
330
12DC
100
AcDbEntity
  8
0
100
AcDbLine
 10
454.9999992365938
 20
558.0
 30
0.0
 11
454.9999992365938
 21
557.0
 31
0.0
  0
ARC
  5
1353
330
12DC
100
AcDbEntity
  8
0
100
AcDbCircle
 10
447.9999992365939
 20
558.0000000000002
 30
0.0
 40
7.0
100
AcDbArc
 50
359.9999999999981
 51
90.00000000000186
  0
ARC
  5
1354
330
12DC
100
AcDbEntity
  8
0
100
AcDbCircle
 10
447.9999992365942
 20
557.0
 30
0.0
 40
7.0
100
AcDbArc
 50
269.9999999999972
 51
0.0
  0
ARC
  5
1355
330
12DC
100
AcDbEntity
  8
0
100
AcDbCircle
 10
51.9999992365938
 20
558.0
 30
0.0
 40
7.0
100
AcDbArc
 50
90.00000000000046
 51
180.0
  0
ARC
  5
1356
330
12DC
100
AcDbEntity
  8
0
100
AcDbCircle
 10
51.9999992365938
 20
557.0
 30
0.0
 40
7.0
100
AcDbArc
 50
180.0
 51
270.0
  0
LINE
  5
1357
330
12DC
100
AcDbEntity
  8
0
100
AcDbLine
 10
446.9999992365938
 20
20.0
 30
0.0
 11
446.9999992365938
 21
255.0
 31
0.0
  0
LINE
  5
1358
330
12DC
100
AcDbEntity
  8
0
100
AcDbLine
 10
52.99999923659379
 20
549.9999999999999
 30
0.0
 11
52.99999923659374
 21
535.9999999999997
 31
0.0
  0
LINE
  5
1359
330
12DC
100
AcDbEntity
  8
0
100
AcDbLine
 10
446.9999992365938
 20
255.0
 30
0.0
 11
389.9999992365938
 21
255.0
 31
0.0
  0
LINE
  5
135A
330
12DC
100
AcDbEntity
  8
0
100
AcDbLine
 10
446.9999992365938
 20
261.0
 30
0.0
 11
389.9999992365938
 21
261.0
 31
0.0
  0
LINE
  5
135B
330
12DC
100
AcDbEntity
  8
0
100
AcDbLine
 10
441.9999992365937
 20
255.0
 30
0.0
 11
441.9999992365937
 21
261.0000000000001
 31
0.0
  0
LINE
  5
135C
330
12DC
100
AcDbEntity
  8
0
100
AcDbLine
 10
446.9999992365938
 20
261.0
 30
0.0
 11
446.9999992365938
 21
526.0
 31
0.0
  0
LINE
  5
135D
330
12DC
100
AcDbEntity
  8
0
100
AcDbLine
 10
52.99999923659379
 20
550.0
 30
0.0
 11
52.99999923659374
 21
535.9999999999996
 31
0.0
  0
LINE
  5
135E
330
12DC
100
AcDbEntity
  8
0
100
AcDbLine
 10
446.9999992365938
 20
536.0
 30
0.0
 11
447.9999992365938
 21
536.0
 31
0.0
  0
LINE
  5
135F
330
12DC
100
AcDbEntity
  8
0
100
AcDbLine
 10
446.9999992365938
 20
526.0
 30
0.0
 11
447.9999992365938
 21
526.0
 31
0.0
  0
ENDBLK
  5
1361
330
12DC
100
AcDbEntity
  8
0
100
AcDbBlockEnd
  0
BLOCK
  5
136E
330
1364
100
AcDbEntity
  8
0
100
AcDbBlockBegin
  2
*D41
 70
     1
 10
0.0
 20
0.0
 30
0.0
  3
*D41
  1

  0
LINE
  5
1365
330
1364
100
AcDbEntity
  8
0
  6
BYBLOCK
 62
     0
100
AcDbLine
 10
680.7265650251613
 20
1279.404760787127
 30
0.0
 11
772.948810624559
 21
1279.404760787127
 31
0.0
  0
LINE
  5
1366
330
1364
100
AcDbEntity
  8
0
  6
BYBLOCK
 62
     0
100
AcDbLine
 10
725.7265650251702
 20
1229.404760787138
 30
0.0
 11
772.948810624559
 21
1229.404760787138
 31
0.0
  0
LINE
  5
1367
330
1364
100
AcDbEntity
  8
0
  6
BYBLOCK
 62
     0
100
AcDbLine
 10
767.948810624559
 20
1271.904760787128
 30
0.0
 11
767.948810624559
 21
1236.904760787138
 31
0.0
  0
INSERT
  5
1368
330
1364
100
AcDbEntity
  8
0
  6
BYBLOCK
 62
     0
100
AcDbBlockReference
  2
ARROW
 10
767.948810624559
 20
1279.404760787127
 30
0.0
 41
7.5
 42
7.5
 43
7.5
 50
90.0
  0
INSERT
  5
1369
330
1364
100
AcDbEntity
  8
0
  6
BYBLOCK
 62
     0
100
AcDbBlockReference
  2
ARROW
 10
767.948810624559
 20
1229.404760787138
 30
0.0
 41
7.5
 42
7.5
 43
7.5
 50
270.0
  0
MTEXT
  5
136A
330
1364
100
AcDbEntity
  8
0
  6
BYBLOCK
 62
     0
100
AcDbMText
 10
759.9988106245589
 20
1254.404760787133
 30
0.0
 40
15.0
 41
0.0
 71
     5
 72
     1
  1
\A1;50
 11
0.0000000000000001
 21
1.0
 31
0.0
1001
ACAD
1000
MTEXTBEGIN
1070
    73
1070
     1
1070
    44
1040
1.0
1070
    74
1070
     0
1000
MTEXTEND
  0
POINT
  5
136B
330
1364
100
AcDbEntity
  8
DEFPOINTS
  6
BYBLOCK
 62
     0
100
AcDbPoint
 10
675.7265650251613
 20
1279.404760787127
 30
0.0
  0
POINT
  5
136C
330
1364
100
AcDbEntity
  8
DEFPOINTS
  6
BYBLOCK
 62
     0
100
AcDbPoint
 10
720.7265650251701
 20
1229.404760787138
 30
0.0
  0
POINT
  5
136D
330
1364
100
AcDbEntity
  8
DEFPOINTS
  6
BYBLOCK
 62
     0
100
AcDbPoint
 10
767.948810624559
 20
1229.404760787138
 30
0.0
  0
ENDBLK
  5
136F
330
1364
100
AcDbEntity
  8
0
100
AcDbBlockEnd
  0
BLOCK
  5
137A
330
1370
100
AcDbEntity
  8
0
100
AcDbBlockBegin
  2
*D42
 70
     1
 10
0.0
 20
0.0
 30
0.0
  3
*D42
  1

  0
ARC
  5
1371
330
1370
100
AcDbEntity
  8
0
  6
BYBLOCK
 62
     0
100
AcDbCircle
 10
470.72656502517
 20
1229.404760787128
 30
0.0
 40
245.1940120823664
100
AcDbArc
 50
316.7526329325964
 51
358.2473670674036
  0
INSERT
  5
1372
330
1370
100
AcDbEntity
  8
0
  6
BYBLOCK
 62
     0
100
AcDbBlockReference
  2
ARROW
 10
644.1049136749476
 20
1056.02641213735
 30
0.0
 41
7.5
 42
7.5
 43
7.5
 50
225.8763164662981
  0
INSERT
  5
1373
330
1370
100
AcDbEntity
  8
0
  6
BYBLOCK
 62
     0
100
AcDbBlockReference
  2
ARROW
 10
715.9205771075364
 20
1229.404760787127
 30
0.0
 41
7.5
 42
7.5
 43
7.5
 50
89.12368353370181
  0
MTEXT
  5
1374
330
1370
100
AcDbEntity
  8
0
  6
BYBLOCK
 62
     0
100
AcDbMText
 10
689.9114519989288
 20
1138.615407935382
 30
0.0
 40
15.0
 41
0.0
 71
     5
 72
     1
  1
\A1;45°
 11
0.382683432365089
 21
0.9238795325112871
 31
0.0
1001
ACAD
1000
MTEXTBEGIN
1070
    73
1070
     1
1070
    44
1040
1.0
1070
    74
1070
     0
1000
MTEXTEND
  0
POINT
  5
1375
330
1370
100
AcDbEntity
  8
DEFPOINTS
  6
BYBLOCK
 62
     0
100
AcDbPoint
 10
683.070808344328
 20
1106.807754745944
 30
0.0
  0
POINT
  5
1376
330
1370
100
AcDbEntity
  8
DEFPOINTS
  6
BYBLOCK
 62
     0
100
AcDbPoint
 10
720.7265650251701
 20
1229.404760787128
 30
0.0
  0
POINT
  5
1377
330
1370
100
AcDbEntity
  8
DEFPOINTS
  6
BYBLOCK
 62
     0
100
AcDbPoint
 10
647.5032603218068
 20
1052.628065490491
 30
0.0
  0
POINT
  5
1378
330
1370
100
AcDbEntity
  8
DEFPOINTS
  6
BYBLOCK
 62
     0
100
AcDbPoint
 10
470.7265650251701
 20
1229.404760787127
 30
0.0
  0
POINT
  5
1379
330
1370
100
AcDbEntity
  8
DEFPOINTS
  6
BYBLOCK
 62
     0
100
AcDbPoint
 10
220.7265650251703
 20
1229.404760787128
 30
0.0
  0
ENDBLK
  5
137B
330
1370
100
AcDbEntity
  8
0
100
AcDbBlockEnd
  0
BLOCK
  5
1386
330
137C
100
AcDbEntity
  8
0
100
AcDbBlockBegin
  2
*D43
 70
     1
 10
0.0
 20
0.0
 30
0.0
  3
*D43
  1

  0
LINE
  5
137D
330
137C
100
AcDbEntity
  8
0
  6
BYBLOCK
 62
     0
100
AcDbLine
 10
220.7265650251701
 20
1234.404760787128
 30
0.0
 11
220.7265650251701
 21
1503.362036353435
 31
0.0
  0
LINE
  5
137E
330
137C
100
AcDbEntity
  8
0
  6
BYBLOCK
 62
     0
100
AcDbLine
 10
720.7265650251701
 20
1234.404760787138
 30
0.0
 11
720.7265650251701
 21
1503.362036353435
 31
0.0
  0
LINE
  5
137F
330
137C
100
AcDbEntity
  8
0
  6
BYBLOCK
 62
     0
100
AcDbLine
 10
228.2265650251701
 20
1498.362036353435
 30
0.0
 11
713.2265650251702
 21
1498.362036353435
 31
0.0
  0
INSERT
  5
1380
330
137C
100
AcDbEntity
  8
0
  6
BYBLOCK
 62
     0
100
AcDbBlockReference
  2
ARROW
 10
220.7265650251701
 20
1498.362036353435
 30
0.0
 41
7.5
 42
7.5
 43
7.5
 50
180.0
  0
INSERT
  5
1381
330
137C
100
AcDbEntity
  8
0
  6
BYBLOCK
 62
     0
100
AcDbBlockReference
  2
ARROW
 10
720.7265650251701
 20
1498.362036353435
 30
0.0
 41
7.5
 42
7.5
 43
7.5
  0
MTEXT
  5
1382
330
137C
100
AcDbEntity
  8
0
  6
BYBLOCK
 62
     0
100
AcDbMText
 10
470.7265650251701
 20
1506.312036353435
 30
0.0
 40
15.0
 41
0.0
 71
     5
 72
     1
  1
\A1;500
1001
ACAD
1000
MTEXTBEGIN
1070
    73
1070
     1
1070
    44
1040
1.0
1070
    74
1070
     0
1000
MTEXTEND
  0
POINT
  5
1383
330
137C
100
AcDbEntity
  8
DEFPOINTS
  6
BYBLOCK
 62
     0
100
AcDbPoint
 10
220.7265650251701
 20
1229.404760787128
 30
0.0
  0
POINT
  5
1384
330
137C
100
AcDbEntity
  8
DEFPOINTS
  6
BYBLOCK
 62
     0
100
AcDbPoint
 10
720.7265650251701
 20
1229.404760787138
 30
0.0
  0
POINT
  5
1385
330
137C
100
AcDbEntity
  8
DEFPOINTS
  6
BYBLOCK
 62
     0
100
AcDbPoint
 10
720.7265650251701
 20
1498.362036353435
 30
0.0
  0
ENDBLK
  5
1387
330
137C
100
AcDbEntity
  8
0
100
AcDbBlockEnd
  0
BLOCK
  5
13AE
330
1388
100
AcDbEntity
  8
0
100
AcDbBlockBegin
  2
A$C3512598C
 70
     0
 10
0.0
 20
0.0
 30
0.0
  3
A$C3512598C
  1

  0
DIMENSION
  5
1389
330
1388
100
AcDbEntity
  8
SUNPOU
100
AcDbDimension
  2
*D43
 10
499.9999992365937
 20
555.0473752867246
 30
0.0
 11
249.9999992365938
 21
562.9973752867247
 31
0.0
 12
-220.7265657885764
 22
-943.3146610667108
 32
0.0
  3
IMAO
100
AcDbAlignedDimension
 13
-0.0000007634062626
 23
286.0900997204171
 33
0.0
 14
499.9999992365937
 24
286.0900997204273
 34
0.0
100
AcDbRotatedDimension
1001
ACAD
1000
DSTYLE
1002
{
1070
   287
1070
     3
1070
    40
1040
5.0
1070
   271
1070
     4
1070
   272
1070
     4
1070
   279
1070
     0
1070
   284
1070
     0
1070
   285
1070
     0
1070
   286
1070
     0
1070
   340
1005
D7
1070
     6
1000
ARROW
1070
     7
1000
ARROW
1002
}
  0
CIRCLE
  5
138A
330
1388
100
AcDbEntity
  8
0
100
AcDbCircle
 10
249.9999992365938
 20
286.0900997204171
 30
0.0
 40
170.0
  0
CIRCLE
  5
138B
330
1388
100
AcDbEntity
  8
0
100
AcDbCircle
 10
249.9999992365938
 20
286.0900997204171
 30
0.0
 40
205.0000000000004
  0
TEXT
  5
138C
330
1388
100
AcDbEntity
  8
SUNPOU
100
AcDbText
 10
506.4294707333801
 20
0.0
 30
0.0
 40
15.0
  1
ホース長さ約1000
  7
K
100
AcDbText
  0
MTEXT
  5
138D
102
{ACAD_REACTORS
330
138E
102
}
330
1388
100
AcDbEntity
  8
SUNPOU
100
AcDbMText
 10
483.626206410465
 20
33.11407371615519
 30
0.0
 40
15.0
 41
0.0
 71
     4
 72
     1
  1
\A1;排水口φ48
1001
ACAD
1000
MTEXTBEGIN
1070
    73
1070
     1
1070
    44
1040
1.0
1070
    74
1070
     0
1000
MTEXTEND
  0
LEADER
  5
138E
330
1388
100
AcDbEntity
  8
SUNPOU
100
AcDbLeader
  3
IMAO
 73
     0
 74
     0
 75
     1
 40
15.0
 41
98.14285714285709
 76
     3
 10
426.7766945332304
 20
109.3134044237801
 30
0.0
 10
475.6762064104651
 20
25.16407371615519
 30
0.0
 10
483.176206410465
 20
25.16407371615519
 30
0.0
340
138D
1001
ACAD
1000
DSTYLE
1002
{
1070
     5
1000
ARROW
1070
    40
1040
5.0
1070
   271
1070
     4
1070
   272
1070
     4
1070
   284
1070
     0
1070
   285
1070
     0
1070
   286
1070
     0
1070
   287
1070
     3
1070
   340
1005
D7
1070
   343
1005
E3
1070
   344
1005
E3
1002
}
  0
ARC
  5
138F
330
1388
100
AcDbEntity
  8
0
100
AcDbCircle
 10
427.0409433169113
 20
109.049227296673
 30
0.0
 40
15.25334653349466
100
AcDbArc
 50
214.5427981206839
 51
55.45720187931447
  0
LINE
  5
1390
330
1388
100
AcDbEntity
  8
0
100
AcDbLine
 10
418.3919652185651
 20
96.48500195942279
 30
0.0
 11
385.54286688328
 21
129.3341002947079
 31
0.0
  0
LINE
  5
1391
330
1388
100
AcDbEntity
  8
ITTEN
100
AcDbLine
 10
426.7766945332304
 20
109.3134044237801
 30
0.0
 11
249.9999992365937
 21
286.0900997204166
 31
0.0
  0
ARC
  5
1392
330
1388
100
AcDbEntity
  8
0
100
AcDbCircle
 10
249.9999992365938
 20
286.0900997204171
 30
0.0
 40
212.0000000000004
100
AcDbArc
 50
236.8269339778107
 51
303.1730660221892
  0
LINE
  5
1393
330
1388
100
AcDbEntity
  8
0
100
AcDbLine
 10
365.9999992365937
 20
108.6415156178659
 30
0.0
 11
365.9999992365937
 21
117.0664327385409
 31
0.0
  0
LINE
  5
1394
330
1388
100
AcDbEntity
  8
0
100
AcDbLine
 10
279.9999992365939
 20
83.2971018136841
 30
0.0
 11
279.9999992365938
 21
51.09009972041679
 31
0.0
  0
LINE
  5
1395
330
1388
100
AcDbEntity
  8
0
100
AcDbLine
 10
299.9999992365938
 20
80.07068315974391
 30
0.0
 11
299.9999992365938
 21
51.09009972041679
 31
0.0
  0
LINE
  5
1396
330
1388
100
AcDbEntity
  8
0
100
AcDbLine
 10
299.9999992365938
 20
51.09009972041667
 30
0.0
 11
199.9999992365937
 21
51.09009972041656
 31
0.0
  0
LINE
  5
1397
330
1388
100
AcDbEntity
  8
0
100
AcDbLine
 10
385.9999992365938
 20
6.090099720417128
 30
0.0
 11
385.9999992365938
 21
128.876967941394
 31
0.0
  0
LINE
  5
1398
330
1388
100
AcDbEntity
  8
0
100
AcDbLine
 10
389.9999992365938
 20
6.090099720417128
 30
0.0
 11
389.9999992365938
 21
124.876967941394
 31
0.0
  0
LINE
  5
1399
330
1388
100
AcDbEntity
  8
0
100
AcDbLine
 10
389.9999992365938
 20
6.090099720417128
 30
0.0
 11
109.9999992365938
 21
6.090099720417128
 31
0.0
  0
LINE
  5
139A
330
1388
100
AcDbEntity
  8
0
100
AcDbLine
 10
199.9999992365937
 20
80.07068315974391
 30
0.0
 11
199.9999992365937
 21
51.09009972041656
 31
0.0
  0
LINE
  5
139B
330
1388
100
AcDbEntity
  8
0
100
AcDbLine
 10
219.9999992365939
 20
83.2971018136841
 30
0.0
 11
219.9999992365939
 21
51.09009972041656
 31
0.0
  0
LINE
  5
139C
330
1388
100
AcDbEntity
  8
0
100
AcDbLine
 10
239.9999992365938
 20
26.09009972041667
 30
0.0
 11
239.9999992365938
 21
51.09009972041656
 31
0.0
  0
LINE
  5
139D
330
1388
100
AcDbEntity
  8
0
100
AcDbLine
 10
259.9999992365937
 20
26.09009972041667
 30
0.0
 11
259.9999992365937
 21
51.09009972041667
 31
0.0
  0
LINE
  5
139E
330
1388
100
AcDbEntity
  8
0
100
AcDbLine
 10
259.9999992365937
 20
36.09009972041667
 30
0.0
 11
239.9999992365938
 21
36.09009972041667
 31
0.0
  0
LINE
  5
139F
330
1388
100
AcDbEntity
  8
0
100
AcDbLine
 10
259.9999992365937
 20
26.09009972041667
 30
0.0
 11
239.9999992365938
 21
26.09009972041667
 31
0.0
  0
LINE
  5
13A0
330
1388
100
AcDbEntity
  8
0
100
AcDbLine
 10
113.9999992365938
 20
6.090099720417128
 30
0.0
 11
113.9999992365938
 21
132.6984441455169
 31
0.0
  0
LINE
  5
13A1
330
1388
100
AcDbEntity
  8
0
100
AcDbLine
 10
109.9999992365938
 20
6.090099720417128
 30
0.0
 11
109.9999992365938
 21
136.3403084016681
 31
0.0
  0
ELLIPSE
  5
13A2
330
1388
100
AcDbEntity
  8
0
100
AcDbEllipse
 10
44.99999923659333
 20
286.0900997204171
 30
0.0
 11
0.0
 21
-50.0
 31
0.0
210
0.0
220
0.0
230
-1.0
 40
0.8999999999999909
 41
6.147739623933635
 42
9.560223644015332
  0
SPLINE
  5
13A3
330
1388
100
AcDbEntity
  8
0
100
AcDbSpline
210
0.0
220
0.0
230
1.0
 70
     8
 71
     3
 72
    35
 73
    31
 74
     0
 42
0.0000000001
 43
0.0000000001
 40
6.168175449084206
 40
6.168175449084206
 40
6.168175449084206
 40
6.168175449084206
 40
6.283185307179586
 40
6.283185307179586
 40
6.283185307179586
 40
6.457084241854333
 40
6.457084241854333
 40
6.727874634765465
 40
6.727874634765465
 40
6.998665027676599
 40
6.998665027676599
 40
7.269455420587732
 40
7.269455420587732
 40
7.540245813498865
 40
7.540245813498865
 40
7.811036206409998
 40
7.811036206409998
 40
8.08182659932113
 40
8.08182659932113
 40
8.352616992232263
 40
8.352616992232263
 40
8.623407385143396
 40
8.623407385143396
 40
8.894197778054529
 40
8.894197778054529
 40
9.164988170965662
 40
9.164988170965662
 40
9.435778563876795
 40
9.435778563876795
 40
9.539783648466496
 40
9.539783648466496
 40
9.539783648466496
 40
9.539783648466496
 10
48.89093803462981
 20
246.3390556779649
 30
0.0
 10
47.59838807858523
 20
246.1731630950366
 30
0.0
 10
46.29918467063385
 20
246.0900997204171
 30
0.0
 10
44.99999923659333
 20
246.0900997204171
 30
0.0
 10
43.03558534489718
 20
246.0900997204171
 30
0.0
 10
41.07111033797878
 20
246.2800441069875
 30
0.0
 10
36.10659358761756
 20
247.2490811034217
 30
0.0
 10
33.13862195922104
 20
248.2988609660665
 30
0.0
 10
27.50394794275746
 20
251.2822448536551
 30
0.0
 10
24.83792171476022
 20
253.2168985851465
 30
0.0
 10
20.01693381382108
 20
257.8723762479
 30
0.0
 10
17.86334136823052
 20
260.5933073255923
 30
0.0
 10
14.2629779392123
 20
266.6393477814267
 30
0.0
 10
12.81733623038326
 20
269.9636967845483
 30
0.0
 10
10.77405240980237
 20
276.9610895421381
 30
0.0
 10
10.17699837256373
 20
280.632982735405
 30
0.0
 10
9.891040746558587
 20
288.0269093598501
 30
0.0
 10
10.20221430748245
 20
291.7476931637309
 30
0.0
 10
11.70203091558596
 20
298.934709059439
 30
0.0
 10
12.89025461155461
 20
302.3997385143425
 30
0.0
 10
16.02775236901823
 20
308.8017668513457
 30
0.0
 10
17.97606183170773
 20
311.7378348514596
 30
0.0
 10
22.45217750608265
 20
316.8727658612265
 30
0.0
 10
24.9786181935724
 20
319.0714127683229
 30
0.0
 10
30.40029557817058
 20
322.605723752009
 30
0.0
 10
33.29451447453277
 20
323.9421993756309
 30
0.0
 10
39.2512331345863
 20
325.7013935768925
 30
0.0
 10
42.31400554229992
 20
326.1252101129676
 30
0.0
 10
46.54760923304229
 20
326.0734611433845
 30
0.0
 10
47.72199501194939
 20
325.9910561474457
 30
0.0
 10
48.89090516497617
 20
325.8409774678753
 30
0.0
  0
LINE
  5
13A4
330
1388
100
AcDbEntity
  8
ITTEN
100
AcDbLine
 10
499.9999992365937
 20
286.0900997204171
 30
0.0
 11
-0.000000763406149
 21
286.0900997204171
 31
0.0
  0
TEXT
  5
13A5
330
1388
100
AcDbEntity
  8
SUNPOU
100
AcDbText
 10
648.0465539017496
 20
420.2062111398045
 30
0.0
 40
15.0
  1
立ち上がり100
  7
K
100
AcDbText
  0
MTEXT
  5
13A6
102
{ACAD_REACTORS
330
13A7
102
}
330
1388
100
AcDbEntity
  8
SUNPOU
100
AcDbMText
 10
619.2826094032964
 20
451.4058073818898
 30
0.0
 40
15.0
 41
0.0
 71
     4
 72
     1
  1
\A1;電源コード長さ約2300
1001
ACAD
1000
MTEXTBEGIN
1070
    73
1070
     1
1070
    44
1040
1.0
1070
    74
1070
     0
1000
MTEXTEND
  0
LEADER
  5
13A7
330
1388
100
AcDbEntity
  8
SUNPOU
100
AcDbLeader
  3
IMAO
 73
     0
 74
     0
 75
     1
 40
15.0
 41
198.9999999999999
 76
     3
 10
448.9235625779631
 20
335.6321621277534
 30
0.0
 10
611.3326094032963
 20
443.4558073818898
 30
0.0
 10
618.8326094032963
 20
443.4558073818898
 30
0.0
340
13A6
1001
ACAD
1000
DSTYLE
1002
{
1070
     5
1000
ARROW
1070
    40
1040
5.0
1070
   271
1070
     4
1070
   272
1070
     4
1070
   284
1070
     0
1070
   285
1070
     0
1070
   286
1070
     0
1070
   287
1070
     3
1070
   340
1005
D7
1070
   343
1005
E3
1070
   344
1005
E3
1002
}
  0
DIMENSION
  5
13A8
330
1388
100
AcDbEntity
  8
SUNPOU
100
AcDbDimension
  2
*D42
 10
-0.0000007634060353
 20
286.0900997204171
 30
0.0
 11
469.1848862103523
 21
195.3007468686721
 31
0.0
 12
-220.7265657885764
 22
-943.3146610667108
 32
0.0
 70
     2
  3
IMAO
100
AcDb2LineAngularDimension
 13
426.7766945332304
 23
109.3134044237801
 33
0.0
 14
249.9999992365937
 24
286.0900997204166
 34
0.0
 15
499.9999992365937
 25
286.0900997204171
 35
0.0
 16
462.3442425557516
 26
163.4930936792338
 36
0.0
1001
ACAD
1000
DSTYLE
1002
{
1070
   287
1070
     3
1070
   271
1070
     4
1070
    40
1040
5.0
1070
   179
1070
     4
1070
   271
1070
     4
1070
   272
1070
     4
1070
   279
1070
     0
1070
   284
1070
     0
1070
   285
1070
     0
1070
   286
1070
     0
1070
   340
1005
D7
1070
     6
1000
ARROW
1070
     7
1000
ARROW
1002
}
  0
DIMENSION
  5
13A9
330
1388
100
AcDbEntity
  8
SUNPOU
100
AcDbDimension
  2
*D41
 10
547.2222448359826
 20
286.0900997204273
 30
0.0
 11
539.2722448359825
 21
311.0900997204221
 31
0.0
 12
-220.7265657885764
 22
-943.3146610667108
 32
0.0
  3
IMAO
100
AcDbAlignedDimension
 13
454.9999992365849
 23
336.0900997204171
 33
0.0
 14
499.9999992365937
 24
286.0900997204273
 34
0.0
 50
90.0
100
AcDbRotatedDimension
1001
ACAD
1000
DSTYLE
1002
{
1070
   287
1070
     3
1070
    40
1040
5.0
1070
   271
1070
     4
1070
   272
1070
     4
1070
   279
1070
     0
1070
   284
1070
     0
1070
   285
1070
     0
1070
   286
1070
     0
1070
   340
1005
D7
1070
     6
1000
ARROW
1070
     7
1000
ARROW
1002
}
  0
SPLINE
  5
13AA
330
1388
100
AcDbEntity
  8
0
100
AcDbSpline
210
0.0
220
0.0
230
1.0
 70
     8
 71
     3
 72
    35
 73
    31
 74
     0
 42
0.0000000001
 43
0.0000000001
 40
6.168175449084206
 40
6.168175449084206
 40
6.168175449084206
 40
6.168175449084206
 40
6.283185307179586
 40
6.283185307179586
 40
6.283185307179586
 40
6.457084241854333
 40
6.457084241854333
 40
6.727874634765465
 40
6.727874634765465
 40
6.998665027676599
 40
6.998665027676599
 40
7.269455420587732
 40
7.269455420587732
 40
7.540245813498865
 40
7.540245813498865
 40
7.811036206409998
 40
7.811036206409998
 40
8.08182659932113
 40
8.08182659932113
 40
8.352616992232263
 40
8.352616992232263
 40
8.623407385143396
 40
8.623407385143396
 40
8.894197778054529
 40
8.894197778054529
 40
9.164988170965662
 40
9.164988170965662
 40
9.435778563876795
 40
9.435778563876795
 40
9.539783648466496
 40
9.539783648466496
 40
9.539783648466496
 40
9.539783648466496
 10
451.1090604385578
 20
246.3390556779649
 30
0.0
 10
452.4016103946023
 20
246.1731630950366
 30
0.0
 10
453.7008138025537
 20
246.0900997204171
 30
0.0
 10
454.9999992365942
 20
246.0900997204171
 30
0.0
 10
456.9644131282903
 20
246.0900997204171
 30
0.0
 10
458.9288881352088
 20
246.2800441069875
 30
0.0
 10
463.89340488557
 20
247.2490811034217
 30
0.0
 10
466.8613765139665
 20
248.2988609660665
 30
0.0
 10
472.4960505304301
 20
251.2822448536551
 30
0.0
 10
475.1620767584273
 20
253.2168985851465
 30
0.0
 10
479.9830646593664
 20
257.8723762479
 30
0.0
 10
482.136657104957
 20
260.5933073255923
 30
0.0
 10
485.7370205339752
 20
266.6393477814267
 30
0.0
 10
487.1826622428043
 20
269.9636967845483
 30
0.0
 10
489.2259460633852
 20
276.9610895421381
 30
0.0
 10
489.8230001006238
 20
280.632982735405
 30
0.0
 10
490.1089577266289
 20
288.0269093598501
 30
0.0
 10
489.7977841657051
 20
291.7476931637309
 30
0.0
 10
488.2979675576016
 20
298.934709059439
 30
0.0
 10
487.1097438616329
 20
302.3997385143425
 30
0.0
 10
483.9722461041693
 20
308.8017668513457
 30
0.0
 10
482.0239366414798
 20
311.7378348514596
 30
0.0
 10
477.5478209671049
 20
316.8727658612265
 30
0.0
 10
475.0213802796151
 20
319.0714127683229
 30
0.0
 10
469.599702895017
 20
322.605723752009
 30
0.0
 10
466.7054839986548
 20
323.9421993756309
 30
0.0
 10
460.7487653386012
 20
325.7013935768925
 30
0.0
 10
457.6859929308876
 20
326.1252101129676
 30
0.0
 10
453.4523892401453
 20
326.0734611433845
 30
0.0
 10
452.2780034612382
 20
325.9910561474457
 30
0.0
 10
451.1090933082114
 20
325.8409774678753
 30
0.0
  0
ELLIPSE
  5
13AB
330
1388
100
AcDbEntity
  8
0
100
AcDbEllipse
 10
454.9999992365942
 20
286.0900997204171
 30
0.0
 11
0.0
 21
-50.0
 31
0.0
210
0.0
220
0.0
230
1.0
 40
0.8999999999999909
 41
6.147739623933635
 42
9.560223644015332
  0
CIRCLE
  5
13AC
330
1388
100
AcDbEntity
  8
0
100
AcDbCircle
 10
249.9999992365938
 20
286.0900997204171
 30
0.0
 40
94.63925395899794
  0
LINE
  5
13AD
330
1388
100
AcDbEntity
  8
0
100
AcDbLine
 10
439.6051686541616
 20
117.6982053950193
 30
0.0
 11
405.174957102056
 21
152.1284169471248
 31
0.0
  0
ENDBLK
  5
13AF
330
1388
100
AcDbEntity
  8
0
100
AcDbBlockEnd
  0
BLOCK
  5
1892
330
1837
100
AcDbEntity
  8
0
100
AcDbBlockBegin
  2
*D49
 70
     1
 10
0.0
 20
0.0
 30
0.0
  3
*D49
  1

  0
LINE
  5
1A0B
330
1837
100
AcDbEntity
  8
SUNPOU
 62
     0
100
AcDbLine
 10
489.708725764418
 20
567.5739343945315
 30
0.0
 11
489.708725764418
 21
756.1712110801801
 31
0.0
  0
LINE
  5
1A0C
330
1837
100
AcDbEntity
  8
SUNPOU
 62
     0
100
AcDbLine
 10
329.7087257644179
 20
567.5739343945315
 30
0.0
 11
329.7087257644179
 21
756.1712110801801
 31
0.0
  0
LINE
  5
1A0D
330
1837
100
AcDbEntity
  8
SUNPOU
 62
     0
100
AcDbLine
 10
482.208725764418
 20
751.1712110801801
 30
0.0
 11
337.2087257644179
 21
751.1712110801801
 31
0.0
  0
INSERT
  5
1A0E
330
1837
100
AcDbEntity
  8
SUNPOU
 62
     0
100
AcDbBlockReference
  2
ARROW
 10
489.708725764418
 20
751.1712110801801
 30
0.0
 41
7.5
 42
7.5
 43
7.5
  0
INSERT
  5
1A0F
330
1837
100
AcDbEntity
  8
SUNPOU
 62
     0
100
AcDbBlockReference
  2
ARROW
 10
329.7087257644179
 20
751.1712110801801
 30
0.0
 41
7.5
 42
7.5
 43
7.5
 50
180.0
  0
MTEXT
  5
1A10
330
1837
100
AcDbEntity
  8
SUNPOU
 62
     0
100
AcDbMText
 10
409.7087257644179
 20
759.1212110801802
 30
0.0
 40
15.0
 41
0.0
 71
     5
 72
     1
  1
\A1;160
  0
POINT
  5
1A11
330
1837
100
AcDbEntity
  8
DEFPOINTS
 62
     0
100
AcDbPoint
 10
489.708725764418
 20
562.5739343945315
 30
0.0
  0
POINT
  5
1A12
330
1837
100
AcDbEntity
  8
DEFPOINTS
 62
     0
100
AcDbPoint
 10
329.7087257644179
 20
562.5739343945315
 30
0.0
  0
POINT
  5
1A13
330
1837
100
AcDbEntity
  8
DEFPOINTS
 62
     0
100
AcDbPoint
 10
329.7087257644179
 20
751.1712110801801
 30
0.0
  0
ENDBLK
  5
189C
330
1837
100
AcDbEntity
  8
0
100
AcDbBlockEnd
  0
BLOCK
  5
18AA
330
189D
100
AcDbEntity
  8
0
100
AcDbBlockBegin
  2
*D50
 70
     1
 10
0.0
 20
0.0
 30
0.0
  3
*D50
  1

  0
LINE
  5
1A14
330
189D
100
AcDbEntity
  8
SUNPOU
 62
     0
100
AcDbLine
 10
524.708725764418
 20
554.5739343945315
 30
0.0
 11
524.708725764418
 21
791.6184406522106
 31
0.0
  0
LINE
  5
1A15
330
189D
100
AcDbEntity
  8
SUNPOU
 62
     0
100
AcDbLine
 10
294.7087257644179
 20
554.5739343945315
 30
0.0
 11
294.7087257644179
 21
791.6184406522106
 31
0.0
  0
LINE
  5
1A16
330
189D
100
AcDbEntity
  8
SUNPOU
 62
     0
100
AcDbLine
 10
517.208725764418
 20
786.6184406522107
 30
0.0
 11
302.2087257644179
 21
786.6184406522107
 31
0.0
  0
INSERT
  5
1A17
330
189D
100
AcDbEntity
  8
SUNPOU
 62
     0
100
AcDbBlockReference
  2
ARROW
 10
524.708725764418
 20
786.6184406522107
 30
0.0
 41
7.5
 42
7.5
 43
7.5
  0
INSERT
  5
1A18
330
189D
100
AcDbEntity
  8
SUNPOU
 62
     0
100
AcDbBlockReference
  2
ARROW
 10
294.7087257644179
 20
786.6184406522107
 30
0.0
 41
7.5
 42
7.5
 43
7.5
 50
180.0
  0
MTEXT
  5
1A19
330
189D
100
AcDbEntity
  8
SUNPOU
 62
     0
100
AcDbMText
 10
409.7087257644179
 20
794.5684406522107
 30
0.0
 40
15.0
 41
0.0
 71
     5
 72
     1
  1
\A1;230
  0
POINT
  5
1A1A
330
189D
100
AcDbEntity
  8
DEFPOINTS
 62
     0
100
AcDbPoint
 10
524.708725764418
 20
549.5739343945315
 30
0.0
  0
POINT
  5
1A1B
330
189D
100
AcDbEntity
  8
DEFPOINTS
 62
     0
100
AcDbPoint
 10
294.7087257644179
 20
549.5739343945315
 30
0.0
  0
POINT
  5
1A1C
330
189D
100
AcDbEntity
  8
DEFPOINTS
 62
     0
100
AcDbPoint
 10
294.7087257644179
 20
786.6184406522107
 30
0.0
  0
ENDBLK
  5
18B4
330
189D
100
AcDbEntity
  8
0
100
AcDbBlockEnd
  0
BLOCK
  5
18B6
330
18B5
100
AcDbEntity
  8
0
100
AcDbBlockBegin
  2
*D51
 70
     1
 10
0.0
 20
0.0
 30
0.0
  3
*D51
  1

  0
LINE
  5
1A1D
330
18B5
100
AcDbEntity
  8
SUNPOU
 62
     0
100
AcDbLine
 10
302.7192786650239
 20
562.5739343945316
 30
0.0
 11
250.5401831163653
 21
562.5739343945317
 31
0.0
  0
LINE
  5
1A1E
330
18B5
100
AcDbEntity
  8
SUNPOU
 62
     0
100
AcDbLine
 10
309.708725764418
 20
339.5739343945315
 30
0.0
 11
250.5401831163653
 21
339.5739343945315
 31
0.0
  0
LINE
  5
1A1F
330
18B5
100
AcDbEntity
  8
SUNPOU
 62
     0
100
AcDbLine
 10
255.5401831163654
 20
555.0739343945317
 30
0.0
 11
255.5401831163653
 21
347.0739343945315
 31
0.0
  0
INSERT
  5
1A20
330
18B5
100
AcDbEntity
  8
SUNPOU
 62
     0
100
AcDbBlockReference
  2
ARROW
 10
255.5401831163654
 20
562.5739343945317
 30
0.0
 41
7.5
 42
7.5
 43
7.5
 50
90.0
  0
INSERT
  5
1A21
330
18B5
100
AcDbEntity
  8
SUNPOU
 62
     0
100
AcDbBlockReference
  2
ARROW
 10
255.5401831163653
 20
339.5739343945315
 30
0.0
 41
7.5
 42
7.5
 43
7.5
 50
270.0
  0
MTEXT
  5
1A22
330
18B5
100
AcDbEntity
  8
SUNPOU
 62
     0
100
AcDbMText
 10
247.5901831163653
 20
451.0739343945316
 30
0.0
 40
15.0
 41
0.0
 71
     5
 72
     1
  1
\A1;223
 11
0.0000000000000001
 21
1.0
 31
0.0
  0
POINT
  5
1A23
330
18B5
100
AcDbEntity
  8
DEFPOINTS
 62
     0
100
AcDbPoint
 10
307.7192786650239
 20
562.5739343945316
 30
0.0
  0
POINT
  5
1A24
330
18B5
100
AcDbEntity
  8
DEFPOINTS
 62
     0
100
AcDbPoint
 10
314.708725764418
 20
339.5739343945315
 30
0.0
  0
POINT
  5
1A25
330
18B5
100
AcDbEntity
  8
DEFPOINTS
 62
     0
100
AcDbPoint
 10
255.5401831163653
 20
339.5739343945315
 30
0.0
  0
ENDBLK
  5
18C0
330
18B5
100
AcDbEntity
  8
0
100
AcDbBlockEnd
  0
BLOCK
  5
18C3
330
18C2
100
AcDbEntity
  8
0
100
AcDbBlockBegin
  2
*D52
 70
     1
 10
0.0
 20
0.0
 30
0.0
  3
*D52
  1

  0
LINE
  5
1A26
330
18C2
100
AcDbEntity
  8
SUNPOU
 62
     0
100
AcDbLine
 10
339.7087257644179
 20
719.5739343945316
 30
0.0
 11
195.1898051238505
 21
719.5739343945318
 31
0.0
  0
LINE
  5
1A27
330
18C2
100
AcDbEntity
  8
SUNPOU
 62
     0
100
AcDbLine
 10
275.1244544403916
 20
339.5739343945315
 30
0.0
 11
195.1898051238504
 21
339.5739343945315
 31
0.0
  0
LINE
  5
1A28
330
18C2
100
AcDbEntity
  8
SUNPOU
 62
     0
100
AcDbLine
 10
200.1898051238505
 20
712.0739343945317
 30
0.0
 11
200.1898051238504
 21
347.0739343945315
 31
0.0
  0
INSERT
  5
1A29
330
18C2
100
AcDbEntity
  8
SUNPOU
 62
     0
100
AcDbBlockReference
  2
ARROW
 10
200.1898051238505
 20
719.5739343945318
 30
0.0
 41
7.5
 42
7.5
 43
7.5
 50
90.0
  0
INSERT
  5
1A2A
330
18C2
100
AcDbEntity
  8
SUNPOU
 62
     0
100
AcDbBlockReference
  2
ARROW
 10
200.1898051238504
 20
339.5739343945315
 30
0.0
 41
7.5
 42
7.5
 43
7.5
 50
270.0
  0
MTEXT
  5
1A2B
330
18C2
100
AcDbEntity
  8
SUNPOU
 62
     0
100
AcDbMText
 10
192.2398051238503
 20
529.5739343945316
 30
0.0
 40
15.0
 41
0.0
 71
     5
 72
     1
  1
\A1;380
 11
0.0000000000000001
 21
1.0
 31
0.0
  0
POINT
  5
1A2C
330
18C2
100
AcDbEntity
  8
DEFPOINTS
 62
     0
100
AcDbPoint
 10
344.708725764418
 20
719.5739343945316
 30
0.0
  0
POINT
  5
1A2D
330
18C2
100
AcDbEntity
  8
DEFPOINTS
 62
     0
100
AcDbPoint
 10
280.1244544403916
 20
339.5739343945315
 30
0.0
  0
POINT
  5
1A2E
330
18C2
100
AcDbEntity
  8
DEFPOINTS
 62
     0
100
AcDbPoint
 10
200.1898051238504
 20
339.5739343945315
 30
0.0
  0
ENDBLK
  5
18CD
330
18C2
100
AcDbEntity
  8
0
100
AcDbBlockEnd
  0
BLOCK
  5
18D2
330
18D1
100
AcDbEntity
  8
0
100
AcDbBlockBegin
  2
*D53
 70
     1
 10
0.0
 20
0.0
 30
0.0
  3
*D53
  1

  0
LINE
  5
1A2F
330
18D1
100
AcDbEntity
  8
SUNPOU
 62
     0
100
AcDbLine
 10
517.208725764418
 20
354.5739343945315
 30
0.0
 11
517.208725764418
 21
243.9615686057259
 31
0.0
  0
LINE
  5
1A30
330
18D1
100
AcDbEntity
  8
SUNPOU
 62
     0
100
AcDbLine
 10
302.2087257644179
 20
354.5739343945315
 30
0.0
 11
302.2087257644179
 21
243.9615686057259
 31
0.0
  0
LINE
  5
1A31
330
18D1
100
AcDbEntity
  8
SUNPOU
 62
     0
100
AcDbLine
 10
509.7087257644179
 20
248.9615686057259
 30
0.0
 11
309.7087257644179
 21
248.9615686057259
 31
0.0
  0
INSERT
  5
1A32
330
18D1
100
AcDbEntity
  8
SUNPOU
 62
     0
100
AcDbBlockReference
  2
ARROW
 10
517.208725764418
 20
248.9615686057259
 30
0.0
 41
7.5
 42
7.5
 43
7.5
  0
INSERT
  5
1A33
330
18D1
100
AcDbEntity
  8
SUNPOU
 62
     0
100
AcDbBlockReference
  2
ARROW
 10
302.2087257644179
 20
248.9615686057259
 30
0.0
 41
7.5
 42
7.5
 43
7.5
 50
180.0
  0
MTEXT
  5
1A34
330
18D1
100
AcDbEntity
  8
SUNPOU
 62
     0
100
AcDbMText
 10
409.7087257644179
 20
256.9115686057259
 30
0.0
 40
15.0
 41
0.0
 71
     5
 72
     1
  1
\A1;215
  0
POINT
  5
1A35
330
18D1
100
AcDbEntity
  8
DEFPOINTS
 62
     0
100
AcDbPoint
 10
517.208725764418
 20
359.5739343945315
 30
0.0
  0
POINT
  5
1A36
330
18D1
100
AcDbEntity
  8
DEFPOINTS
 62
     0
100
AcDbPoint
 10
302.2087257644179
 20
359.5739343945315
 30
0.0
  0
POINT
  5
1A37
330
18D1
100
AcDbEntity
  8
DEFPOINTS
 62
     0
100
AcDbPoint
 10
302.2087257644179
 20
248.9615686057259
 30
0.0
  0
ENDBLK
  5
18DC
330
18D1
100
AcDbEntity
  8
0
100
AcDbBlockEnd
  0
BLOCK
  5
1954
330
1947
100
AcDbEntity
  8
0
100
AcDbBlockBegin
  2
*D54
 70
     1
 10
0.0
 20
0.0
 30
0.0
  3
*D54
  1

  0
LINE
  5
1A38
330
1947
100
AcDbEntity
  8
SUNPOU
 62
     0
100
AcDbLine
 10
780.7545313238634
 20
432.4442931802695
 30
0.0
 11
780.7545313238634
 21
408.8917724009379
 31
0.0
  0
LINE
  5
1A39
330
1947
100
AcDbEntity
  8
SUNPOU
 62
     0
100
AcDbLine
 10
696.7545313238633
 20
464.5739343945313
 30
0.0
 11
696.7545313238633
 21
408.8917724009379
 31
0.0
  0
LINE
  5
1A3A
330
1947
100
AcDbEntity
  8
SUNPOU
 62
     0
100
AcDbLine
 10
773.2545313238634
 20
413.8917724009379
 30
0.0
 11
704.2545313238633
 21
413.8917724009379
 31
0.0
  0
INSERT
  5
1A3B
330
1947
100
AcDbEntity
  8
SUNPOU
 62
     0
100
AcDbBlockReference
  2
ARROW
 10
780.7545313238634
 20
413.8917724009379
 30
0.0
 41
7.5
 42
7.5
 43
7.5
  0
INSERT
  5
1A3C
330
1947
100
AcDbEntity
  8
SUNPOU
 62
     0
100
AcDbBlockReference
  2
ARROW
 10
696.7545313238633
 20
413.8917724009379
 30
0.0
 41
7.5
 42
7.5
 43
7.5
 50
180.0
  0
MTEXT
  5
1A3D
330
1947
100
AcDbEntity
  8
SUNPOU
 62
     0
100
AcDbMText
 10
738.7545313238633
 20
421.8417724009379
 30
0.0
 40
15.0
 41
0.0
 71
     5
 72
     1
  1
\A1;84
  0
POINT
  5
1A3E
330
1947
100
AcDbEntity
  8
DEFPOINTS
 62
     0
100
AcDbPoint
 10
780.7545313238634
 20
437.4442931802696
 30
0.0
  0
POINT
  5
1A3F
330
1947
100
AcDbEntity
  8
DEFPOINTS
 62
     0
100
AcDbPoint
 10
696.7545313238633
 20
469.5739343945313
 30
0.0
  0
POINT
  5
1A40
330
1947
100
AcDbEntity
  8
DEFPOINTS
 62
     0
100
AcDbPoint
 10
696.7545313238633
 20
413.8917724009379
 30
0.0
  0
ENDBLK
  5
195E
330
1947
100
AcDbEntity
  8
0
100
AcDbBlockEnd
  0
BLOCK
  5
1960
330
195F
100
AcDbEntity
  8
0
100
AcDbBlockBegin
  2
*D55
 70
     1
 10
0.0
 20
0.0
 30
0.0
  3
*D55
  1

  0
LINE
  5
1A41
330
195F
100
AcDbEntity
  8
SUNPOU
 62
     0
100
AcDbLine
 10
960.7545313238633
 20
364.5739343945315
 30
0.0
 11
960.7545313238633
 21
314.1209163791291
 31
0.0
  0
LINE
  5
1A42
330
195F
100
AcDbEntity
  8
SUNPOU
 62
     0
100
AcDbLine
 10
875.7545313238633
 20
364.5739343945315
 30
0.0
 11
875.7545313238633
 21
314.1209163791291
 31
0.0
  0
LINE
  5
1A43
330
195F
100
AcDbEntity
  8
SUNPOU
 62
     0
100
AcDbLine
 10
953.2545313238633
 20
319.120916379129
 30
0.0
 11
883.2545313238634
 21
319.120916379129
 31
0.0
  0
INSERT
  5
1A44
330
195F
100
AcDbEntity
  8
SUNPOU
 62
     0
100
AcDbBlockReference
  2
ARROW
 10
960.7545313238633
 20
319.120916379129
 30
0.0
 41
7.5
 42
7.5
 43
7.5
  0
INSERT
  5
1A45
330
195F
100
AcDbEntity
  8
SUNPOU
 62
     0
100
AcDbBlockReference
  2
ARROW
 10
875.7545313238633
 20
319.120916379129
 30
0.0
 41
7.5
 42
7.5
 43
7.5
 50
180.0
  0
MTEXT
  5
1A46
330
195F
100
AcDbEntity
  8
SUNPOU
 62
     0
100
AcDbMText
 10
918.2545313238634
 20
327.070916379129
 30
0.0
 40
15.0
 41
0.0
 71
     5
 72
     1
  1
\A1;85
  0
POINT
  5
1A47
330
195F
100
AcDbEntity
  8
DEFPOINTS
 62
     0
100
AcDbPoint
 10
960.7545313238633
 20
369.5739343945315
 30
0.0
  0
POINT
  5
1A48
330
195F
100
AcDbEntity
  8
DEFPOINTS
 62
     0
100
AcDbPoint
 10
875.7545313238633
 20
369.5739343945315
 30
0.0
  0
POINT
  5
1A49
330
195F
100
AcDbEntity
  8
DEFPOINTS
 62
     0
100
AcDbPoint
 10
875.7545313238633
 20
319.120916379129
 30
0.0
  0
ENDBLK
  5
196A
330
195F
100
AcDbEntity
  8
0
100
AcDbBlockEnd
  0
BLOCK
  5
196D
330
196C
100
AcDbEntity
  8
0
100
AcDbBlockBegin
  2
*D56
 70
     1
 10
0.0
 20
0.0
 30
0.0
  3
*D56
  1

  0
LINE
  5
1A4A
330
196C
100
AcDbEntity
  8
SUNPOU
 62
     0
100
AcDbLine
 10
926.472334472216
 20
339.5739343945316
 30
0.0
 11
896.182451109481
 21
339.5739343945316
 31
0.0
  0
LINE
  5
1A4B
330
196C
100
AcDbEntity
  8
SUNPOU
 62
     0
100
AcDbLine
 10
910.7545313238635
 20
384.5739343945315
 30
0.0
 11
896.182451109481
 21
384.5739343945315
 31
0.0
  0
LINE
  5
1A4C
330
196C
100
AcDbEntity
  8
SUNPOU
 62
     0
100
AcDbLine
 10
901.1824511094809
 20
347.0739343945315
 30
0.0
 11
901.1824511094809
 21
377.0739343945315
 31
0.0
  0
INSERT
  5
1A4D
330
196C
100
AcDbEntity
  8
SUNPOU
 62
     0
100
AcDbBlockReference
  2
ARROW
 10
901.1824511094809
 20
339.5739343945316
 30
0.0
 41
7.5
 42
7.5
 43
7.5
 50
270.0
  0
INSERT
  5
1A4E
330
196C
100
AcDbEntity
  8
SUNPOU
 62
     0
100
AcDbBlockReference
  2
ARROW
 10
901.1824511094809
 20
384.5739343945315
 30
0.0
 41
7.5
 42
7.5
 43
7.5
 50
90.0
  0
MTEXT
  5
1A4F
330
196C
100
AcDbEntity
  8
SUNPOU
 62
     0
100
AcDbMText
 10
893.2324511094808
 20
362.0739343945317
 30
0.0
 40
15.0
 41
0.0
 71
     5
 72
     1
  1
\A1;45
 11
0.0000000000000001
 21
1.0
 31
0.0
  0
POINT
  5
1A50
330
196C
100
AcDbEntity
  8
DEFPOINTS
 62
     0
100
AcDbPoint
 10
931.472334472216
 20
339.5739343945316
 30
0.0
  0
POINT
  5
1A51
330
196C
100
AcDbEntity
  8
DEFPOINTS
 62
     0
100
AcDbPoint
 10
915.7545313238635
 20
384.5739343945315
 30
0.0
  0
POINT
  5
1A52
330
196C
100
AcDbEntity
  8
DEFPOINTS
 62
     0
100
AcDbPoint
 10
901.1824511094809
 20
384.5739343945315
 30
0.0
  0
ENDBLK
  5
1977
330
196C
100
AcDbEntity
  8
0
100
AcDbBlockEnd
  0
BLOCK
  5
197A
330
1979
100
AcDbEntity
  8
0
100
AcDbBlockBegin
  2
*D57
 70
     1
 10
0.0
 20
0.0
 30
0.0
  3
*D57
  1

  0
LINE
  5
1A53
330
1979
100
AcDbEntity
  8
SUNPOU
 62
     0
100
AcDbLine
 10
960.7545313238633
 20
359.5739343945315
 30
0.0
 11
960.7545313238633
 21
279.4573506491679
 31
0.0
  0
LINE
  5
1A54
330
1979
100
AcDbEntity
  8
SUNPOU
 62
     0
100
AcDbLine
 10
780.7545313238634
 20
364.5739343945315
 30
0.0
 11
780.7545313238634
 21
279.4573506491679
 31
0.0
  0
LINE
  5
1A55
330
1979
100
AcDbEntity
  8
SUNPOU
 62
     0
100
AcDbLine
 10
953.2545313238633
 20
284.4573506491678
 30
0.0
 11
788.2545313238633
 21
284.4573506491678
 31
0.0
  0
INSERT
  5
1A56
330
1979
100
AcDbEntity
  8
SUNPOU
 62
     0
100
AcDbBlockReference
  2
ARROW
 10
960.7545313238633
 20
284.4573506491678
 30
0.0
 41
7.5
 42
7.5
 43
7.5
  0
INSERT
  5
1A57
330
1979
100
AcDbEntity
  8
SUNPOU
 62
     0
100
AcDbBlockReference
  2
ARROW
 10
780.7545313238634
 20
284.4573506491678
 30
0.0
 41
7.5
 42
7.5
 43
7.5
 50
180.0
  0
MTEXT
  5
1A58
330
1979
100
AcDbEntity
  8
SUNPOU
 62
     0
100
AcDbMText
 10
870.7545313238634
 20
292.4073506491678
 30
0.0
 40
15.0
 41
0.0
 71
     5
 72
     1
  1
\A1;180
  0
POINT
  5
1A59
330
1979
100
AcDbEntity
  8
DEFPOINTS
 62
     0
100
AcDbPoint
 10
960.7545313238633
 20
364.5739343945315
 30
0.0
  0
POINT
  5
1A5A
330
1979
100
AcDbEntity
  8
DEFPOINTS
 62
     0
100
AcDbPoint
 10
780.7545313238634
 20
369.5739343945315
 30
0.0
  0
POINT
  5
1A5B
330
1979
100
AcDbEntity
  8
DEFPOINTS
 62
     0
100
AcDbPoint
 10
780.7545313238634
 20
284.4573506491678
 30
0.0
  0
ENDBLK
  5
1984
330
1979
100
AcDbEntity
  8
0
100
AcDbBlockEnd
  0
BLOCK
  5
1987
330
1986
100
AcDbEntity
  8
0
100
AcDbBlockBegin
  2
*D58
 70
     1
 10
0.0
 20
0.0
 30
0.0
  3
*D58
  1

  0
LINE
  5
1A5C
330
1986
100
AcDbEntity
  8
SUNPOU
 62
     0
100
AcDbLine
 10
968.7545313238635
 20
557.5739343945324
 30
0.0
 11
968.7545313238635
 21
762.1748263763602
 31
0.0
  0
LINE
  5
1A5D
330
1986
100
AcDbEntity
  8
SUNPOU
 62
     0
100
AcDbLine
 10
696.7545313238633
 20
474.5739343945313
 30
0.0
 11
696.7545313238633
 21
762.1748263763602
 31
0.0
  0
LINE
  5
1A5E
330
1986
100
AcDbEntity
  8
SUNPOU
 62
     0
100
AcDbLine
 10
961.2545313238635
 20
757.1748263763602
 30
0.0
 11
704.2545313238633
 21
757.1748263763602
 31
0.0
  0
INSERT
  5
1A5F
330
1986
100
AcDbEntity
  8
SUNPOU
 62
     0
100
AcDbBlockReference
  2
ARROW
 10
968.7545313238635
 20
757.1748263763602
 30
0.0
 41
7.5
 42
7.5
 43
7.5
  0
INSERT
  5
1A60
330
1986
100
AcDbEntity
  8
SUNPOU
 62
     0
100
AcDbBlockReference
  2
ARROW
 10
696.7545313238633
 20
757.1748263763602
 30
0.0
 41
7.5
 42
7.5
 43
7.5
 50
180.0
  0
MTEXT
  5
1A61
330
1986
100
AcDbEntity
  8
SUNPOU
 62
     0
100
AcDbMText
 10
832.7545313238633
 20
765.1248263763602
 30
0.0
 40
15.0
 41
0.0
 71
     5
 72
     1
  1
\A1;272
  0
POINT
  5
1A62
330
1986
100
AcDbEntity
  8
DEFPOINTS
 62
     0
100
AcDbPoint
 10
968.7545313238635
 20
552.5739343945324
 30
0.0
  0
POINT
  5
1A63
330
1986
100
AcDbEntity
  8
DEFPOINTS
 62
     0
100
AcDbPoint
 10
696.7545313238633
 20
469.5739343945313
 30
0.0
  0
POINT
  5
1A64
330
1986
100
AcDbEntity
  8
DEFPOINTS
 62
     0
100
AcDbPoint
 10
696.7545313238633
 20
757.1748263763602
 30
0.0
  0
ENDBLK
  5
1991
330
1986
100
AcDbEntity
  8
0
100
AcDbBlockEnd
  0
BLOCK
  5
19A6
330
1998
100
AcDbEntity
  8
0
100
AcDbBlockBegin
  2
A$C0E771AAF
 70
     0
 10
0.0
 20
0.0
 30
0.0
  3
A$C0E771AAF
  1

  0
LINE
  5
1999
330
1998
100
AcDbEntity
  8
0
100
AcDbLine
 10
82.5307369263387
 20
13.92850624759512
 30
0.0
 11
91.92714464633899
 21
13.92850624759512
 31
0.0
  0
LINE
  5
199A
330
1998
100
AcDbEntity
  8
0
100
AcDbLine
 10
82.53073692633893
 20
10.5414251775951
 30
0.0
 11
91.92714464633899
 21
10.5414251775951
 31
0.0
  0
LINE
  5
199B
330
1998
100
AcDbEntity
  8
0
100
AcDbLine
 10
82.53073692633916
 20
5.665162297595315
 30
0.0
 11
91.92714464633946
 21
5.665162297595315
 31
0.0
  0
LINE
  5
199C
330
1998
100
AcDbEntity
  8
0
100
AcDbLine
 10
82.53073692633916
 20
2.530420087595075
 30
0.0
 11
91.92714464633946
 21
2.530420087595075
 31
0.0
  0
LINE
  5
199D
330
1998
100
AcDbEntity
  8
0
100
AcDbLine
 10
91.92714464633899
 20
10.5414251775951
 30
0.0
 11
91.92714464633899
 21
13.92850624759512
 31
0.0
  0
LINE
  5
199E
330
1998
100
AcDbEntity
  8
0
100
AcDbLine
 10
91.92714464633899
 20
2.530420087595075
 30
0.0
 11
91.92714464633899
 21
5.665162297595088
 31
0.0
  0
LINE
  5
199F
330
1998
100
AcDbEntity
  8
0
100
AcDbLine
 10
82.53073692633893
 20
0.0000005975953172
 30
0.0
 11
82.53073692633893
 21
18.47961942759525
 31
0.0
  0
LINE
  5
19A0
330
1998
100
AcDbEntity
  8
0
100
AcDbLine
 10
82.5307369263387
 20
6.928506247595123
 30
0.0
 11
82.53073692633847
 21
13.92850624759512
 31
0.0
  0
LINE
  5
19A1
330
1998
100
AcDbEntity
  8
0
100
AcDbLine
 10
64.58973755633883
 20
18.47961942759525
 30
0.0
 11
82.53073692633893
 21
18.47961942759525
 31
0.0
  0
LINE
  5
19A2
330
1998
100
AcDbEntity
  8
0
100
AcDbLine
 10
64.58973755633883
 20
0.0000005975953172
 30
0.0
 11
82.53073692633893
 21
0.0000005975953172
 31
0.0
  0
LINE
  5
19A3
330
1998
100
AcDbEntity
  8
0
100
AcDbLine
 10
64.58973755633905
 20
0.0000005975950899
 30
0.0
 11
64.58973755633905
 21
18.47961942759525
 31
0.0
  0
LINE
  5
19A4
330
1998
100
AcDbEntity
  8
0
100
AcDbLine
 10
-0.0000043632875304
 20
5.630593150708648
 30
0.0
 11
64.58973755633905
 21
5.630593150708591
 31
0.0
  0
LINE
  5
19A5
330
1998
100
AcDbEntity
  8
0
100
AcDbLine
 10
-0.000004363287303
 20
12.63059315070859
 30
0.0
 11
64.58973755633905
 21
12.63059315070836
 31
0.0
  0
ENDBLK
  5
19A7
330
1998
100
AcDbEntity
  8
0
100
AcDbBlockEnd
  0
BLOCK
  5
19CC
330
19BF
100
AcDbEntity
  8
0
100
AcDbBlockBegin
  2
*D60
 70
     1
 10
0.0
 20
0.0
 30
0.0
  3
*D60
  1

  0
LINE
  5
1A65
330
19BF
100
AcDbEntity
  8
SUNPOU
 62
     0
100
AcDbLine
 10
462.208725764418
 20
316.0921639020871
 30
0.0
 11
462.208725764418
 21
294.2677515001287
 31
0.0
  0
LINE
  5
1A66
330
19BF
100
AcDbEntity
  8
SUNPOU
 62
     0
100
AcDbLine
 10
517.208725764418
 20
318.8727498313564
 30
0.0
 11
517.208725764418
 21
294.2677515001287
 31
0.0
  0
LINE
  5
1A67
330
19BF
100
AcDbEntity
  8
SUNPOU
 62
     0
100
AcDbLine
 10
469.708725764418
 20
299.2677515001287
 30
0.0
 11
509.7087257644179
 21
299.2677515001287
 31
0.0
  0
INSERT
  5
1A68
330
19BF
100
AcDbEntity
  8
SUNPOU
 62
     0
100
AcDbBlockReference
  2
ARROW
 10
462.208725764418
 20
299.2677515001287
 30
0.0
 41
7.5
 42
7.5
 43
7.5
 50
180.0
  0
INSERT
  5
1A69
330
19BF
100
AcDbEntity
  8
SUNPOU
 62
     0
100
AcDbBlockReference
  2
ARROW
 10
517.208725764418
 20
299.2677515001287
 30
0.0
 41
7.5
 42
7.5
 43
7.5
  0
MTEXT
  5
1A6A
330
19BF
100
AcDbEntity
  8
SUNPOU
 62
     0
100
AcDbMText
 10
489.7087257644179
 20
307.2177515001287
 30
0.0
 40
15.0
 41
0.0
 71
     5
 72
     1
  1
\A1;55
  0
POINT
  5
1A6B
330
19BF
100
AcDbEntity
  8
DEFPOINTS
 62
     0
100
AcDbPoint
 10
462.208725764418
 20
321.0921639020871
 30
0.0
  0
POINT
  5
1A6C
330
19BF
100
AcDbEntity
  8
DEFPOINTS
 62
     0
100
AcDbPoint
 10
517.208725764418
 20
323.8727498313564
 30
0.0
  0
POINT
  5
1A6D
330
19BF
100
AcDbEntity
  8
DEFPOINTS
 62
     0
100
AcDbPoint
 10
517.208725764418
 20
299.2677515001287
 30
0.0
  0
ENDBLK
  5
19D6
330
19BF
100
AcDbEntity
  8
0
100
AcDbBlockEnd
  0
ENDSEC
  0
SECTION
  2
ENTITIES
  0
LINE
  5
310
330
DF
100
AcDbEntity
  8
WAKU
100
AcDbLine
 10
1905.0
 20
0.0
 30
0.0
 11
0.0
 21
0.0
 31
0.0
  0
LINE
  5
311
330
DF
100
AcDbEntity
  8
WAKU
100
AcDbLine
 10
0.0
 20
1325.0
 30
0.0
 11
1905.0
 21
1325.0
 31
0.0
  0
LINE
  5
312
330
DF
100
AcDbEntity
  8
WAKU
100
AcDbLine
 10
0.0
 20
0.0
 30
0.0
 11
0.0
 21
1325.0
 31
0.0
  0
LINE
  5
313
330
DF
100
AcDbEntity
  8
SUNPOU
100
AcDbLine
 10
515.0
 20
30.0
 30
0.0
 11
50.0
 21
30.0
 31
0.0
  0
LINE
  5
314
330
DF
100
AcDbEntity
  8
SUNPOU
100
AcDbLine
 10
50.0
 20
60.0
 30
0.0
 11
515.0
 21
60.0
 31
0.0
  0
LINE
  5
315
330
DF
100
AcDbEntity
  8
SUNPOU
100
AcDbLine
 10
515.0
 20
90.0
 30
0.0
 11
50.0
 21
90.0
 31
0.0
  0
LINE
  5
316
330
DF
100
AcDbEntity
  8
SUNPOU
100
AcDbLine
 10
50.0
 20
30.0
 30
0.0
 11
515.0
 21
30.0
 31
0.0
  0
LINE
  5
317
330
DF
100
AcDbEntity
  8
SUNPOU
100
AcDbLine
 10
515.0
 20
60.0
 30
0.0
 11
50.0
 21
60.0
 31
0.0
  0
LINE
  5
318
330
DF
100
AcDbEntity
  8
SUNPOU
100
AcDbLine
 10
50.0
 20
90.0
 30
0.0
 11
515.0
 21
90.0
 31
0.0
  0
LINE
  5
319
330
DF
100
AcDbEntity
  8
SUNPOU
100
AcDbLine
 10
515.0
 20
120.0
 30
0.0
 11
0.0
 21
120.0
 31
0.0
  0
LINE
  5
31A
330
DF
100
AcDbEntity
  8
SUNPOU
100
AcDbLine
 10
22.5
 20
120.0
 30
0.0
 11
0.0
 21
90.0
 31
0.0
  0
LINE
  5
31B
330
DF
100
AcDbEntity
  8
SUNPOU
100
AcDbLine
 10
22.5
 20
60.0
 30
0.0
 11
0.0
 21
30.0
 31
0.0
  0
LINE
  5
31C
330
DF
100
AcDbEntity
  8
SUNPOU
100
AcDbLine
 10
22.5
 20
90.0
 30
0.0
 11
0.0
 21
60.0
 31
0.0
  0
LINE
  5
31D
330
DF
100
AcDbEntity
  8
SUNPOU
100
AcDbLine
 10
45.0
 20
90.0
 30
0.0
 11
0.0
 21
90.0
 31
0.0
  0
LINE
  5
31E
330
DF
100
AcDbEntity
  8
SUNPOU
100
AcDbLine
 10
0.0
 20
60.0
 30
0.0
 11
45.0
 21
60.0
 31
0.0
  0
LINE
  5
31F
330
DF
100
AcDbEntity
  8
SUNPOU
100
AcDbLine
 10
45.0
 20
30.0
 30
0.0
 11
0.0
 21
30.0
 31
0.0
  0
LINE
  5
320
330
DF
100
AcDbEntity
  8
SUNPOU
100
AcDbLine
 10
45.0
 20
30.0
 30
0.0
 11
0.0
 21
30.0
 31
0.0
  0
LINE
  5
321
330
DF
100
AcDbEntity
  8
SUNPOU
100
AcDbLine
 10
45.0
 20
60.0
 30
0.0
 11
0.0
 21
60.0
 31
0.0
  0
LINE
  5
322
330
DF
100
AcDbEntity
  8
SUNPOU
100
AcDbLine
 10
45.0
 20
90.0
 30
0.0
 11
0.0
 21
90.0
 31
0.0
  0
TEXT
  5
323
330
DF
100
AcDbEntity
  8
TEXT
100
AcDbText
 10
6.5
 20
7.5
 30
0.0
 40
15.0
  1
記号
  7
K
 72
     4
 11
22.5
 21
15.0
 31
0.0
100
AcDbText
  0
LINE
  5
324
330
DF
100
AcDbEntity
  8
SUNPOU
100
AcDbLine
 10
50.0
 20
0.0
 30
0.0
 11
50.0
 21
120.0
 31
0.0
  0
LINE
  5
325
330
DF
100
AcDbEntity
  8
SUNPOU
100
AcDbLine
 10
45.0
 20
120.0
 30
0.0
 11
45.0
 21
0.0
 31
0.0
  0
LINE
  5
326
330
DF
100
AcDbEntity
  8
SUNPOU
100
AcDbLine
 10
45.0
 20
0.0
 30
0.0
 11
45.0
 21
120.0
 31
0.0
  0
LINE
  5
327
330
DF
100
AcDbEntity
  8
SUNPOU
100
AcDbLine
 10
50.0
 20
120.0
 30
0.0
 11
50.0
 21
0.0
 31
0.0
  0
LINE
  5
328
330
DF
100
AcDbEntity
  8
SUNPOU
100
AcDbLine
 10
250.0
 20
120.0
 30
0.0
 11
250.0
 21
0.0
 31
0.0
  0
TEXT
  5
329
330
DF
100
AcDbEntity
  8
TEXT
100
AcDbText
 10
89.50000000000001
 20
7.499999999999998
 30
0.0
 40
15.0
  1
変更内容・理由
  7
K
 72
     4
 11
150.0
 21
15.0
 31
0.0
100
AcDbText
  0
TEXT
  5
32A
330
DF
100
AcDbEntity
  8
TEXT
100
AcDbText
 10
266.0
 20
7.5
 30
0.0
 40
15.0
  1
設変番号
  7
K
 72
     4
 11
300.0
 21
15.0
 31
0.0
100
AcDbText
  0
LINE
  5
32B
330
DF
100
AcDbEntity
  8
SUNPOU
100
AcDbLine
 10
22.5
 20
90.0
 30
0.0
 11
45.0
 21
60.0
 31
0.0
  0
LINE
  5
32C
330
DF
100
AcDbEntity
  8
SUNPOU
100
AcDbLine
 10
22.5
 20
60.0
 30
0.0
 11
45.0
 21
30.0
 31
0.0
  0
LINE
  5
32D
330
DF
100
AcDbEntity
  8
SUNPOU
100
AcDbLine
 10
45.0
 20
90.0
 30
0.0
 11
22.5
 21
120.0
 31
0.0
  0
LINE
  5
32E
330
DF
100
AcDbEntity
  8
WAKU
100
AcDbLine
 10
25.0
 20
685.0
 30
0.0
 11
0.0
 21
685.0
 31
0.0
  0
LINE
  5
32F
330
DF
100
AcDbEntity
  8
WAKU
100
AcDbLine
 10
515.0
 20
120.0
 30
0.0
 11
515.0
 21
0.0
 31
0.0
  0
LINE
  5
330
330
DF
100
AcDbEntity
  8
SUNPOU
100
AcDbLine
 10
470.0
 20
0.0
 30
0.0
 11
470.0
 21
120.0
 31
0.0
  0
LINE
  5
331
330
DF
100
AcDbEntity
  8
SUNPOU
100
AcDbLine
 10
425.0
 20
120.0
 30
0.0
 11
425.0
 21
0.0
 31
0.0
  0
LINE
  5
332
330
DF
100
AcDbEntity
  8
SUNPOU
100
AcDbLine
 10
350.0
 20
0.0
 30
0.0
 11
350.0
 21
120.0
 31
0.0
  0
TEXT
  5
333
330
DF
100
AcDbEntity
  8
TEXT
100
AcDbText
 10
431.8214285714285
 20
7.5
 30
0.0
 40
15.0
  1
担当
  7
K
 72
     4
 11
447.5
 21
15.0
 31
0.0
100
AcDbText
  0
TEXT
  5
334
330
DF
100
AcDbEntity
  8
TEXT
100
AcDbText
 10
345.5
 20
7.5
 30
0.0
 40
15.0
  1
 年 月 日
  7
K
 72
     4
 11
387.5
 21
15.0
 31
0.0
100
AcDbText
  0
TEXT
  5
335
330
DF
100
AcDbEntity
  8
TEXT
100
AcDbText
 10
477.0
 20
7.5
 30
0.0
 40
15.0
  1
検図
  7
K
 72
     4
 11
492.4999999999999
 21
15.0
 31
0.0
100
AcDbText
  0
TEXT
  5
336
330
DF
100
AcDbEntity
  8
TEXT
100
AcDbText
 10
20.16172110766186
 20
1357.221369968937
 30
0.0
 40
15.0
  1
5
 50
180.0
  7
K
100
AcDbText
  0
LINE
  5
337
330
DF
100
AcDbEntity
  8
WAKU
100
AcDbLine
 10
300.0
 20
1375.0
 30
0.0
 11
0.0
 21
1375.0
 31
0.0
  0
LINE
  5
338
330
DF
100
AcDbEntity
  8
WAKU
100
AcDbLine
 10
0.0
 20
1325.0
 30
0.0
 11
0.0
 21
1375.0
 31
0.0
  0
TEXT
  5
339
330
DF
100
AcDbEntity
  8
TEXT
100
AcDbText
 10
44.16172110766185
 20
1357.221369968937
 30
0.0
 40
15.0
  1
0
 50
180.0
  7
K
100
AcDbText
  0
TEXT
  5
33A
330
DF
100
AcDbEntity
  8
TEXT
100
AcDbText
 10
92.16172110766185
 20
1357.221369968937
 30
0.0
 40
15.0
  1
3
 50
180.0
  7
K
100
AcDbText
  0
TEXT
  5
33B
330
DF
100
AcDbEntity
  8
TEXT
100
AcDbText
 10
68.16172110766186
 20
1357.221369968937
 30
0.0
 40
15.0
  1
0
 50
180.0
  7
K
100
AcDbText
  0
LINE
  5
33C
330
DF
100
AcDbEntity
  8
TENSEN
100
AcDbLine
 10
71.99999999999988
 20
1325.0
 30
0.0
 11
71.99999999999988
 21
1375.0
 31
0.0
  0
LINE
  5
33D
330
DF
100
AcDbEntity
  8
TENSEN
100
AcDbLine
 10
48.00000000000011
 20
1375.0
 30
0.0
 11
48.00000000000011
 21
1325.0
 31
0.0
  0
LINE
  5
33E
330
DF
100
AcDbEntity
  8
TENSEN
100
AcDbLine
 10
24.00000000000005
 20
1325.0
 30
0.0
 11
24.00000000000005
 21
1375.0
 31
0.0
  0
TEXT
  5
33F
330
DF
100
AcDbEntity
  8
TEXT
100
AcDbText
 10
116.1617211076618
 20
1357.221369968937
 30
0.0
 40
15.0
  1
0
 50
180.0
  7
K
100
AcDbText
  0
TEXT
  5
340
330
DF
100
AcDbEntity
  8
TEXT
100
AcDbText
 10
164.1617211076618
 20
1357.221369968937
 30
0.0
 40
15.0
  1
S
 50
180.0
  7
K
100
AcDbText
  0
TEXT
  5
341
330
DF
100
AcDbEntity
  8
TEXT
100
AcDbText
 10
140.1617211076618
 20
1357.221369968937
 30
0.0
 40
15.0
  1
0
 50
180.0
  7
K
100
AcDbText
  0
LINE
  5
342
330
DF
100
AcDbEntity
  8
TENSEN
100
AcDbLine
 10
168.0000000000001
 20
1325.0
 30
0.0
 11
168.0000000000001
 21
1375.0
 31
0.0
  0
LINE
  5
343
330
DF
100
AcDbEntity
  8
TENSEN
100
AcDbLine
 10
144.0
 20
1375.0
 30
0.0
 11
144.0
 21
1325.0
 31
0.0
  0
LINE
  5
344
330
DF
100
AcDbEntity
  8
TENSEN
100
AcDbLine
 10
120.0
 20
1325.0
 30
0.0
 11
120.0
 21
1375.0
 31
0.0
  0
LINE
  5
345
330
DF
100
AcDbEntity
  8
TENSEN
100
AcDbLine
 10
95.99999999999994
 20
1375.0
 30
0.0
 11
95.99999999999994
 21
1325.0
 31
0.0
  0
TEXT
  5
346
330
DF
100
AcDbEntity
  8
TEXT
100
AcDbText
 10
285.9214788539335
 20
1357.482525154421
 30
0.0
 40
15.0
  1
図番
 50
180.0
  7
K
 72
     4
 11
269.4214788539335
 21
1349.982525154421
 31
0.0
100
AcDbText
  0
TEXT
  5
347
330
DF
100
AcDbEntity
  8
TEXT
100
AcDbText
 10
212.1617211076618
 20
1357.221369968937
 30
0.0
 40
15.0
  1
C
 50
180.0
  7
K
100
AcDbText
  0
TEXT
  5
348
330
DF
100
AcDbEntity
  8
TEXT
100
AcDbText
 10
188.1617211076618
 20
1357.221369968937
 30
0.0
 40
15.0
  1
6
 50
180.0
  7
K
100
AcDbText
  0
TEXT
  5
349
330
DF
100
AcDbEntity
  8
TEXT
100
AcDbText
 10
236.1617211076618
 20
1357.221369968937
 30
0.0
 40
15.0
  1
H
 50
180.0
  7
K
100
AcDbText
  0
LINE
  5
34A
330
DF
100
AcDbEntity
  8
SUNPOU
100
AcDbLine
 10
240.0
 20
1325.0
 30
0.0
 11
240.0
 21
1375.0
 31
0.0
  0
LINE
  5
34B
330
DF
100
AcDbEntity
  8
TENSEN
100
AcDbLine
 10
215.9999999999999
 20
1325.0
 30
0.0
 11
215.9999999999999
 21
1375.0
 31
0.0
  0
LINE
  5
34C
330
DF
100
AcDbEntity
  8
TENSEN
100
AcDbLine
 10
191.9999999999998
 20
1375.0
 30
0.0
 11
191.9999999999998
 21
1325.0
 31
0.0
  0
LINE
  5
34D
330
DF
100
AcDbEntity
  8
WAKU
100
AcDbLine
 10
300.0
 20
1375.0
 30
0.0
 11
300.0
 21
1325.0
 31
0.0
  0
TEXT
  5
34E
330
DF
100
AcDbEntity
  8
TEXT
100
AcDbText
 10
957.6539795431326
 20
941.2509834497477
 30
0.0
 40
20.0
  1
定格時間：30分
  7
K
100
AcDbText
  0
LINE
  5
34F
330
DF
100
AcDbEntity
  8
WAKU
100
AcDbLine
 10
1905.0
 20
1325.0
 30
0.0
 11
1905.0
 21
0.0
 31
0.0
  0
LINE
  5
352
330
DF
100
AcDbEntity
  8
TEXT
100
AcDbLine
 10
954.5259187287538
 20
866.6075093992676
 30
0.0
 11
1506.20796419746
 21
866.6075093992676
 31
0.0
  0
TEXT
  5
353
330
DF
100
AcDbEntity
  8
TEXT
100
AcDbText
 10
957.6539795431326
 20
873.2509834497477
 30
0.0
 40
20.0
  1
投入口直径：φ100mm
  7
K
100
AcDbText
  0
LINE
  5
354
330
DF
100
AcDbEntity
  8
TEXT
100
AcDbLine
 10
954.5259187287538
 20
900.6075093992675
 30
0.0
 11
1506.20796419746
 21
900.6075093992675
 31
0.0
  0
LINE
  5
356
330
DF
100
AcDbEntity
  8
TEXT
100
AcDbLine
 10
954.5259187287538
 20
934.6075093992677
 30
0.0
 11
1506.20796419746
 21
934.6075093992677
 31
0.0
  0
LINE
  5
357
330
DF
100
AcDbEntity
  8
TEXT
100
AcDbLine
 10
1483.212522139625
 20
201.4899248119813
 30
0.0
 11
1701.991109023901
 21
201.4899248119813
 31
0.0
  0
TEXT
  5
358
330
DF
100
AcDbEntity
  8
TEXT
100
AcDbText
 10
1630.536377372535
 20
140.0
 30
0.0
 40
15.0
  1
三 角 法
  7
K
100
AcDbText
  0
TEXT
  5
359
330
DF
100
AcDbEntity
  8
TEXT
100
AcDbText
 10
1627.42583611752
 20
20.0
 30
0.0
 40
10.0
  1
株式会社
  7
K
100
AcDbText
  0
LINE
  5
35A
330
DF
100
AcDbEntity
  8
WAKU
100
AcDbLine
 10
1605.0
 20
165.0
 30
0.0
 11
1905.0
 21
165.0
 31
0.0
  0
LINE
  5
35B
330
DF
100
AcDbEntity
  8
WAKU
100
AcDbLine
 10
1905.0
 20
130.0
 30
0.0
 11
1605.0
 21
130.0
 31
0.0
  0
LINE
  5
35C
330
DF
100
AcDbEntity
  8
WAKU
100
AcDbLine
 10
1605.0
 20
65.0
 30
0.0
 11
1905.0
 21
65.0
 31
0.0
  0
LINE
  5
35D
330
DF
100
AcDbEntity
  8
WAKU
100
AcDbLine
 10
1030.0
 20
245.0
 30
0.0
 11
1730.0
 21
245.0
 31
0.0
  0
TEXT
  5
35E
330
DF
100
AcDbEntity
  8
TEXT
100
AcDbText
 10
1089.383554119052
 20
-15.0
 30
0.0
 40
13.0
  1
複写図面配布先： 購買  →発注先 フード生産技術 フード品質保証 鋳造生産技術 ジョイテック （              ）
  7
K
100
AcDbText
  0
LINE
  5
35F
330
DF
100
AcDbEntity
  8
SUNPOU
100
AcDbLine
 10
1455.0
 20
245.0
 30
0.0
 11
1455.0
 21
165.0
 31
0.0
  0
LINE
  5
360
330
DF
100
AcDbEntity
  8
WAKU
100
AcDbLine
 10
1410.0
 20
165.0
 30
0.0
 11
1410.0
 21
245.0
 31
0.0
  0
LINE
  5
361
330
DF
100
AcDbEntity
  8
SUNPOU
100
AcDbLine
 10
1165.0
 20
245.0
 30
0.0
 11
1165.0
 21
123.75
 31
0.0
  0
LINE
  5
362
330
DF
100
AcDbEntity
  8
WAKU
100
AcDbLine
 10
1030.0
 20
245.0
 30
0.0
 11
1030.0
 21
0.0
 31
0.0
  0
LINE
  5
363
330
DF
100
AcDbEntity
  8
SUNPOU
100
AcDbLine
 10
1410.0
 20
153.0277662695579
 30
0.0
 11
1305.0
 21
0.0
 31
0.0
  0
TEXT
  5
364
330
DF
100
AcDbEntity
  8
TEXT
100
AcDbText
 10
1318.0
 20
137.5277662695578
 30
0.0
 40
13.5
  1
J
  7
K
 72
     1
 11
1322.5
 21
144.2777662695579
 31
0.0
100
AcDbText
 73
     2
  0
TEXT
  5
365
330
DF
100
AcDbEntity
  8
TEXT
100
AcDbText
 10
1312.5
 20
82.12499260185865
 30
0.0
 40
10.0
  1
0.1
 41
0.8
  7
K
 11
1312.5
 21
87.12499260185865
 31
0.0
100
AcDbText
 73
     2
  0
TEXT
  5
366
330
DF
100
AcDbEntity
  8
TEXT
100
AcDbText
 10
1312.5
 20
101.4861020689383
 30
0.0
 40
10.0
  1
0.05
 41
0.8
  7
K
 11
1312.5
 21
106.4861020689383
 31
0.0
100
AcDbText
 73
     2
  0
TEXT
  5
367
330
DF
100
AcDbEntity
  8
TEXT
100
AcDbText
 10
1312.5
 20
120.847211536018
 30
0.0
 40
10.0
  1
0.05
 41
0.8
  7
K
 11
1312.5
 21
125.847211536018
 31
0.0
100
AcDbText
 73
     2
  0
TEXT
  5
368
330
DF
100
AcDbEntity
  8
TEXT
100
AcDbText
 10
1312.5
 20
24.04166420061955
 30
0.0
 40
10.0
  1
0.3
 41
0.8
  7
K
 11
1312.5
 21
29.04166420061955
 31
0.0
100
AcDbText
 73
     2
  0
TEXT
  5
369
330
DF
100
AcDbEntity
  8
TEXT
100
AcDbText
 10
1312.5
 20
43.40277366769925
 30
0.0
 40
10.0
  1
0.2
 41
0.8
  7
K
 11
1312.5
 21
48.40277366769925
 31
0.0
100
AcDbText
 73
     2
  0
TEXT
  5
36A
330
DF
100
AcDbEntity
  8
TEXT
100
AcDbText
 10
1312.5
 20
62.76388313477895
 30
0.0
 40
10.0
  1
0.15
 41
0.8
  7
K
 11
1312.5
 21
67.76388313477895
 31
0.0
100
AcDbText
 73
     2
  0
TEXT
  5
36B
330
DF
100
AcDbEntity
  8
TEXT
100
AcDbText
 10
1312.5
 20
4.68055473353985
 30
0.0
 40
10.0
  1
0.5
 41
0.8
  7
K
 11
1312.5
 21
9.68055473353985
 31
0.0
100
AcDbText
 73
     2
  0
LINE
  5
36C
330
DF
100
AcDbEntity
  8
TEXT
100
AcDbLine
 10
1410.0
 20
19.3611094670797
 30
0.0
 11
1200.0
 21
19.3611094670797
 31
0.0
  0
LINE
  5
36D
330
DF
100
AcDbEntity
  8
TEXT
100
AcDbLine
 10
1200.0
 20
38.7222189341594
 30
0.0
 11
1410.0
 21
38.7222189341594
 31
0.0
  0
LINE
  5
36E
330
DF
100
AcDbEntity
  8
TEXT
100
AcDbLine
 10
1410.0
 20
58.0833284012391
 30
0.0
 11
1200.0
 21
58.0833284012391
 31
0.0
  0
LINE
  5
36F
330
DF
100
AcDbEntity
  8
TEXT
100
AcDbLine
 10
1200.0
 20
77.4444378683188
 30
0.0
 11
1410.0
 21
77.4444378683188
 31
0.0
  0
LINE
  5
370
330
DF
100
AcDbEntity
  8
TEXT
100
AcDbLine
 10
1410.0
 20
96.8055473353985
 30
0.0
 11
1200.0
 21
96.8055473353985
 31
0.0
  0
LINE
  5
371
330
DF
100
AcDbEntity
  8
TEXT
100
AcDbLine
 10
1200.0
 20
116.1666568024781
 30
0.0
 11
1410.0
 21
116.1666568024781
 31
0.0
  0
LINE
  5
372
330
DF
100
AcDbEntity
  8
TEXT
100
AcDbLine
 10
1410.0
 20
183.6851775130385
 30
0.0
 11
1030.0
 21
183.6851775130385
 31
0.0
  0
LINE
  5
373
330
DF
100
AcDbEntity
  8
TEXT
100
AcDbLine
 10
1030.0
 20
214.3425887565193
 30
0.0
 11
1410.0
 21
214.3425887565193
 31
0.0
  0
LINE
  5
374
330
DF
100
AcDbEntity
  8
TEXT
100
AcDbLine
 10
1200.0
 20
135.5277662695579
 30
0.0
 11
1410.0
 21
135.5277662695579
 31
0.0
  0
LINE
  5
375
330
DF
100
AcDbEntity
  8
WAKU
100
AcDbLine
 10
1410.0
 20
153.0277662695579
 30
0.0
 11
1030.0
 21
153.0277662695579
 31
0.0
  0
LINE
  5
376
330
DF
100
AcDbEntity
  8
TEXT
100
AcDbLine
 10
1305.0
 20
153.0277662695579
 30
0.0
 11
1305.0
 21
0.0
 31
0.0
  0
TEXT
  5
377
330
DF
100
AcDbEntity
  8
TEXT
100
AcDbText
 10
1203.880322721626
 20
4.68055473353985
 30
0.0
 40
10.0
  1
1000ｦｺｴ
 41
0.8
  7
K
 72
     2
 11
1247.156513197817
 21
9.68055473353985
 31
0.0
100
AcDbText
 73
     2
  0
LINE
  5
378
330
DF
100
AcDbEntity
  8
TEXT
100
AcDbLine
 10
1200.0
 20
153.0277662695579
 30
0.0
 11
1200.0
 21
0.0
 31
0.0
  0
LINE
  5
379
330
DF
100
AcDbEntity
  8
SUNPOU
100
AcDbLine
 10
1165.0
 20
123.75
 30
0.0
 11
1165.0
 21
0.0
 31
0.0
  0
TEXT
  5
37A
330
DF
100
AcDbEntity
  8
TEXT
100
AcDbText
 10
1252.793618352825
 20
4.68055473353985
 30
0.0
 40
10.0
  1
2000以下
 41
0.8
  7
K
 72
     2
 11
1300.336475495682
 21
9.68055473353985
 31
0.0
100
AcDbText
 73
     2
  0
TEXT
  5
37B
330
DF
100
AcDbEntity
  8
TEXT
100
AcDbText
 10
1089.383554119052
 20
-29.00000000000005
 30
0.0
 40
12.0
  1
（必要に応じて追加・抹消）
  7
K
100
AcDbText
  0
TEXT
  5
37C
330
DF
100
AcDbEntity
  8
TEXT
100
AcDbText
 10
1037.5
 20
4.437016273696769
 30
0.0
 40
10.0
  1
～
  7
K
 11
1037.5
 21
9.437016273696769
 31
0.0
100
AcDbText
 73
     2
  0
LINE
  5
37D
330
DF
100
AcDbEntity
  8
TEXT
100
AcDbLine
 10
1030.0
 20
94.37016273696713
 30
0.0
 11
1165.0
 21
94.37016273696713
 31
0.0
  0
LINE
  5
37E
330
DF
100
AcDbEntity
  8
TEXT
100
AcDbLine
 10
1030.0
 20
123.4148220507546
 30
0.0
 11
1165.0
 21
123.4148220507546
 31
0.0
  0
TEXT
  5
37F
330
DF
100
AcDbEntity
  8
TEXT
100
AcDbText
 10
1037.5
 20
79.93314646327036
 30
0.0
 40
10.0
  1
▽▽▽▽
  7
K
 11
1037.5
 21
84.93314646327036
 31
0.0
100
AcDbText
 73
     2
  0
TEXT
  5
380
330
DF
100
AcDbEntity
  8
TEXT
100
AcDbText
 10
1039.1
 20
102.6315099399121
 30
0.0
 40
15.0
  1
(標準外ﾊ指定ﾉｺﾄ)
 41
0.8
  7
K
 72
     4
 11
1097.499999999999
 21
109.0600813684835
 31
0.0
100
AcDbText
  0
TEXT
  5
381
330
DF
100
AcDbEntity
  8
TEXT
100
AcDbText
 10
1037.5
 20
61.05911391587696
 30
0.0
 40
10.0
  1
▽▽▽
  7
K
 11
1037.5
 21
66.05911391587696
 31
0.0
100
AcDbText
 73
     2
  0
TEXT
  5
382
330
DF
100
AcDbEntity
  8
TEXT
100
AcDbText
 10
1037.5
 20
23.31104882109016
 30
0.0
 40
10.0
  1
▽
  7
K
 11
1037.5
 21
28.31104882109016
 31
0.0
100
AcDbText
 73
     2
  0
TEXT
  5
383
330
DF
100
AcDbEntity
  8
TEXT
100
AcDbText
 10
1037.5
 20
42.18508136848356
 30
0.0
 40
10.0
  1
▽▽
  7
K
 11
1037.5
 21
47.18508136848356
 31
0.0
100
AcDbText
 73
     2
  0
TEXT
  5
384
330
DF
100
AcDbEntity
  8
TEXT
100
AcDbText
 10
1139.880952380952
 20
61.05911391587696
 30
0.0
 40
10.0
  1
6Z
  7
K
 72
     2
 11
1157.5
 21
66.05911391587696
 31
0.0
100
AcDbText
 73
     2
  0
TEXT
  5
385
330
DF
100
AcDbEntity
  8
TEXT
100
AcDbText
 10
1130.357142857142
 20
23.31104882109016
 30
0.0
 40
10.0
  1
50Z
  7
K
 72
     2
 11
1157.5
 21
28.31104882109016
 31
0.0
100
AcDbText
 73
     2
  0
TEXT
  5
386
330
DF
100
AcDbEntity
  8
TEXT
100
AcDbText
 10
1130.357142857142
 20
42.18508136848356
 30
0.0
 40
10.0
  1
18Z
  7
K
 72
     2
 11
1157.5
 21
47.18508136848356
 31
0.0
100
AcDbText
 73
     2
  0
TEXT
  5
387
330
DF
100
AcDbEntity
  8
TEXT
100
AcDbText
 10
1125.595238095238
 20
79.93314646327036
 30
0.0
 40
10.0
  1
0.8Z
  7
K
 72
     2
 11
1157.5
 21
84.93314646327036
 31
0.0
100
AcDbText
 73
     2
  0
TEXT
  5
388
330
DF
100
AcDbEntity
  8
TEXT
100
AcDbText
 10
1045.328932303146
 20
191.5138831347789
 30
0.0
 40
15.0
  1
色調
  7
K
 11
1045.328932303146
 21
199.0138831347789
 31
0.0
100
AcDbText
 73
     2
  0
TEXT
  5
389
330
DF
100
AcDbEntity
  8
TEXT
100
AcDbText
 10
1037.5
 20
130.7212941601562
 30
0.0
 40
15.0
  1
標準加工アラサ
  7
K
 72
     4
 11
1097.499999999999
 21
138.2212941601562
 31
0.0
100
AcDbText
  0
TEXT
  5
38A
330
DF
100
AcDbEntity
  8
TEXT
100
AcDbText
 10
1045.328932303146
 20
160.8564718912981
 30
0.0
 40
15.0
  1
適用規格など
  7
K
 11
1045.328932303146
 21
168.3564718912981
 31
0.0
100
AcDbText
 73
     2
  0
TEXT
  5
38B
330
DF
100
AcDbEntity
  8
TEXT
100
AcDbText
 10
1045.328932303146
 20
222.1712943782597
 30
0.0
 40
15.0
  1
表面処理
  7
K
 11
1045.328932303146
 21
229.6712943782597
 31
0.0
100
AcDbText
 73
     2
  0
TEXT
  5
38C
330
DF
100
AcDbEntity
  8
TEXT
100
AcDbText
 10
1275.650761209968
 20
120.847211536018
 30
0.0
 40
10.0
  1
3以下
 41
0.8
  7
K
 72
     2
 11
1300.336475495682
 21
125.847211536018
 31
0.0
100
AcDbText
 73
     2
  0
TEXT
  5
38D
330
DF
100
AcDbEntity
  8
TEXT
100
AcDbText
 10
1211.042227483531
 20
120.847211536018
 30
0.0
 40
10.0
  1
0.5以上
 41
0.8
  7
K
 72
     2
 11
1247.156513197817
 21
125.847211536018
 31
0.0
100
AcDbText
 73
     2
  0
TEXT
  5
38E
330
DF
100
AcDbEntity
  8
TEXT
100
AcDbText
 10
1226.737465578769
 20
101.4861020689383
 30
0.0
 40
10.0
  1
3ｦｺｴ
 41
0.8
  7
K
 72
     2
 11
1247.156513197817
 21
106.4861020689383
 31
0.0
100
AcDbText
 73
     2
  0
TEXT
  5
38F
330
DF
100
AcDbEntity
  8
TEXT
100
AcDbText
 10
1226.737465578769
 20
82.12499260185865
 30
0.0
 40
10.0
  1
6ｦｺｴ
 41
0.8
  7
K
 72
     2
 11
1247.156513197817
 21
87.12499260185865
 31
0.0
100
AcDbText
 73
     2
  0
TEXT
  5
390
330
DF
100
AcDbEntity
  8
TEXT
100
AcDbText
 10
1211.499370340674
 20
24.04166420061955
 30
0.0
 40
10.0
  1
315ｦｺｴ
 41
0.8
  7
K
 72
     2
 11
1247.156513197817
 21
29.04166420061955
 31
0.0
100
AcDbText
 73
     2
  0
TEXT
  5
391
330
DF
100
AcDbEntity
  8
TEXT
100
AcDbText
 10
1219.118417959722
 20
62.76388313477895
 30
0.0
 40
10.0
  1
30ｦｺｴ
 41
0.8
  7
K
 72
     2
 11
1247.156513197817
 21
67.76388313477895
 31
0.0
100
AcDbText
 73
     2
  0
TEXT
  5
392
330
DF
100
AcDbEntity
  8
TEXT
100
AcDbText
 10
1211.499370340674
 20
43.40277366769925
 30
0.0
 40
10.0
  1
120ｦｺｴ
 41
0.8
  7
K
 72
     2
 11
1247.156513197817
 21
48.40277366769925
 31
0.0
100
AcDbText
 73
     2
  0
TEXT
  5
393
330
DF
100
AcDbEntity
  8
TEXT
100
AcDbText
 10
1176.2
 20
64.54368504024373
 30
0.0
 40
13.5
  1
法
  7
K
 72
     1
 11
1182.5
 21
64.54368504024373
 31
0.0
100
AcDbText
  0
TEXT
  5
394
330
DF
100
AcDbEntity
  8
TEXT
100
AcDbText
 10
1171.785714285714
 20
21.21729571105277
 30
0.0
 40
7.5
  1
mm
  7
K
 72
     1
 11
1182.5
 21
21.21729571105277
 31
0.0
100
AcDbText
  0
TEXT
  5
395
330
DF
100
AcDbEntity
  8
TEXT
100
AcDbText
 10
1164.761904761904
 20
25.80952032984697
 30
0.0
 40
10.0
  1
(
  7
K
 72
     2
 11
1170.0
 21
30.80952032984697
 31
0.0
100
AcDbText
 73
     2
  0
TEXT
  5
396
330
DF
100
AcDbEntity
  8
TEXT
100
AcDbText
 10
1193.117643257487
 20
25.80952032984697
 30
0.0
 40
10.0
  1
)
  7
K
 11
1193.117643257487
 21
30.80952032984697
 31
0.0
100
AcDbText
 73
     2
  0
TEXT
  5
397
330
DF
100
AcDbEntity
  8
TEXT
100
AcDbText
 10
1177.833333333333
 20
30.80952032984697
 30
0.0
 40
10.0
  1
±
  7
K
 72
     1
 11
1182.5
 21
30.80952032984697
 31
0.0
100
AcDbText
  0
TEXT
  5
398
330
DF
100
AcDbEntity
  8
TEXT
100
AcDbText
 10
1176.2
 20
49.04368504024375
 30
0.0
 40
13.5
  1
差
  7
K
 72
     1
 11
1182.5
 21
49.04368504024375
 31
0.0
100
AcDbText
  0
TEXT
  5
399
330
DF
100
AcDbEntity
  8
TEXT
100
AcDbText
 10
1176.2
 20
95.54368504024381
 30
0.0
 40
13.5
  1
通
  7
K
 72
     1
 11
1182.5
 21
95.54368504024381
 31
0.0
100
AcDbText
  0
TEXT
  5
39A
330
DF
100
AcDbEntity
  8
TEXT
100
AcDbText
 10
1176.2
 20
80.0436850402437
 30
0.0
 40
13.5
  1
寸
  7
K
 72
     1
 11
1182.5
 21
80.0436850402437
 31
0.0
100
AcDbText
  0
TEXT
  5
39B
330
DF
100
AcDbEntity
  8
TEXT
100
AcDbText
 10
1176.2
 20
111.0436850402438
 30
0.0
 40
13.5
  1
普
  7
K
 72
     1
 11
1182.5
 21
111.0436850402438
 31
0.0
100
AcDbText
  0
TEXT
  5
39C
330
DF
100
AcDbEntity
  8
TEXT
100
AcDbText
 10
1260.412665971873
 20
62.76388313477895
 30
0.0
 40
10.0
  1
120以下
 41
0.8
  7
K
 72
     2
 11
1300.336475495682
 21
67.76388313477895
 31
0.0
100
AcDbText
 73
     2
  0
TEXT
  5
39D
330
DF
100
AcDbEntity
  8
TEXT
100
AcDbText
 10
1260.412665971873
 20
43.40277366769925
 30
0.0
 40
10.0
  1
315以下
 41
0.8
  7
K
 72
     2
 11
1300.336475495682
 21
48.40277366769925
 31
0.0
100
AcDbText
 73
     2
  0
TEXT
  5
39E
330
DF
100
AcDbEntity
  8
TEXT
100
AcDbText
 10
1252.793618352825
 20
24.04166420061955
 30
0.0
 40
10.0
  1
1000以下
 41
0.8
  7
K
 72
     2
 11
1300.336475495682
 21
29.04166420061955
 31
0.0
100
AcDbText
 73
     2
  0
TEXT
  5
39F
330
DF
100
AcDbEntity
  8
TEXT
100
AcDbText
 10
1275.650761209968
 20
101.4861020689383
 30
0.0
 40
10.0
  1
6以下
 41
0.8
  7
K
 72
     2
 11
1300.336475495682
 21
106.4861020689383
 31
0.0
100
AcDbText
 73
     2
  0
TEXT
  5
3A0
330
DF
100
AcDbEntity
  8
TEXT
100
AcDbText
 10
1268.03171359092
 20
82.12499260185865
 30
0.0
 40
10.0
  1
30以下
 41
0.8
  7
K
 72
     2
 11
1300.336475495682
 21
87.12499260185865
 31
0.0
100
AcDbText
 73
     2
  0
TEXT
  5
3A1
330
DF
100
AcDbEntity
  8
TEXT
100
AcDbText
 10
1209.75
 20
137.5277662695578
 30
0.0
 40
13.5
  1
呼 ビ 寸 法
  7
K
 72
     1
 11
1252.5
 21
144.2777662695579
 31
0.0
100
AcDbText
 73
     2
  0
LINE
  5
3A2
330
DF
100
AcDbEntity
  8
TEXT
100
AcDbLine
 10
1266.160943828778
 20
167.2958760441229
 30
0.0
 11
1312.762803387548
 21
167.2958760441229
 31
0.0
  0
LINE
  5
3A3
330
DF
100
AcDbEntity
  8
TEXT
100
AcDbLine
 10
1267.158463029889
 20
230.0509631950871
 30
0.0
 11
1313.760322588658
 21
230.0509631950871
 31
0.0
  0
LINE
  5
3A4
330
DF
100
AcDbEntity
  8
TEXT
100
AcDbLine
 10
1266.437602890035
 20
197.6840350233787
 30
0.0
 11
1313.039462448804
 21
197.6840350233787
 31
0.0
  0
LINE
  5
3A5
330
DF
100
AcDbEntity
  8
WAKU
100
AcDbLine
 10
1605.0
 20
0.0
 30
0.0
 11
1605.0
 21
65.0
 31
0.0
  0
TEXT
  5
3A6
330
DF
100
AcDbEntity
  8
TEXT
100
AcDbText
 10
1382.5
 20
4.68055473353985
 30
0.0
 40
10.0
  1
3
 41
0.8
  7
K
 11
1382.5
 21
9.68055473353985
 31
0.0
100
AcDbText
 73
     2
  0
TEXT
  5
3A7
330
DF
100
AcDbEntity
  8
TEXT
100
AcDbText
 10
1347.5
 20
4.68055473353985
 30
0.0
 40
10.0
  1
1.2
 41
0.8
  7
K
 11
1347.5
 21
9.68055473353985
 31
0.0
100
AcDbText
 73
     2
  0
TEXT
  5
3A8
330
DF
100
AcDbEntity
  8
TEXT
100
AcDbText
 10
1415.0
 20
10.0
 30
0.0
 40
15.0
  1
承認
  7
K
100
AcDbText
  0
LINE
  5
3A9
330
DF
100
AcDbEntity
  8
TEXT
100
AcDbLine
 10
1375.0
 20
153.0277662695579
 30
0.0
 11
1375.0
 21
0.0
 31
0.0
  0
LINE
  5
3AA
330
DF
100
AcDbEntity
  8
TEXT
100
AcDbLine
 10
1340.0
 20
0.0
 30
0.0
 11
1340.0
 21
153.0277662695579
 31
0.0
  0
LINE
  5
3AB
330
DF
100
AcDbEntity
  8
WAKU
100
AcDbLine
 10
1410.0
 20
0.0
 30
0.0
 11
1410.0
 21
165.0
 31
0.0
  0
LINE
  5
3AC
330
DF
100
AcDbEntity
  8
SUNPOU
100
AcDbLine
 10
1525.0
 20
165.0
 30
0.0
 11
1525.0
 21
0.0
 31
0.0
  0
LINE
  5
3AD
330
DF
100
AcDbEntity
  8
SUNPOU
100
AcDbLine
 10
1455.0
 20
165.0
 30
0.0
 11
1455.0
 21
0.0
 31
0.0
  0
CIRCLE
  5
3AE
330
DF
100
AcDbEntity
  8
JISSEN
100
AcDbCircle
 10
1551.666666666666
 20
5.0
 30
0.0
 40
1.0
  0
CIRCLE
  5
3AF
330
DF
100
AcDbEntity
  8
JISSEN
100
AcDbCircle
 10
1578.333333333333
 20
5.0
 30
0.0
 40
1.0
  0
TEXT
  5
3B0
330
DF
100
AcDbEntity
  8
TEXT
100
AcDbText
 10
1474.842051704615
 20
208.9938695991
 30
0.0
 40
15.0
  1
バーチカルフードカッター
  7
K
 72
     4
 11
1580.842051704615
 21
215.9938695990999
 31
0.0
100
AcDbText
  0
LINE
  5
3B1
330
DF
100
AcDbEntity
  8
SUNPOU
100
AcDbLine
 10
1605.0
 20
123.75
 30
0.0
 11
1410.0
 21
123.75
 31
0.0
  0
LINE
  5
3B2
330
DF
100
AcDbEntity
  8
SUNPOU
100
AcDbLine
 10
1605.0
 20
41.25
 30
0.0
 11
1410.0
 21
41.25
 31
0.0
  0
LINE
  5
3B3
330
DF
100
AcDbEntity
  8
SUNPOU
100
AcDbLine
 10
1410.0
 20
82.5
 30
0.0
 11
1605.0
 21
82.5
 31
0.0
  0
LINE
  5
3B4
330
DF
100
AcDbEntity
  8
WAKU
100
AcDbLine
 10
1410.0
 20
165.0
 30
0.0
 11
1605.0
 21
165.0
 31
0.0
  0
TEXT
  5
3B5
330
DF
100
AcDbEntity
  8
TEXT
100
AcDbText
 10
1347.5
 20
120.847211536018
 30
0.0
 40
10.0
  1
0.1
 41
0.8
  7
K
 11
1347.5
 21
125.847211536018
 31
0.0
100
AcDbText
 73
     2
  0
TEXT
  5
3B6
330
DF
100
AcDbEntity
  8
TEXT
100
AcDbText
 10
1382.5
 20
62.76388313477895
 30
0.0
 40
10.0
  1
0.8
 41
0.8
  7
K
 11
1382.5
 21
67.76388313477895
 31
0.0
100
AcDbText
 73
     2
  0
TEXT
  5
3B7
330
DF
100
AcDbEntity
  8
TEXT
100
AcDbText
 10
1347.5
 20
62.76388313477895
 30
0.0
 40
10.0
  1
0.3
 41
0.8
  7
K
 11
1347.5
 21
67.76388313477895
 31
0.0
100
AcDbText
 73
     2
  0
TEXT
  5
3B8
330
DF
100
AcDbEntity
  8
TEXT
100
AcDbText
 10
1347.5
 20
24.04166420061955
 30
0.0
 40
10.0
  1
0.8
 41
0.8
  7
K
 11
1347.5
 21
29.04166420061955
 31
0.0
100
AcDbText
 73
     2
  0
TEXT
  5
3B9
330
DF
100
AcDbEntity
  8
TEXT
100
AcDbText
 10
1347.5
 20
43.40277366769925
 30
0.0
 40
10.0
  1
0.5
 41
0.8
  7
K
 11
1347.5
 21
48.40277366769925
 31
0.0
100
AcDbText
 73
     2
  0
TEXT
  5
3BA
330
DF
100
AcDbEntity
  8
TEXT
100
AcDbText
 10
1382.5
 20
24.04166420061955
 30
0.0
 40
10.0
  1
2
 41
0.8
  7
K
 11
1382.5
 21
29.04166420061955
 31
0.0
100
AcDbText
 73
     2
  0
TEXT
  5
3BB
330
DF
100
AcDbEntity
  8
TEXT
100
AcDbText
 10
1382.5
 20
43.40277366769925
 30
0.0
 40
10.0
  1
1.2
 41
0.8
  7
K
 11
1382.5
 21
48.40277366769925
 31
0.0
100
AcDbText
 73
     2
  0
TEXT
  5
3BC
330
DF
100
AcDbEntity
  8
TEXT
100
AcDbText
 10
1347.5
 20
82.12499260185865
 30
0.0
 40
10.0
  1
0.2
 41
0.8
  7
K
 11
1347.5
 21
87.12499260185865
 31
0.0
100
AcDbText
 73
     2
  0
TEXT
  5
3BD
330
DF
100
AcDbEntity
  8
TEXT
100
AcDbText
 10
1347.5
 20
101.4861020689383
 30
0.0
 40
10.0
  1
0.1
 41
0.8
  7
K
 11
1347.5
 21
106.4861020689383
 31
0.0
100
AcDbText
 73
     2
  0
TEXT
  5
3BE
330
DF
100
AcDbEntity
  8
TEXT
100
AcDbText
 10
1382.5
 20
82.12499260185865
 30
0.0
 40
10.0
  1
0.5
 41
0.8
  7
K
 11
1382.5
 21
87.12499260185865
 31
0.0
100
AcDbText
 73
     2
  0
TEXT
  5
3BF
330
DF
100
AcDbEntity
  8
TEXT
100
AcDbText
 10
1382.5
 20
101.4861020689383
 30
0.0
 40
10.0
  1
0.2
 41
0.8
  7
K
 11
1382.5
 21
106.4861020689383
 31
0.0
100
AcDbText
 73
     2
  0
LINE
  5
3C0
330
DF
100
AcDbEntity
  8
TEXT
100
AcDbLine
 10
1382.5
 20
125.847211536018
 30
0.0
 11
1400.530166296804
 21
125.847211536018
 31
0.0
  0
TEXT
  5
3C1
330
DF
100
AcDbEntity
  8
TEXT
100
AcDbText
 10
1415.0
 20
51.25
 30
0.0
 40
15.0
  1
検図
  7
K
100
AcDbText
  0
TEXT
  5
3C2
330
DF
100
AcDbEntity
  8
TEXT
100
AcDbText
 10
1415.0
 20
92.5
 30
0.0
 40
15.0
  1
製図
  7
K
100
AcDbText
  0
TEXT
  5
3C3
330
DF
100
AcDbEntity
  8
TEXT
100
AcDbText
 10
1350.428571428571
 20
137.5277662695578
 30
0.0
 40
13.5
  1
K
  7
K
 72
     1
 11
1357.5
 21
144.2777662695579
 31
0.0
100
AcDbText
 73
     2
  0
TEXT
  5
3C4
330
DF
100
AcDbEntity
  8
TEXT
100
AcDbText
 10
1386.071428571428
 20
137.5277662695578
 30
0.0
 40
13.5
  1
L
  7
K
 72
     1
 11
1392.5
 21
144.2777662695579
 31
0.0
100
AcDbText
 73
     2
  0
TEXT
  5
3C5
330
DF
100
AcDbEntity
  8
TEXT
100
AcDbText
 10
1415.0
 20
133.75
 30
0.0
 40
15.0
  1
設計
  7
K
100
AcDbText
  0
TEXT
  5
3C6
330
DF
100
AcDbEntity
  8
TEXT
100
AcDbText
 10
1415.0
 20
195.0
 30
0.0
 40
15.0
  1
品名
  7
K
100
AcDbText
  0
LINE
  5
3C7
330
DF
100
AcDbEntity
  8
WAKU
100
AcDbLine
 10
1605.0
 20
65.0
 30
0.0
 11
1605.0
 21
130.0
 31
0.0
  0
CIRCLE
  5
3C8
330
DF
100
AcDbEntity
  8
JISSEN
100
AcDbCircle
 10
1551.666666666666
 20
46.25
 30
0.0
 40
1.0
  0
CIRCLE
  5
3C9
330
DF
100
AcDbEntity
  8
JISSEN
100
AcDbCircle
 10
1551.666666666666
 20
87.5
 30
0.0
 40
1.0
  0
CIRCLE
  5
3CA
330
DF
100
AcDbEntity
  8
JISSEN
100
AcDbCircle
 10
1578.333333333333
 20
46.25
 30
0.0
 40
1.0
  0
CIRCLE
  5
3CB
330
DF
100
AcDbEntity
  8
JISSEN
100
AcDbCircle
 10
1578.333333333333
 20
87.5
 30
0.0
 40
1.0
  0
TEXT
  5
3CC
330
DF
100
AcDbEntity
  8
TEXT
100
AcDbText
 10
1618.5
 20
90.0
 30
0.0
 40
15.0
  1
図番
  7
K
 72
     4
 11
1635.0
 21
97.5
 31
0.0
100
AcDbText
  0
TEXT
  5
3CD
330
DF
100
AcDbEntity
  8
TEXT
100
AcDbText
 10
1500.46556580879
 20
177.5464162556886
 30
0.0
 40
15.0
  1
CV-150B外観図
  7
K
 72
     4
 11
1578.179851523075
 21
185.0464162556886
 31
0.0
100
AcDbText
  0
CIRCLE
  5
3CE
330
DF
100
AcDbEntity
  8
JISSEN
100
AcDbCircle
 10
1551.666666666666
 20
128.75
 30
0.0
 40
1.0
  0
LINE
  5
3CF
330
DF
100
AcDbEntity
  8
WAKU
100
AcDbLine
 10
1605.0
 20
130.0
 30
0.0
 11
1605.0
 21
165.0
 31
0.0
  0
CIRCLE
  5
3D0
330
DF
100
AcDbEntity
  8
JISSEN
100
AcDbCircle
 10
1578.333333333333
 20
128.75
 30
0.0
 40
1.0
  0
LINE
  5
3D1
330
DF
100
AcDbEntity
  8
SUNPOU
100
AcDbLine
 10
1785.0
 20
245.0
 30
0.0
 11
1785.0
 21
165.0
 31
0.0
  0
LINE
  5
3D2
330
DF
100
AcDbEntity
  8
WAKU
100
AcDbLine
 10
1730.0
 20
245.0
 30
0.0
 11
1730.0
 21
165.0
 31
0.0
  0
LINE
  5
3D3
330
DF
100
AcDbEntity
  8
SUNPOU
100
AcDbLine
 10
1730.0
 20
205.0
 30
0.0
 11
1905.0
 21
205.0
 31
0.0
  0
TEXT
  5
3D4
330
DF
100
AcDbEntity
  8
TEXT
100
AcDbText
 10
1677.305591502112
 20
20.0
 30
0.0
 40
17.5
  1
中部コーポレーション
  7
K
100
AcDbText
  0
LINE
  5
3DB
330
DF
100
AcDbEntity
  8
SUNPOU
100
AcDbLine
 10
1665.0
 20
130.0
 30
0.0
 11
1665.0
 21
65.0
 31
0.0
  0
TEXT
  5
3DF
330
DF
100
AcDbEntity
  8
TEXT
100
AcDbText
 10
1723.389633973381
 20
81.65539176238553
 30
0.0
 40
15.0
  1
CV-150B
  7
K
100
AcDbText
  0
TEXT
  5
3E2
330
DF
100
AcDbEntity
  8
TEXT
100
AcDbText
 10
1725.0
 20
140.0
 30
0.0
 40
15.0
  1
尺度
  7
K
100
AcDbText
  0
LINE
  5
3E3
330
DF
100
AcDbEntity
  8
SUNPOU
100
AcDbLine
 10
1720.0
 20
165.0
 30
0.0
 11
1720.0
 21
130.0
 31
0.0
  0
TEXT
  5
3E4
330
DF
100
AcDbEntity
  8
TEXT
100
AcDbText
 10
1735.0
 20
175.0
 30
0.0
 40
15.0
  1
板 厚
  7
K
100
AcDbText
  0
LINE
  5
3E5
330
DF
100
AcDbEntity
  8
SUNPOU
100
AcDbLine
 10
1765.0
 20
130.0
 30
0.0
 11
1765.0
 21
165.0
 31
0.0
  0
TEXT
  5
3E7
330
DF
100
AcDbEntity
  8
TEXT
100
AcDbText
 10
1735.0
 20
215.0
 30
0.0
 40
15.0
  1
材 質
  7
K
100
AcDbText
  0
TEXT
  5
3EF
330
DF
100
AcDbEntity
  8
TEXT
100
AcDbText
 10
1820.316557789356
 20
137.0863030625838
 30
0.0
 40
12.5
  1
(単位mm)
  7
K
100
AcDbText
  0
LINE
  5
3F0
330
DF
100
AcDbEntity
  8
TEXT
100
AcDbLine
 10
1818.61861375836
 20
182.6374555741322
 30
0.0
 11
1865.22047331713
 21
182.6374555741322
 31
0.0
  0
LINE
  5
3F1
330
DF
100
AcDbEntity
  8
TEXT
100
AcDbLine
 10
1818.61861375836
 20
220.4434647147481
 30
0.0
 11
1865.22047331713
 21
220.4434647147481
 31
0.0
  0
TEXT
  5
3F2
330
DF
100
AcDbEntity
  8
TEXT
100
AcDbText
 10
1911.737171254126
 20
468.0067108201171
 30
0.0
 40
20.0
  1
ず
  7
K
 72
     1
 11
1921.070504587459
 21
478.0067108201172
 31
0.0
100
AcDbText
 73
     2
  0
TEXT
  5
3F3
330
DF
100
AcDbEntity
  8
TEXT
100
AcDbText
 10
1910.666666666666
 20
468.0067108201171
 30
0.0
 40
20.0
  1
ず
  7
K
 72
     1
 11
1920.0
 21
478.0067108201172
 31
0.0
100
AcDbText
 73
     2
  0
LINE
  5
3F4
330
DF
100
AcDbEntity
  8
WAKU
100
AcDbLine
 10
1905.0
 20
245.0
 30
0.0
 11
1730.0
 21
245.0
 31
0.0
  0
TEXT
  5
3F5
330
DF
100
AcDbEntity
  8
TEXT
100
AcDbText
 10
1910.666666666666
 20
343.0067108201171
 30
0.0
 40
20.0
  1
返
  7
K
 72
     1
 11
1920.0
 21
353.0067108201171
 31
0.0
100
AcDbText
 73
     2
  0
TEXT
  5
3F6
330
DF
100
AcDbEntity
  8
TEXT
100
AcDbText
 10
1910.173124750537
 20
294.3039468811042
 30
0.0
 40
20.0
  1
の
  7
K
 72
     4
 11
1919.506458083871
 21
304.3039468811042
 31
0.0
100
AcDbText
  0
TEXT
  5
3F7
330
DF
100
AcDbEntity
  8
TEXT
100
AcDbText
 10
1910.666666666666
 20
248.0067108201172
 30
0.0
 40
20.0
  1
と
  7
K
 72
     1
 11
1920.0
 21
258.0067108201171
 31
0.0
100
AcDbText
 73
     2
  0
TEXT
  5
3F8
330
DF
100
AcDbEntity
  8
TEXT
100
AcDbText
 10
1910.666666666666
 20
273.0067108201172
 30
0.0
 40
20.0
  1
こ
  7
K
 72
     1
 11
1920.0
 21
283.0067108201171
 31
0.0
100
AcDbText
 73
     2
  0
TEXT
  5
3F9
330
DF
100
AcDbEntity
  8
TEXT
100
AcDbText
 10
1910.666666666666
 20
318.0067108201171
 30
0.0
 40
20.0
  1
却
  7
K
 72
     1
 11
1920.0
 21
328.0067108201171
 31
0.0
100
AcDbText
 73
     2
  0
TEXT
  5
3FA
330
DF
100
AcDbEntity
  8
TEXT
100
AcDbText
 10
1911.333333333333
 20
368.0067108201171
 30
0.0
 40
20.0
  1
へ
  7
K
 72
     1
 11
1920.0
 21
378.0067108201171
 31
0.0
100
AcDbText
 73
     2
  0
TEXT
  5
3FB
330
DF
100
AcDbEntity
  8
TEXT
100
AcDbText
 10
1910.666666666666
 20
393.0067108201171
 30
0.0
 40
20.0
  1
元
  7
K
 72
     1
 11
1920.0
 21
403.0067108201171
 31
0.0
100
AcDbText
 73
     2
  0
TEXT
  5
3FC
330
DF
100
AcDbEntity
  8
TEXT
100
AcDbText
 10
1910.666666666666
 20
443.0067108201171
 30
0.0
 40
20.0
  1
発
  7
K
 72
     1
 11
1920.0
 21
453.0067108201172
 31
0.0
100
AcDbText
 73
     2
  0
TEXT
  5
3FD
330
DF
100
AcDbEntity
  8
TEXT
100
AcDbText
 10
1910.666666666666
 20
418.0067108201171
 30
0.0
 40
20.0
  1
行
  7
K
 72
     1
 11
1920.0
 21
428.0067108201172
 31
0.0
100
AcDbText
 73
     2
  0
TEXT
  5
3FE
330
DF
100
AcDbEntity
  8
TEXT
100
AcDbText
 10
1910.666666666666
 20
493.0067108201171
 30
0.0
 40
20.0
  1
必
  7
K
 72
     1
 11
1920.0
 21
503.0067108201172
 31
0.0
100
AcDbText
 73
     2
  0
TEXT
  5
3FF
330
DF
100
AcDbEntity
  8
TEXT
100
AcDbText
 10
1924.628477461025
 20
526.0248513938097
 30
0.0
 40
20.0
  1
、
  7
K
 72
     1
 11
1927.295144127692
 21
536.0248513938097
 31
0.0
100
AcDbText
 73
     2
  0
TEXT
  5
400
330
DF
100
AcDbEntity
  8
TEXT
100
AcDbText
 10
1910.666666666666
 20
543.0067108201171
 30
0.0
 40
20.0
  1
後
  7
K
 72
     1
 11
1920.0
 21
553.0067108201172
 31
0.0
100
AcDbText
 73
     2
  0
TEXT
  5
401
330
DF
100
AcDbEntity
  8
TEXT
100
AcDbText
 10
1911.333333333333
 20
568.0067108201171
 30
0.0
 40
20.0
  1
み
  7
K
 72
     1
 11
1920.0
 21
578.0067108201172
 31
0.0
100
AcDbText
 73
     2
  0
TEXT
  5
402
330
DF
100
AcDbEntity
  8
TEXT
100
AcDbText
 10
1910.666666666666
 20
643.0067108201171
 30
0.0
 40
20.0
  1
は
  7
K
 72
     1
 11
1920.0
 21
653.0067108201172
 31
0.0
100
AcDbText
 73
     2
  0
TEXT
  5
403
330
DF
100
AcDbEntity
  8
TEXT
100
AcDbText
 10
1911.333333333333
 20
618.0067108201171
 30
0.0
 40
20.0
  1
用
  7
K
 72
     1
 11
1920.0
 21
628.0067108201172
 31
0.0
100
AcDbText
 73
     2
  0
TEXT
  5
404
330
DF
100
AcDbEntity
  8
TEXT
100
AcDbText
 10
1910.666666666666
 20
593.0067108201171
 30
0.0
 40
20.0
  1
済
  7
K
 72
     1
 11
1920.0
 21
603.0067108201172
 31
0.0
100
AcDbText
 73
     2
  0
TEXT
  5
405
330
DF
100
AcDbEntity
  8
TEXT
100
AcDbText
 10
1910.666666666666
 20
668.0067108201171
 30
0.0
 40
20.0
  1
図
  7
K
 72
     1
 11
1920.0
 21
678.0067108201172
 31
0.0
100
AcDbText
 73
     2
  0
LINE
  5
406
330
DF
100
AcDbEntity
  8
TEXT
100
AcDbLine
 10
954.5259187287538
 20
968.6075093992677
 30
0.0
 11
1506.20796419746
 21
968.6075093992677
 31
0.0
  0
LINE
  5
407
330
DF
100
AcDbEntity
  8
TEXT
100
AcDbLine
 10
954.5259187287538
 20
1002.607509399267
 30
0.0
 11
1506.20796419746
 21
1002.607509399267
 31
0.0
  0
LINE
  5
408
330
DF
100
AcDbEntity
  8
TEXT
100
AcDbLine
 10
954.5259187287538
 20
1036.607509399267
 30
0.0
 11
1506.20796419746
 21
1036.607509399267
 31
0.0
  0
TEXT
  5
409
330
DF
100
AcDbEntity
  8
TEXT
100
AcDbText
 10
957.6539795431326
 20
1043.250983449747
 30
0.0
 40
20.0
  1
定格電流：
  7
K
100
AcDbText
  0
LINE
  5
40A
330
DF
100
AcDbEntity
  8
TEXT
100
AcDbLine
 10
954.5259187287538
 20
1070.607509399267
 30
0.0
 11
1506.20796419746
 21
1070.607509399267
 31
0.0
  0
TEXT
  5
40B
330
DF
100
AcDbEntity
  8
TEXT
100
AcDbText
 10
957.6539795431326
 20
1077.250983449747
 30
0.0
 40
20.0
  1
定格消費電力：160/150W
  7
K
100
AcDbText
  0
LINE
  5
40C
330
DF
100
AcDbEntity
  8
TEXT
100
AcDbLine
 10
954.5259187287538
 20
1104.607509399267
 30
0.0
 11
1506.20796419746
 21
1104.607509399267
 31
0.0
  0
TEXT
  5
40D
330
DF
100
AcDbEntity
  8
TEXT
100
AcDbText
 10
957.6539795431326
 20
1111.250983449747
 30
0.0
 40
20.0
  1
電  源  ：単相100V  50/60 Hz
  7
K
100
AcDbText
  0
TEXT
  5
40E
330
DF
100
AcDbEntity
  8
TEXT
100
AcDbText
 10
957.6539795431326
 20
1213.250983449747
 30
0.0
 40
20.0
  1
外形寸法：巾230×奥行272×高さ380
  7
K
100
AcDbText
  0
LINE
  5
40F
330
DF
100
AcDbEntity
  8
TEXT
100
AcDbLine
 10
954.5259187287538
 20
1206.607509399267
 30
0.0
 11
1506.20796419746
 21
1206.607509399267
 31
0.0
  0
LINE
  5
410
330
DF
100
AcDbEntity
  8
TEXT
100
AcDbLine
 10
954.5259187287538
 20
1172.607509399267
 30
0.0
 11
1506.20796419746
 21
1172.607509399267
 31
0.0
  0
LINE
  5
411
330
DF
100
AcDbEntity
  8
TEXT
100
AcDbLine
 10
954.5259187287538
 20
1138.607509399267
 30
0.0
 11
1506.20796419746
 21
1138.607509399267
 31
0.0
  0
TEXT
  5
412
330
DF
100
AcDbEntity
  8
TEXT
100
AcDbText
 10
957.6539795431326
 20
1179.250983449747
 30
0.0
 40
20.0
  1
重量  ：5K
  7
K
100
AcDbText
  0
TEXT
  5
413
330
DF
100
AcDbEntity
  8
TEXT
100
AcDbText
 10
1092.895951218016
 20
1182.572084819317
 30
0.0
 40
20.0
  1
g
  7
K
100
AcDbText
  0
TEXT
  5
414
330
DF
100
AcDbEntity
  8
TEXT
100
AcDbText
 10
957.6539795431326
 20
975.2509834497477
 30
0.0
 40
20.0
  1
内容量：
  7
K
100
AcDbText
  0
TEXT
  5
415
330
DF
100
AcDbEntity
  8
TEXT
100
AcDbText
 10
957.6539795431326
 20
1009.250983449747
 30
0.0
 40
20.0
  1
電源スイッチ：
  7
K
100
AcDbText
  0
TEXT
  5
416
330
DF
100
AcDbEntity
  8
TEXT
100
AcDbText
 10
957.6539795431326
 20
1145.250983449747
 30
0.0
 40
20.0
  1
回 転 数：
  7
K
100
AcDbText
  0
LINE
  5
417
330
DF
100
AcDbEntity
  8
TEXT
100
AcDbLine
 10
954.5259187287538
 20
1240.607509399267
 30
0.0
 11
1023.226160408283
 21
1240.607509399267
 31
0.0
  0
TEXT
  5
418
330
DF
100
AcDbEntity
  8
TEXT
100
AcDbText
 10
957.6539795431326
 20
1247.250983449747
 30
0.0
 40
20.0
  1
仕 様
  7
K
100
AcDbText
  0
LINE
  5
A6C
330
DF
100
AcDbEntity
  8
TEXT
100
AcDbLine
 10
954.5259187287538
 20
826.6819565795085
 30
0.0
 11
1506.20796419746
 21
826.6819565795085
 31
0.0
  0
TEXT
  5
C35
330
DF
100
AcDbEntity
  8
TEXT
100
AcDbText
 10
955.6692904938536
 20
908.0294057111551
 30
0.0
 40
20.0
  1
モートル出力：コンデンサーラン80W
  7
K
100
AcDbText
  0
LINE
  5
17BF
330
DF
100
AcDbEntity
  8
ITTEN
100
AcDbLine
 10
409.7087257644179
 20
282.9166347150294
 30
0.0
 11
409.7087257644179
 21
1291.0
 31
0.0
  0
LINE
  5
17E8
330
DF
100
AcDbEntity
  8
0
100
AcDbLine
 10
304.7087257644179
 20
562.5739343945316
 30
0.0
 11
514.7087257644178
 21
562.5739343945329
 31
0.0
  0
LINE
  5
17E9
330
DF
100
AcDbEntity
  8
0
100
AcDbLine
 10
294.7087257644179
 20
549.5739343945315
 30
0.0
 11
524.708725764418
 21
549.5739343945315
 31
0.0
  0
LINE
  5
17EA
330
DF
100
AcDbEntity
  8
0
100
AcDbLine
 10
294.7087257644179
 20
549.5739343945315
 30
0.0
 11
294.7087257644179
 21
552.5739343945315
 31
0.0
  0
LINE
  5
17EB
330
DF
100
AcDbEntity
  8
0
100
AcDbLine
 10
524.708725764418
 20
549.5739343945315
 30
0.0
 11
524.708725764418
 21
552.5739343945315
 31
0.0
  0
LINE
  5
17EE
330
DF
100
AcDbEntity
  8
0
100
AcDbLine
 10
517.208725764418
 20
359.5739343945315
 30
0.0
 11
302.2087257644179
 21
359.5739343945315
 31
0.0
  0
LINE
  5
17F4
330
DF
100
AcDbEntity
  8
0
100
AcDbLine
 10
334.7087257644179
 20
339.5739343945315
 30
0.0
 11
334.7087257644179
 21
359.5739343945314
 31
0.0
  0
LINE
  5
17F5
330
DF
100
AcDbEntity
  8
0
100
AcDbLine
 10
484.7087257644179
 20
339.5739343945315
 30
0.0
 11
484.7087257644179
 21
359.5739343945314
 31
0.0
  0
LINE
  5
17F6
330
DF
100
AcDbEntity
  8
0
100
AcDbLine
 10
314.708725764418
 20
339.5739343945315
 30
0.0
 11
314.708725764418
 21
359.5739343945314
 31
0.0
  0
LINE
  5
17F7
330
DF
100
AcDbEntity
  8
0
100
AcDbLine
 10
504.708725764418
 20
339.5739343945315
 30
0.0
 11
504.708725764418
 21
359.5739343945314
 31
0.0
  0
LINE
  5
17F8
330
DF
100
AcDbEntity
  8
0
100
AcDbLine
 10
314.708725764418
 20
339.5739343945315
 30
0.0
 11
334.7087257644179
 21
339.5739343945315
 31
0.0
  0
LINE
  5
17F9
330
DF
100
AcDbEntity
  8
0
100
AcDbLine
 10
484.7087257644179
 20
339.5739343945315
 30
0.0
 11
504.708725764418
 21
339.5739343945315
 31
0.0
  0
LINE
  5
17FB
330
DF
100
AcDbEntity
  8
0
100
AcDbLine
 10
469.708725764418
 20
359.5739343945315
 30
0.0
 11
469.7087257644179
 21
549.5739343945315
 31
0.0
  0
LINE
  5
17FC
330
DF
100
AcDbEntity
  8
0
100
AcDbLine
 10
349.708725764418
 20
359.5739343945315
 30
0.0
 11
349.708725764418
 21
549.5739343945315
 31
0.0
  0
LINE
  5
1802
330
DF
100
AcDbEntity
  8
0
100
AcDbLine
 10
359.7087257644179
 20
469.5739343945316
 30
0.0
 11
359.708725764418
 21
549.5739343945315
 31
0.0
  0
LINE
  5
1803
330
DF
100
AcDbEntity
  8
0
100
AcDbLine
 10
359.708725764418
 20
469.5739343945315
 30
0.0
 11
459.7087257644179
 21
469.5739343945314
 31
0.0
  0
LINE
  5
1805
330
DF
100
AcDbEntity
  8
0
100
AcDbLine
 10
459.7087257644179
 20
469.5739343945313
 30
0.0
 11
459.7087257644179
 21
549.5739343945315
 31
0.0
  0
LINE
  5
1806
330
DF
100
AcDbEntity
  8
0
100
AcDbLine
 10
359.708725764418
 20
484.5739343945315
 30
0.0
 11
459.7087257644179
 21
484.5739343945314
 31
0.0
  0
LINE
  5
1807
330
DF
100
AcDbEntity
  8
0
100
AcDbLine
 10
359.708725764418
 20
489.5739343945315
 30
0.0
 11
459.7087257644179
 21
489.5739343945314
 31
0.0
  0
LINE
  5
1808
330
DF
100
AcDbEntity
  8
0
100
AcDbLine
 10
359.708725764418
 20
494.5739343945315
 30
0.0
 11
459.7087257644179
 21
494.5739343945314
 31
0.0
  0
LINE
  5
180C
330
DF
100
AcDbEntity
  8
0
100
AcDbLine
 10
474.708725764418
 20
719.5739343945315
 30
0.0
 11
344.708725764418
 21
719.5739343945315
 31
0.0
  0
LINE
  5
1810
330
DF
100
AcDbEntity
  8
0
100
AcDbLine
 10
489.4604009242197
 20
567.3122546133168
 30
0.0
 11
482.0047822098108
 21
709.5739343945314
 31
0.0
  0
LINE
  5
1811
330
DF
100
AcDbEntity
  8
0
100
AcDbLine
 10
329.9570506046164
 20
567.312254613317
 30
0.0
 11
337.412669319025
 21
709.5739343945315
 31
0.0
  0
LINE
  5
1812
330
DF
100
AcDbEntity
  8
0
100
AcDbLine
 10
482.004782209811
 20
709.5739343945315
 30
0.0
 11
337.412669319025
 21
709.5739343945315
 31
0.0
  0
LINE
  5
1815
330
DF
100
AcDbEntity
  8
0
100
AcDbLine
 10
337.412669319025
 20
709.5739343945315
 30
0.0
 11
344.708725764418
 21
719.5739343945316
 31
0.0
  0
LINE
  5
1816
330
DF
100
AcDbEntity
  8
0
100
AcDbLine
 10
474.708725764418
 20
719.5739343945315
 30
0.0
 11
482.004782209811
 21
709.5739343945315
 31
0.0
  0
ARC
  5
1817
330
DF
100
AcDbEntity
  8
0
100
AcDbCircle
 10
304.7087257644179
 20
552.5739343945315
 30
0.0
 40
10.0
100
AcDbArc
 50
90.0
 51
180.0
  0
ARC
  5
1818
330
DF
100
AcDbEntity
  8
0
100
AcDbCircle
 10
514.7087257644179
 20
552.5739343945315
 30
0.0
 40
10.0
100
AcDbArc
 50
0.0
 51
90.0
  0
LINE
  5
1819
330
DF
100
AcDbEntity
  8
0
100
AcDbLine
 10
364.708725764418
 20
622.5739343945316
 30
0.0
 11
454.7087257644179
 21
622.5739343945317
 31
0.0
  0
LINE
  5
181F
330
DF
100
AcDbEntity
  8
0
100
AcDbLine
 10
454.7087257644179
 20
572.5739343945313
 30
0.0
 11
454.708725764418
 21
622.5739343945317
 31
0.0
  0
LINE
  5
1821
330
DF
100
AcDbEntity
  8
0
100
AcDbLine
 10
364.708725764418
 20
572.5739343945316
 30
0.0
 11
404.708725764418
 21
572.5739343945316
 31
0.0
  0
LINE
  5
1822
330
DF
100
AcDbEntity
  8
0
100
AcDbLine
 10
364.708725764418
 20
572.5739343945316
 30
0.0
 11
364.708725764418
 21
622.5739343945317
 31
0.0
  0
LINE
  5
1829
330
DF
100
AcDbEntity
  8
0
100
AcDbLine
 10
404.708725764418
 20
577.5739343945315
 30
0.0
 11
414.7087257644179
 21
577.5739343945315
 31
0.0
  0
LINE
  5
182F
330
DF
100
AcDbEntity
  8
0
100
AcDbLine
 10
414.7087257644179
 20
567.5739343945316
 30
0.0
 11
419.708725764418
 21
567.5739343945316
 31
0.0
  0
LINE
  5
1830
330
DF
100
AcDbEntity
  8
0
100
AcDbLine
 10
399.708725764418
 20
567.5739343945315
 30
0.0
 11
404.708725764418
 21
567.5739343945315
 31
0.0
  0
LINE
  5
1832
330
DF
100
AcDbEntity
  8
0
100
AcDbLine
 10
399.7087257644179
 20
562.5739343945315
 30
0.0
 11
399.7087257644179
 21
567.5739343945315
 31
0.0
  0
LINE
  5
1833
330
DF
100
AcDbEntity
  8
0
100
AcDbLine
 10
404.708725764418
 20
567.5739343945315
 30
0.0
 11
404.708725764418
 21
577.5739343945315
 31
0.0
  0
LINE
  5
1834
330
DF
100
AcDbEntity
  8
0
100
AcDbLine
 10
414.7087257644179
 20
567.5739343945316
 30
0.0
 11
414.7087257644179
 21
577.5739343945315
 31
0.0
  0
LINE
  5
1835
330
DF
100
AcDbEntity
  8
0
100
AcDbLine
 10
419.708725764418
 20
562.5739343945315
 30
0.0
 11
419.7087257644179
 21
567.5739343945315
 31
0.0
  0
LINE
  5
1836
330
DF
100
AcDbEntity
  8
0
100
AcDbLine
 10
414.7087257644179
 20
572.5739343945316
 30
0.0
 11
454.708725764418
 21
572.5739343945316
 31
0.0
  0
DIMENSION
  5
1843
330
DF
100
AcDbEntity
  8
SUNPOU
100
AcDbDimension
  2
*D49
 10
329.7087257644179
 20
751.1712110801801
 30
0.0
 11
409.7087257644179
 21
751.1712110801801
 31
0.0
 70
   160
  3
IMAO
100
AcDbAlignedDimension
 13
489.708725764418
 23
562.5739343945315
 33
0.0
 14
329.7087257644179
 24
562.5739343945315
 34
0.0
100
AcDbRotatedDimension
1001
ACAD
1000
DSTYLE
1002
{
1070
   287
1070
     3
1070
    40
1040
5.0
1070
   271
1070
     4
1070
   272
1070
     4
1070
   279
1070
     0
1070
   284
1070
     0
1070
   285
1070
     0
1070
   286
1070
     0
1070
   340
1005
D7
1070
     6
1000
ARROW
1070
     7
1000
ARROW
1002
}
  0
ARC
  5
184F
330
DF
100
AcDbEntity
  8
0
100
AcDbCircle
 10
494.4535485979925
 20
567.5739343945315
 30
0.0
 40
5.0
100
AcDbArc
 50
183.0
 51
270.0
  0
ARC
  5
1850
330
DF
100
AcDbEntity
  8
0
100
AcDbCircle
 10
324.9639029308435
 20
567.5739343945317
 30
0.0
 40
5.0
100
AcDbArc
 50
270.0
 51
357.0
  0
LINE
  5
1851
330
DF
100
AcDbEntity
  8
ITTEN
100
AcDbLine
 10
524.708725764418
 20
968.5730602300937
 30
0.0
 11
294.7087257644179
 21
968.5730602300937
 31
0.0
  0
CIRCLE
  5
1852
330
DF
100
AcDbEntity
  8
0
100
AcDbCircle
 10
409.7087257644179
 20
968.5730602300937
 30
0.0
 40
12.5
  0
CIRCLE
  5
1856
330
DF
100
AcDbEntity
  8
0
100
AcDbCircle
 10
409.7087257644179
 20
968.5730602300937
 30
0.0
 40
65.0
  0
CIRCLE
  5
1857
330
DF
100
AcDbEntity
  8
0
100
AcDbCircle
 10
409.7087257644179
 20
968.5730602300937
 30
0.0
 40
72.29605644539288
  0
CIRCLE
  5
1858
330
DF
100
AcDbEntity
  8
0
100
AcDbCircle
 10
409.7087257644179
 20
968.5730602300937
 30
0.0
 40
84.74482283357458
  0
LINE
  5
1859
330
DF
100
AcDbEntity
  8
0
100
AcDbLine
 10
524.708725764418
 20
1083.573060230093
 30
0.0
 11
524.708725764418
 21
908.5730602300937
 31
0.0
  0
LINE
  5
185A
330
DF
100
AcDbEntity
  8
0
100
AcDbLine
 10
294.7087257644179
 20
1083.573060230093
 30
0.0
 11
294.7087257644179
 21
908.573060230071
 31
0.0
  0
LINE
  5
185B
330
DF
100
AcDbEntity
  8
0
100
AcDbLine
 10
524.708725764418
 20
1083.573060230093
 30
0.0
 11
294.7087257644179
 21
1083.573060230093
 31
0.0
  0
ELLIPSE
  5
1865
330
DF
100
AcDbEntity
  8
0
100
AcDbEllipse
 10
409.7087257644179
 20
908.5730602300937
 30
0.0
 11
-115.0
 21
0.0
 31
0.0
210
0.0
220
0.0
230
1.0
 40
0.4782608695652174
 41
6.283185307179586
 42
9.424777960769379
  0
ELLIPSE
  5
186D
330
DF
100
AcDbEntity
  8
0
100
AcDbEllipse
 10
409.7087257644179
 20
816.5730602300936
 30
0.0
 11
-49.99999999999993
 21
0.0
 31
0.0
210
0.0
220
0.0
230
1.0
 40
0.1000000000000001
 41
6.283185307179586
 42
9.424777960769379
  0
LINE
  5
186F
330
DF
100
AcDbEntity
  8
0
100
AcDbLine
 10
359.708725764418
 20
816.5730602300936
 30
0.0
 11
359.708725764418
 21
859.0436108932919
 31
0.0
  0
LINE
  5
1870
330
DF
100
AcDbEntity
  8
0
100
AcDbLine
 10
459.7087257644179
 20
816.5730602300946
 30
0.0
 11
459.7087257644179
 21
859.0436108932919
 31
0.0
  0
LINE
  5
1874
330
DF
100
AcDbEntity
  8
0
100
AcDbLine
 10
518.5137904442201
 20
983.5730602300937
 30
0.0
 11
508.370647245041
 21
983.5730602300937
 31
0.0
  0
LINE
  5
1875
330
DF
100
AcDbEntity
  8
0
100
AcDbLine
 10
518.5137904442201
 20
953.5730602300937
 30
0.0
 11
508.370647245041
 21
953.5730602300937
 31
0.0
  0
ARC
  5
1876
330
DF
100
AcDbEntity
  8
0
100
AcDbCircle
 10
394.4535485979925
 20
968.5730602300937
 30
0.0
 40
94.74482283357458
100
AcDbArc
 50
170.8906037646556
 51
189.1093962353444
  0
ARC
  5
1877
330
DF
100
AcDbEntity
  8
0
100
AcDbCircle
 10
424.9639029308434
 20
968.5730602300937
 30
0.0
 40
94.74482283357458
100
AcDbArc
 50
350.8906037646555
 51
9.109396235344435
  0
LINE
  5
187A
330
DF
100
AcDbEntity
  8
0
100
AcDbLine
 10
311.0468042837949
 20
953.5730602300935
 30
0.0
 11
300.9036610846158
 21
953.5730602300937
 31
0.0
  0
LINE
  5
187B
330
DF
100
AcDbEntity
  8
0
100
AcDbLine
 10
311.0468042837948
 20
983.5730602300936
 30
0.0
 11
300.9036610846158
 21
983.5730602300936
 31
0.0
  0
CIRCLE
  5
187C
330
DF
100
AcDbEntity
  8
0
100
AcDbCircle
 10
409.7087257644179
 20
968.5730602300937
 30
0.0
 40
100.0
  0
LINE
  5
1883
330
DF
100
AcDbEntity
  8
0
100
AcDbLine
 10
454.7087257644179
 20
884.9070575766953
 30
0.0
 11
454.7087257644179
 21
890.6307738895035
 31
0.0
  0
LINE
  5
1885
330
DF
100
AcDbEntity
  8
0
100
AcDbLine
 10
364.708725764418
 20
884.9070575766768
 30
0.0
 11
364.708725764418
 21
890.6307738894849
 31
0.0
  0
ARC
  5
1886
330
DF
100
AcDbEntity
  8
0
100
AcDbCircle
 10
409.7087257644179
 20
968.5730602300937
 30
0.0
 40
95.0
100
AcDbArc
 50
241.7262863686376
 51
298.2737136313676
  0
ARC
  5
1887
330
DF
100
AcDbEntity
  8
0
100
AcDbCircle
 10
409.7087257644179
 20
968.5730602300937
 30
0.0
 40
90.0
100
AcDbArc
 50
240.000000000003
 51
300.0000000000028
  0
LINE
  5
1889
330
DF
100
AcDbEntity
  8
0
100
AcDbLine
 10
504.5765589184293
 20
571.0572710476481
 30
0.0
 11
504.5765589184293
 21
562.5739343945327
 31
0.0
  0
LINE
  5
188A
330
DF
100
AcDbEntity
  8
0
100
AcDbLine
 10
510.2857450738301
 20
571.0572710476481
 30
0.0
 11
510.2857450738301
 21
562.5739343945329
 31
0.0
  0
LINE
  5
188B
330
DF
100
AcDbEntity
  8
0
100
AcDbLine
 10
510.2857450738301
 20
571.0572710476481
 30
0.0
 11
504.5765589184293
 21
571.0572710476481
 31
0.0
  0
LINE
  5
188F
330
DF
100
AcDbEntity
  8
0
100
AcDbLine
 10
313.4284648204247
 20
571.0572710476469
 30
0.0
 11
307.7192786650239
 21
571.0572710476469
 31
0.0
  0
LINE
  5
1890
330
DF
100
AcDbEntity
  8
0
100
AcDbLine
 10
313.4284648204247
 20
571.0572710476469
 30
0.0
 11
313.4284648204247
 21
562.5739343945317
 31
0.0
  0
LINE
  5
1891
330
DF
100
AcDbEntity
  8
0
100
AcDbLine
 10
307.7192786650239
 20
571.0572710476469
 30
0.0
 11
307.7192786650239
 21
562.5739343945316
 31
0.0
  0
DIMENSION
  5
18A9
330
DF
100
AcDbEntity
  8
SUNPOU
100
AcDbDimension
  2
*D50
 10
294.7087257644179
 20
786.6184406522107
 30
0.0
 11
409.7087257644179
 21
794.5684406522107
 31
0.0
 70
    32
  3
IMAO
100
AcDbAlignedDimension
 13
524.708725764418
 23
549.5739343945315
 33
0.0
 14
294.7087257644179
 24
549.5739343945315
 34
0.0
100
AcDbRotatedDimension
1001
ACAD
1000
DSTYLE
1002
{
1070
   287
1070
     3
1070
    40
1040
5.0
1070
   271
1070
     4
1070
   272
1070
     4
1070
   279
1070
     0
1070
   284
1070
     0
1070
   285
1070
     0
1070
   286
1070
     0
1070
   340
1005
D7
1070
     6
1000
ARROW
1070
     7
1000
ARROW
1002
}
  0
DIMENSION
  5
18C1
330
DF
100
AcDbEntity
  8
SUNPOU
100
AcDbDimension
  2
*D51
 10
255.5401831163653
 20
339.5739343945315
 30
0.0
 11
247.5901831163653
 21
451.0739343945316
 31
0.0
 70
    32
  3
IMAO
100
AcDbAlignedDimension
 13
307.7192786650239
 23
562.5739343945316
 33
0.0
 14
314.708725764418
 24
339.5739343945315
 34
0.0
 50
90.0
100
AcDbRotatedDimension
1001
ACAD
1000
DSTYLE
1002
{
1070
   287
1070
     3
1070
    40
1040
5.0
1070
   271
1070
     4
1070
   272
1070
     4
1070
   279
1070
     0
1070
   284
1070
     0
1070
   285
1070
     0
1070
   286
1070
     0
1070
   340
1005
D7
1070
     6
1000
ARROW
1070
     7
1000
ARROW
1002
}
  0
DIMENSION
  5
18CE
330
DF
100
AcDbEntity
  8
SUNPOU
100
AcDbDimension
  2
*D52
 10
200.1898051238504
 20
339.5739343945315
 30
0.0
 11
192.2398051238503
 21
529.5739343945316
 31
0.0
 70
    32
  3
IMAO
100
AcDbAlignedDimension
 13
344.708725764418
 23
719.5739343945316
 33
0.0
 14
280.1244544403916
 24
339.5739343945315
 34
0.0
 50
90.0
100
AcDbRotatedDimension
1001
ACAD
1000
DSTYLE
1002
{
1070
   287
1070
     3
1070
    40
1040
5.0
1070
   271
1070
     4
1070
   272
1070
     4
1070
   279
1070
     0
1070
   284
1070
     0
1070
   285
1070
     0
1070
   286
1070
     0
1070
   340
1005
D7
1070
     6
1000
ARROW
1070
     7
1000
ARROW
1002
}
  0
LINE
  5
18CF
330
DF
100
AcDbEntity
  8
0
100
AcDbLine
 10
302.2087257644179
 20
359.5739343945315
 30
0.0
 11
302.208725764418
 21
549.5739343945315
 31
0.0
  0
LINE
  5
18D0
330
DF
100
AcDbEntity
  8
0
100
AcDbLine
 10
517.208725764418
 20
359.5739343945315
 30
0.0
 11
517.208725764418
 21
549.5739343945315
 31
0.0
  0
DIMENSION
  5
18DD
330
DF
100
AcDbEntity
  8
SUNPOU
100
AcDbDimension
  2
*D53
 10
302.2087257644179
 20
248.9615686057259
 30
0.0
 11
409.7087257644179
 21
256.9115686057259
 31
0.0
 70
    32
  3
IMAO
100
AcDbAlignedDimension
 13
517.208725764418
 23
359.5739343945315
 33
0.0
 14
302.2087257644179
 24
359.5739343945315
 34
0.0
100
AcDbRotatedDimension
1001
ACAD
1000
DSTYLE
1002
{
1070
   287
1070
     3
1070
    40
1040
5.0
1070
   271
1070
     4
1070
   272
1070
     4
1070
   279
1070
     0
1070
   284
1070
     0
1070
   285
1070
     0
1070
   286
1070
     0
1070
   340
1005
D7
1070
     6
1000
ARROW
1070
     7
1000
ARROW
1002
}
  0
LINE
  5
18E0
330
DF
100
AcDbEntity
  8
ITTEN
100
AcDbLine
 10
853.7545313238634
 20
339.5739343945315
 30
0.0
 11
853.7545313238634
 21
719.5739343945315
 31
0.0
  0
LINE
  5
18E1
330
DF
100
AcDbEntity
  8
0
100
AcDbLine
 10
918.7545313238633
 20
719.5739343945315
 30
0.0
 11
926.0505877692564
 21
709.5739343945315
 31
0.0
  0
LINE
  5
18E2
330
DF
100
AcDbEntity
  8
0
100
AcDbLine
 10
781.4584748784705
 20
709.5739343945315
 30
0.0
 11
788.7545313238633
 21
719.5739343945316
 31
0.0
  0
LINE
  5
18E3
330
DF
100
AcDbEntity
  8
0
100
AcDbLine
 10
926.0505877692564
 20
709.5739343945315
 30
0.0
 11
781.4584748784705
 21
709.5739343945315
 31
0.0
  0
LINE
  5
18E4
330
DF
100
AcDbEntity
  8
0
100
AcDbLine
 10
918.7545313238633
 20
719.5739343945315
 30
0.0
 11
788.7545313238633
 21
719.5739343945315
 31
0.0
  0
LINE
  5
18E5
330
DF
100
AcDbEntity
  8
0
100
AcDbLine
 10
933.506206483665
 20
567.3122546133168
 30
0.0
 11
926.0505877692562
 21
709.5739343945314
 31
0.0
  0
LINE
  5
18E6
330
DF
100
AcDbEntity
  8
0
100
AcDbLine
 10
774.0028561640618
 20
567.312254613317
 30
0.0
 11
781.4584748784705
 21
709.5739343945315
 31
0.0
  0
ARC
  5
18E7
330
DF
100
AcDbEntity
  8
0
100
AcDbCircle
 10
938.4993541574379
 20
567.5739343945315
 30
0.0
 40
5.0
100
AcDbArc
 50
183.0
 51
270.0
  0
ARC
  5
18E8
330
DF
100
AcDbEntity
  8
0
100
AcDbCircle
 10
769.0097084902889
 20
567.5739343945317
 30
0.0
 40
5.0
100
AcDbArc
 50
270.0
 51
357.0
  0
LINE
  5
18E9
330
DF
100
AcDbEntity
  8
0
100
AcDbLine
 10
968.7545313238633
 20
549.5739343945315
 30
0.0
 11
730.4270790646322
 21
549.5739343945315
 31
0.0
  0
LINE
  5
18EA
330
DF
100
AcDbEntity
  8
0
100
AcDbLine
 10
958.7545313238635
 20
562.5739343945324
 30
0.0
 11
748.7545313238634
 21
562.5739343945324
 31
0.0
  0
LINE
  5
18EB
330
DF
100
AcDbEntity
  8
0
100
AcDbLine
 10
968.7545313238633
 20
549.5739343945315
 30
0.0
 11
968.7545313238635
 21
552.5739343945324
 31
0.0
  0
LINE
  5
18EC
330
DF
100
AcDbEntity
  8
0
100
AcDbLine
 10
738.7545313238633
 20
549.5739343945315
 30
0.0
 11
738.7545313238633
 21
552.5739343945324
 31
0.0
  0
LINE
  5
18EF
330
DF
100
AcDbEntity
  8
0
100
AcDbLine
 10
960.7545313238633
 20
369.5739343945315
 30
0.0
 11
960.7545313238633
 21
549.5739343945315
 31
0.0
  0
LINE
  5
18F1
330
DF
100
AcDbEntity
  8
HOJO
100
AcDbLine
 10
828.7545313238634
 20
359.5739343945317
 30
0.0
 11
826.5761839571213
 21
359.5739343945318
 31
0.0
  0
LINE
  5
18F2
330
DF
100
AcDbEntity
  8
0
100
AcDbLine
 10
780.7545313238634
 20
369.5739343945315
 30
0.0
 11
780.7545313238634
 21
549.5739343945315
 31
0.0
  0
LINE
  5
18F4
330
DF
100
AcDbEntity
  8
0
100
AcDbLine
 10
920.7545313238634
 20
369.5739343945318
 30
0.0
 11
920.7545313238668
 21
524.5739343945311
 31
0.0
  0
LINE
  5
18F5
330
DF
100
AcDbEntity
  8
0
100
AcDbLine
 10
798.7545313238634
 20
359.5739343945315
 30
0.0
 11
798.7545313238634
 21
549.5739343945315
 31
0.0
  0
LINE
  5
18F6
330
DF
100
AcDbEntity
  8
0
100
AcDbLine
 10
838.7545313238634
 20
369.5739343945317
 30
0.0
 11
838.754531323865
 21
524.5739343945316
 31
0.0
  0
LINE
  5
18F7
330
DF
100
AcDbEntity
  8
0
100
AcDbLine
 10
806.5761839571212
 20
339.5739343945316
 30
0.0
 11
826.5761839571213
 21
339.5739343945316
 31
0.0
  0
LINE
  5
18F8
330
DF
100
AcDbEntity
  8
0
100
AcDbLine
 10
826.5761839571213
 20
339.5739343945316
 30
0.0
 11
826.5761839571213
 21
359.5739343945315
 31
0.0
  0
LINE
  5
18F9
330
DF
100
AcDbEntity
  8
0
100
AcDbLine
 10
806.5761839571212
 20
339.5739343945316
 30
0.0
 11
806.5761839571212
 21
359.5739343945315
 31
0.0
  0
LINE
  5
18FA
330
DF
100
AcDbEntity
  8
0
100
AcDbLine
 10
931.472334472216
 20
339.5739343945316
 30
0.0
 11
931.472334472216
 21
359.5739343945315
 31
0.0
  0
LINE
  5
18FB
330
DF
100
AcDbEntity
  8
0
100
AcDbLine
 10
951.472334472216
 20
339.5739343945316
 30
0.0
 11
951.472334472216
 21
359.5739343945315
 31
0.0
  0
LINE
  5
18FC
330
DF
100
AcDbEntity
  8
0
100
AcDbLine
 10
931.472334472216
 20
339.5739343945316
 30
0.0
 11
951.472334472216
 21
339.5739343945316
 31
0.0
  0
ARC
  5
18FE
330
DF
100
AcDbEntity
  8
0
100
AcDbCircle
 10
790.7545313238633
 20
369.5739343945315
 30
0.0
 40
10.0
100
AcDbArc
 50
180.0
 51
270.0
  0
ARC
  5
18FF
330
DF
100
AcDbEntity
  8
0
100
AcDbCircle
 10
950.7545313238633
 20
369.5739343945315
 30
0.0
 40
10.0
100
AcDbArc
 50
270.0
 51
0.0
  0
ARC
  5
1900
330
DF
100
AcDbEntity
  8
0
100
AcDbCircle
 10
930.7545313238632
 20
369.5739343945315
 30
0.0
 40
10.0
100
AcDbArc
 50
180.0
 51
270.0
  0
LINE
  5
1901
330
DF
100
AcDbEntity
  8
0
100
AcDbLine
 10
950.7545313238633
 20
359.5739343945304
 30
0.0
 11
930.7545313238632
 21
359.5739343945305
 31
0.0
  0
ARC
  5
1902
330
DF
100
AcDbEntity
  8
0
100
AcDbCircle
 10
828.7545313238634
 20
369.5739343945317
 30
0.0
 40
10.0
100
AcDbArc
 50
269.9999999999998
 51
0.0
  0
LINE
  5
1903
330
DF
100
AcDbEntity
  8
0
100
AcDbLine
 10
828.7545313238632
 20
359.5739343945316
 30
0.0
 11
790.7545313238633
 21
359.5739343945319
 31
0.0
  0
LINE
  5
1904
330
DF
100
AcDbEntity
  8
0
100
AcDbLine
 10
915.7545313238635
 20
384.5739343945315
 30
0.0
 11
843.7545313238635
 21
384.5739343945315
 31
0.0
  0
ARC
  5
1907
330
DF
100
AcDbEntity
  8
0
100
AcDbCircle
 10
915.7545313238635
 20
379.5739343945315
 30
0.0
 40
5.0
100
AcDbArc
 50
359.9999999999999
 51
90.0
  0
ARC
  5
1908
330
DF
100
AcDbEntity
  8
0
100
AcDbCircle
 10
843.7545313238635
 20
379.5739343945315
 30
0.0
 40
5.0
100
AcDbArc
 50
90.0
 51
180.0
  0
LINE
  5
1909
330
DF
100
AcDbEntity
  8
0
100
AcDbLine
 10
910.7545313238668
 20
534.5739343945314
 30
0.0
 11
848.754531323865
 21
534.5739343945315
 31
0.0
  0
LINE
  5
190A
330
DF
100
AcDbEntity
  8
ITTEN
100
AcDbLine
 10
875.7545313238633
 20
369.5739343945315
 30
0.0
 11
875.7545313238633
 21
549.5739343945315
 31
0.0
  0
LINE
  5
190B
330
DF
100
AcDbEntity
  8
ITTEN
100
AcDbLine
 10
903.7038309738575
 20
455.0487812509221
 30
0.0
 11
833.7038309738554
 21
455.0487812509221
 31
0.0
  0
CIRCLE
  5
190C
330
DF
100
AcDbEntity
  8
JISSEN
100
AcDbCircle
 10
875.7545313238633
 20
454.5739343945315
 30
0.0
 40
17.5
  0
LINE
  5
190D
330
DF
100
AcDbEntity
  8
JISSEN
100
AcDbLine
 10
867.6103813562074
 20
470.06337664738
 30
0.0
 11
891.670249388108
 21
447.2979520897514
 31
0.0
  0
LINE
  5
1910
330
DF
100
AcDbEntity
  8
JISSEN
100
AcDbLine
 10
864.173896957905
 20
466.4314935297364
 30
0.0
 11
888.2337649898058
 21
443.6660689721078
 31
0.0
  0
LINE
  5
1911
330
DF
100
AcDbEntity
  8
JISSEN
100
AcDbLine
 10
860.7374125596027
 20
462.7996104120928
 30
0.0
 11
884.7972805915034
 21
440.0341858544641
 31
0.0
  0
ARC
  5
1914
330
DF
100
AcDbEntity
  8
0
100
AcDbCircle
 10
848.754531323865
 20
524.5739343945315
 30
0.0
 40
10.0
100
AcDbArc
 50
90.0
 51
179.9999999999993
  0
ARC
  5
1915
330
DF
100
AcDbEntity
  8
0
100
AcDbCircle
 10
910.7545313238668
 20
524.5739343945314
 30
0.0
 40
10.0
100
AcDbArc
 50
359.9999999999987
 51
90.0
  0
LINE
  5
1917
330
DF
100
AcDbEntity
  8
0
100
AcDbLine
 10
696.7545313238633
 20
469.5739343945313
 30
0.0
 11
730.4270790646322
 21
549.5739343945315
 31
0.0
  0
LINE
  5
1918
330
DF
100
AcDbEntity
  8
JISSEN
100
AcDbLine
 10
696.7545313238633
 20
469.5739343945313
 30
0.0
 11
770.7545313238633
 21
469.5739343945314
 31
0.0
  0
LINE
  5
191A
330
DF
100
AcDbEntity
  8
0
100
AcDbLine
 10
760.7545313238632
 20
469.5739343945312
 30
0.0
 11
760.7545313238634
 21
549.5739343945315
 31
0.0
  0
LINE
  5
191B
330
DF
100
AcDbEntity
  8
0
100
AcDbLine
 10
770.7545313238632
 20
469.5739343945312
 30
0.0
 11
780.7545313238634
 21
494.5739343945313
 31
0.0
  0
LINE
  5
191E
330
DF
100
AcDbEntity
  8
0
100
AcDbLine
 10
773.4839136321227
 20
476.3973901651797
 30
0.0
 11
780.7545313238634
 21
476.3973901651797
 31
0.0
  0
LINE
  5
1921
330
DF
100
AcDbEntity
  8
0
100
AcDbLine
 10
707.2772024928537
 20
494.5739343945314
 30
0.0
 11
736.4608802106641
 21
494.5739343945314
 31
0.0
  0
LINE
  5
1922
330
DF
100
AcDbEntity
  8
0
100
AcDbLine
 10
705.1726682590556
 20
489.5739343945314
 30
0.0
 11
736.4608802106641
 21
489.5739343945314
 31
0.0
  0
LINE
  5
1923
330
DF
100
AcDbEntity
  8
0
100
AcDbLine
 10
703.0681340252575
 20
484.5739343945314
 30
0.0
 11
736.4608802106641
 21
484.5739343945314
 31
0.0
  0
LINE
  5
1924
330
DF
100
AcDbEntity
  8
0
100
AcDbLine
 10
745.4566373259904
 20
492.6714540938965
 30
0.0
 11
745.4566373259904
 21
486.6091425862359
 31
0.0
  0
LINE
  5
1927
330
DF
100
AcDbEntity
  8
0
100
AcDbLine
 10
750.0133587586961
 20
492.6714540938965
 30
0.0
 11
750.0133587586961
 21
486.6091425862359
 31
0.0
  0
LINE
  5
1928
330
DF
100
AcDbEntity
  8
0
100
AcDbLine
 10
753.959183826134
 20
492.6714540938965
 30
0.0
 11
753.959183826134
 21
486.6091425862359
 31
0.0
  0
LINE
  5
1929
330
DF
100
AcDbEntity
  8
0
100
AcDbLine
 10
757.9063218402052
 20
492.6714540938965
 30
0.0
 11
757.9063218402052
 21
486.6091425862359
 31
0.0
  0
LINE
  5
192A
330
DF
100
AcDbEntity
  8
0
100
AcDbLine
 10
745.4566373259904
 20
486.6091425862359
 30
0.0
 11
760.7545313238634
 21
486.6091425862359
 31
0.0
  0
LINE
  5
192B
330
DF
100
AcDbEntity
  8
0
100
AcDbLine
 10
745.4566373259904
 20
492.6714540938965
 30
0.0
 11
760.7545313238632
 21
492.6714540938965
 31
0.0
  0
ARC
  5
1932
330
DF
100
AcDbEntity
  8
0
100
AcDbCircle
 10
958.7545313238635
 20
552.5739343945324
 30
0.0
 40
10.0
100
AcDbArc
 50
0.0
 51
90.0
  0
ARC
  5
1933
330
DF
100
AcDbEntity
  8
0
100
AcDbCircle
 10
748.7545313238634
 20
552.5739343945324
 30
0.0
 40
10.0
100
AcDbArc
 50
90.00000000000003
 51
180.0
  0
LINE
  5
1934
330
DF
100
AcDbEntity
  8
0
100
AcDbLine
 10
872.2879237083407
 20
571.0572710476481
 30
0.0
 11
833.0786903277703
 21
571.0572710476481
 31
0.0
  0
LINE
  5
1938
330
DF
100
AcDbEntity
  8
0
100
AcDbLine
 10
885.2615698181262
 20
567.4698783551376
 30
0.0
 11
872.2879237083407
 21
567.4698783551376
 31
0.0
  0
LINE
  5
193A
330
DF
100
AcDbEntity
  8
0
100
AcDbLine
 10
885.2615698181262
 20
562.5739343945324
 30
0.0
 11
885.2615698181262
 21
567.4698783551376
 31
0.0
  0
LINE
  5
193F
330
DF
100
AcDbEntity
  8
0
100
AcDbLine
 10
872.2879237083407
 20
562.5739343945324
 30
0.0
 11
872.2879237083407
 21
571.0572710476481
 31
0.0
  0
LINE
  5
1940
330
DF
100
AcDbEntity
  8
0
100
AcDbLine
 10
833.0786903277703
 20
562.5739343945324
 30
0.0
 11
833.0786903277703
 21
571.0572710476481
 31
0.0
  0
LINE
  5
1942
330
DF
100
AcDbEntity
  8
0
100
AcDbLine
 10
760.4738816733015
 20
562.5739343945324
 30
0.0
 11
760.4738816733015
 21
577.5739343945315
 31
0.0
  0
LINE
  5
1943
330
DF
100
AcDbEntity
  8
0
100
AcDbLine
 10
750.4738816733016
 20
562.5739343945324
 30
0.0
 11
750.4738816733016
 21
577.5739343945315
 31
0.0
  0
LINE
  5
1944
330
DF
100
AcDbEntity
  8
0
100
AcDbLine
 10
750.4738816733016
 20
577.5739343945315
 30
0.0
 11
760.4738816733015
 21
577.5739343945315
 31
0.0
  0
LINE
  5
1945
330
DF
100
AcDbEntity
  8
0
100
AcDbLine
 10
750.4738816733016
 20
567.5739343945316
 30
0.0
 11
760.4738816733015
 21
567.5739343945316
 31
0.0
  0
DIMENSION
  5
1953
330
DF
100
AcDbEntity
  8
SUNPOU
100
AcDbDimension
  2
*D54
 10
696.7545313238633
 20
413.8917724009379
 30
0.0
 11
738.7545313238633
 21
421.8417724009379
 31
0.0
 70
    32
  3
IMAO
100
AcDbAlignedDimension
 13
780.7545313238634
 23
437.4442931802696
 33
0.0
 14
696.7545313238633
 24
469.5739343945313
 34
0.0
100
AcDbRotatedDimension
1001
ACAD
1000
DSTYLE
1002
{
1070
   287
1070
     3
1070
    40
1040
5.0
1070
   271
1070
     4
1070
   272
1070
     4
1070
   279
1070
     0
1070
   284
1070
     0
1070
   285
1070
     0
1070
   286
1070
     0
1070
   340
1005
D7
1070
     6
1000
ARROW
1070
     7
1000
ARROW
1002
}
  0
DIMENSION
  5
196B
330
DF
100
AcDbEntity
  8
SUNPOU
100
AcDbDimension
  2
*D55
 10
875.7545313238633
 20
319.120916379129
 30
0.0
 11
918.2545313238634
 21
327.070916379129
 31
0.0
 70
    32
  3
IMAO
100
AcDbAlignedDimension
 13
960.7545313238633
 23
369.5739343945315
 33
0.0
 14
875.7545313238633
 24
369.5739343945315
 34
0.0
100
AcDbRotatedDimension
1001
ACAD
1000
DSTYLE
1002
{
1070
   287
1070
     3
1070
    40
1040
5.0
1070
   271
1070
     4
1070
   272
1070
     4
1070
   279
1070
     0
1070
   284
1070
     0
1070
   285
1070
     0
1070
   286
1070
     0
1070
   340
1005
D7
1070
     6
1000
ARROW
1070
     7
1000
ARROW
1002
}
  0
DIMENSION
  5
1978
330
DF
100
AcDbEntity
  8
SUNPOU
100
AcDbDimension
  2
*D56
 10
901.1824511094809
 20
384.5739343945315
 30
0.0
 11
893.2324511094808
 21
362.0739343945317
 31
0.0
 70
    32
  3
IMAO
100
AcDbAlignedDimension
 13
931.472334472216
 23
339.5739343945316
 33
0.0
 14
915.7545313238635
 24
384.5739343945315
 34
0.0
 50
90.0
100
AcDbRotatedDimension
1001
ACAD
1000
DSTYLE
1002
{
1070
   287
1070
     3
1070
    40
1040
5.0
1070
   271
1070
     4
1070
   272
1070
     4
1070
   279
1070
     0
1070
   284
1070
     0
1070
   285
1070
     0
1070
   286
1070
     0
1070
   340
1005
D7
1070
     6
1000
ARROW
1070
     7
1000
ARROW
1002
}
  0
DIMENSION
  5
1985
330
DF
100
AcDbEntity
  8
SUNPOU
100
AcDbDimension
  2
*D57
 10
780.7545313238634
 20
284.4573506491678
 30
0.0
 11
870.7545313238634
 21
292.4073506491678
 31
0.0
 70
    32
  3
IMAO
100
AcDbAlignedDimension
 13
960.7545313238633
 23
364.5739343945315
 33
0.0
 14
780.7545313238634
 24
369.5739343945315
 34
0.0
100
AcDbRotatedDimension
1001
ACAD
1000
DSTYLE
1002
{
1070
   287
1070
     3
1070
    40
1040
5.0
1070
   271
1070
     4
1070
   272
1070
     4
1070
   279
1070
     0
1070
   284
1070
     0
1070
   285
1070
     0
1070
   286
1070
     0
1070
   340
1005
D7
1070
     6
1000
ARROW
1070
     7
1000
ARROW
1002
}
  0
DIMENSION
  5
1992
330
DF
100
AcDbEntity
  8
SUNPOU
100
AcDbDimension
  2
*D58
 10
696.7545313238633
 20
757.1748263763602
 30
0.0
 11
832.7545313238633
 21
765.1248263763602
 31
0.0
 70
    32
  3
IMAO
100
AcDbAlignedDimension
 13
968.7545313238635
 23
552.5739343945324
 33
0.0
 14
696.7545313238633
 24
469.5739343945313
 34
0.0
100
AcDbRotatedDimension
1001
ACAD
1000
DSTYLE
1002
{
1070
   287
1070
     3
1070
    40
1040
5.0
1070
   271
1070
     4
1070
   272
1070
     4
1070
   279
1070
     0
1070
   284
1070
     0
1070
   285
1070
     0
1070
   286
1070
     0
1070
   340
1005
D7
1070
     6
1000
ARROW
1070
     7
1000
ARROW
1002
}
  0
LEADER
  5
1993
330
DF
100
AcDbEntity
  8
SUNPOU
100
AcDbLeader
  3
IMAO
 73
     0
 74
     0
 40
15.0
 41
103.7142857142857
 76
     2
 10
885.9362730078137
 20
468.8070695474523
 30
0.0
 10
1004.808591405039
 20
490.7945683387443
 30
0.0
340
1994
1001
ACAD
1000
DSTYLE
1002
{
1070
     5
1000
ARROW
1070
    40
1040
5.0
1070
   271
1070
     4
1070
   272
1070
     4
1070
   284
1070
     0
1070
   285
1070
     0
1070
   286
1070
     0
1070
   287
1070
     3
1070
   340
1005
D7
1070
   343
1005
E3
1070
   344
1005
E3
1002
}
  0
MTEXT
  5
1994
102
{ACAD_REACTORS
330
1993
102
}
330
DF
100
AcDbEntity
  8
SUNPOU
100
AcDbMText
 10
1005.258591405039
 20
498.7445683387442
 30
0.0
 40
15.0
 41
0.0
 71
     4
 72
     1
  1
\A1;電源スイッチ
1001
ACAD
1000
MTEXTBEGIN
1070
    73
1070
     1
1070
    44
1040
1.0
1070
    74
1070
     0
1000
MTEXTEND
  0
LEADER
  5
1995
330
DF
100
AcDbEntity
  8
SUNPOU
100
AcDbLeader
  3
IMAO
 73
     0
 75
     1
 40
15.0
 41
198.9999999999999
 76
     3
 10
879.7545313238634
 20
384.5739343945315
 30
0.0
 10
802.8707450360698
 20
237.1508589581153
 30
0.0
 10
795.3707450360698
 20
237.1508589581153
 30
0.0
340
1996
1001
ACAD
1000
DSTYLE
1002
{
1070
     5
1000
ARROW
1070
    40
1040
5.0
1070
   271
1070
     4
1070
   272
1070
     4
1070
   284
1070
     0
1070
   285
1070
     0
1070
   286
1070
     0
1070
   287
1070
     3
1070
   340
1005
D7
1070
   343
1005
E3
1070
   344
1005
E3
1002
}
  0
MTEXT
  5
1996
102
{ACAD_REACTORS
330
1995
102
}
330
DF
100
AcDbEntity
  8
SUNPOU
100
AcDbMText
 10
794.9207450360697
 20
245.1008589581153
 30
0.0
 40
15.0
 41
0.0
 71
     6
 72
     1
  1
\A1;電源コード長さ約2000
1001
ACAD
1000
MTEXTBEGIN
1070
    73
1070
     1
1070
    44
1040
1.0
1070
    74
1070
     0
1000
MTEXTEND
  0
LINE
  5
1997
330
DF
100
AcDbEntity
  8
ITTEN
100
AcDbLine
 10
462.208725764418
 20
321.0921639020871
 30
0.0
 11
462.2087257644181
 21
398.0557048869759
 31
0.0
  0
LINE
  5
19A9
330
DF
100
AcDbEntity
  8
0
100
AcDbLine
 10
467.2691232270903
 20
277.0431931049052
 30
0.0
 11
467.2691232270903
 21
267.646785384905
 31
0.0
  0
LINE
  5
19AA
330
DF
100
AcDbEntity
  8
0
100
AcDbLine
 10
463.8820421570903
 20
277.043193104905
 30
0.0
 11
463.8820421570903
 21
267.646785384905
 31
0.0
  0
LINE
  5
19AB
330
DF
100
AcDbEntity
  8
0
100
AcDbLine
 10
459.0057792770905
 20
277.0431931049048
 30
0.0
 11
459.0057792770905
 21
267.6467853849045
 31
0.0
  0
LINE
  5
19AC
330
DF
100
AcDbEntity
  8
0
100
AcDbLine
 10
455.8710370670903
 20
277.0431931049048
 30
0.0
 11
455.8710370670903
 21
267.6467853849045
 31
0.0
  0
LINE
  5
19AD
330
DF
100
AcDbEntity
  8
0
100
AcDbLine
 10
463.8820421570903
 20
267.646785384905
 30
0.0
 11
467.2691232270903
 21
267.646785384905
 31
0.0
  0
LINE
  5
19AE
330
DF
100
AcDbEntity
  8
0
100
AcDbLine
 10
455.8710370670903
 20
267.646785384905
 30
0.0
 11
459.0057792770902
 21
267.646785384905
 31
0.0
  0
LINE
  5
19AF
330
DF
100
AcDbEntity
  8
0
100
AcDbLine
 10
453.3406175770905
 20
277.043193104905
 30
0.0
 11
471.8202364070904
 21
277.043193104905
 31
0.0
  0
LINE
  5
19B0
330
DF
100
AcDbEntity
  8
0
100
AcDbLine
 10
460.2691232270903
 20
277.0431931049052
 30
0.0
 11
467.2691232270903
 21
277.0431931049055
 31
0.0
  0
LINE
  5
19B1
330
DF
100
AcDbEntity
  8
0
100
AcDbLine
 10
471.8202364070904
 20
294.9841924749051
 30
0.0
 11
471.8202364070904
 21
277.043193104905
 31
0.0
  0
LINE
  5
19B2
330
DF
100
AcDbEntity
  8
0
100
AcDbLine
 10
453.3406175770905
 20
294.9841924749051
 30
0.0
 11
453.3406175770905
 21
277.043193104905
 31
0.0
  0
LINE
  5
19B3
330
DF
100
AcDbEntity
  8
0
100
AcDbLine
 10
453.3406175770902
 20
294.9841924749049
 30
0.0
 11
471.8202364070904
 21
294.9841924749049
 31
0.0
  0
LINE
  5
19B4
330
DF
100
AcDbEntity
  8
0
100
AcDbLine
 10
458.9712101302039
 20
359.5739343945315
 30
0.0
 11
458.9712101302038
 21
294.9841924749049
 31
0.0
  0
LINE
  5
19B5
330
DF
100
AcDbEntity
  8
0
100
AcDbLine
 10
465.9712101302038
 20
359.5739343945313
 30
0.0
 11
465.9712101302035
 21
294.9841924749049
 31
0.0
  0
LINE
  5
19B6
330
DF
100
AcDbEntity
  8
TENSEN
100
AcDbLine
 10
469.708725764418
 20
384.5739343945315
 30
0.0
 11
409.7087257644179
 21
384.5739343945315
 31
0.0
  0
LINE
  5
19BB
330
DF
100
AcDbEntity
  8
TENSEN
100
AcDbLine
 10
465.9712101302038
 20
359.5739343945315
 30
0.0
 11
465.9712101302038
 21
384.5739343945315
 31
0.0
  0
LINE
  5
19BC
330
DF
100
AcDbEntity
  8
TENSEN
100
AcDbLine
 10
458.9712101302039
 20
359.5739343945315
 30
0.0
 11
458.9712101302039
 21
384.5739343945315
 31
0.0
  0
DIMENSION
  5
19CB
330
DF
100
AcDbEntity
  8
SUNPOU
100
AcDbDimension
  2
*D60
 10
517.208725764418
 20
299.2677515001287
 30
0.0
 11
489.7087257644179
 21
307.2177515001287
 31
0.0
 70
    32
  3
IMAO
100
AcDbAlignedDimension
 13
462.208725764418
 23
321.0921639020871
 33
0.0
 14
517.208725764418
 24
323.8727498313564
 34
0.0
100
AcDbRotatedDimension
1001
ACAD
1000
DSTYLE
1002
{
1070
   287
1070
     3
1070
    40
1040
5.0
1070
   271
1070
     4
1070
   272
1070
     4
1070
   279
1070
     0
1070
   284
1070
     0
1070
   285
1070
     0
1070
   286
1070
     0
1070
   340
1005
D7
1070
     6
1000
ARROW
1070
     7
1000
ARROW
1002
}
  0
ENDSEC
  0
SECTION
  2
OBJECTS
  0
DICTIONARY
  5
D3
330
0
100
AcDbDictionary
  3
ACAD_GROUP
350
D4
  3
ACAD_MLINESTYLE
350
D5
  3
ACDBVARIABLEDICTIONARY
350
1862
  3
ACAD_PLOTSTYLENAME
350
19DB
  3
ACAD_LAYOUT
350
19DD
  3
ACAD_PLOTSETTINGS
350
19DE
  3
ACDBHEADERROUNDTRIPXREC
350
19E6
  0
DICTIONARY
  5
1A09
330
DF
100
AcDbDictionary
280
     1
  3
ACAD_LAYOUTSELFREF
360
1A0A
  0
DICTIONARY
  5
1A07
330
DC
100
AcDbDictionary
280
     1
  3
ACAD_LAYOUTSELFREF
360
1A08
  0
DICTIONARY
  5
D4
102
{ACAD_REACTORS
330
D3
102
}
330
D3
100
AcDbDictionary
  0
DICTIONARY
  5
D5
102
{ACAD_REACTORS
330
D3
102
}
330
D3
100
AcDbDictionary
  3
STANDARD
350
E2
  0
DICTIONARY
  5
1862
102
{ACAD_REACTORS
330
D3
102
}
330
D3
100
AcDbDictionary
  3
SORTENTS
350
1863
  0
ACDBDICTIONARYWDFLT
  5
19DB
102
{ACAD_REACTORS
330
D3
102
}
330
D3
100
AcDbDictionary
281
     1
  3
Normal
350
19DC
100
AcDbDictionaryWithDefault
340
19DC
  0
DICTIONARY
  5
19DD
102
{ACAD_REACTORS
330
D3
102
}
330
D3
100
AcDbDictionary
  0
DICTIONARY
  5
19DE
102
{ACAD_REACTORS
330
D3
102
}
330
D3
100
AcDbDictionary
  0
DICTIONARY
  5
19E6
102
{ACAD_REACTORS
330
D3
102
}
330
D3
100
AcDbDictionary
  3
TSTACKALIGN
350
19E7
  3
TSTACKSIZE
350
19E8
  3
HYPERLINKBASE
350
19E9
  3
STYLESHEET
350
19EA
  3
LAYOUTDICT
350
19EB
  3
PLOTSETDICT
350
19EC
  3
PLOTSTYLNAMDICT
350
19ED
  3
LWETCUNION
350
19EE
  3
INSUNITS
350
19EF
  3
CEPSNTYPE
350
19F0
  3
FINGERPRINTGUID
350
19F1
  3
VERSIONGUID
350
19F2
  3
PSVPSCALE
350
19F3
  3
DIMSTYLEDATA
350
19F4
  3
PUCSORTHOREF
350
19F5
  3
PUCSORTHOVIEW
350
19F6
  3
PUCSBASE
350
19F7
  3
PUCSORGTOP
350
19F8
  3
PUCSORGBOTTOM
350
19F9
  3
PUCSORGLEFT
350
19FA
  3
PUCSORGRIGHT
350
19FB
  3
PUCSORGFRONT
350
19FC
  3
PUCSORGBACK
350
19FD
  3
UCSORTHOREF
350
19FE
  3
UCSORTHOVIEW
350
19FF
  3
UCSBASE
350
1A00
  3
UCSORGTOP
350
1A01
  3
UCSORGBOTTOM
350
1A02
  3
UCSORGLEFT
350
1A03
  3
UCSORGRIGHT
350
1A04
  3
UCSORGFRONT
350
1A05
  3
UCSORGBACK
350
1A06
  0
XRECORD
  5
1A0A
102
{ACAD_REACTORS
330
1A09
102
}
330
1A09
100
AcDbXrecord
340
DF
  0
XRECORD
  5
1A08
102
{ACAD_REACTORS
330
1A07
102
}
330
1A07
100
AcDbXrecord
340
DC
  0
MLINESTYLE
  5
E2
102
{ACAD_REACTORS
330
D5
102
}
330
D5
100
AcDbMlineStyle
  2
STANDARD
 70
     0
  3

 62
     0
 51
90.0
 52
90.0
 71
     2
 49
0.5
 62
   256
  6
BYLAYER
 49
-0.5
 62
   256
  6
BYLAYER
  0
DICTIONARYVAR
  5
1863
102
{ACAD_REACTORS
330
1862
102
}
330
1862
100
DictionaryVariables
280
     0
  1
96
  0
ACDBPLACEHOLDER
  5
19DC
102
{ACAD_REACTORS
330
19DB
102
}
330
19DB
100
AcDbPlaceHolder
280
     0
  0
XRECORD
  5
19E7
102
{ACAD_REACTORS
330
19E6
102
}
330
19E6
100
AcDbXrecord
 90
        1
  0
XRECORD
  5
19E8
102
{ACAD_REACTORS
330
19E6
102
}
330
19E6
100
AcDbXrecord
 90
       70
  0
XRECORD
  5
19E9
102
{ACAD_REACTORS
330
19E6
102
}
330
19E6
100
AcDbXrecord
  1

  0
XRECORD
  5
19EA
102
{ACAD_REACTORS
330
19E6
102
}
330
19E6
100
AcDbXrecord
  1

  0
XRECORD
  5
19EB
102
{ACAD_REACTORS
330
19E6
102
}
330
19E6
100
AcDbXrecord
340
19DD
  0
XRECORD
  5
19EC
102
{ACAD_REACTORS
330
19E6
102
}
330
19E6
100
AcDbXrecord
340
19DE
  0
XRECORD
  5
19ED
102
{ACAD_REACTORS
330
19E6
102
}
330
19E6
100
AcDbXrecord
340
19DB
  0
XRECORD
  5
19EE
102
{ACAD_REACTORS
330
19E6
102
}
330
19E6
100
AcDbXrecord
 90
    14877
  0
XRECORD
  5
19EF
102
{ACAD_REACTORS
330
19E6
102
}
330
19E6
100
AcDbXrecord
 90
        0
  0
XRECORD
  5
19F0
102
{ACAD_REACTORS
330
19E6
102
}
330
19E6
100
AcDbXrecord
 90
        0
  0
XRECORD
  5
19F1
102
{ACAD_REACTORS
330
19E6
102
}
330
19E6
100
AcDbXrecord
  1
{F36ECB36-DEC4-44D2-A057-3C10819D55DB}
  0
XRECORD
  5
19F2
102
{ACAD_REACTORS
330
19E6
102
}
330
19E6
100
AcDbXrecord
  1
{B1DB291E-82EA-4F60-A4ED-0BC594480941}
  0
XRECORD
  5
19F3
102
{ACAD_REACTORS
330
19E6
102
}
330
19E6
100
AcDbXrecord
 40
0.0
  0
XRECORD
  5
19F4
102
{ACAD_REACTORS
330
19E6
102
}
330
19E6
100
AcDbXrecord
1000
DSTYLE
1002
{
1070
   341
340
E3
1070
   342
340
E3
1070
   343
340
E3
1070
   344
340
E3
1002
}
  0
XRECORD
  5
19F5
102
{ACAD_REACTORS
330
19E6
102
}
330
19E6
100
AcDbXrecord
340
0
  0
XRECORD
  5
19F6
102
{ACAD_REACTORS
330
19E6
102
}
330
19E6
100
AcDbXrecord
 70
     0
  0
XRECORD
  5
19F7
102
{ACAD_REACTORS
330
19E6
102
}
330
19E6
100
AcDbXrecord
340
0
  0
XRECORD
  5
19F8
102
{ACAD_REACTORS
330
19E6
102
}
330
19E6
100
AcDbXrecord
 10
0.0
 20
0.0
 30
0.0
  0
XRECORD
  5
19F9
102
{ACAD_REACTORS
330
19E6
102
}
330
19E6
100
AcDbXrecord
 10
0.0
 20
0.0
 30
0.0
  0
XRECORD
  5
19FA
102
{ACAD_REACTORS
330
19E6
102
}
330
19E6
100
AcDbXrecord
 10
0.0
 20
0.0
 30
0.0
  0
XRECORD
  5
19FB
102
{ACAD_REACTORS
330
19E6
102
}
330
19E6
100
AcDbXrecord
 10
0.0
 20
0.0
 30
0.0
  0
XRECORD
  5
19FC
102
{ACAD_REACTORS
330
19E6
102
}
330
19E6
100
AcDbXrecord
 10
0.0
 20
0.0
 30
0.0
  0
XRECORD
  5
19FD
102
{ACAD_REACTORS
330
19E6
102
}
330
19E6
100
AcDbXrecord
 10
0.0
 20
0.0
 30
0.0
  0
XRECORD
  5
19FE
102
{ACAD_REACTORS
330
19E6
102
}
330
19E6
100
AcDbXrecord
340
0
  0
XRECORD
  5
19FF
102
{ACAD_REACTORS
330
19E6
102
}
330
19E6
100
AcDbXrecord
 70
     0
  0
XRECORD
  5
1A00
102
{ACAD_REACTORS
330
19E6
102
}
330
19E6
100
AcDbXrecord
340
0
  0
XRECORD
  5
1A01
102
{ACAD_REACTORS
330
19E6
102
}
330
19E6
100
AcDbXrecord
 10
0.0
 20
0.0
 30
0.0
  0
XRECORD
  5
1A02
102
{ACAD_REACTORS
330
19E6
102
}
330
19E6
100
AcDbXrecord
 10
0.0
 20
0.0
 30
0.0
  0
XRECORD
  5
1A03
102
{ACAD_REACTORS
330
19E6
102
}
330
19E6
100
AcDbXrecord
 10
0.0
 20
0.0
 30
0.0
  0
XRECORD
  5
1A04
102
{ACAD_REACTORS
330
19E6
102
}
330
19E6
100
AcDbXrecord
 10
0.0
 20
0.0
 30
0.0
  0
XRECORD
  5
1A05
102
{ACAD_REACTORS
330
19E6
102
}
330
19E6
100
AcDbXrecord
 10
0.0
 20
0.0
 30
0.0
  0
XRECORD
  5
1A06
102
{ACAD_REACTORS
330
19E6
102
}
330
19E6
100
AcDbXrecord
 10
0.0
 20
0.0
 30
0.0
  0
ENDSEC
  0
EOF
