  0
SECTION
  2
HEADER
  9
$ACADVER
  1
AC1015
  9
$ACADMAINTVER
 70
    20
  9
$DWGCODEPAGE
  3
ANSI_932
  9
$INSBASE
 10
0.0
 20
0.0
 30
0.0
  9
$EXTMIN
 10
80.76361000550832
 20
-168.3885169868845
 30
-0.0000000100021362
  9
$EXTMAX
 10
1985.901293476611
 20
1146.675722423175
 30
0.0000000100021363
  9
$LIMMIN
 10
0.0
 20
0.0
  9
$LIMMAX
 10
1500.0
 20
1000.0
  9
$ORTHOMODE
 70
     1
  9
$REGENMODE
 70
     1
  9
$FILLMODE
 70
     1
  9
$QTEXTMODE
 70
     0
  9
$MIRRTEXT
 70
     0
  9
$LTSCALE
 40
25.0
  9
$ATTMODE
 70
     1
  9
$TEXTSIZE
 40
15.0
  9
$TRACEWID
 40
0.05
  9
$TEXTSTYLE
  7
K
  9
$CLAYER
  8
SUNPOU
  9
$CELTYPE
  6
BYLAYER
  9
$CECOLOR
 62
   256
  9
$CELTSCALE
 40
1.0
  9
$DISPSILH
 70
     0
  9
$DIMSCALE
 40
5.0
  9
$DIMASZ
 40
3.0
  9
$DIMEXO
 40
1.0
  9
$DIMDLI
 40
6.0
  9
$DIMRND
 40
0.0
  9
$DIMDLE
 40
0.0
  9
$DIMEXE
 40
1.0
  9
$DIMTP
 40
0.01
  9
$DIMTM
 40
0.02
  9
$DIMTXT
 40
3.0
  9
$DIMCEN
 40
0.0
  9
$DIMTSZ
 40
0.0
  9
$DIMTOL
 70
     0
  9
$DIMLIM
 70
     0
  9
$DIMTIH
 70
     0
  9
$DIMTOH
 70
     0
  9
$DIMSE1
 70
     0
  9
$DIMSE2
 70
     0
  9
$DIMTAD
 70
     3
  9
$DIMZIN
 70
     8
  9
$DIMBLK
  1
ARROW
  9
$DIMASO
 70
     1
  9
$DIMSHO
 70
     0
  9
$DIMPOST
  1

  9
$DIMAPOST
  1

  9
$DIMALT
 70
     0
  9
$DIMALTD
 70
     2
  9
$DIMALTF
 40
25.4
  9
$DIMLFAC
 40
1.0
  9
$DIMTOFL
 70
     1
  9
$DIMTVP
 40
0.0
  9
$DIMTIX
 70
     1
  9
$DIMSOXD
 70
     0
  9
$DIMSAH
 70
     0
  9
$DIMBLK1
  1
ARROW
  9
$DIMBLK2
  1
ARROW
  9
$DIMSTYLE
  2
IMCADLT
  9
$DIMCLRD
 70
     0
  9
$DIMCLRE
 70
     0
  9
$DIMCLRT
 70
     0
  9
$DIMTFAC
 40
0.45
  9
$DIMGAP
 40
1.5
  9
$DIMJUST
 70
     0
  9
$DIMSD1
 70
     0
  9
$DIMSD2
 70
     0
  9
$DIMTOLJ
 70
     1
  9
$DIMTZIN
 70
     8
  9
$DIMALTZ
 70
     0
  9
$DIMALTTZ
 70
     0
  9
$DIMUPT
 70
     1
  9
$DIMDEC
 70
     2
  9
$DIMTDEC
 70
     2
  9
$DIMALTU
 70
     2
  9
$DIMALTTD
 70
     2
  9
$DIMTXSTY
  7
STANDARD
  9
$DIMAUNIT
 70
     0
  9
$DIMADEC
 70
     0
  9
$DIMALTRND
 40
0.0
  9
$DIMAZIN
 70
     0
  9
$DIMDSEP
 70
    46
  9
$DIMATFIT
 70
     3
  9
$DIMFRAC
 70
     0
  9
$DIMLDRBLK
  1
ARROW
  9
$DIMLUNIT
 70
     2
  9
$DIMLWD
 70
    -2
  9
$DIMLWE
 70
    -2
  9
$DIMTMOVE
 70
     0
  9
$LUNITS
 70
     2
  9
$LUPREC
 70
     2
  9
$SKETCHINC
 40
0.1
  9
$FILLETRAD
 40
0.0
  9
$AUNITS
 70
     0
  9
$AUPREC
 70
     2
  9
$MENU
  1
STDR12J
  9
$ELEVATION
 40
0.0
  9
$PELEVATION
 40
0.0
  9
$THICKNESS
 40
0.0
  9
$LIMCHECK
 70
     0
  9
$CHAMFERA
 40
0.0
  9
$CHAMFERB
 40
0.0
  9
$CHAMFERC
 40
0.0
  9
$CHAMFERD
 40
0.0
  9
$SKPOLY
 70
     0
  9
$TDCREATE
 40
2452040.353372442
  9
$TDUCREATE
 40
2452039.978372442
  9
$TDUPDATE
 40
2460733.716121111
  9
$TDUUPDATE
 40
2460733.341121111
  9
$TDINDWG
 40
0.2775048032
  9
$TDUSRTIMER
 40
0.2775048032
  9
$USRTIMER
 70
     1
  9
$ANGBASE
 50
0.0
  9
$ANGDIR
 70
     0
  9
$PDMODE
 70
     3
  9
$PDSIZE
 40
0.0
  9
$PLINEWID
 40
0.0
  9
$SPLFRAME
 70
     0
  9
$SPLINETYPE
 70
     6
  9
$SPLINESEGS
 70
     8
  9
$HANDSEED
  5
78CE
  9
$SURFTAB1
 70
     6
  9
$SURFTAB2
 70
     6
  9
$SURFTYPE
 70
     6
  9
$SURFU
 70
     6
  9
$SURFV
 70
     6
  9
$UCSBASE
  2

  9
$UCSNAME
  2

  9
$UCSORG
 10
0.0
 20
0.0
 30
0.0
  9
$UCSXDIR
 10
1.0
 20
0.0
 30
0.0
  9
$UCSYDIR
 10
0.0
 20
1.0
 30
0.0
  9
$UCSORTHOREF
  2

  9
$UCSORTHOVIEW
 70
     0
  9
$UCSORGTOP
 10
0.0
 20
0.0
 30
0.0
  9
$UCSORGBOTTOM
 10
0.0
 20
0.0
 30
0.0
  9
$UCSORGLEFT
 10
0.0
 20
0.0
 30
0.0
  9
$UCSORGRIGHT
 10
0.0
 20
0.0
 30
0.0
  9
$UCSORGFRONT
 10
0.0
 20
0.0
 30
0.0
  9
$UCSORGBACK
 10
0.0
 20
0.0
 30
0.0
  9
$PUCSBASE
  2

  9
$PUCSNAME
  2

  9
$PUCSORG
 10
0.0
 20
0.0
 30
0.0
  9
$PUCSXDIR
 10
1.0
 20
0.0
 30
0.0
  9
$PUCSYDIR
 10
0.0
 20
1.0
 30
0.0
  9
$PUCSORTHOREF
  2

  9
$PUCSORTHOVIEW
 70
     0
  9
$PUCSORGTOP
 10
0.0
 20
0.0
 30
0.0
  9
$PUCSORGBOTTOM
 10
0.0
 20
0.0
 30
0.0
  9
$PUCSORGLEFT
 10
0.0
 20
0.0
 30
0.0
  9
$PUCSORGRIGHT
 10
0.0
 20
0.0
 30
0.0
  9
$PUCSORGFRONT
 10
0.0
 20
0.0
 30
0.0
  9
$PUCSORGBACK
 10
0.0
 20
0.0
 30
0.0
  9
$USERI1
 70
     3
  9
$USERI2
 70
     1
  9
$USERI3
 70
     5
  9
$USERI4
 70
     1
  9
$USERI5
 70
     1
  9
$USERR1
 40
5.0
  9
$USERR2
 40
3.0
  9
$USERR3
 40
3.0
  9
$USERR4
 40
3.0
  9
$USERR5
 40
10.0
  9
$WORLDVIEW
 70
     1
  9
$SHADEDGE
 70
     3
  9
$SHADEDIF
 70
    70
  9
$TILEMODE
 70
     1
  9
$MAXACTVP
 70
    16
  9
$PINSBASE
 10
0.0
 20
0.0
 30
0.0
  9
$PLIMCHECK
 70
     0
  9
$PEXTMIN
 10
28.53478403091429
 20
19.82258291244505
 30
0.0
  9
$PEXTMAX
 10
256.8130562782288
 20
178.4032462120056
 30
0.0
  9
$PLIMMIN
 10
-5.873748779296875
 20
-5.873749732971191
  9
$PLIMMAX
 10
291.2215881347656
 20
204.2265768051148
  9
$UNITMODE
 70
     0
  9
$VISRETAIN
 70
     0
  9
$PLINEGEN
 70
     0
  9
$PSLTSCALE
 70
     1
  9
$TREEDEPTH
 70
     0
  9
$CMLSTYLE
  2
STANDARD
  9
$CMLJUST
 70
     0
  9
$CMLSCALE
 40
1.0
  9
$PROXYGRAPHICS
 70
     1
  9
$MEASUREMENT
 70
     1
  9
$CELWEIGHT
370
    -1
  9
$ENDCAPS
280
     0
  9
$JOINSTYLE
280
     0
  9
$LWDISPLAY
290
     0
  9
$INSUNITS
 70
     0
  9
$HYPERLINKBASE
  1

  9
$STYLESHEET
  1
yama1.ctb
  9
$XEDIT
290
     1
  9
$CEPSNTYPE
380
     0
  9
$PSTYLEMODE
290
     1
  9
$FINGERPRINTGUID
  2
{0CF6BE7D-48B8-4C1B-98E6-B951F2FF855A}
  9
$VERSIONGUID
  2
{9144CB54-3A73-467F-A295-EB5887BE9553}
  9
$EXTNAMES
290
     1
  9
$PSVPSCALE
 40
0.0
  9
$OLESTARTUP
290
     0
  0
ENDSEC
  0
SECTION
  2
CLASSES
  0
CLASS
  1
LWPOLYLINE
  2
AcDbPolyline
  3
ObjectDBX Classes
 90
    32768
280
     0
281
     1
  0
CLASS
  1
HATCH
  2
AcDbHatch
  3
ObjectDBX Classes
 90
    32768
280
     0
281
     1
  0
CLASS
  1
DICTIONARYVAR
  2
AcDbDictionaryVar
  3
ObjectDBX Classes
 90
        0
280
     0
281
     0
  0
CLASS
  1
ACDBDICTIONARYWDFLT
  2
AcDbDictionaryWithDefault
  3
ObjectDBX Classes
 90
        0
280
     0
281
     0
  0
CLASS
  1
ACDBPLACEHOLDER
  2
AcDbPlaceHolder
  3
ObjectDBX Classes
 90
        0
280
     0
281
     0
  0
CLASS
  1
LAYOUT
  2
AcDbLayout
  3
ObjectDBX Classes
 90
        0
280
     0
281
     0
  0
CLASS
  1
ACME_DOCUMENT
  2
AcMeDbDoc
  3
AcMeServices
 90
    32768
280
     0
281
     0
  0
CLASS
  1
ACMESCOPE
  2
AcMeScope
  3
AcMeServices
 90
        0
280
     0
281
     0
  0
CLASS
  1
ACMECOMMANDHISTORY
  2
AcMeCommandHistory
  3
AcMeServices
 90
        0
280
     0
281
     0
  0
CLASS
  1
ACIMSYSVARMAN
  2
AcImSysVarManager
  3
AcMeServices
 90
        0
280
     0
281
     0
  0
CLASS
  1
ACIMREALSYSVAR
  2
AcImRealSysVar
  3
AcMeServices
 90
        0
280
     0
281
     0
  0
CLASS
  1
ACIMINTSYSVAR
  2
AcImIntSysVar
  3
AcMeServices
 90
        0
280
     0
281
     0
  0
CLASS
  1
ACMEDRAWINGMAN
  2
AcMeDrawingMan
  3
AcMeServices
 90
        0
280
     0
281
     0
  0
CLASS
  1
ACMEVIEW
  2
AcMeView
  3
AcMeServices
 90
        0
280
     0
281
     0
  0
CLASS
  1
ACDBENTITYCACHE
  2
AcMeEntityCache
  3
AcMeServices
 90
    32768
280
     0
281
     0
  0
CLASS
  1
GSMANAGER
  2
AcMeGSManager
  3
AcMeServices
 90
    32768
280
     0
281
     0
  0
CLASS
  1
AMDTINTERNALREACTOR
  2
AmdtInternalReactor
  3
AcMeServices
 90
    32768
280
     0
281
     0
  0
CLASS
  1
ACMESTATEMGR
  2
AcMeStateMgr
  3
AcMeServices
 90
        0
280
     0
281
     0
  0
CLASS
  1
ACGREFMASTER
  2
AcGrefMaster
  3
AcAttribServices
 90
        0
280
     0
281
     0
  0
CLASS
  1
ACME_DATABASE
  2
AcMeDbDatabase
  3
AcMeServices
 90
    32768
280
     0
281
     0
  0
CLASS
  1
ACRFINSADJUSTERMGR
  2
AcRfInsAdjusterMgr
  3
AcMeServices
 90
    32768
280
     0
281
     0
  0
CLASS
  1
ACGREFACADMASTER
  2
AcGrefacadMaster
  3
AcGrefServices
 90
        0
280
     0
281
     0
  0
CLASS
  1
AMIMASTER
  2
AmiMaster
  3
AmiServices
 90
        0
280
     0
281
     0
  0
CLASS
  1
AMGSETTINGSOBJ
  2
AmgSettingsObj
  3
"AcadM|Product Description: AutoCAD Mechanical 2000|Company: Autodesk"
 90
        0
280
     0
281
     0
  0
CLASS
  1
ACMDATADICTIONARY
  2
AcmDataDictionary
  3
"AcmSymBB|Product Description: AutoCAD Mechanical 2000|Company: Autodesk"
 90
        0
280
     0
281
     0
  0
CLASS
  1
ACMDATAENTRYBLOCK
  2
AcmDataEntryBlock
  3
"AcmSymBB|Product Description: AutoCAD Mechanical 2000|Company: Autodesk"
 90
        0
280
     0
281
     0
  0
CLASS
  1
ACIMSTRSYSVAR
  2
AcImStrSysVar
  3
AcMeServices
 90
        0
280
     0
281
     0
  0
CLASS
  1
ACMSTANDARDISO
  2
AcmStandardISO
  3
"Amdt_StdImp|Product Description: AutoCAD Mechanical 2000|Company: Autodesk"
 90
        0
280
     0
281
     0
  0
CLASS
  1
AMGOBJPROPCFG
  2
AmgObjPropCfg
  3
"AmgLay|Product Description: AutoCAD Mechanical 2000|Company: Autodesk"
 90
        1
280
     0
281
     0
  0
CLASS
  1
AMDTEDGESTANDARDISO
  2
AmdtEdgeStdISO
  3
"Amdt_StdImp|Product Description: AutoCAD Mechanical 2000|Company: Autodesk"
 90
        0
280
     0
281
     0
  0
CLASS
  1
ACMSURFSTANDARDISO
  2
AcmSurfTextStdISO
  3
"Amdt_StdImp|Product Description: AutoCAD Mechanical 2000|Company: Autodesk"
 90
        0
280
     0
281
     0
  0
CLASS
  1
ACMFCFSTANDARDISO
  2
AcmFCFStdISO
  3
"Amdt_StdImp|Product Description: AutoCAD Mechanical 2000|Company: Autodesk"
 90
        0
280
     0
281
     0
  0
CLASS
  1
ACMWELDSTANDARDISO
  2
AcmWeldingStdISO
  3
"Amdt_StdImp|Product Description: AutoCAD Mechanical 2000|Company: Autodesk"
 90
        0
280
     0
281
     0
  0
CLASS
  1
ACMIDSTANDARDISO
  2
AcmIdStdISO
  3
"Amdt_StdImp|Product Description: AutoCAD Mechanical 2000|Company: Autodesk"
 90
        0
280
     0
281
     0
  0
CLASS
  1
ACMDATUMSTANDARDISO
  2
AcmDatumStdISO
  3
"Amdt_StdImp|Product Description: AutoCAD Mechanical 2000|Company: Autodesk"
 90
        0
280
     0
281
     0
  0
CLASS
  1
ACMBOMSTANDARDISO
  2
AcmBOMStdISO
  3
"Amdt_StdImp|Product Description: AutoCAD Mechanical 2000|Company: Autodesk"
 90
        0
280
     0
281
     0
  0
CLASS
  1
ACMDETAILSTANDARDISO
  2
AmdtDetailSymStdISO
  3
"Amdt_StdImp|Product Description: AutoCAD Mechanical 2000|Company: Autodesk"
 90
        0
280
     0
281
     0
  0
CLASS
  1
ACMSECTIONSTANDARDISO
  2
AmdtSectionSymStdISO
  3
"Amdt_StdImp|Product Description: AutoCAD Mechanical 2000|Company: Autodesk"
 90
        0
280
     0
281
     0
  0
CLASS
  1
ACMCENTERLINESTANDARDISO
  2
AmdtCenterLineStdISO
  3
"Amdt_StdImp|Product Description: AutoCAD Mechanical 2000|Company: Autodesk"
 90
        0
280
     0
281
     0
  0
CLASS
  1
ACMNOTESTANDARDISO
  2
AmdtNoteStdISO
  3
"Amdt_StdImp|Product Description: AutoCAD Mechanical 2000|Company: Autodesk"
 90
        0
280
     0
281
     0
  0
CLASS
  1
ACAMGLAYSTD
  2
AcAmgLayStd
  3
"AcAmgLayStd|Product Description: AutoCAD Mechanical 2000|Company: Autodesk"
 90
        0
280
     0
281
     0
  0
CLASS
  1
ACAMGDIMSTD
  2
AcAmgDimStd
  3
"AcAmgDimStd|Product Description: AutoCAD Mechanical 2000|Company: Autodesk"
 90
        0
280
     0
281
     0
  0
CLASS
  1
ACAMGHOLECHARTSTDISO
  2
AcAmgHoleChartStdISO
  3
ACMSYMBB_MODULE_NAME
 90
        0
280
     0
281
     0
  0
CLASS
  1
ACAMGTITLESTD
  2
AcAmgTitleStd
  3
"TITLEAPP"
 90
        0
280
     0
281
     0
  0
CLASS
  1
ACAMGFILTERDAT
  2
AcAmgFilterDat
  3
"AcadM|Product Description: AutoCAD Mechanical 2000|Company: Autodesk"
 90
        0
280
     0
281
     0
  0
CLASS
  1
LAYER_INDEX
  2
AcDbLayerIndex
  3
ObjectDBX Classes
 90
        0
280
     0
281
     0
  0
CLASS
  1
IDBUFFER
  2
AcDbIdBuffer
  3
ObjectDBX Classes
 90
        0
280
     0
281
     0
  0
CLASS
  1
SCALE
  2
AcDbScale
  3
ObjectDBX Classes
 90
     1153
280
     0
281
     0
  0
CLASS
  1
MATERIAL
  2
AcDbMaterial
  3
ObjectDBX Classes
 90
     1153
280
     0
281
     0
  0
CLASS
  1
TABLESTYLE
  2
AcDbTableStyle
  3
ObjectDBX Classes
 90
     4095
280
     0
281
     0
  0
CLASS
  1
MLEADERSTYLE
  2
AcDbMLeaderStyle
  3
ACDB_MLEADERSTYLE_CLASS
 90
     4095
280
     0
281
     0
  0
CLASS
  1
SORTENTSTABLE
  2
AcDbSortentsTable
  3
ObjectDBX Classes
 90
        0
280
     0
281
     0
  0
ENDSEC
  0
SECTION
  2
TABLES
  0
TABLE
  2
VPORT
  5
CF
330
0
100
AcDbSymbolTable
 70
     9
  0
VPORT
  5
F5
330
CF
100
AcDbSymbolTableRecord
100
AcDbViewportTableRecord
  2
2
 70
     0
 10
0.5
 20
0.0
 11
1.0
 21
1.0
 12
0.9240312421264802
 22
1.052650975462766
 13
0.0
 23
0.0
 14
1.0
 24
1.0
 15
10.0
 25
10.0
 16
0.0
 26
0.0
 36
1.0
 17
0.0
 27
0.0
 37
0.0
 40
2.105301950925533
 41
0.8778135048231511
 42
50.0
 43
0.0
 44
0.0
 50
0.0
 51
0.0
 71
     0
 72
   500
 73
     1
 74
     1
 75
     0
 76
     0
 77
     0
 78
     0
281
     0
 65
     1
110
0.0
120
0.0
130
0.0
111
1.0
121
0.0
131
0.0
112
0.0
122
1.0
132
0.0
 79
     0
146
0.0
  0
VPORT
  5
F6
330
CF
100
AcDbSymbolTableRecord
100
AcDbViewportTableRecord
  2
2
 70
     0
 10
0.0
 20
0.0
 11
0.5
 21
1.0
 12
0.9240312421264802
 22
1.052650975462766
 13
0.0
 23
0.0
 14
1.0
 24
1.0
 15
10.0
 25
10.0
 16
0.0
 26
0.0
 36
1.0
 17
0.0
 27
0.0
 37
0.0
 40
2.105301950925533
 41
0.8778135048231511
 42
50.0
 43
0.0
 44
0.0
 50
0.0
 51
0.0
 71
     0
 72
   500
 73
     1
 74
     1
 75
     0
 76
     0
 77
     0
 78
     0
281
     0
 65
     1
110
0.0
120
0.0
130
0.0
111
1.0
121
0.0
131
0.0
112
0.0
122
1.0
132
0.0
 79
     0
146
0.0
  0
VPORT
  5
F7
330
CF
100
AcDbSymbolTableRecord
100
AcDbViewportTableRecord
  2
3
 70
     0
 10
0.0
 20
0.5
 11
1.0
 21
1.0
 12
2.832169994473273
 22
1.052650975462766
 13
0.0
 23
0.0
 14
1.0
 24
1.0
 15
10.0
 25
10.0
 16
0.0
 26
0.0
 36
1.0
 17
0.0
 27
0.0
 37
0.0
 40
2.105301950925533
 41
3.571428571428571
 42
50.0
 43
0.0
 44
0.0
 50
0.0
 51
0.0
 71
     0
 72
   500
 73
     1
 74
     1
 75
     0
 76
     0
 77
     0
 78
     0
281
     0
 65
     1
110
0.0
120
0.0
130
0.0
111
1.0
121
0.0
131
0.0
112
0.0
122
1.0
132
0.0
 79
     0
146
0.0
  0
VPORT
  5
F8
330
CF
100
AcDbSymbolTableRecord
100
AcDbViewportTableRecord
  2
3
 70
     0
 10
0.0
 20
0.0
 11
1.0
 21
0.5
 12
2.856741679241311
 22
1.052650975462766
 13
0.0
 23
0.0
 14
1.0
 24
1.0
 15
10.0
 25
10.0
 16
0.0
 26
0.0
 36
1.0
 17
0.0
 27
0.0
 37
0.0
 40
2.105301950925533
 41
3.594771241830065
 42
50.0
 43
0.0
 44
0.0
 50
0.0
 51
0.0
 71
     0
 72
   500
 73
     1
 74
     1
 75
     0
 76
     0
 77
     0
 78
     0
281
     0
 65
     1
110
0.0
120
0.0
130
0.0
111
1.0
121
0.0
131
0.0
112
0.0
122
1.0
132
0.0
 79
     0
146
0.0
  0
VPORT
  5
F9
330
CF
100
AcDbSymbolTableRecord
100
AcDbViewportTableRecord
  2
4
 70
     0
 10
0.5
 20
0.0
 11
1.0
 21
0.5
 12
2.886857516709719
 22
1.052650975462766
 13
0.0
 23
0.0
 14
1.0
 24
1.0
 15
10.0
 25
10.0
 16
0.0
 26
0.0
 36
1.0
 17
0.0
 27
0.0
 37
0.0
 40
4.27520703030907
 41
1.784313725490195
 42
50.0
 43
0.0
 44
0.0
 50
0.0
 51
0.0
 71
     0
 72
   500
 73
     1
 74
     1
 75
     0
 76
     0
 77
     0
 78
     0
281
     0
 65
     1
110
0.0
120
0.0
130
0.0
111
1.0
121
0.0
131
0.0
112
0.0
122
1.0
132
0.0
 79
     0
146
0.0
  0
VPORT
  5
FA
330
CF
100
AcDbSymbolTableRecord
100
AcDbViewportTableRecord
  2
4
 70
     0
 10
0.5
 20
0.5
 11
1.0
 21
1.0
 12
2.862090274555523
 22
1.052650975462766
 13
0.0
 23
0.0
 14
1.0
 24
1.0
 15
10.0
 25
10.0
 16
0.0
 26
0.0
 36
1.0
 17
0.0
 27
0.0
 37
0.0
 40
4.27520703030907
 41
1.772727272727272
 42
50.0
 43
0.0
 44
0.0
 50
0.0
 51
0.0
 71
     0
 72
   500
 73
     1
 74
     1
 75
     0
 76
     0
 77
     0
 78
     0
281
     0
 65
     1
110
0.0
120
0.0
130
0.0
111
1.0
121
0.0
131
0.0
112
0.0
122
1.0
132
0.0
 79
     0
146
0.0
  0
VPORT
  5
FB
330
CF
100
AcDbSymbolTableRecord
100
AcDbViewportTableRecord
  2
4
 70
     0
 10
0.0
 20
0.5
 11
0.5
 21
1.0
 12
2.862090274555523
 22
1.052650975462766
 13
0.0
 23
0.0
 14
1.0
 24
1.0
 15
10.0
 25
10.0
 16
0.0
 26
0.0
 36
1.0
 17
0.0
 27
0.0
 37
0.0
 40
4.27520703030907
 41
1.772727272727272
 42
50.0
 43
0.0
 44
0.0
 50
0.0
 51
0.0
 71
     0
 72
   500
 73
     1
 74
     1
 75
     0
 76
     0
 77
     0
 78
     0
281
     0
 65
     1
110
0.0
120
0.0
130
0.0
111
1.0
121
0.0
131
0.0
112
0.0
122
1.0
132
0.0
 79
     0
146
0.0
  0
VPORT
  5
FC
330
CF
100
AcDbSymbolTableRecord
100
AcDbViewportTableRecord
  2
4
 70
     0
 10
0.0
 20
0.0
 11
0.5
 21
0.5
 12
2.886857516709719
 22
1.052650975462766
 13
0.0
 23
0.0
 14
1.0
 24
1.0
 15
10.0
 25
10.0
 16
0.0
 26
0.0
 36
1.0
 17
0.0
 27
0.0
 37
0.0
 40
4.27520703030907
 41
1.784313725490195
 42
50.0
 43
0.0
 44
0.0
 50
0.0
 51
0.0
 71
     0
 72
   500
 73
     1
 74
     1
 75
     0
 76
     0
 77
     0
 78
     0
281
     0
 65
     1
110
0.0
120
0.0
130
0.0
111
1.0
121
0.0
131
0.0
112
0.0
122
1.0
132
0.0
 79
     0
146
0.0
  0
VPORT
  5
75D9
330
CF
100
AcDbSymbolTableRecord
100
AcDbViewportTableRecord
  2
*ACTIVE
 70
     0
 10
0.0
 20
0.0
 11
1.0
 21
1.0
 12
1025.894102219094
 22
489.1436027181454
 13
0.0
 23
0.0
 14
1.0
 24
1.0
 15
10.0
 25
10.0
 16
0.0
 26
0.0
 36
1.0
 17
0.0
 27
0.0
 37
0.0
 40
1324.292760388376
 41
2.228337236533957
 42
50.0
 43
0.0
 44
0.0
 50
0.0
 51
0.0
 71
     0
 72
   500
 73
     1
 74
     0
 75
     0
 76
     0
 77
     0
 78
     0
281
     0
 65
     1
110
0.0
120
0.0
130
0.0
111
1.0
121
0.0
131
0.0
112
0.0
122
1.0
132
0.0
 79
     0
146
0.0
  0
ENDTAB
  0
TABLE
  2
LTYPE
  5
CC
330
0
100
AcDbSymbolTable
 70
    15
  0
LTYPE
  5
D9
330
CC
100
AcDbSymbolTableRecord
100
AcDbLinetypeTableRecord
  2
BYBLOCK
 70
     0
  3

 72
    65
 73
     0
 40
0.0
  0
LTYPE
  5
DA
330
CC
100
AcDbSymbolTableRecord
100
AcDbLinetypeTableRecord
  2
BYLAYER
 70
     0
  3

 72
    65
 73
     0
 40
0.0
  0
LTYPE
  5
DB
330
CC
100
AcDbSymbolTableRecord
100
AcDbLinetypeTableRecord
  2
CONTINUOUS
 70
     0
  3
実線
 72
    65
 73
     0
 40
0.0
  0
LTYPE
  5
F1
330
CC
100
AcDbSymbolTableRecord
100
AcDbLinetypeTableRecord
  2
DASHED
 70
     0
  3
__ __ __ __ __ __ __ __ __ __ __ __ __ __ __
 72
    65
 73
     2
 40
0.75
 49
0.5
 74
     0
 49
-0.25
 74
     0
  0
LTYPE
  5
F2
330
CC
100
AcDbSymbolTableRecord
100
AcDbLinetypeTableRecord
  2
CENTER
 70
     0
  3
____ _ ____ _ ____ _ ____ _ ____ _ ____ _ ____
 72
    65
 73
     4
 40
2.0
 49
1.25
 74
     0
 49
-0.25
 74
     0
 49
0.25
 74
     0
 49
-0.25
 74
     0
  0
LTYPE
  5
F3
330
CC
100
AcDbSymbolTableRecord
100
AcDbLinetypeTableRecord
  2
PHANTOM
 70
     0
  3
_____ _ _ _____ _ _ _____ _ _ _____ _ _ ____
 72
    65
 73
     6
 40
2.5
 49
1.25
 74
     0
 49
-0.25
 74
     0
 49
0.25
 74
     0
 49
-0.25
 74
     0
 49
0.25
 74
     0
 49
-0.25
 74
     0
  0
LTYPE
  5
F4
330
CC
100
AcDbSymbolTableRecord
100
AcDbLinetypeTableRecord
  2
HIDDEN
 70
     0
  3
_ _ _ _ _ _ _ _ _ _ _ _ _ _ _ _ _ _ _ _ _ _ _
 72
    65
 73
     2
 40
0.375
 49
0.25
 74
     0
 49
-0.125
 74
     0
  0
LTYPE
  5
760D
330
CC
100
AcDbSymbolTableRecord
100
AcDbLinetypeTableRecord
  2
AM_ISO02W050
 70
     0
  3
__ __ __ __ __ __ __ __ __ __ __ __ __ __ __
 72
    65
 73
     2
 40
7.5
 49
6.0
 74
     0
 49
-1.5
 74
     0
  0
LTYPE
  5
760E
330
CC
100
AcDbSymbolTableRecord
100
AcDbLinetypeTableRecord
  2
AM_ISO08W050
 70
     0
  3
____ . ____ . ____ . ____ . ____ . ____ . ____
 72
    65
 73
     4
 40
18.0
 49
12.0
 74
     0
 49
-1.5
 74
     0
 49
3.0
 74
     0
 49
-1.5
 74
     0
  0
LTYPE
  5
760F
330
CC
100
AcDbSymbolTableRecord
100
AcDbLinetypeTableRecord
  2
AM_ISO09W050
 70
     0
  3
_____ . . _____ . . _____ . . ____ .. ____
 72
    65
 73
     6
 40
22.5
 49
12.0
 74
     0
 49
-1.5
 74
     0
 49
3.0
 74
     0
 49
-1.5
 74
     0
 49
3.0
 74
     0
 49
-1.5
 74
     0
  0
LTYPE
  5
7610
330
CC
100
AcDbSymbolTableRecord
100
AcDbLinetypeTableRecord
  2
Amconstr
 70
     0
  3
_______________________
 72
    65
 73
     2
 40
9999.0
 49
9999.0
 74
     0
 49
0.0
 74
     0
  0
LTYPE
  5
7611
330
CC
100
AcDbSymbolTableRecord
100
AcDbLinetypeTableRecord
  2
AM_ISO08W050x2
 70
     0
  3
__ . __ . __ . __ . __ . __
 72
    65
 73
     4
 40
9.0
 49
6.0
 74
     0
 49
-0.75
 74
     0
 49
1.5
 74
     0
 49
-0.75
 74
     0
  0
LTYPE
  5
7612
330
CC
100
AcDbSymbolTableRecord
100
AcDbLinetypeTableRecord
  2
AM_ISO02W050x2
 70
     0
  3
 _ _ _ _ _ _ _ _ _ _ _ _
 72
    65
 73
     2
 40
3.75
 49
3.0
 74
     0
 49
-0.75
 74
     0
  0
LTYPE
  5
7615
330
CC
100
AcDbSymbolTableRecord
100
AcDbLinetypeTableRecord
  2
Amzigzag
 70
     0
  3
/\/-/\/-/\/-/\/-/\/-/\/
 72
    65
 73
     2
 40
11.0001
 49
0.0001
 74
     4
 75
   135
340
7614
 46
0.04
 50
0.0
 44
0.0
 45
0.0
 49
-11.0
 74
     0
  0
LTYPE
  5
7623
330
CC
100
AcDbSymbolTableRecord
100
AcDbLinetypeTableRecord
  2
ACISOWELD
 70
     0
  3
_ _ _ _ _
 72
    65
 73
     2
 40
2.0
 49
2.0
 74
     0
 49
-1.0
 74
     0
  0
LTYPE
  5
7624
330
CC
100
AcDbSymbolTableRecord
100
AcDbLinetypeTableRecord
  2
ACISOTGB
 70
     0
  3
__ . . __ . .
 72
    65
 73
     6
 40
9.0
 49
4.0
 74
     0
 49
-1.0
 74
     0
 49
1.0
 74
     0
 49
-1.0
 74
     0
 49
1.0
 74
     0
 49
-1.0
 74
     0
  0
LTYPE
  5
7625
330
CC
100
AcDbSymbolTableRecord
100
AcDbLinetypeTableRecord
  2
ACISOTGL
 70
     0
  3
_ _ _ _ _
 72
    65
 73
     2
 40
3.0
 49
2.0
 74
     0
 49
-1.0
 74
     0
  0
ENDTAB
  0
TABLE
  2
LAYER
  5
C9
102
{ACAD_XDICTIONARY
360
76DF
102
}
330
0
100
AcDbSymbolTable
 70
    17
  0
LAYER
  5
D6
330
C9
100
AcDbSymbolTableRecord
100
AcDbLayerTableRecord
  2
0
 70
     0
 62
     7
  6
CONTINUOUS
370
    -3
390
75E1
  0
LAYER
  5
100
330
C9
100
AcDbSymbolTableRecord
100
AcDbLayerTableRecord
  2
HASEN
 70
     0
 62
     2
  6
DASHED
370
    -3
390
75E1
  0
LAYER
  5
101
330
C9
100
AcDbSymbolTableRecord
100
AcDbLayerTableRecord
  2
ITTEN
 70
     0
 62
     1
  6
CENTER
370
    -3
390
75E1
  0
LAYER
  5
102
330
C9
100
AcDbSymbolTableRecord
100
AcDbLayerTableRecord
  2
NITEN
 70
     0
 62
     2
  6
PHANTOM
370
    -3
390
75E1
  0
LAYER
  5
103
330
C9
100
AcDbSymbolTableRecord
100
AcDbLayerTableRecord
  2
HATCH
 70
     0
 62
     4
  6
CONTINUOUS
370
    -3
390
75E1
  0
LAYER
  5
104
330
C9
100
AcDbSymbolTableRecord
100
AcDbLayerTableRecord
  2
SUNPOU
 70
     0
 62
     3
  6
CONTINUOUS
370
    -3
390
75E1
  0
LAYER
  5
105
330
C9
100
AcDbSymbolTableRecord
100
AcDbLayerTableRecord
  2
TEXT
 70
     0
 62
     3
  6
CONTINUOUS
370
    -3
390
75E1
  0
LAYER
  5
106
330
C9
100
AcDbSymbolTableRecord
100
AcDbLayerTableRecord
  2
SAISEN
 70
     0
 62
     4
  6
CONTINUOUS
370
    -3
390
75E1
  0
LAYER
  5
107
330
C9
100
AcDbSymbolTableRecord
100
AcDbLayerTableRecord
  2
JISSEN
 70
     0
 62
     7
  6
CONTINUOUS
370
    -3
390
75E1
  0
LAYER
  5
108
330
C9
100
AcDbSymbolTableRecord
100
AcDbLayerTableRecord
  2
HOJO
 70
     0
 62
     6
  6
CONTINUOUS
370
    -3
390
75E1
  0
LAYER
  5
109
330
C9
100
AcDbSymbolTableRecord
100
AcDbLayerTableRecord
  2
TENSEN
 70
     0
 62
     2
  6
HIDDEN
370
    -3
390
75E1
  0
LAYER
  5
10A
330
C9
100
AcDbSymbolTableRecord
100
AcDbLayerTableRecord
  2
HOJOORG
 70
     0
 62
     1
  6
CONTINUOUS
370
    -3
390
75E1
  0
LAYER
  5
10B
330
C9
100
AcDbSymbolTableRecord
100
AcDbLayerTableRecord
  2
WAKU
 70
     0
 62
     5
  6
CONTINUOUS
370
    -3
390
75E1
  0
LAYER
  5
10C
330
C9
100
AcDbSymbolTableRecord
100
AcDbLayerTableRecord
  2
POINT
 70
     0
 62
     7
  6
CONTINUOUS
370
    -3
390
75E1
  0
LAYER
  5
6F31
330
C9
100
AcDbSymbolTableRecord
100
AcDbLayerTableRecord
  2
WINDOW
 70
     0
 62
    -7
  6
CONTINUOUS
370
    -3
390
75E1
  0
LAYER
  5
6F63
330
C9
100
AcDbSymbolTableRecord
100
AcDbLayerTableRecord
  2
DEFPOINTS
 70
     0
 62
     7
  6
CONTINUOUS
290
     0
370
    -3
390
75E1
  0
LAYER
  5
764F
330
C9
100
AcDbSymbolTableRecord
100
AcDbLayerTableRecord
  2
AM_CL
 70
     0
 62
     1
  6
Amconstr
370
    25
390
75E1
  0
ENDTAB
  0
TABLE
  2
STYLE
  5
CA
330
0
100
AcDbSymbolTable
 70
     6
  0
STYLE
  5
D7
330
CA
100
AcDbSymbolTableRecord
100
AcDbTextStyleTableRecord
  2
STANDARD
 70
     0
 40
0.0
 41
1.0
 50
0.0
 71
     0
 42
0.2
  3
ROMANS
  4
EXTFONT
  0
STYLE
  5
F0
330
CA
100
AcDbSymbolTableRecord
100
AcDbTextStyleTableRecord
  2
K
 70
     0
 40
0.0
 41
1.0
 50
0.0
 71
     0
 42
15.0
  3
ROMANS
  4
EXTFONT
  0
STYLE
  5
7614
330
CA
100
AcDbSymbolTableRecord
100
AcDbTextStyleTableRecord
  2

 70
     1
 40
0.0
 41
1.0
 50
0.0
 71
     0
 42
15.0
  3
ltypeshp.shx
  4

  0
STYLE
  5
7616
330
CA
100
AcDbSymbolTableRecord
100
AcDbTextStyleTableRecord
  2
ACISOTS
 70
     0
 40
1.0
 41
1.0
 50
0.0
 71
     0
 42
15.0
  3
isocp.shx
  4
extfont.shx
  0
STYLE
  5
7622
330
CA
100
AcDbSymbolTableRecord
100
AcDbTextStyleTableRecord
  2
ACISOGDT
 70
     0
 40
0.0
 41
1.0
 50
0.0
 71
     0
 42
15.0
  3
amgdt.shx
  4

  0
ENDTAB
  0
TABLE
  2
VIEW
  5
CD
330
0
100
AcDbSymbolTable
 70
     0
  0
ENDTAB
  0
TABLE
  2
UCS
  5
CE
330
0
100
AcDbSymbolTable
 70
     0
  0
ENDTAB
  0
TABLE
  2
APPID
  5
D0
330
0
100
AcDbSymbolTable
 70
    13
  0
APPID
  5
D8
330
D0
100
AcDbSymbolTableRecord
100
AcDbRegAppTableRecord
  2
ACAD
 70
     0
  0
APPID
  5
50D6
330
D0
100
AcDbSymbolTableRecord
100
AcDbRegAppTableRecord
  2
CONTENTTABDATA
 70
     0
  0
APPID
  5
50D7
330
D0
100
AcDbSymbolTableRecord
100
AcDbRegAppTableRecord
  2
CONTENTCURRENTTAB
 70
     0
  0
APPID
  5
75EB
330
D0
100
AcDbSymbolTableRecord
100
AcDbRegAppTableRecord
  2
MCAD_NO_VIS
 70
     0
  0
APPID
  5
75EC
330
D0
100
AcDbSymbolTableRecord
100
AcDbRegAppTableRecord
  2
ACAD_TEMP_GRAPHIC
 70
     0
  0
APPID
  5
75FD
330
D0
100
AcDbSymbolTableRecord
100
AcDbRegAppTableRecord
  2
ACATTRIBSERVICES
 70
     0
  0
APPID
  5
7636
330
D0
100
AcDbSymbolTableRecord
100
AcDbRegAppTableRecord
  2
GENIUS_GENSCREG_15
 70
     0
  0
APPID
  5
7637
330
D0
100
AcDbSymbolTableRecord
100
AcDbRegAppTableRecord
  2
GENIUS_GENOBJ-N-SDF_13
 70
     0
  0
APPID
  5
7638
330
D0
100
AcDbSymbolTableRecord
100
AcDbRegAppTableRecord
  2
GENIUS_GENODEF_13
 70
     0
  0
APPID
  5
775E
330
D0
100
AcDbSymbolTableRecord
100
AcDbRegAppTableRecord
  2
ACAD_PSEXT
 70
     0
  0
APPID
  5
779F
330
D0
100
AcDbSymbolTableRecord
100
AcDbRegAppTableRecord
  2
ACAD_OBJECT_CHANGE_GUID
 70
     0
  0
APPID
  5
77B8
330
D0
100
AcDbSymbolTableRecord
100
AcDbRegAppTableRecord
  2
___LIKI___
 70
     0
  0
APPID
  5
78C8
330
D0
100
AcDbSymbolTableRecord
100
AcDbRegAppTableRecord
  2
ACAD_MLEADERVER
 70
     0
  0
ENDTAB
  0
TABLE
  2
DIMSTYLE
  5
D1
330
0
100
AcDbSymbolTable
 70
    20
100
AcDbDimStyleTable
 71
     1
340
402
  0
DIMSTYLE
105
FF
330
D1
100
AcDbSymbolTableRecord
100
AcDbDimStyleTableRecord
  2
IMAO
 70
     0
 41
1.5
 42
1.0
 43
6.0
 44
1.0
 47
495.0
 73
     0
 74
     0
 77
     1
 78
     8
140
3.0
141
0.0
147
1.5
172
     1
174
     1
271
     2
272
     2
284
     8
285
     8
286
     8
340
F0
341
E3
342
E3
343
145
344
145
  0
DIMSTYLE
105
401
330
D1
100
AcDbSymbolTableRecord
100
AcDbDimStyleTableRecord
  2
STANDARD
 70
     0
 40
0.0
 41
6.0
 42
1.0
 43
6.0
 44
1.0
 47
0.5
 48
0.5
 71
     1
 73
     0
 74
     0
 77
     1
 78
     8
140
3.0
141
0.0
146
0.5
147
1.5
172
     1
173
     1
174
     1
271
     0
272
     0
340
D7
341
E3
343
E3
344
E3
  0
DIMSTYLE
105
402
102
{ACAD_REACTORS
330
6F68
330
6F76
330
6FD9
330
6FEA
330
719E
330
71B6
330
71C2
330
71CF
330
7330
330
739D
330
73AA
330
757A
330
75D8
102
}
330
D1
100
AcDbSymbolTableRecord
100
AcDbDimStyleTableRecord
  2
IMCADLT
 70
     0
 40
0.0
 41
1.5
 42
1.0
 43
6.0
 44
1.0
 47
0.01
 48
0.02
 73
     0
 74
     0
 77
     3
 78
     8
140
3.0
141
0.0
146
0.45
147
1.5
172
     1
173
     1
174
     1
271
     2
272
     2
284
     8
340
D7
341
E3
342
E3
343
E3
344
E3
  0
DIMSTYLE
105
F97
330
D1
100
AcDbSymbolTableRecord
100
AcDbDimStyleTableRecord
  2
IMAO_1
 70
     0
 40
0.0
 41
1.5
 42
1.0
 43
6.0
 44
1.0
 47
1.0
 71
     1
 73
     0
 74
     0
 77
     1
 78
     8
140
3.0
141
0.0
146
0.5
147
1.5
172
     1
173
     1
174
     1
271
     0
272
     0
340
D7
341
E3
342
E3
343
E3
344
E3
  0
DIMSTYLE
105
F98
330
D1
100
AcDbSymbolTableRecord
100
AcDbDimStyleTableRecord
  2
IMAO_05
 70
     0
 40
0.0
 41
1.5
 42
1.0
 43
6.0
 44
1.0
 47
0.5
 48
0.5
 71
     1
 73
     0
 74
     0
 77
     1
 78
     8
140
3.0
141
0.0
147
1.5
172
     1
173
     1
174
     1
271
     1
272
     1
340
D7
341
E3
342
E3
343
E3
344
E3
  0
DIMSTYLE
105
F99
330
D1
100
AcDbSymbolTableRecord
100
AcDbDimStyleTableRecord
  2
IMAO_NOMAL
 70
     0
 40
0.0
 41
1.5
 42
1.0
 43
6.0
 44
1.0
 47
1.0
 73
     0
 74
     0
 77
     1
 78
     8
140
3.0
141
0.0
146
0.5
147
1.5
172
     1
173
     1
174
     1
271
     1
272
     1
340
D7
341
E3
342
E3
343
E3
344
E3
  0
DIMSTYLE
105
12F0
330
D1
100
AcDbSymbolTableRecord
100
AcDbDimStyleTableRecord
  2
IMAO_07
 70
     0
 40
0.0
 41
1.5
 42
1.0
 43
6.0
 44
1.0
 47
0.7
 48
0.7
 71
     1
 73
     0
 74
     0
 77
     1
 78
     8
140
3.0
141
0.0
147
1.5
172
     1
173
     1
174
     1
271
     1
272
     1
279
     2
284
     8
285
     8
286
     8
340
D7
341
E3
342
E3
343
E3
344
E3
  0
DIMSTYLE
105
136D
330
D1
100
AcDbSymbolTableRecord
100
AcDbDimStyleTableRecord
  2
IMAO_M1
 70
     0
 40
0.0
 41
1.5
 42
1.0
 43
6.0
 44
1.0
 48
1.0
 71
     1
 73
     0
 74
     0
 77
     1
 78
     8
140
3.0
141
0.0
146
0.5
147
1.5
172
     1
173
     1
174
     1
271
     1
272
     1
284
     8
285
     8
286
     8
340
D7
341
E3
342
E3
343
E3
344
E3
  0
DIMSTYLE
105
13E1
330
D1
100
AcDbSymbolTableRecord
100
AcDbDimStyleTableRecord
  2
IMAO_NOMAL_W
 70
     0
 40
0.0
 41
3.0
 42
1.0
 43
6.0
 44
1.0
 47
1.0
 73
     0
 74
     0
 77
     1
 78
     8
140
6.0
141
0.0
146
0.5
147
3.0
172
     1
173
     1
174
     1
271
     1
272
     1
340
D7
341
E3
342
E3
343
E3
344
E3
  0
DIMSTYLE
105
140E
330
D1
100
AcDbSymbolTableRecord
100
AcDbDimStyleTableRecord
  2
IMAO_05_W
 70
     0
 40
0.0
 41
3.0
 42
1.0
 43
6.0
 44
1.0
 47
0.5
 48
0.5
 71
     1
 73
     0
 74
     0
 77
     1
 78
     8
140
6.0
141
0.0
147
3.0
172
     1
173
     1
174
     1
271
     1
272
     1
340
D7
341
E3
342
E3
343
E3
344
E3
  0
DIMSTYLE
105
140F
330
D1
100
AcDbSymbolTableRecord
100
AcDbDimStyleTableRecord
  2
IMAO_1_W
 70
     0
 40
0.0
 41
3.0
 42
1.0
 43
6.0
 44
1.0
 47
1.0
 71
     1
 73
     0
 74
     0
 77
     1
 78
     8
140
6.0
141
0.0
146
0.5
147
3.0
172
     1
173
     1
174
     1
271
     0
272
     0
340
D7
341
E3
342
E3
343
E3
344
E3
  0
DIMSTYLE
105
7441
330
D1
100
AcDbSymbolTableRecord
100
AcDbDimStyleTableRecord
  2
ITM
 70
     0
 41
1.5
 42
1.0
 43
6.0
 44
1.0
 47
495.0
 73
     0
 74
     0
 77
     3
 78
     8
140
3.0
141
0.0
147
0.5
172
     1
173
     1
174
     1
340
F0
  0
DIMSTYLE
105
7629
330
D1
100
AcDbSymbolTableRecord
100
AcDbDimStyleTableRecord
  2
AM_ISO
 70
     0
  4
"
 41
2.5
 42
1.0
 43
10.0
 44
1.0
 47
0.1
 48
0.1
 73
     0
 74
     0
 77
     1
 78
     8
 79
     2
140
3.5
141
0.0
143
0.0393701
146
0.71
147
1.5
172
     1
176
   256
177
   256
178
     2
271
     2
272
     3
274
     4
283
     0
284
     8
340
D7
371
    -1
372
    -1
  0
DIMSTYLE
105
762A
330
D1
100
AcDbSymbolTableRecord
100
AcDbDimStyleTableRecord
  2
AM_ISO$3
 70
     0
  4
"
 41
2.5
 42
1.0
 43
10.0
 44
1.0
 47
0.1
 48
0.1
 73
     0
 77
     1
 78
     8
 79
     2
140
3.5
141
0.0
143
0.0393701
146
0.71
147
1.5
176
   256
177
   256
178
     2
271
     2
272
     3
274
     4
283
     0
284
     8
289
     0
340
D7
371
    -1
372
    -1
  0
DIMSTYLE
105
762B
330
D1
100
AcDbSymbolTableRecord
100
AcDbDimStyleTableRecord
  2
AM_ISO$4
 70
     0
  4
"
 41
2.5
 42
1.0
 43
10.0
 44
1.0
 47
0.1
 48
0.1
 73
     0
 77
     1
 78
     8
 79
     2
140
3.5
141
0.0
143
0.0393701
146
0.71
147
1.5
176
   256
177
   256
178
     2
271
     2
272
     3
274
     4
283
     0
284
     8
289
     0
340
D7
371
    -1
372
    -1
  0
DIMSTYLE
105
762C
330
D1
100
AcDbSymbolTableRecord
100
AcDbDimStyleTableRecord
  2
AM_ISO$6
 70
     0
  4
"
 41
2.5
 42
1.0
 43
10.0
 44
1.0
 47
0.1
 48
0.1
 73
     0
 74
     0
 78
     8
 79
     2
140
3.5
141
0.0
143
0.0393701
146
0.71
147
1.5
172
     1
176
   256
177
   256
178
     2
271
     2
272
     3
274
     4
283
     0
284
     8
340
D7
371
    -1
372
    -1
  0
DIMSTYLE
105
762D
330
D1
100
AcDbSymbolTableRecord
100
AcDbDimStyleTableRecord
  2
AM_ISO$7
 70
     0
  4
"
 41
2.5
 42
1.0
 43
10.0
 44
1.0
 47
0.1
 48
0.1
 73
     0
 74
     0
 77
     1
 78
     8
 79
     2
140
5.0
141
0.0
143
0.0393701
146
0.71
147
1.5
172
     1
176
   256
177
   256
178
     2
271
     2
272
     3
274
     4
283
     0
284
     8
340
D7
371
    -1
372
    -1
  0
DIMSTYLE
105
762E
330
D1
100
AcDbSymbolTableRecord
100
AcDbDimStyleTableRecord
  2
AM_ISO$SF
 70
     0
  4
"
 41
2.5
 42
1.0
 43
10.0
 44
1.0
 47
0.1
 48
0.1
 73
     0
 74
     0
 75
     1
 76
     1
 77
     1
 78
     8
 79
     2
140
3.5
141
0.0
143
0.0393701
146
0.71
147
1.5
172
     1
176
   256
177
   256
178
     2
271
     2
272
     3
274
     4
283
     0
284
     8
340
D7
371
    -1
372
    -1
  0
DIMSTYLE
105
7633
330
D1
100
AcDbSymbolTableRecord
100
AcDbDimStyleTableRecord
  2
AM_ISO$SH
 70
     0
  4
"
 41
2.5
 42
1.0
 43
10.0
 44
1.0
 47
0.1
 48
0.1
 73
     0
 74
     0
 75
     1
 76
     1
 77
     1
 78
     8
 79
     2
140
3.5
141
0.0
143
0.0393701
144
2.0
146
0.71
147
1.5
172
     1
173
     1
176
   256
177
   256
178
     2
271
     2
272
     3
274
     4
283
     0
284
     8
340
D7
343
762F
371
    -1
372
    -1
  0
ENDTAB
  0
TABLE
  2
BLOCK_RECORD
  5
C8
330
0
100
AcDbSymbolTable
 70
    19
  0
BLOCK_RECORD
  5
DF
102
{ACAD_XDICTIONARY
360
7677
102
}
330
C8
100
AcDbSymbolTableRecord
100
AcDbBlockTableRecord
  2
*MODEL_SPACE
340
75E4
  0
BLOCK_RECORD
  5
7768
330
C8
100
AcDbSymbolTableRecord
100
AcDbBlockTableRecord
  2
*Paper_Space
340
7769
  0
BLOCK_RECORD
  5
E3
330
C8
100
AcDbSymbolTableRecord
100
AcDbBlockTableRecord
  2
ARROW
340
0
102
{BLKREFS
331
6FB0
331
6FB1
331
6FC6
331
6FC7
331
6FD2
331
6FD3
331
6FEF
331
6FF0
331
75BD
331
75BE
331
71AF
331
71B0
331
71BB
331
71BC
331
71D4
331
71D5
331
7590
331
7591
331
7396
331
7397
331
752C
331
752D
331
7585
331
7586
331
75D1
331
75D2
102
}
  0
BLOCK_RECORD
  5
145
330
C8
100
AcDbSymbolTableRecord
100
AcDbBlockTableRecord
  2
_OPEN
340
0
  0
BLOCK_RECORD
  5
6F5B
330
C8
100
AcDbSymbolTableRecord
100
AcDbBlockTableRecord
  2
*D2
340
0
  0
BLOCK_RECORD
  5
6F6A
330
C8
100
AcDbSymbolTableRecord
100
AcDbBlockTableRecord
  2
*D3
340
0
  0
BLOCK_RECORD
  5
6FCD
330
C8
100
AcDbSymbolTableRecord
100
AcDbBlockTableRecord
  2
*D4
340
0
  0
BLOCK_RECORD
  5
6FDE
330
C8
100
AcDbSymbolTableRecord
100
AcDbBlockTableRecord
  2
*D5
340
0
  0
BLOCK_RECORD
  5
7192
330
C8
100
AcDbSymbolTableRecord
100
AcDbBlockTableRecord
  2
*D6
340
0
  0
BLOCK_RECORD
  5
71AA
330
C8
100
AcDbSymbolTableRecord
100
AcDbBlockTableRecord
  2
*D7
340
0
  0
BLOCK_RECORD
  5
71B7
330
C8
100
AcDbSymbolTableRecord
100
AcDbBlockTableRecord
  2
*D8
340
0
  0
BLOCK_RECORD
  5
71C3
330
C8
100
AcDbSymbolTableRecord
100
AcDbBlockTableRecord
  2
*D9
340
0
  0
BLOCK_RECORD
  5
7324
330
C8
100
AcDbSymbolTableRecord
100
AcDbBlockTableRecord
  2
*D10
340
0
  0
BLOCK_RECORD
  5
7391
330
C8
100
AcDbSymbolTableRecord
100
AcDbBlockTableRecord
  2
*D11
340
0
  0
BLOCK_RECORD
  5
739E
330
C8
100
AcDbSymbolTableRecord
100
AcDbBlockTableRecord
  2
*D12
340
0
  0
BLOCK_RECORD
  5
7442
330
C8
100
AcDbSymbolTableRecord
100
AcDbBlockTableRecord
  2
S3
340
0
  0
BLOCK_RECORD
  5
756E
330
C8
100
AcDbSymbolTableRecord
100
AcDbBlockTableRecord
  2
*D14
340
0
  0
BLOCK_RECORD
  5
75CC
330
C8
100
AcDbSymbolTableRecord
100
AcDbBlockTableRecord
  2
*D15
340
0
  0
BLOCK_RECORD
  5
762F
330
C8
100
AcDbSymbolTableRecord
100
AcDbBlockTableRecord
  2
GENAXEH
340
0
  0
BLOCK_RECORD
  5
7665
330
C8
100
AcDbSymbolTableRecord
100
AcDbBlockTableRecord
  2
A$C133208E5
340
0
  0
ENDTAB
  0
ENDSEC
  0
SECTION
  2
BLOCKS
  0
BLOCK
  5
10F
330
DF
100
AcDbEntity
  8
0
100
AcDbBlockBegin
  2
*MODEL_SPACE
 70
     0
 10
0.0
 20
0.0
 30
0.0
  3
*MODEL_SPACE
  1

  0
ENDBLK
  5
110
330
DF
100
AcDbEntity
  8
0
100
AcDbBlockEnd
  0
BLOCK
  5
776A
330
7768
100
AcDbEntity
 67
     1
  8
0
100
AcDbBlockBegin
  2
*Paper_Space
 70
     0
 10
0.0
 20
0.0
 30
0.0
  3
*Paper_Space
  1

  0
ENDBLK
  5
776B
330
7768
100
AcDbEntity
 67
     1
  8
0
100
AcDbBlockEnd
  0
BLOCK
  5
1
330
E3
100
AcDbEntity
  8
0
100
AcDbBlockBegin
  2
ARROW
 70
     0
 10
1.0
 20
0.5
 30
0.0
  3
ARROW
  1

  0
LINE
  5
2
330
E3
100
AcDbEntity
  8
0
100
AcDbLine
 10
1.0
 20
0.5
 30
0.0
 11
-0.5000000000000214
 21
0.0980762113533018
 31
0.0
  0
LINE
  5
3
330
E3
100
AcDbEntity
  8
0
100
AcDbLine
 10
0.0
 20
0.5
 30
0.0
 11
1.0
 21
0.5
 31
0.0
  0
LINE
  5
4
330
E3
100
AcDbEntity
  8
0
100
AcDbLine
 10
1.0
 20
0.5
 30
0.0
 11
-0.4999999999999574
 21
0.9019237886467408
 31
0.0
  0
ENDBLK
  5
5
330
E3
100
AcDbEntity
  8
0
100
AcDbBlockEnd
  0
BLOCK
  5
149
330
145
100
AcDbEntity
  8
0
100
AcDbBlockBegin
  2
_OPEN
 70
     0
 10
0.0
 20
0.0
 30
0.0
  3
_OPEN
  1

  0
LINE
  5
146
330
145
100
AcDbEntity
  8
0
  6
ByBlock
 62
     0
100
AcDbLine
 10
-1.0
 20
0.1666666666666666
 30
0.0
 11
0.0
 21
0.0
 31
0.0
  0
LINE
  5
147
330
145
100
AcDbEntity
  8
0
  6
ByBlock
 62
     0
100
AcDbLine
 10
0.0
 20
0.0
 30
0.0
 11
-1.0
 21
-0.1666666666666666
 31
0.0
  0
LINE
  5
148
330
145
100
AcDbEntity
  8
0
  6
ByBlock
 62
     0
100
AcDbLine
 10
0.0
 20
0.0
 30
0.0
 11
-1.0
 21
0.0
 31
0.0
  0
ENDBLK
  5
14A
330
145
100
AcDbEntity
  8
0
100
AcDbBlockEnd
  0
BLOCK
  5
6FAC
330
6F5B
100
AcDbEntity
  8
0
100
AcDbBlockBegin
  2
*D2
 70
     1
 10
0.0
 20
0.0
 30
0.0
  3
*D2
  1

  0
LINE
  5
6FAD
330
6F5B
100
AcDbEntity
  8
0
  6
ByBlock
 62
     0
100
AcDbLine
 10
346.5397601534032
 20
525.59257203
 30
0.0
 11
346.5397601534032
 21
715.9982657750234
 31
0.0
  0
LINE
  5
6FAE
330
6F5B
100
AcDbEntity
  8
0
  6
ByBlock
 62
     0
100
AcDbLine
 10
116.5397601465968
 20
525.59257203
 30
0.0
 11
116.5397601465968
 21
715.9982657750234
 31
0.0
  0
LINE
  5
6FAF
330
6F5B
100
AcDbEntity
  8
0
  6
ByBlock
 62
     0
100
AcDbLine
 10
331.5397601534032
 20
710.9982657750233
 30
0.0
 11
131.5397601465968
 21
710.9982657750233
 31
0.0
  0
INSERT
  5
6FB0
330
6F5B
100
AcDbEntity
  8
0
  6
ByBlock
 62
     0
100
AcDbBlockReference
  2
ARROW
 10
346.5397601534032
 20
710.9982657750233
 30
0.0
 41
15.0
 42
15.0
 43
15.0
  0
INSERT
  5
6FB1
330
6F5B
100
AcDbEntity
  8
0
  6
ByBlock
 62
     0
100
AcDbBlockReference
  2
ARROW
 10
116.5397601465968
 20
710.9982657750233
 30
0.0
 41
15.0
 42
15.0
 43
15.0
 50
180.0
  0
MTEXT
  5
6FB2
330
6F5B
100
AcDbEntity
  8
0
  6
ByBlock
 62
     0
100
AcDbMText
 10
231.5397601534032
 20
725.9982657750233
 30
0.0
 40
15.0
 41
0.0
 71
     5
 72
     1
  1
\A1;230
 73
     1
 44
1.0
1001
ACAD
1000
MTEXTBEGIN
1070
    73
1070
     1
1070
    44
1040
1.0
1070
    74
1070
     0
1000
MTEXTEND
  0
POINT
  5
6FB3
330
6F5B
100
AcDbEntity
  8
DEFPOINTS
  6
ByBlock
 62
     0
100
AcDbPoint
 10
346.5397601534032
 20
520.59257203
 30
0.0
  0
POINT
  5
6FB4
330
6F5B
100
AcDbEntity
  8
DEFPOINTS
  6
ByBlock
 62
     0
100
AcDbPoint
 10
116.5397601465968
 20
520.59257203
 30
0.0
  0
POINT
  5
6FB5
330
6F5B
100
AcDbEntity
  8
DEFPOINTS
  6
ByBlock
 62
     0
100
AcDbPoint
 10
116.5397601465968
 20
710.9982657750233
 30
0.0
  0
ENDBLK
  5
6FB6
330
6F5B
100
AcDbEntity
  8
0
100
AcDbBlockEnd
  0
BLOCK
  5
6FC2
330
6F6A
100
AcDbEntity
  8
0
100
AcDbBlockBegin
  2
*D3
 70
     1
 10
0.0
 20
0.0
 30
0.0
  3
*D3
  1

  0
LINE
  5
6FC3
330
6F6A
100
AcDbEntity
  8
0
  6
ByBlock
 62
     0
100
AcDbLine
 10
118.5397601465968
 20
250.59257203
 30
0.0
 11
118.5397601465968
 21
123.1665318335153
 31
0.0
  0
LINE
  5
6FC4
330
6F6A
100
AcDbEntity
  8
0
  6
ByBlock
 62
     0
100
AcDbLine
 10
344.5397601534032
 20
250.59257203
 30
0.0
 11
344.5397601534032
 21
123.1665318335153
 31
0.0
  0
LINE
  5
6FC5
330
6F6A
100
AcDbEntity
  8
0
  6
ByBlock
 62
     0
100
AcDbLine
 10
133.5397601465968
 20
128.1665318335153
 30
0.0
 11
329.5397601534032
 21
128.1665318335153
 31
0.0
  0
INSERT
  5
6FC6
330
6F6A
100
AcDbEntity
  8
0
  6
ByBlock
 62
     0
100
AcDbBlockReference
  2
ARROW
 10
118.5397601465968
 20
128.1665318335153
 30
0.0
 41
15.0
 42
15.0
 43
15.0
 50
180.0
  0
INSERT
  5
6FC7
330
6F6A
100
AcDbEntity
  8
0
  6
ByBlock
 62
     0
100
AcDbBlockReference
  2
ARROW
 10
344.5397601534032
 20
128.1665318335153
 30
0.0
 41
15.0
 42
15.0
 43
15.0
  0
MTEXT
  5
6FC8
330
6F6A
100
AcDbEntity
  8
0
  6
ByBlock
 62
     0
100
AcDbMText
 10
231.5397601534032
 20
143.1665318335153
 30
0.0
 40
15.0
 41
0.0
 71
     5
 72
     1
  1
\A1;226
 73
     1
 44
1.0
1001
ACAD
1000
MTEXTBEGIN
1070
    73
1070
     1
1070
    44
1040
1.0
1070
    74
1070
     0
1000
MTEXTEND
  0
POINT
  5
6FC9
330
6F6A
100
AcDbEntity
  8
DEFPOINTS
  6
ByBlock
 62
     0
100
AcDbPoint
 10
118.5397601465968
 20
255.59257203
 30
0.0
  0
POINT
  5
6FCA
330
6F6A
100
AcDbEntity
  8
DEFPOINTS
  6
ByBlock
 62
     0
100
AcDbPoint
 10
344.5397601534032
 20
255.59257203
 30
0.0
  0
POINT
  5
6FCB
330
6F6A
100
AcDbEntity
  8
DEFPOINTS
  6
ByBlock
 62
     0
100
AcDbPoint
 10
344.5397601534032
 20
128.1665318335153
 30
0.0
  0
ENDBLK
  5
6FCC
330
6F6A
100
AcDbEntity
  8
0
100
AcDbBlockEnd
  0
BLOCK
  5
6FCE
330
6FCD
100
AcDbEntity
  8
0
100
AcDbBlockBegin
  2
*D4
 70
     1
 10
0.0
 20
0.0
 30
0.0
  3
*D4
  1

  0
LINE
  5
6FCF
330
6FCD
100
AcDbEntity
  8
0
  6
ByBlock
 62
     0
100
AcDbLine
 10
145.53976015
 20
235.59257203
 30
0.0
 11
145.53976015
 21
164.9356575682152
 31
0.0
  0
LINE
  5
6FD0
330
6FCD
100
AcDbEntity
  8
0
  6
ByBlock
 62
     0
100
AcDbLine
 10
317.53976015
 20
235.59257203
 30
0.0
 11
317.53976015
 21
164.9356575682152
 31
0.0
  0
LINE
  5
6FD1
330
6FCD
100
AcDbEntity
  8
0
  6
ByBlock
 62
     0
100
AcDbLine
 10
160.53976015
 20
169.9356575682152
 30
0.0
 11
302.53976015
 21
169.9356575682152
 31
0.0
  0
INSERT
  5
6FD2
330
6FCD
100
AcDbEntity
  8
0
  6
ByBlock
 62
     0
100
AcDbBlockReference
  2
ARROW
 10
145.53976015
 20
169.9356575682152
 30
0.0
 41
15.0
 42
15.0
 43
15.0
 50
180.0
  0
INSERT
  5
6FD3
330
6FCD
100
AcDbEntity
  8
0
  6
ByBlock
 62
     0
100
AcDbBlockReference
  2
ARROW
 10
317.53976015
 20
169.9356575682152
 30
0.0
 41
15.0
 42
15.0
 43
15.0
  0
MTEXT
  5
6FD4
330
6FCD
100
AcDbEntity
  8
0
  6
ByBlock
 62
     0
100
AcDbMText
 10
228.6500978936319
 20
184.9356575682152
 30
0.0
 40
15.0
 41
0.0
 71
     5
 72
     1
  1
\A1;172
 73
     1
 44
1.0
1001
ACAD
1000
MTEXTBEGIN
1070
    73
1070
     1
1070
    44
1040
1.0
1070
    74
1070
     0
1000
MTEXTEND
  0
POINT
  5
6FD5
330
6FCD
100
AcDbEntity
  8
DEFPOINTS
  6
ByBlock
 62
     0
100
AcDbPoint
 10
145.53976015
 20
240.59257203
 30
0.0
  0
POINT
  5
6FD6
330
6FCD
100
AcDbEntity
  8
DEFPOINTS
  6
ByBlock
 62
     0
100
AcDbPoint
 10
317.53976015
 20
240.5925720299999
 30
0.0
  0
POINT
  5
6FD7
330
6FCD
100
AcDbEntity
  8
DEFPOINTS
  6
ByBlock
 62
     0
100
AcDbPoint
 10
317.53976015
 20
169.9356575682152
 30
0.0
  0
ENDBLK
  5
6FD8
330
6FCD
100
AcDbEntity
  8
0
100
AcDbBlockEnd
  0
BLOCK
  5
6FEB
330
6FDE
100
AcDbEntity
  8
0
100
AcDbBlockBegin
  2
*D5
 70
     1
 10
0.0
 20
0.0
 30
0.0
  3
*D5
  1

  0
LINE
  5
6FEC
330
6FDE
100
AcDbEntity
  8
0
  6
ByBlock
 62
     0
100
AcDbLine
 10
132.2621349916156
 20
240.59257203
 30
0.0
 11
-16.28156915916135
 21
240.59257203
 31
0.0
  0
LINE
  5
6FED
330
6FDE
100
AcDbEntity
  8
0
  6
ByBlock
 62
     0
100
AcDbLine
 10
125.6336074576313
 20
632.592572028571
 30
0.0
 11
-16.28156915916132
 21
632.592572028571
 31
0.0
  0
LINE
  5
6FEE
330
6FDE
100
AcDbEntity
  8
0
  6
ByBlock
 62
     0
100
AcDbLine
 10
-11.28156915916134
 20
255.59257203
 30
0.0
 11
-11.28156915916134
 21
617.5925720285711
 31
0.0
  0
INSERT
  5
6FEF
330
6FDE
100
AcDbEntity
  8
0
  6
ByBlock
 62
     0
100
AcDbBlockReference
  2
ARROW
 10
-11.28156915916135
 20
240.59257203
 30
0.0
 41
15.0
 42
15.0
 43
15.0
 50
270.0
  0
INSERT
  5
6FF0
330
6FDE
100
AcDbEntity
  8
0
  6
ByBlock
 62
     0
100
AcDbBlockReference
  2
ARROW
 10
-11.28156915916132
 20
632.592572028571
 30
0.0
 41
15.0
 42
15.0
 43
15.0
 50
90.0
  0
MTEXT
  5
6FF1
330
6FDE
100
AcDbEntity
  8
0
  6
ByBlock
 62
     0
100
AcDbMText
 10
-26.28156915916134
 20
448.1019807961786
 30
0.0
 40
15.0
 41
0.0
 71
     5
 72
     1
  1
\A1;392
 11
0.0000000000000001
 21
1.0
 31
0.0
 73
     1
 44
1.0
1001
ACAD
1000
MTEXTBEGIN
1070
    73
1070
     1
1070
    44
1040
1.0
1070
    74
1070
     0
1000
MTEXTEND
  0
POINT
  5
6FF2
330
6FDE
100
AcDbEntity
  8
DEFPOINTS
  6
ByBlock
 62
     0
100
AcDbPoint
 10
137.2621349916157
 20
240.59257203
 30
0.0
  0
POINT
  5
6FF3
330
6FDE
100
AcDbEntity
  8
DEFPOINTS
  6
ByBlock
 62
     0
100
AcDbPoint
 10
130.6336074576313
 20
632.592572028571
 30
0.0
  0
POINT
  5
6FF4
330
6FDE
100
AcDbEntity
  8
DEFPOINTS
  6
ByBlock
 62
     0
100
AcDbPoint
 10
-11.28156915916132
 20
632.592572028571
 30
0.0
  0
ENDBLK
  5
6FF5
330
6FDE
100
AcDbEntity
  8
0
100
AcDbBlockEnd
  0
BLOCK
  5
75B9
330
7192
100
AcDbEntity
  8
0
100
AcDbBlockBegin
  2
*D6
 70
     1
 10
0.0
 20
0.0
 30
0.0
  3
*D6
  1

  0
LINE
  5
75BA
330
7192
100
AcDbEntity
  8
0
  6
ByBlock
 62
     0
100
AcDbLine
 10
1120.27990409
 20
298.59257203
 30
0.0
 11
1161.406214800403
 21
298.59257203
 31
0.0
  0
LINE
  5
75BB
330
7192
100
AcDbEntity
  8
0
  6
ByBlock
 62
     0
100
AcDbLine
 10
976.6634710183845
 20
240.59257203
 30
0.0
 11
1161.406214800403
 21
240.59257203
 31
0.0
  0
LINE
  5
75BC
330
7192
100
AcDbEntity
  8
0
  6
ByBlock
 62
     0
100
AcDbLine
 10
1156.406214800403
 20
283.59257203
 30
0.0
 11
1156.406214800403
 21
255.59257203
 31
0.0
  0
INSERT
  5
75BD
330
7192
100
AcDbEntity
  8
0
  6
ByBlock
 62
     0
100
AcDbBlockReference
  2
ARROW
 10
1156.406214800403
 20
298.59257203
 30
0.0
 41
15.0
 42
15.0
 43
15.0
 50
90.0
  0
INSERT
  5
75BE
330
7192
100
AcDbEntity
  8
0
  6
ByBlock
 62
     0
100
AcDbBlockReference
  2
ARROW
 10
1156.406214800403
 20
240.59257203
 30
0.0
 41
15.0
 42
15.0
 43
15.0
 50
270.0
  0
MTEXT
  5
75BF
330
7192
100
AcDbEntity
  8
0
  6
ByBlock
 62
     0
100
AcDbMText
 10
1141.406214800404
 20
269.59257203
 30
0.0
 40
15.0
 41
0.0
 71
     5
 72
     1
  1
\A1;58
 11
0.0000000000000001
 21
1.0
 31
0.0
 73
     1
 44
1.0
1001
ACAD
1000
MTEXTBEGIN
1070
    73
1070
     1
1070
    44
1040
1.0
1070
    74
1070
     0
1000
MTEXTEND
  0
POINT
  5
75C0
330
7192
100
AcDbEntity
  8
DEFPOINTS
  6
ByBlock
 62
     0
100
AcDbPoint
 10
1115.27990409
 20
298.59257203
 30
0.0
  0
POINT
  5
75C1
330
7192
100
AcDbEntity
  8
DEFPOINTS
  6
ByBlock
 62
     0
100
AcDbPoint
 10
971.6634710183845
 20
240.59257203
 30
0.0
  0
POINT
  5
75C2
330
7192
100
AcDbEntity
  8
DEFPOINTS
  6
ByBlock
 62
     0
100
AcDbPoint
 10
1156.406214800403
 20
240.59257203
 30
0.0
  0
ENDBLK
  5
75C3
330
7192
100
AcDbEntity
  8
0
100
AcDbBlockEnd
  0
BLOCK
  5
71AB
330
71AA
100
AcDbEntity
  8
0
100
AcDbBlockBegin
  2
*D7
 70
     1
 10
0.0
 20
0.0
 30
0.0
  3
*D7
  1

  0
LINE
  5
71AC
330
71AA
100
AcDbEntity
  8
0
  6
ByBlock
 62
     0
100
AcDbLine
 10
778.38584586
 20
235.59257203
 30
0.0
 11
778.38584586
 21
166.1650069748243
 31
0.0
  0
LINE
  5
71AD
330
71AA
100
AcDbEntity
  8
0
  6
ByBlock
 62
     0
100
AcDbLine
 10
963.38584586
 20
235.59257203
 30
0.0
 11
963.38584586
 21
166.1650069748243
 31
0.0
  0
LINE
  5
71AE
330
71AA
100
AcDbEntity
  8
0
  6
ByBlock
 62
     0
100
AcDbLine
 10
793.38584586
 20
171.1650069748243
 30
0.0
 11
948.3858458600002
 21
171.1650069748243
 31
0.0
  0
INSERT
  5
71AF
330
71AA
100
AcDbEntity
  8
0
  6
ByBlock
 62
     0
100
AcDbBlockReference
  2
ARROW
 10
778.38584586
 20
171.1650069748243
 30
0.0
 41
15.0
 42
15.0
 43
15.0
 50
180.0
  0
INSERT
  5
71B0
330
71AA
100
AcDbEntity
  8
0
  6
ByBlock
 62
     0
100
AcDbBlockReference
  2
ARROW
 10
963.38584586
 20
171.1650069748243
 30
0.0
 41
15.0
 42
15.0
 43
15.0
  0
MTEXT
  5
71B1
330
71AA
100
AcDbEntity
  8
0
  6
ByBlock
 62
     0
100
AcDbMText
 10
866.9942120866135
 20
186.1650069748243
 30
0.0
 40
15.0
 41
0.0
 71
     5
 72
     1
  1
\A1;185
 73
     1
 44
1.0
1001
ACAD
1000
MTEXTBEGIN
1070
    73
1070
     1
1070
    44
1040
1.0
1070
    74
1070
     0
1000
MTEXTEND
  0
POINT
  5
71B2
330
71AA
100
AcDbEntity
  8
DEFPOINTS
  6
ByBlock
 62
     0
100
AcDbPoint
 10
778.38584586
 20
240.59257203
 30
0.0
  0
POINT
  5
71B3
330
71AA
100
AcDbEntity
  8
DEFPOINTS
  6
ByBlock
 62
     0
100
AcDbPoint
 10
963.38584586
 20
240.59257203
 30
0.0
  0
POINT
  5
71B4
330
71AA
100
AcDbEntity
  8
DEFPOINTS
  6
ByBlock
 62
     0
100
AcDbPoint
 10
963.38584586
 20
171.1650069748243
 30
0.0
  0
ENDBLK
  5
71B5
330
71AA
100
AcDbEntity
  8
0
100
AcDbBlockEnd
  0
BLOCK
  5
71B8
330
71B7
100
AcDbEntity
  8
0
100
AcDbBlockBegin
  2
*D8
 70
     1
 10
0.0
 20
0.0
 30
0.0
  3
*D8
  1

  0
LINE
  5
71B9
330
71B7
100
AcDbEntity
  8
0
  6
ByBlock
 62
     0
100
AcDbLine
 10
724.3858458600001
 20
248.59257203
 30
0.0
 11
724.3858458600001
 21
166.1650069748243
 31
0.0
  0
LINE
  5
71BA
330
71B7
100
AcDbEntity
  8
0
  6
ByBlock
 62
     0
100
AcDbLine
 10
763.38584586
 20
171.1650069748243
 30
0.0
 11
739.3858458600001
 21
171.1650069748243
 31
0.0
  0
INSERT
  5
71BB
330
71B7
100
AcDbEntity
  8
0
  6
ByBlock
 62
     0
100
AcDbBlockReference
  2
ARROW
 10
778.38584586
 20
171.1650069748243
 30
0.0
 41
15.0
 42
15.0
 43
15.0
  0
INSERT
  5
71BC
330
71B7
100
AcDbEntity
  8
0
  6
ByBlock
 62
     0
100
AcDbBlockReference
  2
ARROW
 10
724.3858458600001
 20
171.1650069748243
 30
0.0
 41
15.0
 42
15.0
 43
15.0
 50
180.0
  0
MTEXT
  5
71BD
330
71B7
100
AcDbEntity
  8
0
  6
ByBlock
 62
     0
100
AcDbMText
 10
751.38584586
 20
186.1650069748243
 30
0.0
 40
15.0
 41
0.0
 71
     5
 72
     1
  1
\A1;54
 73
     1
 44
1.0
1001
ACAD
1000
MTEXTBEGIN
1070
    73
1070
     1
1070
    44
1040
1.0
1070
    74
1070
     0
1000
MTEXTEND
  0
POINT
  5
71BE
330
71B7
100
AcDbEntity
  8
DEFPOINTS
  6
ByBlock
 62
     0
100
AcDbPoint
 10
778.38584586
 20
240.59257203
 30
0.0
  0
POINT
  5
71BF
330
71B7
100
AcDbEntity
  8
DEFPOINTS
  6
ByBlock
 62
     0
100
AcDbPoint
 10
724.3858458600001
 20
253.59257203
 30
0.0
  0
POINT
  5
71C0
330
71B7
100
AcDbEntity
  8
DEFPOINTS
  6
ByBlock
 62
     0
100
AcDbPoint
 10
724.3858458600001
 20
171.1650069748243
 30
0.0
  0
ENDBLK
  5
71C1
330
71B7
100
AcDbEntity
  8
0
100
AcDbBlockEnd
  0
BLOCK
  5
71D0
330
71C3
100
AcDbEntity
  8
0
100
AcDbBlockBegin
  2
*D9
 70
     1
 10
0.0
 20
0.0
 30
0.0
  3
*D9
  1

  0
LINE
  5
71D1
330
71C3
100
AcDbEntity
  8
0
  6
ByBlock
 62
     0
100
AcDbLine
 10
724.3858458600001
 20
248.59257203
 30
0.0
 11
724.3858458600001
 21
136.1650069748243
 31
0.0
  0
LINE
  5
71D2
330
71C3
100
AcDbEntity
  8
0
  6
ByBlock
 62
     0
100
AcDbLine
 10
988.38584586
 20
246.59257203
 30
0.0
 11
988.38584586
 21
136.1650069748243
 31
0.0
  0
LINE
  5
71D3
330
71C3
100
AcDbEntity
  8
0
  6
ByBlock
 62
     0
100
AcDbLine
 10
739.3858458600001
 20
141.1650069748243
 30
0.0
 11
973.38584586
 21
141.1650069748243
 31
0.0
  0
INSERT
  5
71D4
330
71C3
100
AcDbEntity
  8
0
  6
ByBlock
 62
     0
100
AcDbBlockReference
  2
ARROW
 10
724.3858458600001
 20
141.1650069748243
 30
0.0
 41
15.0
 42
15.0
 43
15.0
 50
180.0
  0
INSERT
  5
71D5
330
71C3
100
AcDbEntity
  8
0
  6
ByBlock
 62
     0
100
AcDbBlockReference
  2
ARROW
 10
988.38584586
 20
141.1650069748243
 30
0.0
 41
15.0
 42
15.0
 43
15.0
  0
MTEXT
  5
71D6
330
71C3
100
AcDbEntity
  8
0
  6
ByBlock
 62
     0
100
AcDbMText
 10
856.38584586
 20
156.1650069748243
 30
0.0
 40
15.0
 41
0.0
 71
     5
 72
     1
  1
\A1;264
 73
     1
 44
1.0
1001
ACAD
1000
MTEXTBEGIN
1070
    73
1070
     1
1070
    44
1040
1.0
1070
    74
1070
     0
1000
MTEXTEND
  0
POINT
  5
71D7
330
71C3
100
AcDbEntity
  8
DEFPOINTS
  6
ByBlock
 62
     0
100
AcDbPoint
 10
724.3858458600001
 20
253.59257203
 30
0.0
  0
POINT
  5
71D8
330
71C3
100
AcDbEntity
  8
DEFPOINTS
  6
ByBlock
 62
     0
100
AcDbPoint
 10
988.38584586
 20
251.59257203
 30
0.0
  0
POINT
  5
71D9
330
71C3
100
AcDbEntity
  8
DEFPOINTS
  6
ByBlock
 62
     0
100
AcDbPoint
 10
988.38584586
 20
141.1650069748243
 30
0.0
  0
ENDBLK
  5
71DA
330
71C3
100
AcDbEntity
  8
0
100
AcDbBlockEnd
  0
BLOCK
  5
758C
330
7324
100
AcDbEntity
  8
0
100
AcDbBlockBegin
  2
*D10
 70
     1
 10
0.0
 20
0.0
 30
0.0
  3
*D10
  1

  0
LINE
  5
758D
330
7324
100
AcDbEntity
  8
0
  6
ByBlock
 62
     0
100
AcDbLine
 10
988.25415750212
 20
584.0411439666803
 30
0.0
 11
988.25415750212
 21
713.6456688000435
 31
0.0
  0
LINE
  5
758E
330
7324
100
AcDbEntity
  8
0
  6
ByBlock
 62
     0
100
AcDbLine
 10
713.2541575021199
 20
547.4862712345635
 30
0.0
 11
713.2541575021199
 21
713.6456688000435
 31
0.0
  0
LINE
  5
758F
330
7324
100
AcDbEntity
  8
0
  6
ByBlock
 62
     0
100
AcDbLine
 10
973.2541575021199
 20
708.6456688000435
 30
0.0
 11
728.2541575021199
 21
708.6456688000435
 31
0.0
  0
INSERT
  5
7590
330
7324
100
AcDbEntity
  8
0
  6
ByBlock
 62
     0
100
AcDbBlockReference
  2
ARROW
 10
988.25415750212
 20
708.6456688000435
 30
0.0
 41
15.0
 42
15.0
 43
15.0
  0
INSERT
  5
7591
330
7324
100
AcDbEntity
  8
0
  6
ByBlock
 62
     0
100
AcDbBlockReference
  2
ARROW
 10
713.2541575021199
 20
708.6456688000435
 30
0.0
 41
15.0
 42
15.0
 43
15.0
 50
180.0
  0
MTEXT
  5
7592
330
7324
100
AcDbEntity
  8
0
  6
ByBlock
 62
     0
100
AcDbMText
 10
858.964845492987
 20
723.6456688000434
 30
0.0
 40
15.0
 41
0.0
 71
     5
 72
     1
  1
\A1;275
 73
     1
 44
1.0
1001
ACAD
1000
MTEXTBEGIN
1070
    73
1070
     1
1070
    44
1040
1.0
1070
    74
1070
     0
1000
MTEXTEND
  0
POINT
  5
7593
330
7324
100
AcDbEntity
  8
DEFPOINTS
  6
ByBlock
 62
     0
100
AcDbPoint
 10
988.25415750212
 20
579.0411439666804
 30
0.0
  0
POINT
  5
7594
330
7324
100
AcDbEntity
  8
DEFPOINTS
  6
ByBlock
 62
     0
100
AcDbPoint
 10
713.2541575021199
 20
542.4862712345635
 30
0.0
  0
POINT
  5
7595
330
7324
100
AcDbEntity
  8
DEFPOINTS
  6
ByBlock
 62
     0
100
AcDbPoint
 10
713.2541575021199
 20
708.6456688000435
 30
0.0
  0
ENDBLK
  5
7596
330
7324
100
AcDbEntity
  8
0
100
AcDbBlockEnd
  0
BLOCK
  5
7392
330
7391
100
AcDbEntity
  8
0
100
AcDbBlockBegin
  2
*D11
 70
     1
 10
0.0
 20
0.0
 30
0.0
  3
*D11
  1

  0
LINE
  5
7393
330
7391
100
AcDbEntity
  8
0
  6
ByBlock
 62
     0
100
AcDbLine
 10
1058.31648416
 20
1100.58320728
 30
0.0
 11
1162.987967172059
 21
1100.58320728
 31
0.0
  0
LINE
  5
7394
330
7391
100
AcDbEntity
  8
0
  6
ByBlock
 62
     0
100
AcDbLine
 10
1120.14821573
 20
1040.58320728
 30
0.0
 11
1162.987967172059
 21
1040.58320728
 31
0.0
  0
LINE
  5
7395
330
7391
100
AcDbEntity
  8
0
  6
ByBlock
 62
     0
100
AcDbLine
 10
1157.987967172059
 20
1085.58320728
 30
0.0
 11
1157.987967172059
 21
1055.58320728
 31
0.0
  0
INSERT
  5
7396
330
7391
100
AcDbEntity
  8
0
  6
ByBlock
 62
     0
100
AcDbBlockReference
  2
ARROW
 10
1157.987967172059
 20
1100.58320728
 30
0.0
 41
15.0
 42
15.0
 43
15.0
 50
90.0
  0
INSERT
  5
7397
330
7391
100
AcDbEntity
  8
0
  6
ByBlock
 62
     0
100
AcDbBlockReference
  2
ARROW
 10
1157.987967172059
 20
1040.58320728
 30
0.0
 41
15.0
 42
15.0
 43
15.0
 50
270.0
  0
MTEXT
  5
7398
330
7391
100
AcDbEntity
  8
0
  6
ByBlock
 62
     0
100
AcDbMText
 10
1142.987967172059
 20
1071.956596163449
 30
0.0
 40
15.0
 41
0.0
 71
     5
 72
     1
  1
\A1;60
 11
0.0000000000000001
 21
1.0
 31
0.0
 73
     1
 44
1.0
1001
ACAD
1000
MTEXTBEGIN
1070
    73
1070
     1
1070
    44
1040
1.0
1070
    74
1070
     0
1000
MTEXTEND
  0
POINT
  5
7399
330
7391
100
AcDbEntity
  8
DEFPOINTS
  6
ByBlock
 62
     0
100
AcDbPoint
 10
1053.31648416
 20
1100.58320728
 30
0.0
  0
POINT
  5
739A
330
7391
100
AcDbEntity
  8
DEFPOINTS
  6
ByBlock
 62
     0
100
AcDbPoint
 10
1115.14821573
 20
1040.58320728
 30
0.0
  0
POINT
  5
739B
330
7391
100
AcDbEntity
  8
DEFPOINTS
  6
ByBlock
 62
     0
100
AcDbPoint
 10
1157.987967172059
 20
1040.58320728
 30
0.0
  0
ENDBLK
  5
739C
330
7391
100
AcDbEntity
  8
0
100
AcDbBlockEnd
  0
BLOCK
  5
7528
330
739E
100
AcDbEntity
  8
0
100
AcDbBlockBegin
  2
*D12
 70
     1
 10
0.0
 20
0.0
 30
0.0
  3
*D12
  1

  0
LINE
  5
7529
330
739E
100
AcDbEntity
  8
0
  6
ByBlock
 62
     0
100
AcDbLine
 10
988.2541575000001
 20
898.3924935710723
 30
0.0
 11
988.2541575000001
 21
828.8371008979421
 31
0.0
  0
LINE
  5
752A
330
739E
100
AcDbEntity
  8
0
  6
ByBlock
 62
     0
100
AcDbLine
 10
1115.14821573
 20
925.8924935710725
 30
0.0
 11
1115.14821573
 21
828.8371008979421
 31
0.0
  0
LINE
  5
752B
330
739E
100
AcDbEntity
  8
0
  6
ByBlock
 62
     0
100
AcDbLine
 10
1003.2541575
 20
833.837100897942
 30
0.0
 11
1100.14821573
 21
833.837100897942
 31
0.0
  0
INSERT
  5
752C
330
739E
100
AcDbEntity
  8
0
  6
ByBlock
 62
     0
100
AcDbBlockReference
  2
ARROW
 10
988.2541575000001
 20
833.837100897942
 30
0.0
 41
15.0
 42
15.0
 43
15.0
 50
180.0
  0
INSERT
  5
752D
330
739E
100
AcDbEntity
  8
0
  6
ByBlock
 62
     0
100
AcDbBlockReference
  2
ARROW
 10
1115.14821573
 20
833.837100897942
 30
0.0
 41
15.0
 42
15.0
 43
15.0
  0
MTEXT
  5
752E
330
739E
100
AcDbEntity
  8
0
  6
ByBlock
 62
     0
100
AcDbMText
 10
1053.077065996053
 20
848.837100897942
 30
0.0
 40
15.0
 41
0.0
 71
     5
 72
     1
  1
\A1;約2200
 73
     1
 44
1.0
1001
ACAD
1000
MTEXTBEGIN
1070
    73
1070
     1
1070
    44
1040
1.0
1070
    74
1070
     0
1000
MTEXTEND
  0
POINT
  5
752F
330
739E
100
AcDbEntity
  8
DEFPOINTS
  6
ByBlock
 62
     0
100
AcDbPoint
 10
988.2541575000001
 20
903.3924935710722
 30
0.0
  0
POINT
  5
7530
330
739E
100
AcDbEntity
  8
DEFPOINTS
  6
ByBlock
 62
     0
100
AcDbPoint
 10
1115.14821573
 20
930.8924935710724
 30
0.0
  0
POINT
  5
7531
330
739E
100
AcDbEntity
  8
DEFPOINTS
  6
ByBlock
 62
     0
100
AcDbPoint
 10
1115.14821573
 20
833.837100897942
 30
0.0
  0
ENDBLK
  5
7532
330
739E
100
AcDbEntity
  8
0
100
AcDbBlockEnd
  0
BLOCK
  5
750E
330
7442
100
AcDbEntity
  8
0
100
AcDbBlockBegin
  2
S3
 70
     0
 10
0.0
 20
0.0
 30
0.0
  3
S3
  1

  0
LINE
  5
7443
330
7442
100
AcDbEntity
  8
WAKU
100
AcDbLine
 10
3.0
 20
269.0
 30
0.0
 11
384.0
 21
269.0
 31
0.0
  0
LINE
  5
7444
330
7442
100
AcDbEntity
  8
WAKU
100
AcDbLine
 10
384.0
 20
6.0
 30
0.0
 11
3.0
 21
6.0
 31
0.0
  0
LINE
  5
7445
330
7442
100
AcDbEntity
  8
WAKU
100
AcDbLine
 10
3.0
 20
6.0
 30
0.0
 11
3.0
 21
269.0
 31
0.0
  0
TEXT
  5
7446
330
7442
100
AcDbEntity
  8
TEXT
100
AcDbText
 10
72.09999999999999
 20
7.5
 30
0.0
 40
3.0
  1
 年 月 日
  7
K
 72
     4
 11
80.5
 21
9.0
 31
0.0
100
AcDbText
  0
LINE
  5
7447
330
7442
100
AcDbEntity
  8
SUNPOU
100
AcDbLine
 10
106.0
 20
12.0
 30
0.0
 11
13.0
 21
12.0
 31
0.0
  0
LINE
  5
7448
330
7442
100
AcDbEntity
  8
SUNPOU
100
AcDbLine
 10
13.0
 20
18.0
 30
0.0
 11
106.0
 21
18.0
 31
0.0
  0
LINE
  5
7449
330
7442
100
AcDbEntity
  8
SUNPOU
100
AcDbLine
 10
106.0
 20
24.0
 30
0.0
 11
13.0
 21
24.0
 31
0.0
  0
LINE
  5
744A
330
7442
100
AcDbEntity
  8
SUNPOU
100
AcDbLine
 10
13.0
 20
12.0
 30
0.0
 11
106.0
 21
12.0
 31
0.0
  0
LINE
  5
744B
330
7442
100
AcDbEntity
  8
SUNPOU
100
AcDbLine
 10
106.0
 20
18.0
 30
0.0
 11
13.0
 21
18.0
 31
0.0
  0
LINE
  5
744C
330
7442
100
AcDbEntity
  8
SUNPOU
100
AcDbLine
 10
13.0
 20
24.0
 30
0.0
 11
106.0
 21
24.0
 31
0.0
  0
LINE
  5
744D
330
7442
100
AcDbEntity
  8
SUNPOU
100
AcDbLine
 10
106.0
 20
30.0
 30
0.0
 11
3.0
 21
30.0
 31
0.0
  0
TEXT
  5
744E
330
7442
100
AcDbEntity
  8
TEXT
100
AcDbText
 10
4.299999999999999
 20
7.5
 30
0.0
 40
3.0
  1
記号
  7
K
 72
     4
 11
7.5
 21
9.0
 31
0.0
100
AcDbText
  0
LINE
  5
744F
330
7442
100
AcDbEntity
  8
SUNPOU
100
AcDbLine
 10
13.0
 20
6.0
 30
0.0
 11
13.0
 21
30.0
 31
0.0
  0
LINE
  5
7450
330
7442
100
AcDbEntity
  8
SUNPOU
100
AcDbLine
 10
12.0
 20
30.0
 30
0.0
 11
12.0
 21
6.0
 31
0.0
  0
LINE
  5
7451
330
7442
100
AcDbEntity
  8
SUNPOU
100
AcDbLine
 10
12.0
 20
6.0
 30
0.0
 11
12.0
 21
30.0
 31
0.0
  0
LINE
  5
7452
330
7442
100
AcDbEntity
  8
SUNPOU
100
AcDbLine
 10
13.0
 20
30.0
 30
0.0
 11
13.0
 21
6.0
 31
0.0
  0
LINE
  5
7453
330
7442
100
AcDbEntity
  8
SUNPOU
100
AcDbLine
 10
7.5
 20
24.0
 30
0.0
 11
3.0
 21
18.0
 31
0.0
  0
LINE
  5
7454
330
7442
100
AcDbEntity
  8
SUNPOU
100
AcDbLine
 10
7.5
 20
24.0
 30
0.0
 11
12.0
 21
18.0
 31
0.0
  0
LINE
  5
7455
330
7442
100
AcDbEntity
  8
SUNPOU
100
AcDbLine
 10
7.5
 20
18.0
 30
0.0
 11
3.0
 21
12.0
 31
0.0
  0
LINE
  5
7456
330
7442
100
AcDbEntity
  8
SUNPOU
100
AcDbLine
 10
3.0
 20
18.0
 30
0.0
 11
12.0
 21
18.0
 31
0.0
  0
LINE
  5
7457
330
7442
100
AcDbEntity
  8
SUNPOU
100
AcDbLine
 10
12.0
 20
12.0
 30
0.0
 11
3.0
 21
12.0
 31
0.0
  0
LINE
  5
7458
330
7442
100
AcDbEntity
  8
SUNPOU
100
AcDbLine
 10
12.0
 20
12.0
 30
0.0
 11
3.0
 21
12.0
 31
0.0
  0
LINE
  5
7459
330
7442
100
AcDbEntity
  8
SUNPOU
100
AcDbLine
 10
12.0
 20
18.0
 30
0.0
 11
3.0
 21
18.0
 31
0.0
  0
LINE
  5
745A
330
7442
100
AcDbEntity
  8
SUNPOU
100
AcDbLine
 10
7.5
 20
18.0
 30
0.0
 11
12.0
 21
12.0
 31
0.0
  0
LINE
  5
745B
330
7442
100
AcDbEntity
  8
SUNPOU
100
AcDbLine
 10
7.5
 20
30.0
 30
0.0
 11
3.0
 21
24.0
 31
0.0
  0
LINE
  5
745C
330
7442
100
AcDbEntity
  8
SUNPOU
100
AcDbLine
 10
12.0
 20
24.0
 30
0.0
 11
3.0
 21
24.0
 31
0.0
  0
LINE
  5
745D
330
7442
100
AcDbEntity
  8
SUNPOU
100
AcDbLine
 10
12.0
 20
24.0
 30
0.0
 11
3.0
 21
24.0
 31
0.0
  0
LINE
  5
745E
330
7442
100
AcDbEntity
  8
SUNPOU
100
AcDbLine
 10
12.0
 20
24.0
 30
0.0
 11
7.5
 21
30.0
 31
0.0
  0
TEXT
  5
745F
330
7442
100
AcDbEntity
  8
TEXT
100
AcDbText
 10
56.2
 20
7.5
 30
0.0
 40
3.0
  1
設変番号
  7
K
 72
     4
 11
63.0
 21
9.0
 31
0.0
100
AcDbText
  0
TEXT
  5
7460
330
7442
100
AcDbEntity
  8
TEXT
100
AcDbText
 10
20.9
 20
7.5
 30
0.0
 40
3.0
  1
変更内容・理由
  7
K
 72
     4
 11
33.0
 21
9.0
 31
0.0
100
AcDbText
  0
LINE
  5
7461
330
7442
100
AcDbEntity
  8
SUNPOU
100
AcDbLine
 10
73.0
 20
6.0
 30
0.0
 11
73.0
 21
30.0
 31
0.0
  0
LINE
  5
7462
330
7442
100
AcDbEntity
  8
SUNPOU
100
AcDbLine
 10
53.0
 20
30.0
 30
0.0
 11
53.0
 21
6.0
 31
0.0
  0
LINE
  5
7463
330
7442
100
AcDbEntity
  8
WAKU
100
AcDbLine
 10
3.0
 20
139.0
 30
0.0
 11
0.0
 21
139.0
 31
0.0
  0
TEXT
  5
7464
330
7442
100
AcDbEntity
  8
TEXT
100
AcDbText
 10
98.40000000000001
 20
7.5
 30
0.0
 40
3.0
  1
検図
  7
K
 72
     4
 11
101.5
 21
9.0
 31
0.0
100
AcDbText
  0
TEXT
  5
7465
330
7442
100
AcDbEntity
  8
TEXT
100
AcDbText
 10
89.36428571428571
 20
7.5
 30
0.0
 40
3.0
  1
担当
  7
K
 72
     4
 11
92.5
 21
9.0
 31
0.0
100
AcDbText
  0
LINE
  5
7466
330
7442
100
AcDbEntity
  8
SUNPOU
100
AcDbLine
 10
106.0
 20
30.0
 30
0.0
 11
106.0
 21
6.0
 31
0.0
  0
LINE
  5
7467
330
7442
100
AcDbEntity
  8
SUNPOU
100
AcDbLine
 10
97.0
 20
6.0
 30
0.0
 11
97.0
 21
30.0
 31
0.0
  0
LINE
  5
7468
330
7442
100
AcDbEntity
  8
SUNPOU
100
AcDbLine
 10
88.0
 20
30.0
 30
0.0
 11
88.0
 21
6.0
 31
0.0
  0
LINE
  5
7469
330
7442
100
AcDbEntity
  8
WAKU
100
AcDbLine
 10
63.0
 20
279.0
 30
0.0
 11
3.0
 21
279.0
 31
0.0
  0
LINE
  5
746A
330
7442
100
AcDbEntity
  8
WAKU
100
AcDbLine
 10
3.0
 20
269.0
 30
0.0
 11
3.0
 21
279.0
 31
0.0
  0
LINE
  5
746B
330
7442
100
AcDbEntity
  8
SUNPOU
100
AcDbLine
 10
51.0
 20
269.0
 30
0.0
 11
51.0
 21
279.0
 31
0.0
  0
TEXT
  5
746C
330
7442
100
AcDbEntity
  8
TEXT
100
AcDbText
 10
60.1842957707867
 20
275.4965050308843
 30
0.0
 40
3.0
  1
図番
 50
180.0
  7
K
 72
     4
 11
56.88429577078671
 21
273.9965050308843
 31
0.0
100
AcDbText
  0
LINE
  5
746D
330
7442
100
AcDbEntity
  8
WAKU
100
AcDbLine
 10
63.0
 20
279.0
 30
0.0
 11
63.0
 21
269.0
 31
0.0
  0
LINE
  5
746E
330
7442
100
AcDbEntity
  8
WAKU
100
AcDbLine
 10
384.0
 20
269.0
 30
0.0
 11
384.0
 21
6.0
 31
0.0
  0
TEXT
  5
746F
330
7442
100
AcDbEntity
  8
TEXT
100
AcDbText
 10
385.1333333333333
 20
144.6013421640234
 30
0.0
 40
4.0
  1
本
  7
K
 72
     1
 11
387.0
 21
146.6013421640234
 31
0.0
100
AcDbText
 73
     2
  0
TEXT
  5
7470
330
7442
100
AcDbEntity
  8
TEXT
100
AcDbText
 10
329.1072754745071
 20
34.0
 30
0.0
 40
3.0
  1
三 角 法
  7
K
100
AcDbText
  0
LINE
  5
7471
330
7442
100
AcDbEntity
  8
WAKU
100
AcDbLine
 10
324.0
 20
19.0
 30
0.0
 11
384.0
 21
19.0
 31
0.0
  0
LINE
  5
7472
330
7442
100
AcDbEntity
  8
WAKU
100
AcDbLine
 10
384.0
 20
32.0
 30
0.0
 11
324.0
 21
32.0
 31
0.0
  0
LINE
  5
7473
330
7442
100
AcDbEntity
  8
WAKU
100
AcDbLine
 10
324.0
 20
39.0
 30
0.0
 11
384.0
 21
39.0
 31
0.0
  0
TEXT
  5
7474
330
7442
100
AcDbEntity
  8
TEXT
100
AcDbText
 10
338.4611183004224
 20
10.0
 30
0.0
 40
3.5
  1
中部コーポレーション
  7
K
100
AcDbText
  0
TEXT
  5
7475
330
7442
100
AcDbEntity
  8
TEXT
100
AcDbText
 10
326.5466508537902
 20
57.23202258979018
 30
0.0
 40
3.0
  1
備                    考
  7
K
 72
     1
 11
347.7466508537903
 21
58.73202258979017
 31
0.0
100
AcDbText
 73
     2
  0
LINE
  5
7476
330
7442
100
AcDbEntity
  8
WAKU
100
AcDbLine
 10
287.0
 20
55.0
 30
0.0
 11
349.0
 21
55.0
 31
0.0
  0
LINE
  5
7477
330
7442
100
AcDbEntity
  8
TEXT
100
AcDbLine
 10
211.0
 20
83.0
 30
0.0
 11
384.0
 21
83.0
 31
0.0
  0
LINE
  5
7478
330
7442
100
AcDbEntity
  8
SUNPOU
100
AcDbLine
 10
384.0
 20
69.0
 30
0.0
 11
211.0
 21
69.0
 31
0.0
  0
LINE
  5
7479
330
7442
100
AcDbEntity
  8
SUNPOU
100
AcDbLine
 10
211.0
 20
62.0
 30
0.0
 11
384.0
 21
62.0
 31
0.0
  0
LINE
  5
747A
330
7442
100
AcDbEntity
  8
TEXT
100
AcDbLine
 10
211.0
 20
76.00315013427092
 30
0.0
 11
384.0
 21
76.00315013427092
 31
0.0
  0
LINE
  5
747B
330
7442
100
AcDbEntity
  8
SUNPOU
100
AcDbLine
 10
308.0
 20
83.0
 30
0.0
 11
308.0
 21
55.0
 31
0.0
  0
LINE
  5
747C
330
7442
100
AcDbEntity
  8
SUNPOU
100
AcDbLine
 10
263.0
 20
83.0
 30
0.0
 11
263.0
 21
55.0
 31
0.0
  0
LINE
  5
747D
330
7442
100
AcDbEntity
  8
SUNPOU
100
AcDbLine
 10
218.0
 20
83.0
 30
0.0
 11
218.0
 21
55.0
 31
0.0
  0
LINE
  5
747E
330
7442
100
AcDbEntity
  8
SUNPOU
100
AcDbLine
 10
211.0
 20
83.0
 30
0.0
 11
211.0
 21
55.0
 31
0.0
  0
LINE
  5
747F
330
7442
100
AcDbEntity
  8
WAKU
100
AcDbLine
 10
287.0
 20
55.0
 30
0.0
 11
211.0
 21
55.0
 31
0.0
  0
TEXT
  5
7480
330
7442
100
AcDbEntity
  8
TEXT
100
AcDbText
 10
220.8767108238105
 20
3.0
 30
0.0
 40
2.6
  1
複写図面配布先： 購買  →発注先 フード生産技術 フード品質保証 開発部
  7
K
100
AcDbText
  0
TEXT
  5
7481
330
7442
100
AcDbEntity
  8
TEXT
100
AcDbText
 10
274.5
 20
30.16944230720361
 30
0.0
 40
2.0
  1
0.1
 41
0.8
  7
K
 11
274.5
 21
31.16944230720361
 31
0.0
100
AcDbText
 73
     2
  0
TEXT
  5
7482
330
7442
100
AcDbEntity
  8
TEXT
100
AcDbText
 10
274.5
 20
26.29722041378767
 30
0.0
 40
2.0
  1
0.1
 41
0.8
  7
K
 11
274.5
 21
27.29722041378767
 31
0.0
100
AcDbText
 73
     2
  0
TEXT
  5
7483
330
7442
100
AcDbEntity
  8
TEXT
100
AcDbText
 10
274.5
 20
22.42499852037173
 30
0.0
 40
2.0
  1
0.2
 41
0.8
  7
K
 11
274.5
 21
23.42499852037173
 31
0.0
100
AcDbText
 73
     2
  0
TEXT
  5
7484
330
7442
100
AcDbEntity
  8
TEXT
100
AcDbText
 10
274.5
 20
18.55277662695579
 30
0.0
 40
2.0
  1
0.3
 41
0.8
  7
K
 11
274.5
 21
19.55277662695579
 31
0.0
100
AcDbText
 73
     2
  0
TEXT
  5
7485
330
7442
100
AcDbEntity
  8
TEXT
100
AcDbText
 10
274.5
 20
14.68055473353985
 30
0.0
 40
2.0
  1
0.5
 41
0.8
  7
K
 11
274.5
 21
15.68055473353985
 31
0.0
100
AcDbText
 73
     2
  0
TEXT
  5
7486
330
7442
100
AcDbEntity
  8
TEXT
100
AcDbText
 10
274.5
 20
10.80833284012391
 30
0.0
 40
2.0
  1
0.8
 41
0.8
  7
K
 11
274.5
 21
11.80833284012391
 31
0.0
100
AcDbText
 73
     2
  0
TEXT
  5
7487
330
7442
100
AcDbEntity
  8
TEXT
100
AcDbText
 10
275.0857142857143
 20
33.50555325391158
 30
0.0
 40
2.7
  1
K
  7
K
 72
     1
 11
276.5
 21
34.85555325391158
 31
0.0
100
AcDbText
 73
     2
  0
TEXT
  5
7488
330
7442
100
AcDbEntity
  8
TEXT
100
AcDbText
 10
274.5
 20
6.93611094670797
 30
0.0
 40
2.0
  1
1.2
 41
0.8
  7
K
 11
274.5
 21
7.93611094670797
 31
0.0
100
AcDbText
 73
     2
  0
LINE
  5
7489
330
7442
100
AcDbEntity
  8
TEXT
100
AcDbLine
 10
245.0
 20
33.10555325391158
 30
0.0
 11
287.0
 21
33.10555325391158
 31
0.0
  0
LINE
  5
748A
330
7442
100
AcDbEntity
  8
TEXT
100
AcDbLine
 10
245.0
 20
29.23333136049564
 30
0.0
 11
287.0
 21
29.23333136049564
 31
0.0
  0
LINE
  5
748B
330
7442
100
AcDbEntity
  8
TEXT
100
AcDbLine
 10
287.0
 20
25.3611094670797
 30
0.0
 11
245.0
 21
25.3611094670797
 31
0.0
  0
LINE
  5
748C
330
7442
100
AcDbEntity
  8
TEXT
100
AcDbLine
 10
245.0
 20
21.48888757366376
 30
0.0
 11
287.0
 21
21.48888757366376
 31
0.0
  0
LINE
  5
748D
330
7442
100
AcDbEntity
  8
TEXT
100
AcDbLine
 10
287.0
 20
17.61666568024782
 30
0.0
 11
245.0
 21
17.61666568024782
 31
0.0
  0
LINE
  5
748E
330
7442
100
AcDbEntity
  8
TEXT
100
AcDbLine
 10
245.0
 20
13.74444378683188
 30
0.0
 11
287.0
 21
13.74444378683188
 31
0.0
  0
LINE
  5
748F
330
7442
100
AcDbEntity
  8
TEXT
100
AcDbLine
 10
287.0
 20
9.87222189341594
 30
0.0
 11
245.0
 21
9.87222189341594
 31
0.0
  0
LINE
  5
7490
330
7442
100
AcDbEntity
  8
WAKU
100
AcDbLine
 10
287.0
 20
36.60555325391158
 30
0.0
 11
211.0
 21
36.60555325391158
 31
0.0
  0
LINE
  5
7491
330
7442
100
AcDbEntity
  8
TEXT
100
AcDbLine
 10
211.0
 20
48.8685177513039
 30
0.0
 11
287.0
 21
48.8685177513039
 31
0.0
  0
LINE
  5
7492
330
7442
100
AcDbEntity
  8
TEXT
100
AcDbLine
 10
287.0
 20
42.73703550260768
 30
0.0
 11
211.0
 21
42.73703550260768
 31
0.0
  0
LINE
  5
7493
330
7442
100
AcDbEntity
  8
TEXT
100
AcDbLine
 10
273.0
 20
6.0
 30
0.0
 11
273.0
 21
36.60555325391158
 31
0.0
  0
LINE
  5
7494
330
7442
100
AcDbEntity
  8
SUNPOU
100
AcDbLine
 10
238.0
 20
30.75
 30
0.0
 11
238.0
 21
6.0
 31
0.0
  0
LINE
  5
7495
330
7442
100
AcDbEntity
  8
TEXT
100
AcDbLine
 10
245.0
 20
36.60555325391158
 30
0.0
 11
245.0
 21
6.0
 31
0.0
  0
LINE
  5
7496
330
7442
100
AcDbEntity
  8
TEXT
100
AcDbLine
 10
266.0
 20
36.60555325391158
 30
0.0
 11
266.0
 21
6.0
 31
0.0
  0
TEXT
  5
7497
330
7442
100
AcDbEntity
  8
TEXT
100
AcDbText
 10
220.8767108238105
 20
0.1999999999999886
 30
0.0
 40
2.399999999999999
  1
（必要に応じて追加・抹消）
  7
K
100
AcDbText
  0
TEXT
  5
7498
330
7442
100
AcDbEntity
  8
TEXT
100
AcDbText
 10
212.5
 20
6.887403254739353
 30
0.0
 40
2.0
  1
～
  7
K
 11
212.5
 21
7.887403254739353
 31
0.0
100
AcDbText
 73
     2
  0
TEXT
  5
7499
330
7442
100
AcDbEntity
  8
TEXT
100
AcDbText
 10
255.5587236705652
 20
6.93611094670797
 30
0.0
 40
2.0
  1
2000以下
 41
0.8
  7
K
 72
     2
 11
265.0672950991366
 21
7.93611094670797
 31
0.0
100
AcDbText
 73
     2
  0
TEXT
  5
749A
330
7442
100
AcDbEntity
  8
TEXT
100
AcDbText
 10
245.7760645443253
 20
6.93611094670797
 30
0.0
 40
2.0
  1
1000ｦｺｴ
 41
0.8
  7
K
 72
     2
 11
254.4313026395634
 21
7.93611094670797
 31
0.0
100
AcDbText
 73
     2
  0
TEXT
  5
749B
330
7442
100
AcDbEntity
  8
TEXT
100
AcDbText
 10
267.5
 20
6.93611094670797
 30
0.0
 40
2.0
  1
0.5
 41
0.8
  7
K
 11
267.5
 21
7.93611094670797
 31
0.0
100
AcDbText
 73
     2
  0
TEXT
  5
749C
330
7442
100
AcDbEntity
  8
TEXT
100
AcDbText
 10
239.3571428571429
 20
10.24345914221055
 30
0.0
 40
1.5
  1
mm
  7
K
 72
     1
 11
241.5
 21
10.24345914221055
 31
0.0
100
AcDbText
  0
TEXT
  5
749D
330
7442
100
AcDbEntity
  8
TEXT
100
AcDbText
 10
212.5
 20
32.14425883203126
 30
0.0
 40
3.0
  1
標準加工アラサ
  7
K
 72
     4
 11
224.5
 21
33.64425883203125
 31
0.0
100
AcDbText
  0
LINE
  5
749E
330
7442
100
AcDbEntity
  8
SUNPOU
100
AcDbLine
 10
238.0
 20
55.0
 30
0.0
 11
238.0
 21
30.75
 31
0.0
  0
LINE
  5
749F
330
7442
100
AcDbEntity
  8
TEXT
100
AcDbLine
 10
211.0
 20
30.68296441015093
 30
0.0
 11
238.0
 21
30.68296441015093
 31
0.0
  0
LINE
  5
74A0
330
7442
100
AcDbEntity
  8
TEXT
100
AcDbLine
 10
211.0
 20
24.87403254739343
 30
0.0
 11
238.0
 21
24.87403254739343
 31
0.0
  0
TEXT
  5
74A1
330
7442
100
AcDbEntity
  8
TEXT
100
AcDbText
 10
212.82
 20
26.52630198798243
 30
0.0
 40
3.0
  1
(標準外ﾊ指定ﾉｺﾄ)
 41
0.8
  7
K
 72
     4
 11
224.5
 21
27.81201627369672
 31
0.0
100
AcDbText
  0
TEXT
  5
74A2
330
7442
100
AcDbEntity
  8
TEXT
100
AcDbText
 10
212.5
 20
18.21182278317542
 30
0.0
 40
2.0
  1
▽▽▽
  7
K
 11
212.5
 21
19.21182278317542
 31
0.0
100
AcDbText
 73
     2
  0
TEXT
  5
74A3
330
7442
100
AcDbEntity
  8
TEXT
100
AcDbText
 10
212.5
 20
14.43701627369671
 30
0.0
 40
2.0
  1
▽▽
  7
K
 11
212.5
 21
15.43701627369671
 31
0.0
100
AcDbText
 73
     2
  0
TEXT
  5
74A4
330
7442
100
AcDbEntity
  8
TEXT
100
AcDbText
 10
212.5
 20
10.662209764218
 30
0.0
 40
2.0
  1
▽
  7
K
 11
212.5
 21
11.662209764218
 31
0.0
100
AcDbText
 73
     2
  0
TEXT
  5
74A5
330
7442
100
AcDbEntity
  8
TEXT
100
AcDbText
 10
212.5
 20
21.98662929265407
 30
0.0
 40
2.0
  1
▽▽▽▽
  7
K
 11
212.5
 21
22.98662929265407
 31
0.0
100
AcDbText
 73
     2
  0
TEXT
  5
74A6
330
7442
100
AcDbEntity
  8
TEXT
100
AcDbText
 10
240.24
 20
18.90873700804877
 30
0.0
 40
2.7
  1
法
  7
K
 72
     1
 11
241.5
 21
18.90873700804877
 31
0.0
100
AcDbText
  0
TEXT
  5
74A7
330
7442
100
AcDbEntity
  8
TEXT
100
AcDbText
 10
229.1666666666666
 20
10.662209764218
 30
0.0
 40
2.0
  1
100Z
  7
K
 72
     2
 11
236.5
 21
11.662209764218
 31
0.0
100
AcDbText
 73
     2
  0
TEXT
  5
74A8
330
7442
100
AcDbEntity
  8
TEXT
100
AcDbText
 10
231.0714285714286
 20
14.43701627369671
 30
0.0
 40
2.0
  1
25Z
  7
K
 72
     2
 11
236.5
 21
15.43701627369671
 31
0.0
100
AcDbText
 73
     2
  0
TEXT
  5
74A9
330
7442
100
AcDbEntity
  8
TEXT
100
AcDbText
 10
230.1190476190476
 20
18.21182278317542
 30
0.0
 40
2.0
  1
6.3Z
  7
K
 72
     2
 11
236.5
 21
19.21182278317542
 31
0.0
100
AcDbText
 73
     2
  0
TEXT
  5
74AA
330
7442
100
AcDbEntity
  8
TEXT
100
AcDbText
 10
237.952380952381
 20
11.16190406596939
 30
0.0
 40
2.0
  1
(
  7
K
 72
     2
 11
239.0
 21
12.16190406596939
 31
0.0
100
AcDbText
 73
     2
  0
TEXT
  5
74AB
330
7442
100
AcDbEntity
  8
TEXT
100
AcDbText
 10
240.5666666666667
 20
12.16190406596939
 30
0.0
 40
2.0
  1
±
  7
K
 72
     1
 11
241.5
 21
12.16190406596939
 31
0.0
100
AcDbText
  0
TEXT
  5
74AC
330
7442
100
AcDbEntity
  8
TEXT
100
AcDbText
 10
240.24
 20
15.80873700804875
 30
0.0
 40
2.7
  1
差
  7
K
 72
     1
 11
241.5
 21
15.80873700804875
 31
0.0
100
AcDbText
  0
TEXT
  5
74AD
330
7442
100
AcDbEntity
  8
TEXT
100
AcDbText
 10
230.1190476190476
 20
21.98662929265407
 30
0.0
 40
2.0
  1
0.8Z
  7
K
 72
     2
 11
236.5
 21
22.98662929265407
 31
0.0
100
AcDbText
 73
     2
  0
TEXT
  5
74AE
330
7442
100
AcDbEntity
  8
TEXT
100
AcDbText
 10
240.24
 20
25.10873700804876
 30
0.0
 40
2.7
  1
通
  7
K
 72
     1
 11
241.5
 21
25.10873700804876
 31
0.0
100
AcDbText
  0
TEXT
  5
74AF
330
7442
100
AcDbEntity
  8
TEXT
100
AcDbText
 10
240.24
 20
22.00873700804874
 30
0.0
 40
2.7
  1
寸
  7
K
 72
     1
 11
241.5
 21
22.00873700804874
 31
0.0
100
AcDbText
  0
TEXT
  5
74B0
330
7442
100
AcDbEntity
  8
TEXT
100
AcDbText
 10
240.24
 20
28.20873700804873
 30
0.0
 40
2.7
  1
普
  7
K
 72
     1
 11
241.5
 21
28.20873700804873
 31
0.0
100
AcDbText
  0
TEXT
  5
74B1
330
7442
100
AcDbEntity
  8
TEXT
100
AcDbText
 10
214.0657864606292
 20
50.43425887565195
 30
0.0
 40
3.0
  1
表面処理
  7
K
 11
214.0657864606292
 21
51.93425887565195
 31
0.0
100
AcDbText
 73
     2
  0
TEXT
  5
74B2
330
7442
100
AcDbEntity
  8
TEXT
100
AcDbText
 10
214.0657864606292
 20
38.17129437825963
 30
0.0
 40
3.0
  1
適用規格など
  7
K
 11
214.0657864606292
 21
39.67129437825963
 31
0.0
100
AcDbText
 73
     2
  0
TEXT
  5
74B3
330
7442
100
AcDbEntity
  8
TEXT
100
AcDbText
 10
214.0657864606292
 20
44.30277662695579
 30
0.0
 40
3.0
  1
色調
  7
K
 11
214.0657864606292
 21
45.80277662695579
 31
0.0
100
AcDbText
 73
     2
  0
TEXT
  5
74B4
330
7442
100
AcDbEntity
  8
TEXT
100
AcDbText
 10
258.6063427181842
 20
22.42499852037173
 30
0.0
 40
2.0
  1
30以下
 41
0.8
  7
K
 72
     2
 11
265.0672950991366
 21
23.42499852037173
 31
0.0
100
AcDbText
 73
     2
  0
TEXT
  5
74B5
330
7442
100
AcDbEntity
  8
TEXT
100
AcDbText
 10
257.0825331943747
 20
18.55277662695579
 30
0.0
 40
2.0
  1
120以下
 41
0.8
  7
K
 72
     2
 11
265.0672950991366
 21
19.55277662695579
 31
0.0
100
AcDbText
 73
     2
  0
TEXT
  5
74B6
330
7442
100
AcDbEntity
  8
TEXT
100
AcDbText
 10
255.5587236705652
 20
10.80833284012391
 30
0.0
 40
2.0
  1
1000以下
 41
0.8
  7
K
 72
     2
 11
265.0672950991366
 21
11.80833284012391
 31
0.0
100
AcDbText
 73
     2
  0
TEXT
  5
74B7
330
7442
100
AcDbEntity
  8
TEXT
100
AcDbText
 10
257.0825331943747
 20
14.68055473353985
 30
0.0
 40
2.0
  1
315以下
 41
0.8
  7
K
 72
     2
 11
265.0672950991366
 21
15.68055473353985
 31
0.0
100
AcDbText
 73
     2
  0
TEXT
  5
74B8
330
7442
100
AcDbEntity
  8
TEXT
100
AcDbText
 10
247.2998740681349
 20
10.80833284012391
 30
0.0
 40
2.0
  1
315ｦｺｴ
 41
0.8
  7
K
 72
     2
 11
254.4313026395634
 21
11.80833284012391
 31
0.0
100
AcDbText
 73
     2
  0
TEXT
  5
74B9
330
7442
100
AcDbEntity
  8
TEXT
100
AcDbText
 10
247.2998740681349
 20
14.68055473353985
 30
0.0
 40
2.0
  1
120ｦｺｴ
 41
0.8
  7
K
 72
     2
 11
254.4313026395634
 21
15.68055473353985
 31
0.0
100
AcDbText
 73
     2
  0
TEXT
  5
74BA
330
7442
100
AcDbEntity
  8
TEXT
100
AcDbText
 10
248.8236835919444
 20
18.55277662695579
 30
0.0
 40
2.0
  1
30ｦｺｴ
 41
0.8
  7
K
 72
     2
 11
254.4313026395634
 21
19.55277662695579
 31
0.0
100
AcDbText
 73
     2
  0
TEXT
  5
74BB
330
7442
100
AcDbEntity
  8
TEXT
100
AcDbText
 10
243.6235286514975
 20
11.16190406596939
 30
0.0
 40
2.0
  1
)
  7
K
 11
243.6235286514975
 21
12.16190406596939
 31
0.0
100
AcDbText
 73
     2
  0
TEXT
  5
74BC
330
7442
100
AcDbEntity
  8
TEXT
100
AcDbText
 10
250.3474931157539
 20
22.42499852037173
 30
0.0
 40
2.0
  1
6ｦｺｴ
 41
0.8
  7
K
 72
     2
 11
254.4313026395634
 21
23.42499852037173
 31
0.0
100
AcDbText
 73
     2
  0
TEXT
  5
74BD
330
7442
100
AcDbEntity
  8
TEXT
100
AcDbText
 10
250.3474931157539
 20
26.29722041378767
 30
0.0
 40
2.0
  1
3ｦｺｴ
 41
0.8
  7
K
 72
     2
 11
254.4313026395634
 21
27.29722041378767
 31
0.0
100
AcDbText
 73
     2
  0
TEXT
  5
74BE
330
7442
100
AcDbEntity
  8
TEXT
100
AcDbText
 10
247.2084454967063
 20
30.16944230720361
 30
0.0
 40
2.0
  1
0.5以上
 41
0.8
  7
K
 72
     2
 11
254.4313026395634
 21
31.16944230720361
 31
0.0
100
AcDbText
 73
     2
  0
TEXT
  5
74BF
330
7442
100
AcDbEntity
  8
TEXT
100
AcDbText
 10
267.5
 20
14.68055473353985
 30
0.0
 40
2.0
  1
0.2
 41
0.8
  7
K
 11
267.5
 21
15.68055473353985
 31
0.0
100
AcDbText
 73
     2
  0
TEXT
  5
74C0
330
7442
100
AcDbEntity
  8
TEXT
100
AcDbText
 10
267.5
 20
10.80833284012391
 30
0.0
 40
2.0
  1
0.3
 41
0.8
  7
K
 11
267.5
 21
11.80833284012391
 31
0.0
100
AcDbText
 73
     2
  0
TEXT
  5
74C1
330
7442
100
AcDbEntity
  8
TEXT
100
AcDbText
 10
267.5
 20
18.55277662695579
 30
0.0
 40
2.0
  1
0.15
 41
0.8
  7
K
 11
267.5
 21
19.55277662695579
 31
0.0
100
AcDbText
 73
     2
  0
TEXT
  5
74C2
330
7442
100
AcDbEntity
  8
TEXT
100
AcDbText
 10
260.1301522419937
 20
26.29722041378767
 30
0.0
 40
2.0
  1
6以下
 41
0.8
  7
K
 72
     2
 11
265.0672950991366
 21
27.29722041378767
 31
0.0
100
AcDbText
 73
     2
  0
TEXT
  5
74C3
330
7442
100
AcDbEntity
  8
TEXT
100
AcDbText
 10
260.1301522419937
 20
30.16944230720361
 30
0.0
 40
2.0
  1
3以下
 41
0.8
  7
K
 72
     2
 11
265.0672950991366
 21
31.16944230720361
 31
0.0
100
AcDbText
 73
     2
  0
TEXT
  5
74C4
330
7442
100
AcDbEntity
  8
TEXT
100
AcDbText
 10
267.5
 20
26.29722041378767
 30
0.0
 40
2.0
  1
0.05
 41
0.8
  7
K
 11
267.5
 21
27.29722041378767
 31
0.0
100
AcDbText
 73
     2
  0
TEXT
  5
74C5
330
7442
100
AcDbEntity
  8
TEXT
100
AcDbText
 10
267.5
 20
22.42499852037173
 30
0.0
 40
2.0
  1
0.1
 41
0.8
  7
K
 11
267.5
 21
23.42499852037173
 31
0.0
100
AcDbText
 73
     2
  0
TEXT
  5
74C6
330
7442
100
AcDbEntity
  8
TEXT
100
AcDbText
 10
267.5
 20
30.16944230720361
 30
0.0
 40
2.0
  1
0.05
 41
0.8
  7
K
 11
267.5
 21
31.16944230720361
 31
0.0
100
AcDbText
 73
     2
  0
TEXT
  5
74C7
330
7442
100
AcDbEntity
  8
TEXT
100
AcDbText
 10
246.95
 20
33.50555325391158
 30
0.0
 40
2.7
  1
呼 ビ 寸 法
  7
K
 72
     1
 11
255.5
 21
34.85555325391158
 31
0.0
100
AcDbText
 73
     2
  0
TEXT
  5
74C8
330
7442
100
AcDbEntity
  8
TEXT
100
AcDbText
 10
268.6
 20
33.50555325391158
 30
0.0
 40
2.7
  1
J
  7
K
 72
     1
 11
269.5
 21
34.85555325391158
 31
0.0
100
AcDbText
 73
     2
  0
TEXT
  5
74C9
330
7442
100
AcDbEntity
  8
TEXT
100
AcDbText
 10
288.0
 20
8.0
 30
0.0
 40
3.0
  1
承認
  7
K
100
AcDbText
  0
LINE
  5
74CA
330
7442
100
AcDbEntity
  8
WAKU
100
AcDbLine
 10
324.0
 20
6.0
 30
0.0
 11
324.0
 21
19.0
 31
0.0
  0
LINE
  5
74CB
330
7442
100
AcDbEntity
  8
SUNPOU
100
AcDbLine
 10
308.0
 20
39.0
 30
0.0
 11
308.0
 21
6.0
 31
0.0
  0
LINE
  5
74CC
330
7442
100
AcDbEntity
  8
WAKU
100
AcDbLine
 10
287.0
 20
6.0
 30
0.0
 11
287.0
 21
39.0
 31
0.0
  0
LINE
  5
74CD
330
7442
100
AcDbEntity
  8
SUNPOU
100
AcDbLine
 10
296.0
 20
39.0
 30
0.0
 11
296.0
 21
6.0
 31
0.0
  0
LINE
  5
74CE
330
7442
100
AcDbEntity
  8
TEXT
100
AcDbLine
 10
280.0
 20
36.60555325391158
 30
0.0
 11
280.0
 21
6.0
 31
0.0
  0
TEXT
  5
74CF
330
7442
100
AcDbEntity
  8
TEXT
100
AcDbText
 10
281.5
 20
6.93611094670797
 30
0.0
 40
2.0
  1
3
 41
0.8
  7
K
 11
281.5
 21
7.93611094670797
 31
0.0
100
AcDbText
 73
     2
  0
CIRCLE
  5
74D0
330
7442
100
AcDbEntity
  8
JISSEN
100
AcDbCircle
 10
313.3333333333333
 20
7.0
 30
0.0
 40
0.2
  0
CIRCLE
  5
74D1
330
7442
100
AcDbEntity
  8
JISSEN
100
AcDbCircle
 10
318.6666666666667
 20
7.0
 30
0.0
 40
0.2
  0
LINE
  5
74D2
330
7442
100
AcDbEntity
  8
WAKU
100
AcDbLine
 10
287.0
 20
39.0
 30
0.0
 11
324.0
 21
39.0
 31
0.0
  0
LINE
  5
74D3
330
7442
100
AcDbEntity
  8
SUNPOU
100
AcDbLine
 10
287.0
 20
22.5
 30
0.0
 11
324.0
 21
22.5
 31
0.0
  0
LINE
  5
74D4
330
7442
100
AcDbEntity
  8
SUNPOU
100
AcDbLine
 10
324.0
 20
14.25
 30
0.0
 11
287.0
 21
14.25
 31
0.0
  0
LINE
  5
74D5
330
7442
100
AcDbEntity
  8
SUNPOU
100
AcDbLine
 10
324.0
 20
30.75
 30
0.0
 11
287.0
 21
30.75
 31
0.0
  0
TEXT
  5
74D6
330
7442
100
AcDbEntity
  8
TEXT
100
AcDbText
 10
288.0
 20
16.25
 30
0.0
 40
3.0
  1
検図
  7
K
100
AcDbText
  0
TEXT
  5
74D7
330
7442
100
AcDbEntity
  8
TEXT
100
AcDbText
 10
288.0
 20
24.5
 30
0.0
 40
3.0
  1
製図
  7
K
100
AcDbText
  0
TEXT
  5
74D8
330
7442
100
AcDbEntity
  8
TEXT
100
AcDbText
 10
281.5
 20
14.68055473353985
 30
0.0
 40
2.0
  1
1.2
 41
0.8
  7
K
 11
281.5
 21
15.68055473353985
 31
0.0
100
AcDbText
 73
     2
  0
TEXT
  5
74D9
330
7442
100
AcDbEntity
  8
TEXT
100
AcDbText
 10
281.5
 20
18.55277662695579
 30
0.0
 40
2.0
  1
0.8
 41
0.8
  7
K
 11
281.5
 21
19.55277662695579
 31
0.0
100
AcDbText
 73
     2
  0
TEXT
  5
74DA
330
7442
100
AcDbEntity
  8
TEXT
100
AcDbText
 10
281.5
 20
10.80833284012391
 30
0.0
 40
2.0
  1
2
 41
0.8
  7
K
 11
281.5
 21
11.80833284012391
 31
0.0
100
AcDbText
 73
     2
  0
LINE
  5
74DB
330
7442
100
AcDbEntity
  8
TEXT
100
AcDbLine
 10
281.5
 20
31.16944230720361
 30
0.0
 11
285.1060332593609
 21
31.16944230720361
 31
0.0
  0
TEXT
  5
74DC
330
7442
100
AcDbEntity
  8
TEXT
100
AcDbText
 10
281.5
 20
26.29722041378767
 30
0.0
 40
2.0
  1
0.2
 41
0.8
  7
K
 11
281.5
 21
27.29722041378767
 31
0.0
100
AcDbText
 73
     2
  0
TEXT
  5
74DD
330
7442
100
AcDbEntity
  8
TEXT
100
AcDbText
 10
281.5
 20
22.42499852037173
 30
0.0
 40
2.0
  1
0.5
 41
0.8
  7
K
 11
281.5
 21
23.42499852037173
 31
0.0
100
AcDbText
 73
     2
  0
TEXT
  5
74DE
330
7442
100
AcDbEntity
  8
TEXT
100
AcDbText
 10
288.0
 20
45.0
 30
0.0
 40
3.0
  1
品名
  7
K
100
AcDbText
  0
TEXT
  5
74DF
330
7442
100
AcDbEntity
  8
TEXT
100
AcDbText
 10
288.0
 20
32.75
 30
0.0
 40
3.0
  1
設計
  7
K
100
AcDbText
  0
LINE
  5
74E0
330
7442
100
AcDbEntity
  8
WAKU
100
AcDbLine
 10
287.0
 20
39.0
 30
0.0
 11
287.0
 21
55.0
 31
0.0
  0
TEXT
  5
74E1
330
7442
100
AcDbEntity
  8
TEXT
100
AcDbText
 10
282.2142857142857
 20
33.50555325391158
 30
0.0
 40
2.7
  1
L
  7
K
 72
     1
 11
283.5
 21
34.85555325391158
 31
0.0
100
AcDbText
 73
     2
  0
LINE
  5
74E2
330
7442
100
AcDbEntity
  8
SUNPOU
100
AcDbLine
 10
296.0
 20
55.0
 30
0.0
 11
296.0
 21
39.0
 31
0.0
  0
LINE
  5
74E3
330
7442
100
AcDbEntity
  8
WAKU
100
AcDbLine
 10
324.0
 20
32.0
 30
0.0
 11
324.0
 21
39.0
 31
0.0
  0
LINE
  5
74E4
330
7442
100
AcDbEntity
  8
WAKU
100
AcDbLine
 10
324.0
 20
19.0
 30
0.0
 11
324.0
 21
32.0
 31
0.0
  0
CIRCLE
  5
74E5
330
7442
100
AcDbEntity
  8
JISSEN
100
AcDbCircle
 10
313.3333333333333
 20
15.25
 30
0.0
 40
0.2
  0
CIRCLE
  5
74E6
330
7442
100
AcDbEntity
  8
JISSEN
100
AcDbCircle
 10
318.6666666666667
 20
15.25
 30
0.0
 40
0.2
  0
CIRCLE
  5
74E7
330
7442
100
AcDbEntity
  8
JISSEN
100
AcDbCircle
 10
313.3333333333333
 20
23.5
 30
0.0
 40
0.2
  0
CIRCLE
  5
74E8
330
7442
100
AcDbEntity
  8
JISSEN
100
AcDbCircle
 10
313.3333333333333
 20
31.75
 30
0.0
 40
0.2
  0
CIRCLE
  5
74E9
330
7442
100
AcDbEntity
  8
JISSEN
100
AcDbCircle
 10
318.6666666666667
 20
23.5
 30
0.0
 40
0.2
  0
CIRCLE
  5
74EA
330
7442
100
AcDbEntity
  8
JISSEN
100
AcDbCircle
 10
318.6666666666667
 20
31.75
 30
0.0
 40
0.2
  0
LINE
  5
74EB
330
7442
100
AcDbEntity
  8
SUNPOU
100
AcDbLine
 10
336.0
 20
32.0
 30
0.0
 11
336.0
 21
19.0
 31
0.0
  0
TEXT
  5
74EC
330
7442
100
AcDbEntity
  8
TEXT
100
AcDbText
 10
328.4851672235041
 20
10.0
 30
0.0
 40
2.0
  1
株式会社
  7
K
100
AcDbText
  0
TEXT
  5
74ED
330
7442
100
AcDbEntity
  8
TEXT
100
AcDbText
 10
326.7
 20
24.0
 30
0.0
 40
3.0
  1
図番
  7
K
 72
     4
 11
330.0
 21
25.5
 31
0.0
100
AcDbText
  0
TEXT
  5
74EE
330
7442
100
AcDbEntity
  8
TEXT
100
AcDbText
 10
274.3
 20
57.23202258979018
 30
0.0
 40
3.0
  1
品         名
  7
K
 72
     1
 11
285.5
 21
58.73202258979017
 31
0.0
100
AcDbText
 73
     2
  0
TEXT
  5
74EF
330
7442
100
AcDbEntity
  8
TEXT
100
AcDbText
 10
229.1
 20
57.23202258979018
 30
0.0
 40
3.0
  1
図         番
  7
K
 72
     1
 11
240.5
 21
58.73202258979017
 31
0.0
100
AcDbText
 73
     2
  0
TEXT
  5
74F0
330
7442
100
AcDbEntity
  8
TEXT
100
AcDbText
 10
212.0714285714286
 20
57.73202258979018
 30
0.0
 40
2.0
  1
No.
  7
K
 72
     1
 11
214.5
 21
58.73202258979017
 31
0.0
100
AcDbText
 73
     2
  0
LINE
  5
74F1
330
7442
100
AcDbEntity
  8
WAKU
100
AcDbLine
 10
384.0
 20
55.0
 30
0.0
 11
349.0
 21
55.0
 31
0.0
  0
TEXT
  5
74F2
330
7442
100
AcDbEntity
  8
TEXT
100
AcDbText
 10
367.0633115578712
 20
33.41726061251677
 30
0.0
 40
2.5
  1
(単位mm)
  7
K
100
AcDbText
  0
LINE
  5
74F3
330
7442
100
AcDbEntity
  8
SUNPOU
100
AcDbLine
 10
349.0
 20
47.0
 30
0.0
 11
384.0
 21
47.0
 31
0.0
  0
LINE
  5
74F4
330
7442
100
AcDbEntity
  8
SUNPOU
100
AcDbLine
 10
356.0
 20
32.0
 30
0.0
 11
356.0
 21
39.0
 31
0.0
  0
LINE
  5
74F5
330
7442
100
AcDbEntity
  8
SUNPOU
100
AcDbLine
 10
347.0
 20
39.0
 30
0.0
 11
347.0
 21
32.0
 31
0.0
  0
TEXT
  5
74F6
330
7442
100
AcDbEntity
  8
TEXT
100
AcDbText
 10
350.0
 20
49.0
 30
0.0
 40
3.0
  1
材 質
  7
K
100
AcDbText
  0
TEXT
  5
74F7
330
7442
100
AcDbEntity
  8
TEXT
100
AcDbText
 10
350.0
 20
41.0
 30
0.0
 40
3.0
  1
板 厚
  7
K
100
AcDbText
  0
LINE
  5
74F8
330
7442
100
AcDbEntity
  8
WAKU
100
AcDbLine
 10
349.0
 20
55.0
 30
0.0
 11
349.0
 21
39.0
 31
0.0
  0
TEXT
  5
74F9
330
7442
100
AcDbEntity
  8
TEXT
100
AcDbText
 10
348.0
 20
34.0
 30
0.0
 40
3.0
  1
尺度
  7
K
100
AcDbText
  0
LINE
  5
74FA
330
7442
100
AcDbEntity
  8
SUNPOU
100
AcDbLine
 10
360.0
 20
55.0
 30
0.0
 11
360.0
 21
39.0
 31
0.0
  0
TEXT
  5
74FB
330
7442
100
AcDbEntity
  8
TEXT
100
AcDbText
 10
385.1333333333333
 20
99.60134216402344
 30
0.0
 40
4.0
  1
ず
  7
K
 72
     1
 11
387.0
 21
101.6013421640234
 31
0.0
100
AcDbText
 73
     2
  0
TEXT
  5
74FC
330
7442
100
AcDbEntity
  8
TEXT
100
AcDbText
 10
385.0346249501075
 20
64.86078937622085
 30
0.0
 40
4.0
  1
の
  7
K
 72
     4
 11
386.9012916167742
 21
66.86078937622085
 31
0.0
100
AcDbText
  0
TEXT
  5
74FD
330
7442
100
AcDbEntity
  8
TEXT
100
AcDbText
 10
385.1333333333333
 20
60.60134216402343
 30
0.0
 40
4.0
  1
こ
  7
K
 72
     1
 11
387.0
 21
62.60134216402343
 31
0.0
100
AcDbText
 73
     2
  0
TEXT
  5
74FE
330
7442
100
AcDbEntity
  8
TEXT
100
AcDbText
 10
385.1333333333333
 20
55.60134216402343
 30
0.0
 40
4.0
  1
と
  7
K
 72
     1
 11
387.0
 21
57.60134216402343
 31
0.0
100
AcDbText
 73
     2
  0
TEXT
  5
74FF
330
7442
100
AcDbEntity
  8
TEXT
100
AcDbText
 10
385.1333333333333
 20
69.60134216402344
 30
0.0
 40
4.0
  1
却
  7
K
 72
     1
 11
387.0
 21
71.60134216402344
 31
0.0
100
AcDbText
 73
     2
  0
TEXT
  5
7500
330
7442
100
AcDbEntity
  8
TEXT
100
AcDbText
 10
385.1333333333333
 20
74.60134216402344
 30
0.0
 40
4.0
  1
返
  7
K
 72
     1
 11
387.0
 21
76.60134216402344
 31
0.0
100
AcDbText
 73
     2
  0
TEXT
  5
7501
330
7442
100
AcDbEntity
  8
TEXT
100
AcDbText
 10
385.1333333333333
 20
89.60134216402343
 30
0.0
 40
4.0
  1
行
  7
K
 72
     1
 11
387.0
 21
91.60134216402344
 31
0.0
100
AcDbText
 73
     2
  0
TEXT
  5
7502
330
7442
100
AcDbEntity
  8
TEXT
100
AcDbText
 10
385.1333333333333
 20
84.60134216402343
 30
0.0
 40
4.0
  1
元
  7
K
 72
     1
 11
387.0
 21
86.60134216402344
 31
0.0
100
AcDbText
 73
     2
  0
TEXT
  5
7503
330
7442
100
AcDbEntity
  8
TEXT
100
AcDbText
 10
385.2666666666666
 20
79.60134216402344
 30
0.0
 40
4.0
  1
へ
  7
K
 72
     1
 11
387.0
 21
81.60134216402344
 31
0.0
100
AcDbText
 73
     2
  0
TEXT
  5
7504
330
7442
100
AcDbEntity
  8
TEXT
100
AcDbText
 10
385.1333333333333
 20
94.60134216402343
 30
0.0
 40
4.0
  1
発
  7
K
 72
     1
 11
387.0
 21
96.60134216402344
 31
0.0
100
AcDbText
 73
     2
  0
TEXT
  5
7505
330
7442
100
AcDbEntity
  8
TEXT
100
AcDbText
 10
385.1333333333333
 20
124.6013421640234
 30
0.0
 40
4.0
  1
済
  7
K
 72
     1
 11
387.0
 21
126.6013421640234
 31
0.0
100
AcDbText
 73
     2
  0
TEXT
  5
7506
330
7442
100
AcDbEntity
  8
TEXT
100
AcDbText
 10
385.1333333333333
 20
104.6013421640234
 30
0.0
 40
4.0
  1
必
  7
K
 72
     1
 11
387.0
 21
106.6013421640234
 31
0.0
100
AcDbText
 73
     2
  0
TEXT
  5
7507
330
7442
100
AcDbEntity
  8
TEXT
100
AcDbText
 10
387.9256954922052
 20
111.2049702787619
 30
0.0
 40
4.0
  1
、
  7
K
 72
     1
 11
388.4590288255385
 21
113.2049702787619
 31
0.0
100
AcDbText
 73
     2
  0
TEXT
  5
7508
330
7442
100
AcDbEntity
  8
TEXT
100
AcDbText
 10
385.1333333333333
 20
114.6013421640234
 30
0.0
 40
4.0
  1
後
  7
K
 72
     1
 11
387.0
 21
116.6013421640234
 31
0.0
100
AcDbText
 73
     2
  0
TEXT
  5
7509
330
7442
100
AcDbEntity
  8
TEXT
100
AcDbText
 10
385.2666666666666
 20
119.6013421640234
 30
0.0
 40
4.0
  1
み
  7
K
 72
     1
 11
387.0
 21
121.6013421640234
 31
0.0
100
AcDbText
 73
     2
  0
TEXT
  5
750A
330
7442
100
AcDbEntity
  8
TEXT
100
AcDbText
 10
385.1333333333333
 20
134.6013421640234
 30
0.0
 40
4.0
  1
は
  7
K
 72
     1
 11
387.0
 21
136.6013421640234
 31
0.0
100
AcDbText
 73
     2
  0
TEXT
  5
750B
330
7442
100
AcDbEntity
  8
TEXT
100
AcDbText
 10
385.2666666666666
 20
129.6013421640234
 30
0.0
 40
4.0
  1
用
  7
K
 72
     1
 11
387.0
 21
131.6013421640234
 31
0.0
100
AcDbText
 73
     2
  0
TEXT
  5
750C
330
7442
100
AcDbEntity
  8
TEXT
100
AcDbText
 10
385.1333333333333
 20
139.6013421640234
 30
0.0
 40
4.0
  1
図
  7
K
 72
     1
 11
387.0
 21
141.6013421640234
 31
0.0
100
AcDbText
 73
     2
  0
LINE
  5
750D
330
7442
100
AcDbEntity
  8
WAKU
100
AcDbLine
 10
211.0
 20
55.0
 30
0.0
 11
211.0
 21
6.0
 31
0.0
  0
ENDBLK
  5
750F
330
7442
100
AcDbEntity
  8
0
100
AcDbBlockEnd
  0
BLOCK
  5
7581
330
756E
100
AcDbEntity
  8
0
100
AcDbBlockBegin
  2
*D14
 70
     1
 10
0.0
 20
0.0
 30
0.0
  3
*D14
  1

  0
LINE
  5
7582
330
756E
100
AcDbEntity
  8
0
  6
ByBlock
 62
     0
100
AcDbLine
 10
722.2541575
 20
517.8555284499999
 30
0.0
 11
722.2541575
 21
666.6668634653233
 31
0.0
  0
LINE
  5
7583
330
756E
100
AcDbEntity
  8
0
  6
ByBlock
 62
     0
100
AcDbLine
 10
988.25415750212
 20
589.0411439666803
 30
0.0
 11
988.25415750212
 21
666.6668634653233
 31
0.0
  0
LINE
  5
7584
330
756E
100
AcDbEntity
  8
0
  6
ByBlock
 62
     0
100
AcDbLine
 10
737.2541575
 20
661.6668634653233
 30
0.0
 11
973.2541575021199
 21
661.6668634653233
 31
0.0
  0
INSERT
  5
7585
330
756E
100
AcDbEntity
  8
0
  6
ByBlock
 62
     0
100
AcDbBlockReference
  2
ARROW
 10
722.2541575
 20
661.6668634653233
 30
0.0
 41
15.0
 42
15.0
 43
15.0
 50
180.0
  0
INSERT
  5
7586
330
756E
100
AcDbEntity
  8
0
  6
ByBlock
 62
     0
100
AcDbBlockReference
  2
ARROW
 10
988.25415750212
 20
661.6668634653233
 30
0.0
 41
15.0
 42
15.0
 43
15.0
  0
MTEXT
  5
7587
330
756E
100
AcDbEntity
  8
0
  6
ByBlock
 62
     0
100
AcDbMText
 10
858.0968141149842
 20
676.6668634653233
 30
0.0
 40
15.0
 41
0.0
 71
     5
 72
     1
  1
\A1;266
 73
     1
 44
1.0
1001
ACAD
1000
MTEXTBEGIN
1070
    73
1070
     1
1070
    44
1040
1.0
1070
    74
1070
     0
1000
MTEXTEND
  0
POINT
  5
7588
330
756E
100
AcDbEntity
  8
DEFPOINTS
  6
ByBlock
 62
     0
100
AcDbPoint
 10
722.2541575
 20
512.8555284499999
 30
0.0
  0
POINT
  5
7589
330
756E
100
AcDbEntity
  8
DEFPOINTS
  6
ByBlock
 62
     0
100
AcDbPoint
 10
988.25415750212
 20
584.0411439666803
 30
0.0
  0
POINT
  5
758A
330
756E
100
AcDbEntity
  8
DEFPOINTS
  6
ByBlock
 62
     0
100
AcDbPoint
 10
988.25415750212
 20
661.6668634653233
 30
0.0
  0
ENDBLK
  5
758B
330
756E
100
AcDbEntity
  8
0
100
AcDbBlockEnd
  0
BLOCK
  5
75CD
330
75CC
100
AcDbEntity
  8
0
100
AcDbBlockBegin
  2
*D15
 70
     1
 10
0.0
 20
0.0
 30
0.0
  3
*D15
  1

  0
LINE
  5
75CE
330
75CC
100
AcDbEntity
  8
0
  6
ByBlock
 62
     0
100
AcDbLine
 10
782.857717486718
 20
455.74999369
 30
0.0
 11
667.534575694001
 21
455.74999369
 31
0.0
  0
LINE
  5
75CF
330
75CC
100
AcDbEntity
  8
0
  6
ByBlock
 62
     0
100
AcDbLine
 10
722.2194358011324
 20
275.7499936933963
 30
0.0
 11
667.534575694001
 21
275.7499936933963
 31
0.0
  0
LINE
  5
75D0
330
75CC
100
AcDbEntity
  8
0
  6
ByBlock
 62
     0
100
AcDbLine
 10
672.534575694001
 20
440.7499936899999
 30
0.0
 11
672.534575694001
 21
290.7499936933963
 31
0.0
  0
INSERT
  5
75D1
330
75CC
100
AcDbEntity
  8
0
  6
ByBlock
 62
     0
100
AcDbBlockReference
  2
ARROW
 10
672.534575694001
 20
455.74999369
 30
0.0
 41
15.0
 42
15.0
 43
15.0
 50
90.0
  0
INSERT
  5
75D2
330
75CC
100
AcDbEntity
  8
0
  6
ByBlock
 62
     0
100
AcDbBlockReference
  2
ARROW
 10
672.534575694001
 20
275.7499936933963
 30
0.0
 41
15.0
 42
15.0
 43
15.0
 50
270.0
  0
MTEXT
  5
75D3
330
75CC
100
AcDbEntity
  8
0
  6
ByBlock
 62
     0
100
AcDbMText
 10
657.5345756940009
 20
365.1877905592978
 30
0.0
 40
15.0
 41
0.0
 71
     5
 72
     1
  1
\A1;180
 11
0.0000000000000001
 21
1.0
 31
0.0
 73
     1
 44
1.0
1001
ACAD
1000
MTEXTBEGIN
1070
    73
1070
     1
1070
    44
1040
1.0
1070
    74
1070
     0
1000
MTEXTEND
  0
POINT
  5
75D4
330
75CC
100
AcDbEntity
  8
DEFPOINTS
  6
ByBlock
 62
     0
100
AcDbPoint
 10
787.857717486718
 20
455.74999369
 30
0.0
  0
POINT
  5
75D5
330
75CC
100
AcDbEntity
  8
DEFPOINTS
  6
ByBlock
 62
     0
100
AcDbPoint
 10
727.2194358011325
 20
275.7499936933963
 30
0.0
  0
POINT
  5
75D6
330
75CC
100
AcDbEntity
  8
DEFPOINTS
  6
ByBlock
 62
     0
100
AcDbPoint
 10
672.534575694001
 20
275.7499936933963
 30
0.0
  0
ENDBLK
  5
75D7
330
75CC
100
AcDbEntity
  8
0
100
AcDbBlockEnd
  0
BLOCK
  5
7631
330
762F
100
AcDbEntity
  8
0
100
AcDbBlockBegin
  2
GENAXEH
 70
     0
 10
0.0
 20
0.0
 30
0.0
  3
GENAXEH
  1

  0
LINE
  5
7630
330
762F
100
AcDbEntity
  8
0
100
AcDbLine
 10
-1.0
 20
0.0
 30
0.0
 11
1.0
 21
0.0
 31
0.0
  0
ENDBLK
  5
7632
330
762F
100
AcDbEntity
  8
0
100
AcDbBlockEnd
  0
BLOCK
  5
766A
330
7665
100
AcDbEntity
  8
0
100
AcDbBlockBegin
  2
A$C133208E5
 70
     0
 10
0.0
 20
0.0
 30
0.0
  3
A$C133208E5
  1

  0
MTEXT
  5
7666
330
7665
100
AcDbEntity
  8
SUNPOU
100
AcDbMText
 10
7.841833113468055
 20
13.16671319761485
 30
0.0
 40
12.0
 41
28.16000000000001
 71
     1
 72
     5
  1
1
  7
K
 73
     1
 44
1.0
1001
ACAD
1000
MTEXTBEGIN
1070
    73
1070
     1
1070
    44
1040
1.0
1070
    74
1070
     0
1000
MTEXTEND
  0
LINE
  5
7667
330
7665
100
AcDbEntity
  8
SUNPOU
100
AcDbLine
 10
20.9578167755044
 20
0.0
 30
0.0
 11
0.000002003921054
 21
0.0
 31
0.0
  0
LINE
  5
7668
330
7665
100
AcDbEntity
  8
SUNPOU
100
AcDbLine
 10
10.4789093897125
 20
18.15000000000009
 30
0.0
 11
20.9578167755044
 21
0.0
 31
0.0
  0
LINE
  5
7669
330
7665
100
AcDbEntity
  8
SUNPOU
100
AcDbLine
 10
0.000002003921054
 20
0.0
 30
0.0
 11
10.4789093897125
 21
18.15000000000009
 31
0.0
  0
ENDBLK
  5
766B
330
7665
100
AcDbEntity
  8
0
100
AcDbBlockEnd
  0
ENDSEC
  0
SECTION
  2
ENTITIES
  0
MTEXT
  5
67D
330
DF
100
AcDbEntity
  8
SUNPOU
100
AcDbMText
 10
5227.136216033687
 20
-13932.05408441242
 30
0.0
 40
6.0
 41
0.0
 71
     6
 72
     1
  1
\A1;
 73
     1
 44
1.0
1001
ACAD
1000
MTEXTBEGIN
1070
    73
1070
     1
1070
    44
1040
1.0
1070
    74
1070
     0
1000
MTEXTEND
  0
DIMENSION
  5
6F68
330
DF
100
AcDbEntity
  8
SUNPOU
100
AcDbDimension
  2
*D2
 10
278.9236013757666
 20
710.9982657750233
 30
0.0
 11
393.923601382573
 21
710.9982657750233
 31
0.0
 12
162.3838412291697
 22
0.0
 32
0.0
 70
   160
 71
     5
 42
-1.0
  3
IMCADLT
100
AcDbAlignedDimension
 13
508.923601382573
 23
520.59257203
 33
0.0
 14
278.9236013757666
 24
520.59257203
 34
0.0
100
AcDbRotatedDimension
1001
ACAD
1000
DSTYLE
1002
{
1070
    40
1040
5.0
1070
    41
1040
3.0
1002
}
  0
DIMENSION
  5
6F76
330
DF
100
AcDbEntity
  8
SUNPOU
100
AcDbDimension
  2
*D3
 10
506.9236013825729
 20
128.1665318335153
 30
0.0
 11
393.923601382573
 21
128.1665318335153
 31
0.0
 12
162.3838412291697
 22
0.0
 32
0.0
 70
   160
 71
     5
 42
-1.0
  3
IMCADLT
100
AcDbAlignedDimension
 13
280.9236013757666
 23
255.59257203
 33
0.0
 14
506.9236013825729
 24
255.59257203
 34
0.0
100
AcDbRotatedDimension
1001
ACAD
1000
DSTYLE
1002
{
1070
    40
1040
5.0
1070
    41
1040
3.0
1002
}
  0
LINE
  5
6F85
330
DF
100
AcDbEntity
  8
JISSEN
100
AcDbLine
 10
296.4236013791698
 20
250.59257203
 30
0.0
 11
297.6681035150489
 21
242.2958911241395
 31
0.0
  0
LINE
  5
6F86
330
DF
100
AcDbEntity
  8
JISSEN
100
AcDbLine
 10
299.6459762207854
 20
240.59257203
 30
0.0
 11
316.2012265375541
 21
240.59257203
 31
0.0
  0
LINE
  5
6F87
330
DF
100
AcDbEntity
  8
JISSEN
100
AcDbLine
 10
318.1790992432907
 20
242.2958911241395
 30
0.0
 11
319.4236013791698
 21
250.59257203
 31
0.0
  0
LINE
  5
6F88
330
DF
100
AcDbEntity
  8
JISSEN
100
AcDbLine
 10
469.6681035150487
 20
242.2958911241395
 30
0.0
 11
468.4236013791697
 21
250.5925720299999
 31
0.0
  0
LINE
  5
6F89
330
DF
100
AcDbEntity
  8
JISSEN
100
AcDbLine
 10
488.201226537554
 20
240.5925720299999
 30
0.0
 11
471.6459762207853
 21
240.5925720299999
 31
0.0
  0
LINE
  5
6F8A
330
DF
100
AcDbEntity
  8
JISSEN
100
AcDbLine
 10
491.4236013791698
 20
250.5925720299999
 30
0.0
 11
490.1790992432906
 21
242.2958911241394
 31
0.0
  0
LINE
  5
6F8C
330
DF
100
AcDbEntity
  8
JISSEN
100
AcDbLine
 10
506.9236013825729
 20
252.5925720299999
 30
0.0
 11
506.9236013825729
 21
485.59257203
 31
0.0
  0
LINE
  5
6F8F
330
DF
100
AcDbEntity
  8
JISSEN
100
AcDbLine
 10
282.9236013757666
 20
250.59257203
 30
0.0
 11
504.9236013791698
 21
250.59257203
 31
0.0
  0
LINE
  5
6F93
330
DF
100
AcDbEntity
  8
JISSEN
100
AcDbLine
 10
508.923601382573
 20
520.59257203
 30
0.0
 11
506.9236013825729
 21
485.59257203
 31
0.0
  0
LINE
  5
6F94
330
DF
100
AcDbEntity
  8
JISSEN
100
AcDbLine
 10
508.923601382573
 20
520.59257203
 30
0.0
 11
499.8118638626671
 21
628.0151616985111
 31
0.0
  0
LINE
  5
6F95
330
DF
100
AcDbEntity
  8
JISSEN
100
AcDbLine
 10
494.8297540715384
 20
632.5925720285712
 30
0.0
 11
293.0174486868011
 21
632.5925720285712
 31
0.0
  0
LINE
  5
6F9A
330
DF
100
AcDbEntity
  8
JISSEN
100
AcDbLine
 10
278.9236013757666
 20
520.59257203
 30
0.0
 11
288.0353388956724
 21
628.0151616985111
 31
0.0
  0
LINE
  5
6F9B
330
DF
100
AcDbEntity
  8
JISSEN
100
AcDbLine
 10
278.9236013757666
 20
520.59257203
 30
0.0
 11
280.9236013757666
 21
485.5925720300001
 31
0.0
  0
LINE
  5
6F9C
330
DF
100
AcDbEntity
  8
JISSEN
100
AcDbLine
 10
280.9236013757666
 20
252.59257203
 30
0.0
 11
280.9236013757666
 21
454.70124346
 31
0.0
  0
ARC
  5
6F9D
330
DF
100
AcDbEntity
  8
JISSEN
100
AcDbCircle
 10
293.0174486868011
 20
627.5925720285711
 30
0.0
 40
5.0
100
AcDbArc
 50
90.00000000000003
 51
175.151695229815
  0
ARC
  5
6F9E
330
DF
100
AcDbEntity
  8
JISSEN
100
AcDbCircle
 10
494.8297540715384
 20
627.5925720285712
 30
0.0
 40
5.0
100
AcDbArc
 50
4.848304770184943
 51
90.00000000000005
  0
DIMENSION
  5
6FD9
330
DF
100
AcDbEntity
  8
SUNPOU
100
AcDbDimension
  2
*D4
 10
479.9236013791698
 20
169.9356575682152
 30
0.0
 11
391.0339391228017
 21
169.9356575682152
 31
0.0
 12
162.3838412291697
 22
0.0
 32
0.0
 70
   160
 71
     5
 42
-1.0
  3
IMCADLT
100
AcDbAlignedDimension
 13
307.9236013791698
 23
240.59257203
 33
0.0
 14
479.9236013791698
 24
240.5925720299999
 34
0.0
100
AcDbRotatedDimension
1001
ACAD
1000
DSTYLE
1002
{
1070
    40
1040
5.0
1070
    41
1040
3.0
1002
}
  0
ARC
  5
6FDA
330
DF
100
AcDbEntity
  8
JISSEN
100
AcDbCircle
 10
299.6459762207854
 20
242.59257203
 30
0.0
 40
2.0
100
AcDbArc
 50
188.5307656099479
 51
270.0
  0
ARC
  5
6FDB
330
DF
100
AcDbEntity
  8
JISSEN
100
AcDbCircle
 10
316.2012265375541
 20
242.59257203
 30
0.0
 40
2.0
100
AcDbArc
 50
270.0
 51
351.4692343900517
  0
ARC
  5
6FDC
330
DF
100
AcDbEntity
  8
JISSEN
100
AcDbCircle
 10
471.6459762207853
 20
242.5925720299999
 30
0.0
 40
2.0
100
AcDbArc
 50
188.5307656099481
 51
270.0
  0
ARC
  5
6FDD
330
DF
100
AcDbEntity
  8
JISSEN
100
AcDbCircle
 10
488.201226537554
 20
242.5925720299999
 30
0.0
 40
2.0
100
AcDbArc
 50
269.9999999999999
 51
351.4692343900519
  0
DIMENSION
  5
6FEA
330
DF
100
AcDbEntity
  8
SUNPOU
100
AcDbDimension
  2
*D5
 10
151.1022720700084
 20
632.592572028571
 30
0.0
 11
151.1022720700084
 21
448.1019807961786
 31
0.0
 12
162.3838412291697
 22
0.0
 32
0.0
 70
   160
 71
     5
 42
-1.0
  3
IMCADLT
100
AcDbAlignedDimension
 13
299.6459762207854
 23
240.59257203
 33
0.0
 14
293.0174486868011
 24
632.592572028571
 34
0.0
 50
90.0
100
AcDbRotatedDimension
1001
ACAD
1000
DSTYLE
1002
{
1070
    40
1040
5.0
1070
    41
1040
3.0
1002
}
  0
LINE
  5
7001
330
DF
100
AcDbEntity
  8
JISSEN
100
AcDbLine
 10
304.4236013791698
 20
280.59257203
 30
0.0
 11
304.4236013791698
 21
479.75230475
 31
0.0
  0
LINE
  5
7002
330
DF
100
AcDbEntity
  8
JISSEN
100
AcDbLine
 10
301.4236013791698
 20
280.59257203
 30
0.0
 11
301.4236013791698
 21
474.55615233
 31
0.0
  0
LINE
  5
7003
330
DF
100
AcDbEntity
  8
JISSEN
100
AcDbLine
 10
483.4236013791698
 20
280.59257203
 30
0.0
 11
483.4236013791698
 21
525.4988338902243
 31
0.0
  0
LINE
  5
7004
330
DF
100
AcDbEntity
  8
JISSEN
100
AcDbLine
 10
486.4236013791697
 20
280.59257203
 30
0.0
 11
486.4236013791697
 21
526.4225395251105
 31
0.0
  0
LINE
  5
7005
330
DF
100
AcDbEntity
  8
JISSEN
100
AcDbLine
 10
287.9236013791699
 20
275.59257203
 30
0.0
 11
499.9236013791698
 21
275.59257203
 31
0.0
  0
LINE
  5
7006
330
DF
100
AcDbEntity
  8
JISSEN
100
AcDbLine
 10
282.9236013723634
 20
280.59257203
 30
0.0
 11
504.923601382573
 21
280.59257203
 31
0.0
  0
LINE
  5
7007
330
DF
100
AcDbEntity
  8
JISSEN
100
AcDbLine
 10
501.9236013791697
 20
252.5925720299999
 30
0.0
 11
501.9236013791697
 21
273.59257203
 31
0.0
  0
LINE
  5
700A
330
DF
100
AcDbEntity
  8
JISSEN
100
AcDbLine
 10
285.9236013791699
 20
252.59257203
 30
0.0
 11
285.9236013791699
 21
273.59257203
 31
0.0
  0
LINE
  5
700B
330
DF
100
AcDbEntity
  8
JISSEN
100
AcDbLine
 10
501.3378149413435
 20
275.0067855925725
 30
0.0
 11
506.3378149447463
 21
280.006785592572
 31
0.0
  0
LINE
  5
700C
330
DF
100
AcDbEntity
  8
JISSEN
100
AcDbLine
 10
286.5093878169961
 20
275.0067855925725
 30
0.0
 11
281.5093878118917
 21
280.0067855942737
 31
0.0
  0
ARC
  5
7011
330
DF
100
AcDbEntity
  8
JISSEN
100
AcDbCircle
 10
504.923601382573
 20
252.5925720299999
 30
0.0
 40
2.0
100
AcDbArc
 50
270.0
 51
0.0
  0
ARC
  5
7014
330
DF
100
AcDbEntity
  8
JISSEN
100
AcDbCircle
 10
287.9236013791699
 20
252.59257203
 30
0.0
 40
2.0
100
AcDbArc
 50
180.0
 51
270.0
  0
ARC
  5
7015
330
DF
100
AcDbEntity
  8
JISSEN
100
AcDbCircle
 10
282.9236013757666
 20
252.59257203
 30
0.0
 40
2.0
100
AcDbArc
 50
180.0
 51
270.0
  0
ARC
  5
7016
330
DF
100
AcDbEntity
  8
JISSEN
100
AcDbCircle
 10
499.9236013791698
 20
252.5925720299999
 30
0.0
 40
2.0
100
AcDbArc
 50
270.0
 51
359.9999999999998
  0
ARC
  5
7018
330
DF
100
AcDbEntity
  8
JISSEN
100
AcDbCircle
 10
499.9236013791698
 20
273.59257203
 30
0.0
 40
2.0
100
AcDbArc
 50
0.0000000000244267
 51
90.0
  0
ARC
  5
7019
330
DF
100
AcDbEntity
  8
JISSEN
100
AcDbCircle
 10
287.9236013791699
 20
273.59257203
 30
0.0
 40
2.0
100
AcDbArc
 50
90.0
 51
179.9999999999999
  0
ARC
  5
701B
330
DF
100
AcDbEntity
  8
JISSEN
100
AcDbCircle
 10
504.923601382573
 20
278.5925720299991
 30
0.0
 40
2.0
100
AcDbArc
 50
0.0000000000244267
 51
90.0
  0
ARC
  5
701F
330
DF
100
AcDbEntity
  8
JISSEN
100
AcDbCircle
 10
282.9236013723634
 20
278.5925720299991
 30
0.0
 40
2.0
100
AcDbArc
 50
90.0
 51
179.9999999999756
  0
LINE
  5
7020
330
DF
100
AcDbEntity
  8
JISSEN
100
AcDbLine
 10
483.4236013791698
 20
595.5925720285712
 30
0.0
 11
304.4236013791698
 21
595.5925720285712
 31
0.0
  0
LINE
  5
7021
330
DF
100
AcDbEntity
  8
JISSEN
100
AcDbLine
 10
445.1736013791698
 20
575.5925720285712
 30
0.0
 11
342.6736013791698
 21
575.5925720285712
 31
0.0
  0
LINE
  5
7022
330
DF
100
AcDbEntity
  8
JISSEN
100
AcDbLine
 10
499.8118638591698
 20
558.0925720285712
 30
0.0
 11
282.1044049482541
 21
558.0925720285712
 31
0.0
  0
LINE
  5
7023
330
DF
100
AcDbEntity
  8
JISSEN
100
AcDbLine
 10
458.4236013791698
 20
553.092572028571
 30
0.0
 11
311.9236013791698
 21
553.092572028571
 31
0.0
  0
LINE
  5
7024
330
DF
100
AcDbEntity
  8
JISSEN
100
AcDbLine
 10
458.4236013791697
 20
518.0925720285712
 30
0.0
 11
311.9236013791698
 21
518.0925720285712
 31
0.0
  0
LINE
  5
7028
330
DF
100
AcDbEntity
  8
JISSEN
100
AcDbLine
 10
332.6736013791698
 20
585.5925720285712
 30
0.0
 11
332.6736013791698
 21
595.5925720285711
 31
0.0
  0
LINE
  5
7029
330
DF
100
AcDbEntity
  8
JISSEN
100
AcDbLine
 10
455.1736013791698
 20
585.5925720285712
 30
0.0
 11
455.1736013791698
 21
595.5925720285712
 31
0.0
  0
ARC
  5
702A
330
DF
100
AcDbEntity
  8
JISSEN
100
AcDbCircle
 10
342.6736013791698
 20
585.5925720285712
 30
0.0
 40
10.0
100
AcDbArc
 50
180.0
 51
270.0000000000001
  0
ARC
  5
702B
330
DF
100
AcDbEntity
  8
JISSEN
100
AcDbCircle
 10
445.1736013791698
 20
585.5925720285712
 30
0.0
 40
10.0
100
AcDbArc
 50
270.0
 51
0.0
  0
LINE
  5
702E
330
DF
100
AcDbEntity
  8
JISSEN
100
AcDbLine
 10
499.8118638591698
 20
558.0925720285712
 30
0.0
 11
508.923601382573
 21
520.59257203
 31
0.0
  0
LINE
  5
702F
330
DF
100
AcDbEntity
  8
JISSEN
100
AcDbLine
 10
499.8118638591697
 20
280.59257203
 30
0.0
 11
499.8118638591697
 21
628.015161739743
 31
0.0
  0
LINE
  5
7030
330
DF
100
AcDbEntity
  8
JISSEN
100
AcDbLine
 10
288.0353388991698
 20
558.0925720285712
 30
0.0
 11
278.9236013757666
 21
520.59257203
 31
0.0
  0
LINE
  5
7031
330
DF
100
AcDbEntity
  8
JISSEN
100
AcDbLine
 10
288.0353388991699
 20
280.59257203
 30
0.0
 11
288.0353388991699
 21
457.0851790499999
 31
0.0
  0
LINE
  5
7032
330
DF
100
AcDbEntity
  8
JISSEN
100
AcDbLine
 10
461.4236013791697
 20
521.0925720285712
 30
0.0
 11
461.4236013791697
 21
550.0925720285711
 31
0.0
  0
LINE
  5
7033
330
DF
100
AcDbEntity
  8
JISSEN
100
AcDbLine
 10
308.9236013791698
 20
521.0925720285711
 30
0.0
 11
308.9236013791698
 21
550.0925720285711
 31
0.0
  0
ARC
  5
7034
330
DF
100
AcDbEntity
  8
JISSEN
100
AcDbCircle
 10
458.4236013791698
 20
550.0925720285711
 30
0.0
 40
3.0
100
AcDbArc
 50
0.0
 51
90.0
  0
ARC
  5
7035
330
DF
100
AcDbEntity
  8
JISSEN
100
AcDbCircle
 10
458.4236013791697
 20
521.0925720285712
 30
0.0
 40
3.0
100
AcDbArc
 50
270.0000000000001
 51
0.0
  0
ARC
  5
7036
330
DF
100
AcDbEntity
  8
JISSEN
100
AcDbCircle
 10
311.9236013791698
 20
521.0925720285711
 30
0.0
 40
3.0
100
AcDbArc
 50
180.0
 51
270.0000000000001
  0
ARC
  5
7037
330
DF
100
AcDbEntity
  8
JISSEN
100
AcDbCircle
 10
311.9236013791698
 20
550.0925720285711
 30
0.0
 40
3.0
100
AcDbArc
 50
90.0
 51
180.0
  0
LINE
  5
7038
330
DF
100
AcDbEntity
  8
JISSEN
100
AcDbLine
 10
499.8118638591697
 20
505.5925720285712
 30
0.0
 11
288.0353388991699
 21
505.5925720285712
 31
0.0
  0
LINE
  5
703B
330
DF
100
AcDbEntity
  8
JISSEN
100
AcDbLine
 10
499.8118638591697
 20
458.0925720285712
 30
0.0
 11
460.6038211154123
 21
458.0925720285712
 31
0.0
  0
LINE
  5
703C
330
DF
100
AcDbEntity
  8
JISSEN
100
AcDbLine
 10
481.4236013791698
 20
463.0925720285712
 30
0.0
 11
470.870522645649
 21
463.0925720285712
 31
0.0
  0
LINE
  5
7040
330
DF
100
AcDbEntity
  8
JISSEN
100
AcDbLine
 10
481.4236013791698
 20
498.0925720285711
 30
0.0
 11
466.9236013791698
 21
498.0925720285711
 31
0.0
  0
LINE
  5
7041
330
DF
100
AcDbEntity
  8
JISSEN
100
AcDbLine
 10
409.4236013791697
 20
485.5925720285711
 30
0.0
 11
363.4236013791698
 21
485.5925720285711
 31
0.0
  0
LINE
  5
7044
330
DF
100
AcDbEntity
  8
JISSEN
100
AcDbLine
 10
406.4236013791698
 20
472.0925720285711
 30
0.0
 11
406.4236013791698
 21
451.5925720285711
 31
0.0
  0
LINE
  5
7045
330
DF
100
AcDbEntity
  8
JISSEN
100
AcDbLine
 10
366.4236013791698
 20
472.0925720285711
 30
0.0
 11
366.4236013791698
 21
451.5925720285711
 31
0.0
  0
LINE
  5
7048
330
DF
100
AcDbEntity
  8
JISSEN
100
AcDbLine
 10
406.2492659277905
 20
472.6567334001229
 30
0.0
 11
409.4236013791697
 21
485.5925720285711
 31
0.0
  0
LINE
  5
7049
330
DF
100
AcDbEntity
  8
JISSEN
100
AcDbLine
 10
366.5979368305492
 20
472.6567334001226
 30
0.0
 11
363.4236013791698
 21
485.5925720285711
 31
0.0
  0
LINE
  5
704A
330
DF
100
AcDbEntity
  8
JISSEN
100
AcDbLine
 10
406.6750451086281
 20
451.2211813522172
 30
0.0
 11
409.4236013791697
 21
463.0925720285711
 31
0.0
  0
LINE
  5
704B
330
DF
100
AcDbEntity
  8
JISSEN
100
AcDbLine
 10
366.1721576497115
 20
451.221181352217
 30
0.0
 11
363.4236013791698
 21
463.0925720285711
 31
0.0
  0
LINE
  5
704C
330
DF
100
AcDbEntity
  8
JISSEN
100
AcDbLine
 10
405.7465684177429
 20
450.5925720285712
 30
0.0
 11
367.1006343405967
 21
450.5925720285712
 31
0.0
  0
LINE
  5
704D
330
DF
100
AcDbEntity
  8
JISSEN
100
AcDbLine
 10
409.4236013791697
 20
485.5925720285711
 30
0.0
 11
409.4236013791697
 21
463.0925720285711
 31
0.0
  0
LINE
  5
704F
330
DF
100
AcDbEntity
  8
JISSEN
100
AcDbLine
 10
363.4236013791698
 20
463.0925720285711
 30
0.0
 11
363.4236013791698
 21
485.5925720285711
 31
0.0
  0
LINE
  5
7051
330
DF
100
AcDbEntity
  8
JISSEN
100
AcDbLine
 10
367.4236013791698
 20
473.0925720285711
 30
0.0
 11
405.4236013791698
 21
473.0925720285711
 31
0.0
  0
LINE
  5
7053
330
DF
100
AcDbEntity
  8
JISSEN
100
AcDbLine
 10
368.4236013791698
 20
470.092572028571
 30
0.0
 11
368.4236013791698
 21
453.592572028571
 31
0.0
  0
LINE
  5
7054
330
DF
100
AcDbEntity
  8
JISSEN
100
AcDbLine
 10
404.4236013791698
 20
470.0925720285712
 30
0.0
 11
404.4236013791698
 21
453.592572028571
 31
0.0
  0
LINE
  5
7055
330
DF
100
AcDbEntity
  8
JISSEN
100
AcDbLine
 10
403.4236013791697
 20
452.5925720285711
 30
0.0
 11
369.4236013791698
 21
452.5925720285711
 31
0.0
  0
LINE
  5
7056
330
DF
100
AcDbEntity
  8
JISSEN
100
AcDbLine
 10
369.4236013791698
 20
471.0925720285711
 30
0.0
 11
403.4236013791697
 21
471.0925720285711
 31
0.0
  0
LINE
  5
7057
330
DF
100
AcDbEntity
  8
JISSEN
100
AcDbLine
 10
363.4236013791698
 20
463.0925720285711
 30
0.0
 11
306.4236013791697
 21
463.0925720285711
 31
0.0
  0
LINE
  5
7058
330
DF
100
AcDbEntity
  8
JISSEN
100
AcDbLine
 10
364.5812400861565
 20
458.0925720285711
 30
0.0
 11
288.0353388991699
 21
458.0925720285711
 31
0.0
  0
ARC
  5
7059
330
DF
100
AcDbEntity
  8
JISSEN
100
AcDbCircle
 10
369.4236013791698
 20
453.592572028571
 30
0.0
 40
1.0
100
AcDbArc
 50
180.0
 51
270.0
  0
ARC
  5
705A
330
DF
100
AcDbEntity
  8
JISSEN
100
AcDbCircle
 10
403.4236013791697
 20
453.592572028571
 30
0.0
 40
1.0
100
AcDbArc
 50
270.0000000000001
 51
0.0
  0
ARC
  5
705B
330
DF
100
AcDbEntity
  8
JISSEN
100
AcDbCircle
 10
405.4236013791698
 20
451.5925720285711
 30
0.0
 40
1.0
100
AcDbArc
 50
270.0
 51
0.0
  0
ARC
  5
705C
330
DF
100
AcDbEntity
  8
JISSEN
100
AcDbCircle
 10
367.4236013791698
 20
451.5925720285711
 30
0.0
 40
1.0
100
AcDbArc
 50
180.0
 51
270.0
  0
ARC
  5
705D
330
DF
100
AcDbEntity
  8
JISSEN
100
AcDbCircle
 10
367.4236013791698
 20
472.0925720285711
 30
0.0
 40
1.0
100
AcDbArc
 50
90.0
 51
180.0
  0
ARC
  5
705E
330
DF
100
AcDbEntity
  8
JISSEN
100
AcDbCircle
 10
405.4236013791698
 20
472.0925720285711
 30
0.0
 40
1.0
100
AcDbArc
 50
0.0000000000000509
 51
90.0
  0
ARC
  5
705F
330
DF
100
AcDbEntity
  8
JISSEN
100
AcDbCircle
 10
369.4236013791698
 20
470.092572028571
 30
0.0
 40
1.0
100
AcDbArc
 50
90.0
 51
179.9999999999999
  0
ARC
  5
7060
330
DF
100
AcDbEntity
  8
JISSEN
100
AcDbCircle
 10
403.4236013791697
 20
470.0925720285712
 30
0.0
 40
1.0
100
AcDbArc
 50
360.0
 51
90.0000000000001
  0
ARC
  5
7063
330
DF
100
AcDbEntity
  8
JISSEN
100
AcDbCircle
 10
405.7465684177429
 20
451.5925720285712
 30
0.0
 40
1.0
100
AcDbArc
 50
270.0
 51
338.1985905136482
  0
ARC
  5
7064
330
DF
100
AcDbEntity
  8
JISSEN
100
AcDbCircle
 10
367.1006343405967
 20
451.5925720285711
 30
0.0
 40
1.0
100
AcDbArc
 50
201.8014094863518
 51
270.0000000000001
  0
LINE
  5
7069
330
DF
100
AcDbEntity
  8
ITTEN
100
AcDbLine
 10
393.9236013791698
 20
217.32698238
 30
0.0
 11
393.9236013791698
 21
687.61238916
 31
0.0
  0
LINE
  5
7070
330
DF
100
AcDbEntity
  8
JISSEN
100
AcDbLine
 10
358.4236013791698
 20
476.84257203
 30
0.0
 11
358.4236013791698
 21
476.84257203
 31
0.0
  0
LINE
  5
7099
330
DF
100
AcDbEntity
  8
JISSEN
100
AcDbLine
 10
304.4236013791698
 20
479.7523047494305
 30
0.0
 11
304.4236013791698
 21
632.592572028571
 31
0.0
  0
LINE
  5
709A
330
DF
100
AcDbEntity
  8
JISSEN
100
AcDbLine
 10
301.4236013791698
 20
474.5561523267239
 30
0.0
 11
301.4236013791698
 21
632.592572028571
 31
0.0
  0
LINE
  5
70A8
330
DF
100
AcDbEntity
  8
JISSEN
100
AcDbLine
 10
280.9236013757666
 20
454.7012434583314
 30
0.0
 11
280.9236013757666
 21
485.5925720300001
 31
0.0
  0
LINE
  5
70D2
330
DF
100
AcDbEntity
  8
JISSEN
100
AcDbLine
 10
481.4236013791698
 20
497.0925720285711
 30
0.0
 11
306.4236013791698
 21
497.0925720285711
 31
0.0
  0
ARC
  5
70D3
330
DF
100
AcDbEntity
  8
JISSEN
100
AcDbCircle
 10
481.4236013791698
 20
495.092572028571
 30
0.0
 40
2.0
100
AcDbArc
 50
0.0
 51
90.0
  0
ARC
  5
70D4
330
DF
100
AcDbEntity
  8
JISSEN
100
AcDbCircle
 10
481.4236013791698
 20
496.0925720285711
 30
0.0
 40
2.0
100
AcDbArc
 50
0.0
 51
90.0
  0
ARC
  5
70D5
330
DF
100
AcDbEntity
  8
JISSEN
100
AcDbCircle
 10
306.4236013791698
 20
495.092572028571
 30
0.0
 40
2.0
100
AcDbArc
 50
90.00000000000003
 51
180.0
  0
ARC
  5
70D6
330
DF
100
AcDbEntity
  8
JISSEN
100
AcDbCircle
 10
306.4236013791699
 20
496.0925720285712
 30
0.0
 40
2.0
100
AcDbArc
 50
90.00000000000003
 51
180.0
  0
ARC
  5
70D7
330
DF
100
AcDbEntity
  8
JISSEN
100
AcDbCircle
 10
481.4236013791698
 20
465.0925720285711
 30
0.0
 40
2.0
100
AcDbArc
 50
270.0000000000001
 51
0.0
  0
LINE
  5
70DA
330
DF
100
AcDbEntity
  8
JISSEN
100
AcDbLine
 10
439.9236013791698
 20
498.0925720285711
 30
0.0
 11
306.4236013791699
 21
498.0925720285711
 31
0.0
  0
ELLIPSE
  5
70E4
330
DF
100
AcDbEntity
  8
JISSEN
100
AcDbEllipse
 10
453.4236013791697
 20
468.59257203
 30
0.0
 11
-20.0
 21
0.0
 31
0.0
210
0.0
220
0.0
230
1.0
 40
0.5625
 41
0.0
 42
6.283185307179586
1001
ACAD_OBJECT_CHANGE_GUID
1070
     0
1071
        0
1070
     0
1070
     0
1070
     0
1070
     0
1070
     0
1070
     0
1070
     0
1070
     0
1070
     0
1070
     0
1070
     0
1071
        0
1070
     0
1070
     0
1070
     0
1070
     0
1070
     0
1070
     0
1070
     0
1070
     0
1070
     0
1070
     0
1070
     0
1071
        0
1070
     0
1070
     0
1070
     0
1070
     0
1070
     0
1070
     0
1070
     0
1070
     0
1070
     0
1070
     0
  0
ELLIPSE
  5
70E6
330
DF
100
AcDbEntity
  8
JISSEN
100
AcDbEllipse
 10
453.4236013791697
 20
475.84257203
 30
0.0
 11
-20.0
 21
0.0
 31
0.0
210
0.0
220
0.0
230
1.0
 40
0.5625
 41
3.141592653589793
 42
6.283185307179586
1001
ACAD_OBJECT_CHANGE_GUID
1070
     0
1071
        0
1070
     0
1070
     0
1070
     0
1070
     0
1070
     0
1070
     0
1070
     0
1070
     0
1070
     0
1070
     0
1070
     0
1071
        0
1070
     0
1070
     0
1070
     0
1070
     0
1070
     0
1070
     0
1070
     0
1070
     0
1070
     0
1070
     0
1070
     0
1071
        0
1070
     0
1070
     0
1070
     0
1070
     0
1070
     0
1070
     0
1070
     0
1070
     0
1070
     0
1070
     0
  0
LINE
  5
70EA
330
DF
100
AcDbEntity
  8
JISSEN
100
AcDbLine
 10
473.4236013791697
 20
475.8425720300023
 30
0.0
 11
473.4236013791697
 21
468.5925720300023
 31
0.0
  0
LINE
  5
70EB
330
DF
100
AcDbEntity
  8
JISSEN
100
AcDbLine
 10
433.4236013791698
 20
475.8425720299953
 30
0.0
 11
433.4236013791698
 21
468.5925720299999
 31
0.0
  0
LINE
  5
70FE
330
DF
100
AcDbEntity
  8
JISSEN
100
AcDbLine
 10
465.9236013791698
 20
484.6246004652478
 30
0.0
 11
465.9236013791698
 21
497.0925720285712
 31
0.0
  0
LINE
  5
70FF
330
DF
100
AcDbEntity
  8
JISSEN
100
AcDbLine
 10
461.9236013791698
 20
486.0259972120053
 30
0.0
 11
461.9236013791698
 21
497.0925720285711
 31
0.0
  0
LINE
  5
7100
330
DF
100
AcDbEntity
  8
JISSEN
100
AcDbLine
 10
444.9236013791698
 20
486.0259972120054
 30
0.0
 11
444.9236013791698
 21
497.0925720285711
 31
0.0
  0
LINE
  5
7101
330
DF
100
AcDbEntity
  8
JISSEN
100
AcDbLine
 10
440.9236013791698
 20
484.6246004652478
 30
0.0
 11
440.9236013791698
 21
497.0925720285711
 31
0.0
  0
LINE
  5
7102
330
DF
100
AcDbEntity
  8
JISSEN
100
AcDbLine
 10
435.9766801126906
 20
463.0925720285711
 30
0.0
 11
409.4236013791697
 21
463.0925720285711
 31
0.0
  0
LINE
  5
7103
330
DF
100
AcDbEntity
  8
JISSEN
100
AcDbLine
 10
446.2433816429273
 20
458.0925720285711
 30
0.0
 11
408.2659626721831
 21
458.0925720285711
 31
0.0
  0
ELLIPSE
  5
7104
330
DF
100
AcDbEntity
  8
JISSEN
100
AcDbEllipse
 10
453.4236013791697
 20
468.59257203
 30
0.0
 11
-4.0
 21
0.0
 31
0.0
210
0.0
220
0.0
230
1.0
 40
0.5625
 41
0.0
 42
6.283185307179586
1001
ACAD_OBJECT_CHANGE_GUID
1070
     0
1071
        0
1070
     0
1070
     0
1070
     0
1070
     0
1070
     0
1070
     0
1070
     0
1070
     0
1070
     0
1070
     0
1070
     0
1071
        0
1070
     0
1070
     0
1070
     0
1070
     0
1070
     0
1070
     0
1070
     0
1070
     0
1070
     0
1070
     0
1070
     0
1071
        0
1070
     0
1070
     0
1070
     0
1070
     0
1070
     0
1070
     0
1070
     0
1070
     0
1070
     0
1070
     0
  0
ARC
  5
7105
330
DF
100
AcDbEntity
  8
JISSEN
100
AcDbCircle
 10
466.9236013791698
 20
497.0925720285712
 30
0.0
 40
1.0
100
AcDbArc
 50
90.0
 51
180.0
  0
ARC
  5
7106
330
DF
100
AcDbEntity
  8
JISSEN
100
AcDbCircle
 10
439.9236013791698
 20
497.0925720285711
 30
0.0
 40
1.0
100
AcDbArc
 50
0.0
 51
89.99999999999998
  0
LINE
  5
7108
330
DF
100
AcDbEntity
  8
JISSEN
100
AcDbLine
 10
492.7682451604767
 20
533.3136766962513
 30
0.0
 11
492.7682451604767
 21
536.7511766962479
 31
0.0
  0
ELLIPSE
  5
7109
330
DF
100
AcDbEntity
  8
JISSEN
100
AcDbEllipse
 10
477.7682451604768
 20
533.3136766962479
 30
0.0
 11
15.0
 21
-0.0000000000000018
 31
0.0
210
0.0
220
0.0
230
1.0
 40
0.5625
 41
3.141592653589793
 42
6.283185307179586
1001
ACAD_OBJECT_CHANGE_GUID
1070
     0
1071
        0
1070
     0
1070
     0
1070
     0
1070
     0
1070
     0
1070
     0
1070
     0
1070
     0
1070
     0
1070
     0
1070
     0
1071
        0
1070
     0
1070
     0
1070
     0
1070
     0
1070
     0
1070
     0
1070
     0
1070
     0
1070
     0
1070
     0
1070
     0
1071
        0
1070
     0
1070
     0
1070
     0
1070
     0
1070
     0
1070
     0
1070
     0
1070
     0
1070
     0
1070
     0
  0
ELLIPSE
  5
710A
330
DF
100
AcDbEntity
  8
JISSEN
100
AcDbEllipse
 10
477.7682451604767
 20
536.7511766962479
 30
0.0
 11
15.0
 21
-0.0000000000000018
 31
0.0
210
0.0
220
0.0
230
1.0
 40
0.5625
 41
0.0
 42
6.283185307179586
1001
ACAD_OBJECT_CHANGE_GUID
1070
     0
1071
        0
1070
     0
1070
     0
1070
     0
1070
     0
1070
     0
1070
     0
1070
     0
1070
     0
1070
     0
1070
     0
1070
     0
1071
        0
1070
     0
1070
     0
1070
     0
1070
     0
1070
     0
1070
     0
1070
     0
1070
     0
1070
     0
1070
     0
1070
     0
1071
        0
1070
     0
1070
     0
1070
     0
1070
     0
1070
     0
1070
     0
1070
     0
1070
     0
1070
     0
1070
     0
  0
LINE
  5
710B
330
DF
100
AcDbEntity
  8
JISSEN
100
AcDbLine
 10
462.7682451604767
 20
533.3136766962462
 30
0.0
 11
462.7682451604767
 21
536.7511766962461
 31
0.0
  0
LINE
  5
7115
330
DF
100
AcDbEntity
  8
JISSEN
100
AcDbLine
 10
470.2682451589163
 20
537.3040577530144
 30
0.0
 11
470.2682451589163
 21
532.6438037151701
 31
0.0
  0
LINE
  5
7116
330
DF
100
AcDbEntity
  8
JISSEN
100
AcDbLine
 10
470.2682451589163
 20
532.6438037151701
 30
0.0
 11
477.7682451589164
 21
528.313676696248
 31
0.0
  0
LINE
  5
7117
330
DF
100
AcDbEntity
  8
JISSEN
100
AcDbLine
 10
477.7682451589164
 20
528.313676696248
 30
0.0
 11
485.2682451589162
 21
532.6438037151699
 31
0.0
  0
LINE
  5
7118
330
DF
100
AcDbEntity
  8
JISSEN
100
AcDbLine
 10
485.2682451589162
 20
532.6438037151699
 30
0.0
 11
485.2682451589162
 21
537.3040577530144
 31
0.0
  0
LINE
  5
7119
330
DF
100
AcDbEntity
  8
JISSEN
100
AcDbLine
 10
485.2682451589163
 20
537.3040577530144
 30
0.0
 11
483.6311446953081
 21
538.249238146369
 31
0.0
  0
LINE
  5
711A
330
DF
100
AcDbEntity
  8
JISSEN
100
AcDbLine
 10
471.9053456166007
 20
538.249238142949
 30
0.0
 11
470.2682451589163
 21
537.3040577530144
 31
0.0
  0
ARC
  5
711E
330
DF
100
AcDbEntity
  8
JISSEN
100
AcDbCircle
 10
477.7682451563264
 20
536.9739307340924
 30
0.0
 40
6.0
100
AcDbArc
 50
103.1919161625089
 51
76.80808383749104
  0
CIRCLE
  5
7121
330
DF
100
AcDbEntity
  8
JISSEN
100
AcDbCircle
 10
477.7682451563264
 20
540.7239307340923
 30
0.0
 40
2.5
  0
LINE
  5
7122
330
DF
100
AcDbEntity
  8
JISSEN
100
AcDbLine
 10
486.4236013791698
 20
543.6423138673872
 30
0.0
 11
486.4236013791698
 21
632.5925720285712
 31
0.0
  0
LINE
  5
7123
330
DF
100
AcDbEntity
  8
JISSEN
100
AcDbLine
 10
483.4236013791698
 20
544.5660195022729
 30
0.0
 11
483.4236013791698
 21
632.5925720285712
 31
0.0
  0
LINE
  5
712E
330
DF
100
AcDbEntity
  8
JISSEN
100
AcDbLine
 10
869.3858458600001
 20
283.6481275855556
 30
0.0
 11
727.2194358011325
 21
275.7499936933963
 31
0.0
  0
LINE
  5
712F
330
DF
100
AcDbEntity
  8
JISSEN
100
AcDbLine
 10
724.38584586
 20
272.75461263378
 30
0.0
 11
724.38584586
 21
253.59257203
 31
0.0
  0
LINE
  5
7130
330
DF
100
AcDbEntity
  8
JISSEN
100
AcDbLine
 10
727.3858458600001
 20
250.59257203
 30
0.0
 11
987.38584586
 21
250.59257203
 31
0.0
  0
LINE
  5
7131
330
DF
100
AcDbEntity
  8
JISSEN
100
AcDbLine
 10
988.38584586
 20
251.59257203
 30
0.0
 11
988.38584586
 21
576.59257203
 31
0.0
  0
LINE
  5
7132
330
DF
100
AcDbEntity
  8
JISSEN
100
AcDbLine
 10
819.3858458600001
 20
449.6662027829074
 30
0.0
 11
819.3858458600001
 21
285.6002821348111
 31
0.0
  0
LINE
  5
7134
330
DF
100
AcDbEntity
  8
JISSEN
100
AcDbLine
 10
980.646201946222
 20
632.59257203
 30
0.0
 11
872.2878404400001
 21
632.59257203
 31
0.0
  0
LINE
  5
7136
330
DF
100
AcDbEntity
  8
JISSEN
100
AcDbLine
 10
814.1873007223614
 20
458.4380914737599
 30
0.0
 11
730.7963952002096
 21
504.0836397595698
 31
0.0
  0
LINE
  5
7138
330
DF
100
AcDbEntity
  8
JISSEN
100
AcDbLine
 10
791.4418280026116
 20
541.4476675900226
 30
0.0
 11
749.5336870991263
 21
568.7982437586131
 31
0.0
  0
ARC
  5
713F
330
DF
100
AcDbEntity
  8
JISSEN
100
AcDbCircle
 10
872.2878404374906
 20
482.59257203
 30
0.0
 40
150.0
100
AcDbArc
 50
89.99999999904144
 51
167.5161759202771
  0
ARC
  5
7140
330
DF
100
AcDbEntity
  8
JISSEN
100
AcDbCircle
 10
872.2878404374906
 20
482.59257203
 30
0.0
 40
100.0
100
AcDbArc
 50
89.99999999904144
 51
140.5134434845898
  0
LINE
  5
7142
330
DF
100
AcDbEntity
  8
JISSEN
100
AcDbLine
 10
869.3858458600001
 20
476.3348643948233
 30
0.0
 11
869.3858458600001
 21
250.59257203
 31
0.0
  0
ARC
  5
7147
330
DF
100
AcDbEntity
  8
JISSEN
100
AcDbCircle
 10
786.6634710183843
 20
242.59257203
 30
0.0
 40
2.0
100
AcDbArc
 50
270.0
 51
351.4692343900517
  0
ARC
  5
7148
330
DF
100
AcDbEntity
  8
JISSEN
100
AcDbCircle
 10
770.1082207016156
 20
242.59257203
 30
0.0
 40
2.0
100
AcDbArc
 50
188.5307656099479
 51
270.0
  0
LINE
  5
7149
330
DF
100
AcDbEntity
  8
JISSEN
100
AcDbLine
 10
788.641343724121
 20
242.2958911241395
 30
0.0
 11
789.88584586
 21
250.59257203
 31
0.0
  0
LINE
  5
714A
330
DF
100
AcDbEntity
  8
JISSEN
100
AcDbLine
 10
770.1082207016156
 20
240.59257203
 30
0.0
 11
786.6634710183843
 21
240.59257203
 31
0.0
  0
LINE
  5
714B
330
DF
100
AcDbEntity
  8
JISSEN
100
AcDbLine
 10
766.8858458599999
 20
250.59257203
 30
0.0
 11
768.1303479958789
 21
242.2958911241395
 31
0.0
  0
ARC
  5
714C
330
DF
100
AcDbEntity
  8
JISSEN
100
AcDbCircle
 10
971.6634710183845
 20
242.59257203
 30
0.0
 40
2.0
100
AcDbArc
 50
269.9999999999999
 51
351.4692343900519
  0
ARC
  5
714D
330
DF
100
AcDbEntity
  8
JISSEN
100
AcDbCircle
 10
955.1082207016158
 20
242.59257203
 30
0.0
 40
2.0
100
AcDbArc
 50
188.5307656099481
 51
270.0
  0
LINE
  5
714E
330
DF
100
AcDbEntity
  8
JISSEN
100
AcDbLine
 10
974.88584586
 20
250.59257203
 30
0.0
 11
973.641343724121
 21
242.2958911241395
 31
0.0
  0
LINE
  5
714F
330
DF
100
AcDbEntity
  8
JISSEN
100
AcDbLine
 10
971.6634710183845
 20
240.59257203
 30
0.0
 11
955.1082207016158
 21
240.59257203
 31
0.0
  0
LINE
  5
7150
330
DF
100
AcDbEntity
  8
JISSEN
100
AcDbLine
 10
953.1303479958792
 20
242.2958911241396
 30
0.0
 11
951.8858458600002
 21
250.59257203
 31
0.0
  0
LINE
  5
7153
330
DF
100
AcDbEntity
  8
JISSEN
100
AcDbLine
 10
791.9883646508536
 20
542.2851027768451
 30
0.0
 11
750.0802237473684
 21
569.6356789454354
 31
0.0
  0
LINE
  5
7159
330
DF
100
AcDbEntity
  8
JISSEN
100
AcDbLine
 10
814.3858458574465
 20
452.4030448897168
 30
0.0
 11
814.3858458599297
 21
285.3225043571038
 31
0.0
  0
ARC
  5
7162
330
DF
100
AcDbEntity
  8
JISSEN
100
AcDbCircle
 10
809.3858458599298
 20
285.3225043570295
 30
0.0
 40
5.0
100
AcDbArc
 50
273.1798301198643
 51
0.0000000008515363
  0
ARC
  5
7163
330
DF
100
AcDbEntity
  8
JISSEN
100
AcDbCircle
 10
814.38584586
 20
285.6002821348111
 30
0.0
 40
5.0
100
AcDbArc
 50
273.1798301198642
 51
0.0
  0
ARC
  5
7164
330
DF
100
AcDbEntity
  8
JISSEN
100
AcDbCircle
 10
727.38584586
 20
272.75461263378
 30
0.0
 40
3.0
100
AcDbArc
 50
93.17983011986424
 51
180.0
  0
ARC
  5
7165
330
DF
100
AcDbEntity
  8
JISSEN
100
AcDbCircle
 10
727.3858458600001
 20
253.59257203
 30
0.0
 40
3.0
100
AcDbArc
 50
180.0
 51
270.0
  0
LINE
  5
7166
330
DF
100
AcDbEntity
  8
JISSEN
100
AcDbLine
 10
874.38584586
 20
476.33486439
 30
0.0
 11
874.38584586
 21
250.59257203
 31
0.0
  0
LINE
  5
7168
330
DF
100
AcDbEntity
  8
JISSEN
100
AcDbLine
 10
987.3858458600002
 20
577.59257203
 30
0.0
 11
872.2878404400001
 21
577.59257203
 31
0.0
  0
ARC
  5
7169
330
DF
100
AcDbEntity
  8
JISSEN
100
AcDbCircle
 10
872.2878404374906
 20
482.59257203
 30
0.0
 40
95.0
100
AcDbArc
 50
89.99999999904144
 51
140.513443484591
  0
LINE
  5
716F
330
DF
100
AcDbEntity
  8
JISSEN
100
AcDbLine
 10
983.6338815656251
 20
629.8641792681276
 30
0.0
 11
988.25415750212
 21
579.0411439666804
 31
0.0
  0
ARC
  5
7170
330
DF
100
AcDbEntity
  8
JISSEN
100
AcDbCircle
 10
980.646201946222
 20
629.59257203
 30
0.0
 40
3.0
100
AcDbArc
 50
5.19442890773482
 51
90.0
  0
LINE
  5
7171
330
DF
100
AcDbEntity
  8
JISSEN
100
AcDbLine
 10
983.3858458599999
 20
250.59257203
 30
0.0
 11
983.3858458599999
 21
577.59257203
 31
0.0
  0
LINE
  5
7172
330
DF
100
AcDbEntity
  8
JISSEN
100
AcDbLine
 10
978.6132629214492
 20
629.8641792681276
 30
0.0
 11
983.3652272158239
 21
577.59257203
 31
0.0
  0
LINE
  5
7174
330
DF
100
AcDbEntity
  8
JISSEN
100
AcDbLine
 10
982.9106817612785
 20
582.59257203
 30
0.0
 11
872.2878404400001
 21
582.59257203
 31
0.0
  0
LINE
  5
7175
330
DF
100
AcDbEntity
  8
JISSEN
100
AcDbLine
 10
983.3652272158239
 20
577.59257203
 30
0.0
 11
987.3488000416948
 21
577.9547150141701
 31
0.0
  0
ARC
  5
7176
330
DF
100
AcDbEntity
  8
JISSEN
100
AcDbCircle
 10
975.625583302046
 20
629.59257203
 30
0.0
 40
3.0
100
AcDbArc
 50
5.194428907734566
 51
90.0
  0
ARC
  5
7177
330
DF
100
AcDbEntity
  8
JISSEN
100
AcDbCircle
 10
980.646201946222
 20
629.59257203
 30
0.0
 40
3.0
100
AcDbArc
 50
5.194428907734566
 51
90.0
  0
ARC
  5
7178
330
DF
100
AcDbEntity
  8
JISSEN
100
AcDbCircle
 10
987.3858458600002
 20
576.59257203
 30
0.0
 40
1.0
100
AcDbArc
 50
0.0
 51
90.0
  0
ARC
  5
7179
330
DF
100
AcDbEntity
  8
JISSEN
100
AcDbCircle
 10
987.2582642956523
 20
578.9506082206378
 30
0.0
 40
1.0
100
AcDbArc
 50
275.1944289077349
 51
5.194428907734552
  0
ARC
  5
717A
330
DF
100
AcDbEntity
  8
JISSEN
100
AcDbCircle
 10
987.38584586
 20
251.59257203
 30
0.0
 40
1.0
100
AcDbArc
 50
270.0
 51
360.0
  0
SPLINE
  5
717F
330
DF
100
AcDbEntity
  8
JISSEN
100
AcDbSpline
210
0.0
220
0.0
230
1.0
 70
  1064
 71
     3
 72
    11
 73
     7
 74
     5
 42
0.0000000001
 43
0.0000000001
 44
0.0000000001
 40
0.0
 40
0.0
 40
0.0
 40
0.0
 40
9.903364549848676
 40
17.18093630216195
 40
21.99724315863041
 40
28.99033489637439
 40
28.99033489637439
 40
28.99033489637439
 40
28.99033489637439
 10
1059.134021827471
 20
310.1055837605595
 30
0.0
 10
1055.623741974898
 20
307.0248420421886
 30
0.0
 10
1049.533903087694
 20
301.6801910440029
 30
0.0
 10
1060.46384451654
 20
299.1661359616005
 30
0.0
 10
1059.563632680804
 20
291.5850736010349
 30
0.0
 10
1056.32187484063
 20
289.1834930468874
 30
0.0
 10
1054.402225013669
 20
287.761365324061
 30
0.0
 11
1059.134021827471
 21
310.1055837605595
 31
0.0
 11
1053.462968595666
 21
301.9867301069194
 31
0.0
 11
1059.304256808161
 21
297.6459464646923
 31
0.0
 11
1059.219735693772
 21
292.8303812936156
 31
0.0
 11
1054.402225013669
 21
287.761365324061
 31
0.0
1001
ACAD_OBJECT_CHANGE_GUID
1070
     0
1071
        0
1070
     0
1070
     0
1070
     0
1070
     0
1070
     0
1070
     0
1070
     0
1070
     0
1070
     0
1070
     0
1070
     0
1071
        0
1070
     0
1070
     0
1070
     0
1070
     0
1070
     0
1070
     0
1070
     0
1070
     0
1070
     0
1070
     0
1070
     0
1071
        0
1070
     0
1070
     0
1070
     0
1070
     0
1070
     0
1070
     0
1070
     0
1070
     0
1070
     0
1070
     0
  0
SPLINE
  5
7180
330
DF
100
AcDbEntity
  8
JISSEN
100
AcDbSpline
210
0.0
220
0.0
230
1.0
 70
     8
 71
     3
 72
    56
 73
    52
 74
     0
 42
0.0000000001
 43
0.0000000001
 40
0.0
 40
0.0
 40
0.0
 40
0.0
 40
0.943425776021794
 40
0.943425776021794
 40
2.830277328065382
 40
2.830277328065382
 40
4.539137381878086
 40
4.539137381878086
 40
6.247997435690789
 40
6.247997435690789
 40
7.33131001392477
 40
7.33131001392477
 40
8.217169656553545
 40
8.217169656553545
 40
9.10302929918232
 40
9.10302929918232
 40
9.71171118807811
 40
9.71171118807811
 40
10.13816962475659
 40
10.13816962475659
 40
10.56462806143507
 40
10.56462806143507
 40
11.64561061001192
 40
11.64561061001192
 40
12.72659315858877
 40
12.72659315858877
 40
13.80757570716563
 40
13.80757570716563
 40
15.25822344972975
 40
15.25822344972975
 40
16.43252597389821
 40
16.43252597389821
 40
17.0818501158139
 40
17.0818501158139
 40
17.51805693678398
 40
17.51805693678398
 40
17.95426375775406
 40
17.95426375775406
 40
18.82667739969422
 40
18.82667739969422
 40
20.56518551174404
 40
20.56518551174404
 40
21.83047636071274
 40
21.83047636071274
 40
23.71846399943451
 40
23.71846399943451
 40
25.60645163815628
 40
25.60645163815628
 40
27.49443927687805
 40
27.49443927687805
 40
28.99033489637439
 40
28.99033489637439
 40
28.99033489637439
 40
28.99033489637439
 10
1057.814771394378
 20
311.6087731347844
 30
0.0
 10
1057.480371052221
 20
311.3152919515211
 30
0.0
 10
1057.143686901606
 20
311.0198162442241
 30
0.0
 10
1056.139114894995
 20
310.1299062236929
 30
0.0
 10
1055.476934608194
 20
309.5324601487345
 30
0.0
 10
1054.28744894699
 20
308.3904889549399
 30
0.0
 10
1053.753261791005
 20
307.8468268756416
 30
0.0
 10
1052.786980582471
 20
306.7425905860811
 30
0.0
 10
1052.353519828774
 20
306.1840263531124
 30
0.0
 10
1051.766613767831
 20
305.2032265743652
 30
0.0
 10
1051.567922348046
 20
304.8047570949868
 30
0.0
 10
1051.295981347654
 20
304.0133110595816
 30
0.0
 10
1051.206602207558
 20
303.6307711071107
 30
0.0
 10
1051.148161038232
 20
302.8110976453134
 30
0.0
 10
1051.1825338759
 20
302.3727196251447
 30
0.0
 10
1051.384524272968
 20
301.6500111092647
 30
0.0
 10
1051.506408118011
 20
301.3622899758439
 30
0.0
 10
1051.769484670499
 20
300.9098721012984
 30
0.0
 10
1051.894904299041
 20
300.7333576837563
 30
0.0
 10
1052.153430743573
 20
300.4199566968512
 30
0.0
 10
1052.287699788042
 20
300.2799914707187
 30
0.0
 10
1052.768695681896
 20
299.8272670642627
 30
0.0
 10
1053.124224372594
 20
299.575299018462
 30
0.0
 10
1053.836871937359
 20
299.1197564464686
 30
0.0
 10
1054.19569204603
 20
298.9181580421459
 30
0.0
 10
1054.902384326473
 20
298.531167494602
 30
0.0
 10
1055.250156310226
 20
298.3463908624829
 30
0.0
 10
1056.018798216213
 20
297.9180921887399
 30
0.0
 10
1056.423596559767
 20
297.6749640382883
 30
0.0
 10
1057.015026757228
 20
297.2486088103843
 30
0.0
 10
1057.226751850616
 20
297.0635305169619
 30
0.0
 10
1057.456221988146
 20
296.8114316517029
 30
0.0
 10
1057.518764873111
 20
296.7290567694427
 30
0.0
 10
1057.597112537279
 20
296.6060382986272
 30
0.0
 10
1057.623017554617
 20
296.558652309903
 30
0.0
 10
1057.673688194431
 20
296.4501300304593
 30
0.0
 10
1057.697056461911
 20
296.3911623337986
 30
0.0
 10
1057.760065993242
 20
296.1982164510385
 30
0.0
 10
1057.792485422655
 20
296.0476998718018
 30
0.0
 10
1057.846437375495
 20
295.53806344625
 30
0.0
 10
1057.821480441029
 20
295.1200996455096
 30
0.0
 10
1057.663444016974
 20
294.3743450083456
 30
0.0
 10
1057.562960977185
 20
294.0537226812923
 30
0.0
 10
1057.254148086834
 20
293.3046264073779
 30
0.0
 10
1057.019169379333
 20
292.8998529524734
 30
0.0
 10
1056.441850624471
 20
292.116699350149
 30
0.0
 10
1056.09894152323
 20
291.740270931267
 30
0.0
 10
1055.31433076607
 20
290.9968249126853
 30
0.0
 10
1054.873046090966
 20
290.6306080122239
 30
0.0
 10
1054.020528280663
 20
289.9678572756418
 30
0.0
 10
1053.622314001504
 20
289.6726217108599
 30
0.0
 10
1053.211680783064
 20
289.3684136851796
 30
0.0
1001
ACAD_OBJECT_CHANGE_GUID
1070
     0
1071
        0
1070
     0
1070
     0
1070
     0
1070
     0
1070
     0
1070
     0
1070
     0
1070
     0
1070
     0
1070
     0
1070
     0
1071
        0
1070
     0
1070
     0
1070
     0
1070
     0
1070
     0
1070
     0
1070
     0
1070
     0
1070
     0
1070
     0
1070
     0
1071
        0
1070
     0
1070
     0
1070
     0
1070
     0
1070
     0
1070
     0
1070
     0
1070
     0
1070
     0
1070
     0
  0
LINE
  5
7181
330
DF
100
AcDbEntity
  8
JISSEN
100
AcDbLine
 10
1105.27990409
 20
295.5925720300001
 30
0.0
 11
1105.27990409
 21
301.59257203
 31
0.0
  0
LINE
  5
7182
330
DF
100
AcDbEntity
  8
JISSEN
100
AcDbLine
 10
1107.27990409
 20
303.59257203
 30
0.0
 11
1115.27990409
 21
303.59257203
 31
0.0
  0
LINE
  5
7183
330
DF
100
AcDbEntity
  8
JISSEN
100
AcDbLine
 10
1107.27990409
 20
293.5925720300001
 30
0.0
 11
1115.27990409
 21
293.5925720300001
 31
0.0
  0
LINE
  5
7185
330
DF
100
AcDbEntity
  8
JISSEN
100
AcDbLine
 10
1115.27990409
 20
293.5925720300001
 30
0.0
 11
1115.27990409
 21
303.59257203
 31
0.0
  0
ARC
  5
7186
330
DF
100
AcDbEntity
  8
JISSEN
100
AcDbCircle
 10
1107.27990409
 20
301.59257203
 30
0.0
 40
2.0
100
AcDbArc
 50
90.0
 51
180.0
  0
ARC
  5
7187
330
DF
100
AcDbEntity
  8
JISSEN
100
AcDbCircle
 10
1107.27990409
 20
295.5925720300001
 30
0.0
 40
2.0
100
AcDbArc
 50
180.0
 51
270.0
  0
LINE
  5
7188
330
DF
100
AcDbEntity
  8
JISSEN
100
AcDbLine
 10
988.38584586
 20
301.59257203
 30
0.0
 11
1051.42062790539
 21
301.59257203
 31
0.0
  0
LINE
  5
7189
330
DF
100
AcDbEntity
  8
JISSEN
100
AcDbLine
 10
988.38584586
 20
295.5925720300001
 30
0.0
 11
1057.82613935732
 21
295.5925720300001
 31
0.0
  0
LINE
  5
718A
330
DF
100
AcDbEntity
  8
JISSEN
100
AcDbLine
 10
1053.811349798267
 20
301.59257203
 30
0.0
 11
1105.27990409
 21
301.59257203
 31
0.0
  0
LINE
  5
718B
330
DF
100
AcDbEntity
  8
JISSEN
100
AcDbLine
 10
1059.826681138154
 20
295.5925720300001
 30
0.0
 11
1105.27990409
 21
295.5925720300001
 31
0.0
  0
LINE
  5
718C
330
DF
100
AcDbEntity
  8
JISSEN
100
AcDbLine
 10
1115.27990409
 20
295.5925720300001
 30
0.0
 11
1121.27990409
 21
295.5925720300001
 31
0.0
  0
LINE
  5
718D
330
DF
100
AcDbEntity
  8
JISSEN
100
AcDbLine
 10
1115.27990409
 20
301.59257203
 30
0.0
 11
1121.27990409
 21
301.59257203
 31
0.0
  0
DIMENSION
  5
719E
330
DF
100
AcDbEntity
  8
SUNPOU
100
AcDbDimension
  2
*D6
 10
1156.406214800403
 20
240.59257203
 30
0.0
 11
1156.406214800403
 21
269.59257203
 31
0.0
 70
   160
 71
     5
 42
-1.0
  3
IMCADLT
100
AcDbAlignedDimension
 13
1115.27990409
 23
298.59257203
 33
0.0
 14
971.6634710183845
 24
240.59257203
 34
0.0
 50
90.0
100
AcDbRotatedDimension
1001
ACAD
1000
DSTYLE
1002
{
1070
    40
1040
5.0
1070
    41
1040
3.0
1002
}
  0
DIMENSION
  5
71B6
330
DF
100
AcDbEntity
  8
SUNPOU
100
AcDbDimension
  2
*D7
 10
963.38584586
 20
171.1650069748243
 30
0.0
 11
866.9942120866135
 21
171.1650069748243
 31
0.0
 70
   160
 71
     5
 42
-1.0
  3
IMCADLT
100
AcDbAlignedDimension
 13
778.38584586
 23
240.59257203
 33
0.0
 14
963.38584586
 24
240.59257203
 34
0.0
100
AcDbRotatedDimension
1001
ACAD
1000
DSTYLE
1002
{
1070
    40
1040
5.0
1070
    41
1040
3.0
1002
}
  0
DIMENSION
  5
71C2
330
DF
100
AcDbEntity
  8
SUNPOU
100
AcDbDimension
  2
*D8
 10
724.3858458600001
 20
171.1650069748243
 30
0.0
 11
751.38584586
 21
186.1650069748243
 31
0.0
 70
    32
 71
     5
 42
-1.0
  3
IMCADLT
100
AcDbAlignedDimension
 13
778.38584586
 23
240.59257203
 33
0.0
 14
724.3858458600001
 24
253.59257203
 34
0.0
100
AcDbRotatedDimension
1001
ACAD
1000
DSTYLE
1002
{
1070
    40
1040
5.0
1070
    41
1040
3.0
1070
    75
1070
     1
1070
   279
1070
     1
1002
}
  0
DIMENSION
  5
71CF
330
DF
100
AcDbEntity
  8
SUNPOU
100
AcDbDimension
  2
*D9
 10
988.38584586
 20
141.1650069748243
 30
0.0
 11
856.38584586
 21
156.1650069748243
 31
0.0
 70
    32
 71
     5
 42
-1.0
  3
IMCADLT
100
AcDbAlignedDimension
 13
724.3858458600001
 23
253.59257203
 33
0.0
 14
988.38584586
 24
251.59257203
 34
0.0
100
AcDbRotatedDimension
1001
ACAD
1000
DSTYLE
1002
{
1070
    40
1040
5.0
1070
    41
1040
3.0
1002
}
  0
ARC
  5
72F9
330
DF
100
AcDbEntity
  8
JISSEN
100
AcDbCircle
 10
802.6013044544541
 20
511.2784724199542
 30
0.0
 40
77.0
100
AcDbArc
 50
150.8188224673691
 51
163.969427516995
  0
ARC
  5
72FA
330
DF
100
AcDbEntity
  8
JISSEN
100
AcDbCircle
 10
802.6013044544541
 20
511.2784724199542
 30
0.0
 40
78.0
100
AcDbArc
 50
152.2348754884357
 51
162.0783020736239
  0
ARC
  5
72FB
330
DF
100
AcDbEntity
  8
JISSEN
100
AcDbCircle
 10
802.6013044544541
 20
511.2784724199542
 30
0.0
 40
80.0
100
AcDbArc
 50
154.8368069169173
 51
158.8880356681523
  0
LINE
  5
72FC
330
DF
100
AcDbEntity
  8
JISSEN
100
AcDbLine
 10
737.8484663688718
 20
549.1211726468627
 30
0.0
 11
737.503395859445
 21
549.3463765582783
 31
0.0
  0
LINE
  5
72FD
330
DF
100
AcDbEntity
  8
JISSEN
100
AcDbLine
 10
730.0593313989658
 20
530.3221628505615
 30
0.0
 11
729.2173561190867
 21
530.8716625069036
 31
0.0
  0
ARC
  5
7302
330
DF
100
AcDbEntity
  8
JISSEN
100
AcDbCircle
 10
736.683590887082
 20
548.0902237780445
 30
0.0
 40
1.5
100
AcDbArc
 50
56.87026453158718
 51
150.8188224673686
  0
ARC
  5
7303
330
DF
100
AcDbEntity
  8
JISSEN
100
AcDbCircle
 10
730.0371610914498
 20
532.1278152871374
 30
0.0
 40
1.5
100
AcDbArc
 50
163.9694275169935
 51
236.8702645315866
  0
ARC
  5
7304
330
DF
100
AcDbEntity
  8
JISSEN
100
AcDbCircle
 10
734.4667227707902
 20
547.1487773920635
 30
0.0
 40
1.0
100
AcDbArc
 50
56.87026453158869
 51
152.234875488434
  0
ARC
  5
7305
330
DF
100
AcDbEntity
  8
JISSEN
100
AcDbCircle
 10
729.3375031039901
 20
534.9726787092508
 30
0.0
 40
1.0
100
AcDbArc
 50
162.0783020736252
 51
236.8702645315877
  0
LINE
  5
7306
330
DF
100
AcDbEntity
  8
JISSEN
100
AcDbLine
 10
732.3774058153092
 20
545.2284953937181
 30
0.0
 11
731.6449105166006
 21
545.7065449570858
 31
0.0
  0
LINE
  5
7307
330
DF
100
AcDbEntity
  8
JISSEN
100
AcDbLine
 10
729.4002571246372
 20
538.215559675593
 30
0.0
 11
728.3573788642119
 21
538.8961749613444
 31
0.0
  0
ARC
  5
7308
330
DF
100
AcDbEntity
  8
JISSEN
100
AcDbCircle
 10
731.0983738683586
 20
544.8691097702634
 30
0.0
 40
1.0
100
AcDbArc
 50
56.8702645315869
 51
154.8368069169143
  0
ARC
  5
7309
330
DF
100
AcDbEntity
  8
JISSEN
100
AcDbCircle
 10
728.9039155124539
 20
539.7336101481668
 30
0.0
 40
1.0
100
AcDbArc
 50
158.8880356681523
 51
236.870264531586
  0
LINE
  5
731F
330
DF
100
AcDbEntity
  8
JISSEN
100
AcDbLine
 10
730.1932734811928
 20
545.2943077114066
 30
0.0
 11
716.6028426281468
 21
546.8846801345297
 31
0.0
  0
LINE
  5
7320
330
DF
100
AcDbEntity
  8
JISSEN
100
AcDbLine
 10
713.2541575021199
 20
543.9050125888314
 30
0.0
 11
713.2541575021199
 21
542.4862712345635
 31
0.0
  0
LINE
  5
7321
330
DF
100
AcDbEntity
  8
JISSEN
100
AcDbLine
 10
716.4565665724142
 20
539.493107261731
 30
0.0
 11
728.0418543601667
 21
540.27654824642
 31
0.0
  0
ARC
  5
7322
330
DF
100
AcDbEntity
  8
JISSEN
100
AcDbCircle
 10
716.2541575021199
 20
543.9050125888314
 30
0.0
 40
3.0
100
AcDbArc
 50
83.32551907822368
 51
180.0
  0
ARC
  5
7323
330
DF
100
AcDbEntity
  8
JISSEN
100
AcDbCircle
 10
716.2541575021199
 20
542.4862712345635
 30
0.0
 40
3.0
100
AcDbArc
 50
180.0
 51
273.868667413815
  0
DIMENSION
  5
7330
330
DF
100
AcDbEntity
  8
SUNPOU
100
AcDbDimension
  2
*D10
 10
713.2541575021199
 20
708.6456688000435
 30
0.0
 11
858.964845492987
 21
708.6456688000435
 31
0.0
 70
   160
 71
     5
 42
-1.0
  3
IMCADLT
100
AcDbAlignedDimension
 13
988.25415750212
 23
579.0411439666804
 33
0.0
 14
713.2541575021199
 24
542.4862712345635
 34
0.0
100
AcDbRotatedDimension
1001
ACAD
1000
DSTYLE
1002
{
1070
    40
1040
5.0
1070
    41
1040
3.0
1002
}
  0
ARC
  5
7337
330
DF
100
AcDbEntity
  8
JISSEN
100
AcDbCircle
 10
735.597850062571
 20
512.8555284504224
 30
0.0
 40
10.0
100
AcDbArc
 50
167.5161759202768
 51
241.305095620657
  0
ARC
  5
7338
330
DF
100
AcDbEntity
  8
JISSEN
100
AcDbCircle
 10
809.3858458599999
 20
449.6662027829074
 30
0.0
 40
10.0
100
AcDbArc
 50
0.0
 51
61.30509562065636
  0
ARC
  5
7339
330
DF
100
AcDbEntity
  8
JISSEN
100
AcDbCircle
 10
804.3858458574465
 20
452.4030448895682
 30
0.0
 40
10.0
100
AcDbArc
 50
0.0000000008515744
 51
61.30509562065631
  0
LINE
  5
733B
330
DF
100
AcDbEntity
  8
JISSEN
100
AcDbLine
 10
797.2799301347948
 20
450.5925720299999
 30
0.0
 11
753.1749442108293
 21
474.7342485357497
 31
0.0
  0
LINE
  5
733C
330
DF
100
AcDbEntity
  8
JISSEN
100
AcDbLine
 10
797.2799301347948
 20
450.5925720299999
 30
0.0
 11
803.2817487127468
 21
461.5574328935657
 31
0.0
  0
LINE
  5
733E
330
DF
100
AcDbEntity
  8
JISSEN
100
AcDbLine
 10
806.2325592660473
 20
459.9422523801801
 30
0.0
 11
735.736353568216
 21
498.5296491832038
 31
0.0
  0
LINE
  5
7340
330
DF
100
AcDbEntity
  8
JISSEN
100
AcDbLine
 10
734.9422668025177
 20
501.2443178938466
 30
0.0
 11
735.1823395456358
 21
501.6829123283891
 31
0.0
  0
ARC
  5
7341
330
DF
100
AcDbEntity
  8
JISSEN
100
AcDbCircle
 10
736.6966445406883
 20
500.2840269213742
 30
0.0
 40
2.0
100
AcDbArc
 50
151.3050956206561
 51
241.3050956206563
  0
LINE
  5
7342
330
DF
100
AcDbEntity
  8
JISSEN
100
AcDbLine
 10
808.9472279766901
 20
460.7363391458783
 30
0.0
 11
809.187300719808
 21
461.1749335804206
 31
0.0
  0
ARC
  5
7343
330
DF
100
AcDbEntity
  8
JISSEN
100
AcDbCircle
 10
807.1928502385196
 20
461.6966301183506
 30
0.0
 40
2.0
100
AcDbArc
 50
241.3050956206563
 51
331.3050956206562
  0
LINE
  5
7344
330
DF
100
AcDbEntity
  8
JISSEN
100
AcDbLine
 10
861.5880281535423
 20
489.4926974311021
 30
0.0
 11
799.4848845377861
 21
523.4859970944635
 31
0.0
  0
ARC
  5
7346
330
DF
100
AcDbEntity
  8
JISSEN
100
AcDbCircle
 10
806.6870668313283
 20
536.6438301307423
 30
0.0
 40
15.0
100
AcDbArc
 50
140.5134434845898
 51
241.305095620656
  0
ARC
  5
7347
330
DF
100
AcDbEntity
  8
JISSEN
100
AcDbCircle
 10
854.38584586
 20
476.3348643948233
 30
0.0
 40
15.0
100
AcDbArc
 50
0.0
 51
61.30509562065639
  0
LINE
  5
7348
330
DF
100
AcDbEntity
  8
JISSEN
100
AcDbLine
 10
863.9887555847229
 20
493.8786417765284
 30
0.0
 11
801.8856119689669
 21
527.8719414398898
 31
0.0
  0
ARC
  5
7349
330
DF
100
AcDbEntity
  8
JISSEN
100
AcDbCircle
 10
806.6870668313283
 20
536.6438301307423
 30
0.0
 40
10.0
100
AcDbArc
 50
140.5134434845898
 51
241.305095620656
  0
ARC
  5
734A
330
DF
100
AcDbEntity
  8
JISSEN
100
AcDbCircle
 10
854.38584586
 20
476.3348643948233
 30
0.0
 40
20.0
100
AcDbArc
 50
0.0
 51
61.30509562065639
  0
LINE
  5
7352
330
DF
100
AcDbEntity
  8
JISSEN
100
AcDbLine
 10
744.848238831542
 20
458.7567855923729
 30
0.0
 11
725.1766659724812
 21
478.4283584676268
 31
0.0
  0
LINE
  5
7353
330
DF
100
AcDbEntity
  8
JISSEN
100
AcDbLine
 10
752.0982388457731
 20
466.006785592373
 30
0.0
 11
732.426665971541
 21
485.6783584666788
 31
0.0
  0
LINE
  5
7354
330
DF
100
AcDbEntity
  8
JISSEN
100
AcDbLine
 10
725.1766659724812
 20
481.256785592373
 30
0.0
 11
729.5982388467924
 21
485.6783584666814
 31
0.0
  0
LINE
  5
7355
330
DF
100
AcDbEntity
  8
JISSEN
100
AcDbLine
 10
747.6766659562882
 20
458.7567855923729
 30
0.0
 11
752.098238843811
 21
463.1783584656647
 31
0.0
  0
ARC
  5
7356
330
DF
100
AcDbEntity
  8
JISSEN
100
AcDbCircle
 10
726.5908795348543
 20
479.8425720299999
 30
0.0
 40
2.0
100
AcDbArc
 50
135.0
 51
225.0
  0
ARC
  5
7357
330
DF
100
AcDbEntity
  8
JISSEN
100
AcDbCircle
 10
746.2624523939151
 20
460.170999154746
 30
0.0
 40
2.0
100
AcDbArc
 50
225.0
 51
315.0
  0
ARC
  5
7358
330
DF
100
AcDbEntity
  8
JISSEN
100
AcDbCircle
 10
750.6840252834
 20
464.5925720299999
 30
0.0
 40
2.0
100
AcDbArc
 50
314.9999999205089
 51
45.00000000000002
  0
ARC
  5
7359
330
DF
100
AcDbEntity
  8
JISSEN
100
AcDbCircle
 10
731.0124524091654
 20
484.2641449043084
 30
0.0
 40
2.0
100
AcDbArc
 50
44.99999999989618
 51
134.9999999999997
  0
LINE
  5
735B
330
DF
100
AcDbEntity
  8
JISSEN
100
AcDbLine
 10
736.2520447782437
 20
481.8529796792838
 30
0.0
 11
746.8470628951857
 21
492.4479977621255
 31
0.0
  0
LINE
  5
735C
330
DF
100
AcDbEntity
  8
JISSEN
100
AcDbLine
 10
748.2728600390703
 20
469.832164379768
 30
0.0
 11
762.3841710877549
 21
483.943475383035
 31
0.0
  0
LINE
  5
736B
330
DF
100
AcDbEntity
  8
JISSEN
100
AcDbLine
 10
288.0353388991699
 20
457.0851790454502
 30
0.0
 11
288.0353388991699
 21
628.015161739743
 31
0.0
  0
LINE
  5
737D
330
DF
100
AcDbEntity
  8
ITTEN
100
AcDbLine
 10
702.9049106100001
 20
958.087512512081
 30
0.0
 11
1053.31648416
 21
958.087512512081
 31
0.0
  0
LINE
  5
7380
330
DF
100
AcDbEntity
  8
JISSEN
100
AcDbLine
 10
1115.14821573
 20
901.087512512081
 30
0.0
 11
1121.14821573
 21
901.087512512081
 31
0.0
  0
LINE
  5
7381
330
DF
100
AcDbEntity
  8
JISSEN
100
AcDbLine
 10
1115.14821573
 20
895.0875125120811
 30
0.0
 11
1121.14821573
 21
895.0875125120811
 31
0.0
  0
LINE
  5
7382
330
DF
100
AcDbEntity
  8
JISSEN
100
AcDbLine
 10
1059.694992778153
 20
895.0875125120811
 30
0.0
 11
1105.14821573
 21
895.0875125120811
 31
0.0
  0
LINE
  5
7383
330
DF
100
AcDbEntity
  8
JISSEN
100
AcDbLine
 10
1053.679661438267
 20
901.087512512081
 30
0.0
 11
1105.14821573
 21
901.087512512081
 31
0.0
  0
LINE
  5
7384
330
DF
100
AcDbEntity
  8
JISSEN
100
AcDbLine
 10
988.2541575000001
 20
895.0875125120811
 30
0.0
 11
1057.69445099732
 21
895.0875125120811
 31
0.0
  0
LINE
  5
7385
330
DF
100
AcDbEntity
  8
JISSEN
100
AcDbLine
 10
988.2541575000001
 20
901.087512512081
 30
0.0
 11
1051.28893954539
 21
901.087512512081
 31
0.0
  0
ARC
  5
7386
330
DF
100
AcDbEntity
  8
JISSEN
100
AcDbCircle
 10
1107.14821573
 20
895.0875125120811
 30
0.0
 40
2.0
100
AcDbArc
 50
180.0
 51
270.0
  0
ARC
  5
7387
330
DF
100
AcDbEntity
  8
JISSEN
100
AcDbCircle
 10
1107.14821573
 20
901.087512512081
 30
0.0
 40
2.0
100
AcDbArc
 50
90.0
 51
180.0
  0
LINE
  5
7388
330
DF
100
AcDbEntity
  8
JISSEN
100
AcDbLine
 10
1115.14821573
 20
893.087512512081
 30
0.0
 11
1115.14821573
 21
903.0875125120811
 31
0.0
  0
LINE
  5
7389
330
DF
100
AcDbEntity
  8
JISSEN
100
AcDbLine
 10
1107.14821573
 20
893.087512512081
 30
0.0
 11
1115.14821573
 21
893.087512512081
 31
0.0
  0
LINE
  5
738A
330
DF
100
AcDbEntity
  8
JISSEN
100
AcDbLine
 10
1107.14821573
 20
903.0875125120811
 30
0.0
 11
1115.14821573
 21
903.0875125120811
 31
0.0
  0
LINE
  5
738B
330
DF
100
AcDbEntity
  8
JISSEN
100
AcDbLine
 10
1105.14821573
 20
895.0875125120811
 30
0.0
 11
1105.14821573
 21
901.087512512081
 31
0.0
  0
SPLINE
  5
738C
330
DF
100
AcDbEntity
  8
JISSEN
100
AcDbSpline
210
0.0
220
0.0
230
1.0
 70
     8
 71
     3
 72
    56
 73
    52
 74
     0
 42
0.0000000001
 43
0.0000000001
 40
0.0
 40
0.0
 40
0.0
 40
0.0
 40
0.943425776021794
 40
0.943425776021794
 40
2.830277328065382
 40
2.830277328065382
 40
4.539137381878086
 40
4.539137381878086
 40
6.247997435690789
 40
6.247997435690789
 40
7.33131001392477
 40
7.33131001392477
 40
8.217169656553545
 40
8.217169656553545
 40
9.10302929918232
 40
9.10302929918232
 40
9.71171118807811
 40
9.71171118807811
 40
10.13816962475659
 40
10.13816962475659
 40
10.56462806143507
 40
10.56462806143507
 40
11.64561061001192
 40
11.64561061001192
 40
12.72659315858877
 40
12.72659315858877
 40
13.80757570716563
 40
13.80757570716563
 40
15.25822344972975
 40
15.25822344972975
 40
16.43252597389821
 40
16.43252597389821
 40
17.0818501158139
 40
17.0818501158139
 40
17.51805693678398
 40
17.51805693678398
 40
17.95426375775406
 40
17.95426375775406
 40
18.82667739969422
 40
18.82667739969422
 40
20.56518551174404
 40
20.56518551174404
 40
21.83047636071274
 40
21.83047636071274
 40
23.71846399943451
 40
23.71846399943451
 40
25.60645163815628
 40
25.60645163815628
 40
27.49443927687805
 40
27.49443927687805
 40
28.99033489637439
 40
28.99033489637439
 40
28.99033489637439
 40
28.99033489637439
 10
1057.683083034378
 20
911.1037136168654
 30
0.0
 10
1057.348682692222
 20
910.8102324336023
 30
0.0
 10
1057.011998541606
 20
910.5147567263053
 30
0.0
 10
1056.007426534995
 20
909.6248467057739
 30
0.0
 10
1055.345246248194
 20
909.0274006308156
 30
0.0
 10
1054.15576058699
 20
907.8854294370209
 30
0.0
 10
1053.621573431004
 20
907.3417673577228
 30
0.0
 10
1052.655292222471
 20
906.2375310681623
 30
0.0
 10
1052.221831468774
 20
905.6789668351935
 30
0.0
 10
1051.634925407831
 20
904.6981670564465
 30
0.0
 10
1051.436233988046
 20
904.2996975770678
 30
0.0
 10
1051.164292987654
 20
903.5082515416627
 30
0.0
 10
1051.074913847558
 20
903.1257115891916
 30
0.0
 10
1051.016472678233
 20
902.3060381273944
 30
0.0
 10
1051.0508455159
 20
901.8676601072259
 30
0.0
 10
1051.252835912968
 20
901.1449515913456
 30
0.0
 10
1051.374719758011
 20
900.8572304579249
 30
0.0
 10
1051.637796310499
 20
900.4048125833794
 30
0.0
 10
1051.763215939041
 20
900.2282981658375
 30
0.0
 10
1052.021742383574
 20
899.9148971789322
 30
0.0
 10
1052.156011428042
 20
899.7749319527997
 30
0.0
 10
1052.637007321895
 20
899.3222075463439
 30
0.0
 10
1052.992536012594
 20
899.0702395005429
 30
0.0
 10
1053.705183577359
 20
898.6146969285496
 30
0.0
 10
1054.06400368603
 20
898.413098524227
 30
0.0
 10
1054.770695966472
 20
898.0261079766831
 30
0.0
 10
1055.118467950226
 20
897.841331344564
 30
0.0
 10
1055.887109856213
 20
897.4130326708209
 30
0.0
 10
1056.291908199767
 20
897.1699045203695
 30
0.0
 10
1056.883338397228
 20
896.7435492924655
 30
0.0
 10
1057.095063490616
 20
896.558470999043
 30
0.0
 10
1057.324533628146
 20
896.3063721337839
 30
0.0
 10
1057.387076513111
 20
896.2239972515238
 30
0.0
 10
1057.465424177279
 20
896.1009787807084
 30
0.0
 10
1057.491329194617
 20
896.053592791984
 30
0.0
 10
1057.541999834431
 20
895.9450705125405
 30
0.0
 10
1057.565368101911
 20
895.8861028158796
 30
0.0
 10
1057.628377633242
 20
895.6931569331196
 30
0.0
 10
1057.660797062656
 20
895.542640353883
 30
0.0
 10
1057.714749015495
 20
895.033003928331
 30
0.0
 10
1057.689792081029
 20
894.6150401275909
 30
0.0
 10
1057.531755656974
 20
893.8692854904266
 30
0.0
 10
1057.431272617185
 20
893.5486631633734
 30
0.0
 10
1057.122459726834
 20
892.7995668894592
 30
0.0
 10
1056.887481019333
 20
892.3947934345545
 30
0.0
 10
1056.310162264471
 20
891.6116398322301
 30
0.0
 10
1055.96725316323
 20
891.2352114133481
 30
0.0
 10
1055.18264240607
 20
890.4917653947663
 30
0.0
 10
1054.741357730966
 20
890.1255484943051
 30
0.0
 10
1053.888839920663
 20
889.4627977577229
 30
0.0
 10
1053.490625641504
 20
889.167562192941
 30
0.0
 10
1053.079992423064
 20
888.8633541672607
 30
0.0
1001
ACAD_OBJECT_CHANGE_GUID
1070
     0
1071
        0
1070
     0
1070
     0
1070
     0
1070
     0
1070
     0
1070
     0
1070
     0
1070
     0
1070
     0
1070
     0
1070
     0
1071
        0
1070
     0
1070
     0
1070
     0
1070
     0
1070
     0
1070
     0
1070
     0
1070
     0
1070
     0
1070
     0
1070
     0
1071
        0
1070
     0
1070
     0
1070
     0
1070
     0
1070
     0
1070
     0
1070
     0
1070
     0
1070
     0
1070
     0
  0
SPLINE
  5
738D
330
DF
100
AcDbEntity
  8
JISSEN
100
AcDbSpline
210
0.0
220
0.0
230
1.0
 70
  1064
 71
     3
 72
    11
 73
     7
 74
     5
 42
0.0000000001
 43
0.0000000001
 44
0.0000000001
 40
0.0
 40
0.0
 40
0.0
 40
0.0
 40
9.903364549848676
 40
17.18093630216195
 40
21.99724315863041
 40
28.99033489637439
 40
28.99033489637439
 40
28.99033489637439
 40
28.99033489637439
 10
1059.002333467471
 20
909.6005242426405
 30
0.0
 10
1055.492053614898
 20
906.5197825242698
 30
0.0
 10
1049.402214727694
 20
901.1751315260841
 30
0.0
 10
1060.33215615654
 20
898.6610764436816
 30
0.0
 10
1059.431944320804
 20
891.0800140831158
 30
0.0
 10
1056.19018648063
 20
888.6784335289684
 30
0.0
 10
1054.270536653669
 20
887.2563058061421
 30
0.0
 11
1059.002333467471
 21
909.6005242426405
 31
0.0
 11
1053.331280235665
 21
901.4816705890005
 31
0.0
 11
1059.172568448161
 21
897.1408869467735
 31
0.0
 11
1059.088047333772
 21
892.3253217756967
 31
0.0
 11
1054.270536653669
 21
887.2563058061421
 31
0.0
1001
ACAD_OBJECT_CHANGE_GUID
1070
     0
1071
        0
1070
     0
1070
     0
1070
     0
1070
     0
1070
     0
1070
     0
1070
     0
1070
     0
1070
     0
1070
     0
1070
     0
1071
        0
1070
     0
1070
     0
1070
     0
1070
     0
1070
     0
1070
     0
1070
     0
1070
     0
1070
     0
1070
     0
1070
     0
1071
        0
1070
     0
1070
     0
1070
     0
1070
     0
1070
     0
1070
     0
1070
     0
1070
     0
1070
     0
1070
     0
  0
DIMENSION
  5
739D
330
DF
100
AcDbEntity
  8
SUNPOU
100
AcDbDimension
  2
*D11
 10
1157.987967172059
 20
898.087512512081
 30
0.0
 11
1157.987967172059
 21
929.46090139553
 31
0.0
 12
0.0
 22
-142.4956947679188
 32
0.0
 70
   160
 71
     5
 42
-1.0
  3
IMCADLT
100
AcDbAlignedDimension
 13
1053.31648416
 23
958.087512512081
 33
0.0
 14
1115.14821573
 24
898.087512512081
 34
0.0
 50
90.0
100
AcDbRotatedDimension
1001
ACAD
1000
DSTYLE
1002
{
1070
    40
1040
5.0
1070
    41
1040
3.0
1002
}
  0
DIMENSION
  5
73AA
330
DF
100
AcDbEntity
  8
SUNPOU
100
AcDbDimension
  2
*D12
 10
1115.14821573
 20
796.0321198389506
 30
0.0
 11
1053.077065996053
 21
796.0321198389506
 31
0.0
 12
0.0
 22
-37.80498105899142
 32
0.0
 70
   160
  1
約2200
 71
     5
 42
-1.0
  3
IMCADLT
100
AcDbAlignedDimension
 13
988.2541575000001
 23
865.5875125120807
 33
0.0
 14
1115.14821573
 24
893.087512512081
 34
0.0
100
AcDbRotatedDimension
1001
ACAD
1000
DSTYLE
1002
{
1070
    40
1040
5.0
1070
    41
1040
3.0
1002
}
  0
LINE
  5
73B6
330
DF
100
AcDbEntity
  8
JISSEN
100
AcDbLine
 10
725.5978500600001
 20
1047.587512512081
 30
0.0
 11
987.2541575000001
 21
1047.587512512081
 31
0.0
  0
LINE
  5
73B7
330
DF
100
AcDbEntity
  8
JISSEN
100
AcDbLine
 10
725.5978500600001
 20
1050.587512512081
 30
0.0
 11
987.2541574999999
 21
1050.587512512081
 31
0.0
  0
LINE
  5
73B8
330
DF
100
AcDbEntity
  8
JISSEN
100
AcDbLine
 10
725.5978500600001
 20
868.587512512081
 30
0.0
 11
729.22050725398
 21
868.587512512081
 31
0.0
  0
LINE
  5
73B9
330
DF
100
AcDbEntity
  8
JISSEN
100
AcDbLine
 10
725.5978500600001
 20
865.5875125120811
 30
0.0
 11
730.1442128888688
 21
865.5875125120811
 31
0.0
  0
LINE
  5
73BA
330
DF
100
AcDbEntity
  8
JISSEN
100
AcDbLine
 10
750.0802237500001
 20
868.587512512081
 30
0.0
 11
750.0802237500001
 21
1047.587512512081
 31
0.0
  0
LINE
  5
73BF
330
DF
100
AcDbEntity
  8
JISSEN
100
AcDbLine
 10
796.6870668300002
 20
868.5875125120809
 30
0.0
 11
796.6870668300002
 21
1047.587512512081
 31
0.0
  0
LINE
  5
73C0
330
DF
100
AcDbEntity
  8
JISSEN
100
AcDbLine
 10
796.6870668300002
 20
843.0875125120811
 30
0.0
 11
980.9733962225051
 21
851.8529463664862
 31
0.0
  0
LINE
  5
73C1
330
DF
100
AcDbEntity
  8
JISSEN
100
AcDbLine
 10
988.2541575000001
 20
869.5875125120808
 30
0.0
 11
988.2541575000001
 21
1046.587512512082
 31
0.0
  0
LINE
  5
73C2
330
DF
100
AcDbEntity
  8
JISSEN
100
AcDbLine
 10
980.9733962225031
 20
1064.322078657676
 30
0.0
 11
796.6870668300002
 21
1073.087512512081
 31
0.0
  0
LINE
  5
73C3
330
DF
100
AcDbEntity
  8
JISSEN
100
AcDbLine
 10
725.5978500600001
 20
1059.575737694033
 30
0.0
 11
725.5978500600001
 21
877.327235210979
 31
0.0
  0
LINE
  5
73C4
330
DF
100
AcDbEntity
  8
JISSEN
100
AcDbLine
 10
729.9621839139701
 20
1064.535165942409
 30
0.0
 11
796.6870668300002
 21
1073.087512512081
 31
0.0
  0
LINE
  5
73C5
330
DF
100
AcDbEntity
  8
JISSEN
100
AcDbLine
 10
729.9621839139701
 20
851.6398590817534
 30
0.0
 11
796.6870668300002
 21
843.087512512081
 31
0.0
  0
ARC
  5
73C7
330
DF
100
AcDbEntity
  8
JISSEN
100
AcDbCircle
 10
730.5978500600001
 20
1059.575737694033
 30
0.0
 40
5.0
100
AcDbArc
 50
97.30396381740867
 51
180.0
  0
ARC
  5
73C8
330
DF
100
AcDbEntity
  8
JISSEN
100
AcDbCircle
 10
730.5978500600001
 20
856.5992873301295
 30
0.0
 40
5.0
100
AcDbArc
 50
180.0
 51
262.6960361825913
  0
LINE
  5
73CD
330
DF
100
AcDbEntity
  8
JISSEN
100
AcDbLine
 10
776.6870668300002
 20
906.8375125120985
 30
0.0
 11
776.6870668300002
 21
1009.337512512098
 31
0.0
  0
LINE
  5
73CE
330
DF
100
AcDbEntity
  8
JISSEN
100
AcDbLine
 10
786.6870668300005
 20
1019.337512512099
 30
0.0
 11
796.6870668300003
 21
1019.337512512099
 31
0.0
  0
LINE
  5
73CF
330
DF
100
AcDbEntity
  8
JISSEN
100
AcDbLine
 10
786.6870668300003
 20
896.8375125120985
 30
0.0
 11
796.6870668300003
 21
896.8375125120985
 31
0.0
  0
ARC
  5
73D0
330
DF
100
AcDbEntity
  8
JISSEN
100
AcDbCircle
 10
786.6870668300004
 20
1009.337512512098
 30
0.0
 40
10.0
100
AcDbArc
 50
89.99999999999998
 51
180.0
  0
ARC
  5
73D1
330
DF
100
AcDbEntity
  8
JISSEN
100
AcDbCircle
 10
786.6870668300003
 20
906.8375125120985
 30
0.0
 40
10.0
100
AcDbArc
 50
180.0
 51
270.0
  0
LINE
  5
73DD
330
DF
100
AcDbEntity
  8
JISSEN
100
AcDbLine
 10
730.59785006
 20
1043.087512512081
 30
0.0
 11
745.08022375
 21
1043.087512512081
 31
0.0
  0
LINE
  5
73DE
330
DF
100
AcDbEntity
  8
JISSEN
100
AcDbLine
 10
730.5978500600001
 20
890.5875125120807
 30
0.0
 11
745.08022375
 21
890.5875125120807
 31
0.0
  0
LINE
  5
73E1
330
DF
100
AcDbEntity
  8
JISSEN
100
AcDbLine
 10
728.59785006
 20
1041.087512512081
 30
0.0
 11
728.59785006
 21
892.5875125120809
 31
0.0
  0
LINE
  5
73E2
330
DF
100
AcDbEntity
  8
JISSEN
100
AcDbLine
 10
747.08022375
 20
892.5875125120809
 30
0.0
 11
747.08022375
 21
1041.087512512081
 31
0.0
  0
ARC
  5
73E3
330
DF
100
AcDbEntity
  8
JISSEN
100
AcDbCircle
 10
730.59785006
 20
1041.087512512081
 30
0.0
 40
2.0
100
AcDbArc
 50
90.0
 51
180.0
  0
ARC
  5
73E4
330
DF
100
AcDbEntity
  8
JISSEN
100
AcDbCircle
 10
745.08022375
 20
1041.087512512081
 30
0.0
 40
2.0
100
AcDbArc
 50
0.0
 51
90.0
  0
ARC
  5
73E5
330
DF
100
AcDbEntity
  8
JISSEN
100
AcDbCircle
 10
730.5978500600001
 20
892.5875125120809
 30
0.0
 40
2.0
100
AcDbArc
 50
180.0
 51
270.0
  0
ARC
  5
73E6
330
DF
100
AcDbEntity
  8
JISSEN
100
AcDbCircle
 10
745.08022375
 20
892.5875125120809
 30
0.0
 40
2.0
100
AcDbArc
 50
270.0
 51
0.0
  0
ELLIPSE
  5
73E7
330
DF
100
AcDbEntity
  8
JISSEN
100
AcDbEllipse
 10
740.4728500600002
 20
874.2428687307921
 30
0.0
 11
0.0000000000000064
 21
15.0
 31
0.0
210
0.0
220
0.0
230
1.0
 40
0.5625
 41
3.141592653589793
 42
6.283185307179586
1001
ACAD_OBJECT_CHANGE_GUID
1070
     0
1071
        0
1070
     0
1070
     0
1070
     0
1070
     0
1070
     0
1070
     0
1070
     0
1070
     0
1070
     0
1070
     0
1070
     0
1071
        0
1070
     0
1070
     0
1070
     0
1070
     0
1070
     0
1070
     0
1070
     0
1070
     0
1070
     0
1070
     0
1070
     0
1071
        0
1070
     0
1070
     0
1070
     0
1070
     0
1070
     0
1070
     0
1070
     0
1070
     0
1070
     0
1070
     0
  0
ELLIPSE
  5
73E8
330
DF
100
AcDbEntity
  8
JISSEN
100
AcDbEllipse
 10
737.0353500600002
 20
874.2428687307919
 30
0.0
 11
0.0000000000000064
 21
15.0
 31
0.0
210
0.0
220
0.0
230
1.0
 40
0.5625
 41
1.763381031983274
 42
7.661396928785666
1001
ACAD_OBJECT_CHANGE_GUID
1070
     0
1071
        0
1070
     0
1070
     0
1070
     0
1070
     0
1070
     0
1070
     0
1070
     0
1070
     0
1070
     0
1070
     0
1070
     0
1071
        0
1070
     0
1070
     0
1070
     0
1070
     0
1070
     0
1070
     0
1070
     0
1070
     0
1070
     0
1070
     0
1070
     0
1071
        0
1070
     0
1070
     0
1070
     0
1070
     0
1070
     0
1070
     0
1070
     0
1070
     0
1070
     0
1070
     0
  0
LINE
  5
73EC
330
DF
100
AcDbEntity
  8
JISSEN
100
AcDbLine
 10
740.4728500600021
 20
859.242868730792
 30
0.0
 11
737.035350060002
 21
859.242868730792
 31
0.0
  0
LINE
  5
73F2
330
DF
100
AcDbEntity
  8
JISSEN
100
AcDbLine
 10
740.4728500599969
 20
889.2428687307919
 30
0.0
 11
737.0353500600002
 21
889.2428687307919
 31
0.0
  0
ARC
  5
73F7
330
DF
100
AcDbEntity
  8
JISSEN
100
AcDbCircle
 10
716.2541575000001
 20
873.5334980550279
 30
0.0
 40
3.0
100
AcDbArc
 50
180.0
 51
273.868667413815
  0
ARC
  5
73F8
330
DF
100
AcDbEntity
  8
JISSEN
100
AcDbCircle
 10
716.2541575000001
 20
874.9522394092959
 30
0.0
 40
3.0
100
AcDbArc
 50
83.32551907822368
 51
180.0
  0
LINE
  5
73F9
330
DF
100
AcDbEntity
  8
JISSEN
100
AcDbLine
 10
713.2541575000001
 20
874.9522394092959
 30
0.0
 11
713.2541575000001
 21
873.5334980550279
 31
0.0
  0
LINE
  5
73FA
330
DF
100
AcDbEntity
  8
JISSEN
100
AcDbLine
 10
716.4565665702944
 20
870.5403340821954
 30
0.0
 11
737.0353500600002
 21
871.9319492665778
 31
0.0
  0
LINE
  5
73FD
330
DF
100
AcDbEntity
  8
JISSEN
100
AcDbLine
 10
716.4565665709166
 20
877.9454033814285
 30
0.0
 11
737.0353500600002
 21
876.5537881936147
 31
0.0
  0
LINE
  5
73FE
330
DF
100
AcDbEntity
  8
JISSEN
100
AcDbLine
 10
748.2876928660142
 20
868.5875125120537
 30
0.0
 11
987.2541574999997
 21
868.5875125120807
 31
0.0
  0
LINE
  5
73FF
330
DF
100
AcDbEntity
  8
JISSEN
100
AcDbLine
 10
747.3639872311423
 20
865.5875125121083
 30
0.0
 11
987.2541574999997
 21
865.5875125120807
 31
0.0
  0
ELLIPSE
  5
7402
330
DF
100
AcDbEntity
  8
JISSEN
100
AcDbEllipse
 10
737.0353500600002
 20
874.2428687307919
 30
0.0
 11
0.0000000000000032
 21
7.5
 31
0.0
210
0.0
220
0.0
230
1.0
 40
0.5625
 41
1.921801304887218
 42
7.502976655983342
1001
ACAD_OBJECT_CHANGE_GUID
1070
     0
1071
        0
1070
     0
1070
     0
1070
     0
1070
     0
1070
     0
1070
     0
1070
     0
1070
     0
1070
     0
1070
     0
1070
     0
1071
        0
1070
     0
1070
     0
1070
     0
1070
     0
1070
     0
1070
     0
1070
     0
1070
     0
1070
     0
1070
     0
1070
     0
1071
        0
1070
     0
1070
     0
1070
     0
1070
     0
1070
     0
1070
     0
1070
     0
1070
     0
1070
     0
1070
     0
  0
ELLIPSE
  5
7403
330
DF
100
AcDbEntity
  8
JISSEN
100
AcDbEllipse
 10
738.7541000600002
 20
874.2428687307919
 30
0.0
 11
0.0000000000000032
 21
7.5
 31
0.0
210
0.0
220
0.0
230
1.0
 40
0.5625
 41
3.141592653589793
 42
6.283185307179586
1001
ACAD_OBJECT_CHANGE_GUID
1070
     0
1071
        0
1070
     0
1070
     0
1070
     0
1070
     0
1070
     0
1070
     0
1070
     0
1070
     0
1070
     0
1070
     0
1070
     0
1071
        0
1070
     0
1070
     0
1070
     0
1070
     0
1070
     0
1070
     0
1070
     0
1070
     0
1070
     0
1070
     0
1070
     0
1071
        0
1070
     0
1070
     0
1070
     0
1070
     0
1070
     0
1070
     0
1070
     0
1070
     0
1070
     0
1070
     0
  0
LINE
  5
7404
330
DF
100
AcDbEntity
  8
JISSEN
100
AcDbLine
 10
738.7541000599985
 20
881.742868730792
 30
0.0
 11
737.0353500600002
 21
881.742868730792
 31
0.0
  0
LINE
  5
7405
330
DF
100
AcDbEntity
  8
JISSEN
100
AcDbLine
 10
738.7541000600012
 20
866.742868730792
 30
0.0
 11
737.0353500600011
 21
866.742868730792
 31
0.0
  0
ELLIPSE
  5
7408
330
DF
100
AcDbEntity
  8
JISSEN
100
AcDbEllipse
 10
737.0353500600002
 20
874.2428687300963
 30
0.0
 11
0.0
 21
2.310919463518416
 31
0.0
210
0.0
220
0.0
230
1.0
 40
0.6179415502044956
 41
3.141592653589793
 42
6.283185307179586
1001
ACAD_OBJECT_CHANGE_GUID
1070
     0
1071
        0
1070
     0
1070
     0
1070
     0
1070
     0
1070
     0
1070
     0
1070
     0
1070
     0
1070
     0
1070
     0
1070
     0
1071
        0
1070
     0
1070
     0
1070
     0
1070
     0
1070
     0
1070
     0
1070
     0
1070
     0
1070
     0
1070
     0
1070
     0
1071
        0
1070
     0
1070
     0
1070
     0
1070
     0
1070
     0
1070
     0
1070
     0
1070
     0
1070
     0
1070
     0
  0
LINE
  5
7409
330
DF
100
AcDbEntity
  8
JISSEN
100
AcDbLine
 10
725.5978500600001
 20
871.1585022511437
 30
0.0
 11
725.5978500600001
 21
856.5992873301295
 31
0.0
  0
LINE
  5
740A
330
DF
100
AcDbEntity
  8
JISSEN
100
AcDbLine
 10
985.5654728611099
 20
855.553204834212
 30
0.0
 11
987.916857953448
 21
864.3286934669783
 31
0.0
  0
ARC
  5
740B
330
DF
100
AcDbEntity
  8
JISSEN
100
AcDbCircle
 10
980.7358437296638
 20
856.8473000597228
 30
0.0
 40
5.0
100
AcDbArc
 50
272.7231761869111
 51
344.9999999999999
  0
ARC
  5
7417
330
DF
100
AcDbEntity
  8
JISSEN
100
AcDbCircle
 10
980.7358437296638
 20
1059.327724964439
 30
0.0
 40
5.0
100
AcDbArc
 50
15.00000000000009
 51
87.27682381308886
  0
LINE
  5
7418
330
DF
100
AcDbEntity
  8
JISSEN
100
AcDbLine
 10
985.5654728611092
 20
1060.621820189952
 30
0.0
 11
987.9168579534479
 21
1051.846331557183
 31
0.0
  0
LINE
  5
741A
330
DF
100
AcDbEntity
  8
JISSEN
100
AcDbLine
 10
982.4596443193085
 20
1060.769546476125
 30
0.0
 11
984.9893132589702
 21
1051.328693466978
 31
0.0
  0
ARC
  5
741E
330
DF
100
AcDbEntity
  8
JISSEN
100
AcDbCircle
 10
977.6300151884337
 20
1059.475451248483
 30
0.0
 40
5.0
100
AcDbArc
 50
15.00000000000009
 51
87.27682381308886
  0
ARC
  5
7421
330
DF
100
AcDbEntity
  8
JISSEN
100
AcDbCircle
 10
977.6300151884337
 20
856.6995737756787
 30
0.0
 40
5.0
100
AcDbArc
 50
272.7231761869111
 51
344.9999999999999
  0
LINE
  5
7422
330
DF
100
AcDbEntity
  8
JISSEN
100
AcDbLine
 10
982.4596443193085
 20
855.4054785480369
 30
0.0
 11
984.9893132589702
 21
864.8463315571834
 31
0.0
  0
LINE
  5
7424
330
DF
100
AcDbEntity
  8
JISSEN
100
AcDbLine
 10
985.2541575
 20
869.5875125120807
 30
0.0
 11
985.2541575
 21
1046.587512512081
 31
0.0
  0
ARC
  5
7426
330
DF
100
AcDbEntity
  8
JISSEN
100
AcDbCircle
 10
986.9509321271591
 20
864.5875125120808
 30
0.0
 40
1.0
100
AcDbArc
 50
345.0000000000004
 51
89.99999999999994
  0
ARC
  5
7427
330
DF
100
AcDbEntity
  8
JISSEN
100
AcDbCircle
 10
985.9552390852593
 20
864.5875125120809
 30
0.0
 40
1.0
100
AcDbArc
 50
89.99999999999994
 51
165.0000000000003
  0
ARC
  5
7428
330
DF
100
AcDbEntity
  8
JISSEN
100
AcDbCircle
 10
986.2541574999999
 20
869.5875125120807
 30
0.0
 40
1.0
100
AcDbArc
 50
180.0
 51
269.9999999999999
  0
ARC
  5
7429
330
DF
100
AcDbEntity
  8
JISSEN
100
AcDbCircle
 10
987.2541574999999
 20
869.5875125120808
 30
0.0
 40
1.0
100
AcDbArc
 50
270.0000000000033
 51
0.0000000000000254
  0
LINE
  5
742A
330
DF
100
AcDbEntity
  8
JISSEN
100
AcDbLine
 10
988.2541574999999
 20
866.5875125120807
 30
0.0
 11
988.2541574999999
 21
867.5875125120807
 31
0.0
  0
ARC
  5
742B
330
DF
100
AcDbEntity
  8
JISSEN
100
AcDbCircle
 10
987.2541574999999
 20
867.5875125120807
 30
0.0
 40
1.0
100
AcDbArc
 50
0.0
 51
90.00000000000651
  0
ARC
  5
742C
330
DF
100
AcDbEntity
  8
JISSEN
100
AcDbCircle
 10
987.2541574999999
 20
866.5875125120807
 30
0.0
 40
1.0
100
AcDbArc
 50
269.9999999999934
 51
0.0
  0
ARC
  5
742D
330
DF
100
AcDbEntity
  8
JISSEN
100
AcDbCircle
 10
987.2541574999999
 20
1049.587512512081
 30
0.0
 40
1.0
100
AcDbArc
 50
0.0
 51
90.00000000000659
  0
ARC
  5
742E
330
DF
100
AcDbEntity
  8
JISSEN
100
AcDbCircle
 10
987.2541574999999
 20
1048.587512512081
 30
0.0
 40
1.0
100
AcDbArc
 50
269.9999999999935
 51
0.0
  0
LINE
  5
742F
330
DF
100
AcDbEntity
  8
JISSEN
100
AcDbLine
 10
988.2541574999999
 20
1049.587512512081
 30
0.0
 11
988.2541574999999
 21
1048.587512512081
 31
0.0
  0
ARC
  5
7430
330
DF
100
AcDbEntity
  8
JISSEN
100
AcDbCircle
 10
987.2541574999999
 20
1046.587512512081
 30
0.0
 40
1.0
100
AcDbArc
 50
0.0
 51
89.99999999999676
  0
ARC
  5
7431
330
DF
100
AcDbEntity
  8
JISSEN
100
AcDbCircle
 10
986.2541574999999
 20
1046.587512512081
 30
0.0
 40
1.0
100
AcDbArc
 50
90.00000000000005
 51
179.9999999999999
  0
ARC
  5
7432
330
DF
100
AcDbEntity
  8
JISSEN
100
AcDbCircle
 10
985.9552390852593
 20
1051.587512512081
 30
0.0
 40
1.0
100
AcDbArc
 50
194.9999999999996
 51
270.0000000000001
  0
ARC
  5
7433
330
DF
100
AcDbEntity
  8
JISSEN
100
AcDbCircle
 10
986.9509321271591
 20
1051.587512512081
 30
0.0
 40
1.0
100
AcDbArc
 50
270.0000000000001
 51
14.99999999999964
  0
LINE
  5
7434
330
DF
100
AcDbEntity
  8
JISSEN
100
AcDbLine
 10
988.2541574999999
 20
1048.587512512082
 30
0.0
 11
988.2541574999999
 21
1049.587512512082
 31
0.0
  0
LINE
  5
7438
330
DF
100
AcDbEntity
  8
JISSEN
100
AcDbLine
 10
728.5757585369294
 20
852.0264166920812
 30
0.0
 11
979.4081048577195
 21
852.0264166920812
 31
0.0
  0
LINE
  5
743A
330
DF
100
AcDbEntity
  8
JISSEN
100
AcDbLine
 10
979.4081048577195
 20
852.0264166920812
 30
0.0
 11
979.4095392564766
 21
852.0264166920812
 31
0.0
  0
LINE
  5
743B
330
DF
100
AcDbEntity
  8
JISSEN
100
AcDbLine
 10
728.5757585369294
 20
1064.148608332081
 30
0.0
 11
979.4081048577195
 21
1064.148608332081
 31
0.0
  0
DIMENSION
  5
757A
330
DF
100
AcDbEntity
  8
SUNPOU
100
AcDbDimension
  2
*D14
 10
988.25415750212
 20
661.6668634653233
 30
0.0
 11
858.0968141149842
 21
661.6668634653233
 31
0.0
 70
   160
 71
     5
 42
-1.0
  3
IMCADLT
100
AcDbAlignedDimension
 13
722.2541575
 23
512.8555284499999
 33
0.0
 14
988.25415750212
 24
584.0411439666803
 34
0.0
100
AcDbRotatedDimension
1001
ACAD
1000
DSTYLE
1002
{
1070
    40
1040
5.0
1070
   173
1070
     0
1070
    41
1040
3.0
1002
}
  0
ARC
  5
7580
330
DF
100
AcDbEntity
  8
JISSEN
100
AcDbCircle
 10
306.4236013791697
 20
465.0925720285711
 30
0.0
 40
2.0
100
AcDbArc
 50
180.0
 51
269.9999999999999
  0
DIMENSION
  5
75D8
330
DF
100
AcDbEntity
  8
SUNPOU
100
AcDbDimension
  2
*D15
 10
672.534575694001
 20
275.7499936933963
 30
0.0
 11
672.534575694001
 21
365.1877905592978
 31
0.0
 70
   160
 71
     5
 42
-1.0
  3
IMCADLT
100
AcDbAlignedDimension
 13
787.857717486718
 23
455.74999369
 33
0.0
 14
727.2194358011325
 24
275.7499936933963
 34
0.0
 50
90.0
100
AcDbRotatedDimension
1001
ACAD
1000
DSTYLE
1002
{
1070
    40
1040
5.0
1070
   173
1070
     0
1070
    41
1040
3.0
1002
}
  0
TEXT
  5
7721
330
DF
100
AcDbEntity
  8
TEXT
100
AcDbText
 10
1569.070538527145
 20
22.18535163803563
 30
0.0
 40
15.0
  1
HC-18C 外観図
  7
K
100
AcDbText
  0
LINE
  5
7722
330
DF
100
AcDbEntity
  8
WAKU
 62
     3
100
AcDbLine
 10
1317.895154036897
 20
59.97452528851181
 30
0.0
 11
1428.104759362422
 21
59.97452528851181
 31
0.0
  0
LINE
  5
7723
330
DF
100
AcDbEntity
  8
WAKU
 62
     3
100
AcDbLine
 10
1317.895154036897
 20
29.31711404503074
 30
0.0
 11
1428.104759362422
 21
29.31711404503074
 31
0.0
  0
LINE
  5
7724
330
DF
100
AcDbEntity
  8
WAKU
 62
     3
100
AcDbLine
 10
1317.895154036897
 20
-1.340297198449775
 30
0.0
 11
1428.104759362422
 21
-1.340297198449775
 31
0.0
  0
LINE
  5
7725
330
DF
100
AcDbEntity
  8
WAKU
 62
     3
100
AcDbLine
 10
1893.490819440848
 20
54.11410908153903
 30
0.0
 11
1958.847678290183
 21
54.11410908153903
 31
0.0
  0
LINE
  5
7726
330
DF
100
AcDbEntity
  8
WAKU
 62
     3
100
AcDbLine
 10
1893.490819440848
 20
14.11410908153903
 30
0.0
 11
1958.847678290183
 21
14.11410908153903
 31
0.0
  0
TEXT
  5
7727
330
DF
100
AcDbEntity
  8
SUNPOU
100
AcDbText
 10
1857.624701440481
 20
-30.54616060405761
 30
0.0
 40
15.0
  1
1/5
  7
K
100
AcDbText
  0
TEXT
  5
772E
330
DF
100
AcDbEntity
  8
TEXT
100
AcDbText
 10
1759.755165042637
 20
-80.51398197554636
 30
0.0
 40
15.0
  1
HC18C03015
  7
K
100
AcDbText
  0
LINE
  5
773A
330
DF
100
AcDbEntity
  8
TEXT
100
AcDbLine
 10
1299.529269318099
 20
875.7528854231736
 30
0.0
 11
1387.300697889527
 21
875.7528854231736
 31
0.0
  0
TEXT
  5
773B
330
DF
100
AcDbEntity
  8
TEXT
100
AcDbText
 10
1299.529269318099
 20
878.7528854231736
 30
0.0
 40
15.0
  1
　仕様　
100
AcDbText
  0
TEXT
  5
773C
330
DF
100
AcDbEntity
  8
TEXT
100
AcDbText
 10
1299.529269318099
 20
850.9243139946022
 30
0.0
 40
15.0
  1
外形寸法：幅230mm×奥行266mm×高さ392mm
100
AcDbText
  0
TEXT
  5
773D
330
DF
100
AcDbEntity
  8
TEXT
100
AcDbText
 10
1299.529269318099
 20
823.1814568517451
 30
0.0
 40
15.0
  1
質量：9kg
100
AcDbText
  0
TEXT
  5
773E
330
DF
100
AcDbEntity
  8
TEXT
100
AcDbText
 10
1299.529269318099
 20
795.0957425660308
 30
0.0
 40
15.0
  1
全質量（包装含み）：10kg
100
AcDbText
  0
TEXT
  5
773F
330
DF
100
AcDbEntity
  8
TEXT
100
AcDbText
 10
1299.529269318099
 20
767.1814568517451
 30
0.0
 40
15.0
  1
回転数：292/356rpm（50/60Hz）
100
AcDbText
  0
TEXT
  5
7740
330
DF
100
AcDbEntity
  8
TEXT
100
AcDbText
 10
1299.529269318099
 20
739.2671711374593
 30
0.0
 40
15.0
  1
電源：単相100V　50/60Hz
100
AcDbText
  0
TEXT
  5
7741
330
DF
100
AcDbEntity
  8
TEXT
100
AcDbText
 10
1299.529269318099
 20
711.3528854231737
 30
0.0
 40
15.0
  1
定格消費電力：150/130W（50/60Hz）
100
AcDbText
  0
TEXT
  5
7742
330
DF
100
AcDbEntity
  8
TEXT
100
AcDbText
 10
1299.529269318099
 20
679.8076136457724
 30
0.0
 40
15.0
  1
モーター：単相コンデンサー誘導電動機 4P 60W
100
AcDbText
  0
TEXT
  5
7743
330
DF
100
AcDbEntity
  8
TEXT
100
AcDbText
 10
1299.529269318099
 20
652.0647565029153
 30
0.0
 40
15.0
  1
電源スイッチ：トグル式
100
AcDbText
  0
TEXT
  5
7744
330
DF
100
AcDbEntity
  8
TEXT
100
AcDbText
 10
1299.529269318099
 20
624.0647565029153
 30
0.0
 40
15.0
  1
プロテクター：自動復帰式（モーター内蔵）
100
AcDbText
  0
TEXT
  5
7745
330
DF
100
AcDbEntity
  8
TEXT
100
AcDbText
 10
1299.529269318099
 20
596.2361850743438
 30
0.0
 40
15.0
  1
定格時間：20分
100
AcDbText
  0
TEXT
  5
7746
330
DF
100
AcDbEntity
  8
TEXT
100
AcDbText
 10
1299.529269318099
 20
568.3218993600582
 30
0.0
 40
15.0
  1
角氷入数：約18個
100
AcDbText
  0
TEXT
  5
7747
330
DF
100
AcDbEntity
  8
TEXT
100
AcDbText
 10
1299.529269318099
 20
540.6647565029153
 30
0.0
 40
15.0
  1
チップアイス入数：約450g
100
AcDbText
  0
TEXT
  5
7748
330
DF
100
AcDbEntity
  8
TEXT
100
AcDbText
 10
1299.529269318099
 20
512.8361850743439
 30
0.0
 40
15.0
  1
氷削能力：1.0/1.3kg/min（50/60Hz）
100
AcDbText
  0
LINE
  5
77B9
330
DF
100
AcDbEntity
  8
WAKU
 62
     3
100
AcDbLine
 10
80.89212523983951
 20
1146.619444821596
 30
0.0
 11
1985.892125239839
 21
1146.619444821596
 31
0.0
  0
LINE
  5
77BA
330
DF
100
AcDbEntity
  8
WAKU
 62
     3
100
AcDbLine
 10
1985.892125239839
 20
-168.3805551784039
 30
0.0
 11
80.89212523983951
 21
-168.3805551784039
 31
0.0
  0
LINE
  5
77BB
330
DF
100
AcDbEntity
  8
WAKU
 62
     3
100
AcDbLine
 10
80.89212523983951
 20
-168.3805551784039
 30
0.0
 11
80.89212523983951
 21
1146.619444821596
 31
0.0
  0
TEXT
  5
77BC
330
DF
100
AcDbEntity
  8
WAKU
 62
     3
100
AcDbText
 10
426.3921252398395
 20
-160.8805551784039
 30
0.0
 40
15.0
  1
 年 月 日
  7
K
 72
     4
 11
468.3921252398395
 21
-153.3805551784039
 31
0.0
100
AcDbText
  0
LINE
  5
77BD
330
DF
100
AcDbEntity
  8
WAKU
 62
     3
100
AcDbLine
 10
595.8921252398395
 20
-138.3805551784039
 30
0.0
 11
130.8921252398395
 21
-138.3805551784039
 31
0.0
  0
LINE
  5
77BE
330
DF
100
AcDbEntity
  8
WAKU
 62
     3
100
AcDbLine
 10
130.8921252398395
 20
-108.3805551784039
 30
0.0
 11
595.8921252398395
 21
-108.3805551784039
 31
0.0
  0
LINE
  5
77BF
330
DF
100
AcDbEntity
  8
WAKU
 62
     3
100
AcDbLine
 10
595.8921252398395
 20
-78.38055517840394
 30
0.0
 11
130.8921252398395
 21
-78.38055517840394
 31
0.0
  0
LINE
  5
77C0
330
DF
100
AcDbEntity
  8
WAKU
 62
     3
100
AcDbLine
 10
130.8921252398395
 20
-138.3805551784039
 30
0.0
 11
595.8921252398395
 21
-138.3805551784039
 31
0.0
  0
LINE
  5
77C1
330
DF
100
AcDbEntity
  8
WAKU
 62
     3
100
AcDbLine
 10
595.8921252398395
 20
-108.3805551784039
 30
0.0
 11
130.8921252398395
 21
-108.3805551784039
 31
0.0
  0
LINE
  5
77C2
330
DF
100
AcDbEntity
  8
WAKU
 62
     3
100
AcDbLine
 10
130.8921252398395
 20
-78.38055517840394
 30
0.0
 11
595.8921252398395
 21
-78.38055517840394
 31
0.0
  0
LINE
  5
77C3
330
DF
100
AcDbEntity
  8
WAKU
 62
     3
100
AcDbLine
 10
595.8921252398395
 20
-48.38055517840394
 30
0.0
 11
80.89212523983951
 21
-48.38055517840394
 31
0.0
  0
TEXT
  5
77C4
330
DF
100
AcDbEntity
  8
WAKU
 62
     3
100
AcDbText
 10
87.39212523983951
 20
-160.8805551784039
 30
0.0
 40
15.0
  1
記号
  7
K
 72
     4
 11
103.3921252398395
 21
-153.3805551784039
 31
0.0
100
AcDbText
  0
LINE
  5
77C5
330
DF
100
AcDbEntity
  8
WAKU
 62
     3
100
AcDbLine
 10
130.8921252398395
 20
-168.3805551784039
 30
0.0
 11
130.8921252398395
 21
-48.38055517840394
 31
0.0
  0
LINE
  5
77C6
330
DF
100
AcDbEntity
  8
WAKU
 62
     3
100
AcDbLine
 10
125.8921252398395
 20
-48.38055517840394
 30
0.0
 11
125.8921252398395
 21
-168.3805551784039
 31
0.0
  0
LINE
  5
77C7
330
DF
100
AcDbEntity
  8
WAKU
 62
     3
100
AcDbLine
 10
125.8921252398395
 20
-168.3805551784039
 30
0.0
 11
125.8921252398395
 21
-48.38055517840394
 31
0.0
  0
LINE
  5
77C8
330
DF
100
AcDbEntity
  8
WAKU
 62
     3
100
AcDbLine
 10
130.8921252398395
 20
-48.38055517840394
 30
0.0
 11
130.8921252398395
 21
-168.3805551784039
 31
0.0
  0
LINE
  5
77C9
330
DF
100
AcDbEntity
  8
WAKU
 62
     3
100
AcDbLine
 10
103.3921252398395
 20
-78.38055517840394
 30
0.0
 11
80.89212523983951
 21
-108.3805551784039
 31
0.0
  0
LINE
  5
77CA
330
DF
100
AcDbEntity
  8
WAKU
 62
     3
100
AcDbLine
 10
103.3921252398395
 20
-78.38055517840394
 30
0.0
 11
125.8921252398395
 21
-108.3805551784039
 31
0.0
  0
LINE
  5
77CB
330
DF
100
AcDbEntity
  8
WAKU
 62
     3
100
AcDbLine
 10
103.3921252398395
 20
-108.3805551784039
 30
0.0
 11
80.89212523983951
 21
-138.3805551784039
 31
0.0
  0
LINE
  5
77CC
330
DF
100
AcDbEntity
  8
WAKU
 62
     3
100
AcDbLine
 10
80.89212523983951
 20
-108.3805551784039
 30
0.0
 11
125.8921252398395
 21
-108.3805551784039
 31
0.0
  0
LINE
  5
77CD
330
DF
100
AcDbEntity
  8
WAKU
 62
     3
100
AcDbLine
 10
125.8921252398395
 20
-138.3805551784039
 30
0.0
 11
80.89212523983951
 21
-138.3805551784039
 31
0.0
  0
LINE
  5
77CE
330
DF
100
AcDbEntity
  8
WAKU
 62
     3
100
AcDbLine
 10
125.8921252398395
 20
-138.3805551784039
 30
0.0
 11
80.89212523983951
 21
-138.3805551784039
 31
0.0
  0
LINE
  5
77CF
330
DF
100
AcDbEntity
  8
WAKU
 62
     3
100
AcDbLine
 10
125.8921252398395
 20
-108.3805551784039
 30
0.0
 11
80.89212523983951
 21
-108.3805551784039
 31
0.0
  0
LINE
  5
77D0
330
DF
100
AcDbEntity
  8
WAKU
 62
     3
100
AcDbLine
 10
103.3921252398395
 20
-108.3805551784039
 30
0.0
 11
125.8921252398395
 21
-138.3805551784039
 31
0.0
  0
LINE
  5
77D1
330
DF
100
AcDbEntity
  8
WAKU
 62
     3
100
AcDbLine
 10
103.3921252398395
 20
-48.38055517840394
 30
0.0
 11
80.89212523983951
 21
-78.38055517840394
 31
0.0
  0
LINE
  5
77D2
330
DF
100
AcDbEntity
  8
WAKU
 62
     3
100
AcDbLine
 10
125.8921252398395
 20
-78.38055517840394
 30
0.0
 11
80.89212523983951
 21
-78.38055517840394
 31
0.0
  0
LINE
  5
77D3
330
DF
100
AcDbEntity
  8
WAKU
 62
     3
100
AcDbLine
 10
125.8921252398395
 20
-78.38055517840394
 30
0.0
 11
80.89212523983951
 21
-78.38055517840394
 31
0.0
  0
LINE
  5
77D4
330
DF
100
AcDbEntity
  8
WAKU
 62
     3
100
AcDbLine
 10
125.8921252398395
 20
-78.38055517840394
 30
0.0
 11
103.3921252398395
 21
-48.38055517840394
 31
0.0
  0
TEXT
  5
77D5
330
DF
100
AcDbEntity
  8
WAKU
 62
     3
100
AcDbText
 10
346.8921252398395
 20
-160.8805551784039
 30
0.0
 40
15.0
  1
設変番号
  7
K
 72
     4
 11
380.8921252398395
 21
-153.3805551784039
 31
0.0
100
AcDbText
  0
TEXT
  5
77D6
330
DF
100
AcDbEntity
  8
WAKU
 62
     3
100
AcDbText
 10
170.3921252398395
 20
-160.8805551784039
 30
0.0
 40
15.0
  1
変更内容・理由
  7
K
 72
     4
 11
230.8921252398395
 21
-153.3805551784039
 31
0.0
100
AcDbText
  0
LINE
  5
77D7
330
DF
100
AcDbEntity
  8
WAKU
 62
     3
100
AcDbLine
 10
430.8921252398395
 20
-168.3805551784039
 30
0.0
 11
430.8921252398395
 21
-48.38055517840394
 31
0.0
  0
LINE
  5
77D8
330
DF
100
AcDbEntity
  8
WAKU
 62
     3
100
AcDbLine
 10
330.8921252398395
 20
-48.38055517840394
 30
0.0
 11
330.8921252398395
 21
-168.3805551784039
 31
0.0
  0
TEXT
  5
77DA
330
DF
100
AcDbEntity
  8
WAKU
 62
     3
100
AcDbText
 10
557.8921252398394
 20
-160.8805551784039
 30
0.0
 40
15.0
  1
検図
  7
K
 72
     4
 11
573.3921252398395
 21
-153.3805551784039
 31
0.0
100
AcDbText
  0
TEXT
  5
77DB
330
DF
100
AcDbEntity
  8
WAKU
 62
     3
100
AcDbText
 10
512.713553811268
 20
-160.8805551784039
 30
0.0
 40
15.0
  1
担当
  7
K
 72
     4
 11
528.3921252398394
 21
-153.3805551784039
 31
0.0
100
AcDbText
  0
LINE
  5
77DC
330
DF
100
AcDbEntity
  8
WAKU
 62
     3
100
AcDbLine
 10
595.8921252398395
 20
-48.38055517840394
 30
0.0
 11
595.8921252398395
 21
-168.3805551784039
 31
0.0
  0
LINE
  5
77DD
330
DF
100
AcDbEntity
  8
WAKU
 62
     3
100
AcDbLine
 10
550.8921252398395
 20
-168.3805551784039
 30
0.0
 11
550.8921252398395
 21
-48.38055517840394
 31
0.0
  0
LINE
  5
77DE
330
DF
100
AcDbEntity
  8
WAKU
 62
     3
100
AcDbLine
 10
505.8921252398395
 20
-48.38055517840394
 30
0.0
 11
505.8921252398395
 21
-168.3805551784039
 31
0.0
  0
LINE
  5
77E4
330
DF
100
AcDbEntity
  8
WAKU
 62
     3
100
AcDbLine
 10
1985.892125239839
 20
1146.619444821596
 30
0.0
 11
1985.892125239839
 21
-168.3805551784039
 31
0.0
  0
TEXT
  5
77E6
330
DF
100
AcDbEntity
  8
WAKU
 62
     3
100
AcDbText
 10
1711.428502612375
 20
-28.38055517840394
 30
0.0
 40
15.0
  1
三 角 法
  7
K
100
AcDbText
  0
LINE
  5
77E7
330
DF
100
AcDbEntity
  8
WAKU
 62
     3
100
AcDbLine
 10
1685.892125239839
 20
-103.3805551784039
 30
0.0
 11
1985.892125239839
 21
-103.3805551784039
 31
0.0
  0
LINE
  5
77E8
330
DF
100
AcDbEntity
  8
WAKU
 62
     3
100
AcDbLine
 10
1985.892125239839
 20
-38.38055517840394
 30
0.0
 11
1685.892125239839
 21
-38.38055517840394
 31
0.0
  0
LINE
  5
77E9
330
DF
100
AcDbEntity
  8
WAKU
 62
     3
100
AcDbLine
 10
1685.892125239839
 20
-3.380555178403938
 30
0.0
 11
1985.892125239839
 21
-3.380555178403938
 31
0.0
  0
TEXT
  5
77EA
330
DF
100
AcDbEntity
  8
WAKU
 62
     3
100
AcDbText
 10
1758.197716741952
 20
-148.3805551784039
 30
0.0
 40
17.5
  1
中部コーポレーション
  7
K
100
AcDbText
  0
LINE
  5
77EC
330
DF
100
AcDbEntity
  8
WAKU
 62
     3
100
AcDbLine
 10
1500.892125239839
 20
76.61944482159606
 30
0.0
 11
1810.892125239839
 21
76.61944482159606
 31
0.0
  0
LINE
  5
77F5
330
DF
100
AcDbEntity
  8
WAKU
 62
     3
100
AcDbLine
 10
1500.892125239839
 20
76.61944482159606
 30
0.0
 11
1120.892125239839
 21
76.61944482159606
 31
0.0
  0
TEXT
  5
77F7
330
DF
100
AcDbEntity
  8
WAKU
 62
     3
100
AcDbText
 10
1438.392125239839
 20
-47.53334364238589
 30
0.0
 40
10.0
  1
0.1
 41
0.8
  7
K
 11
1438.392125239839
 21
-42.53334364238589
 31
0.0
100
AcDbText
 73
     2
  0
TEXT
  5
77F8
330
DF
100
AcDbEntity
  8
WAKU
 62
     3
100
AcDbText
 10
1438.392125239839
 20
-66.89445310946559
 30
0.0
 40
10.0
  1
0.1
 41
0.8
  7
K
 11
1438.392125239839
 21
-61.89445310946559
 31
0.0
100
AcDbText
 73
     2
  0
TEXT
  5
77F9
330
DF
100
AcDbEntity
  8
WAKU
 62
     3
100
AcDbText
 10
1438.392125239839
 20
-86.25556257654528
 30
0.0
 40
10.0
  1
0.2
 41
0.8
  7
K
 11
1438.392125239839
 21
-81.25556257654528
 31
0.0
100
AcDbText
 73
     2
  0
TEXT
  5
77FA
330
DF
100
AcDbEntity
  8
WAKU
 62
     3
100
AcDbText
 10
1438.392125239839
 20
-105.616672043625
 30
0.0
 40
10.0
  1
0.3
 41
0.8
  7
K
 11
1438.392125239839
 21
-100.616672043625
 31
0.0
100
AcDbText
 73
     2
  0
TEXT
  5
77FB
330
DF
100
AcDbEntity
  8
WAKU
 62
     3
100
AcDbText
 10
1438.392125239839
 20
-124.9777815107047
 30
0.0
 40
10.0
  1
0.5
 41
0.8
  7
K
 11
1438.392125239839
 21
-119.9777815107047
 31
0.0
100
AcDbText
 73
     2
  0
TEXT
  5
77FC
330
DF
100
AcDbEntity
  8
WAKU
 62
     3
100
AcDbText
 10
1438.392125239839
 20
-144.3388909777844
 30
0.0
 40
10.0
  1
0.8
 41
0.8
  7
K
 11
1438.392125239839
 21
-139.3388909777844
 31
0.0
100
AcDbText
 73
     2
  0
TEXT
  5
77FD
330
DF
100
AcDbEntity
  8
WAKU
 62
     3
100
AcDbText
 10
1441.320696668411
 20
-30.85278890884604
 30
0.0
 40
13.5
  1
K
  7
K
 72
     1
 11
1448.392125239839
 21
-24.10278890884604
 31
0.0
100
AcDbText
 73
     2
  0
TEXT
  5
77FE
330
DF
100
AcDbEntity
  8
WAKU
 62
     3
100
AcDbText
 10
1438.392125239839
 20
-163.7000004448641
 30
0.0
 40
10.0
  1
1.2
 41
0.8
  7
K
 11
1438.392125239839
 21
-158.7000004448641
 31
0.0
100
AcDbText
 73
     2
  0
LINE
  5
77FF
330
DF
100
AcDbEntity
  8
WAKU
 62
     3
100
AcDbLine
 10
1290.892125239839
 20
-32.85278890884604
 30
0.0
 11
1500.892125239839
 21
-32.85278890884604
 31
0.0
  0
LINE
  5
7800
330
DF
100
AcDbEntity
  8
WAKU
 62
     3
100
AcDbLine
 10
1290.892125239839
 20
-52.21389837592574
 30
0.0
 11
1500.892125239839
 21
-52.21389837592574
 31
0.0
  0
LINE
  5
7801
330
DF
100
AcDbEntity
  8
WAKU
 62
     3
100
AcDbLine
 10
1500.892125239839
 20
-71.57500784300544
 30
0.0
 11
1290.892125239839
 21
-71.57500784300544
 31
0.0
  0
LINE
  5
7802
330
DF
100
AcDbEntity
  8
WAKU
 62
     3
100
AcDbLine
 10
1290.892125239839
 20
-90.93611731008513
 30
0.0
 11
1500.892125239839
 21
-90.93611731008513
 31
0.0
  0
LINE
  5
7803
330
DF
100
AcDbEntity
  8
WAKU
 62
     3
100
AcDbLine
 10
1500.892125239839
 20
-110.2972267771648
 30
0.0
 11
1290.892125239839
 21
-110.2972267771648
 31
0.0
  0
LINE
  5
7804
330
DF
100
AcDbEntity
  8
WAKU
 62
     3
100
AcDbLine
 10
1290.892125239839
 20
-129.6583362442445
 30
0.0
 11
1500.892125239839
 21
-129.6583362442445
 31
0.0
  0
LINE
  5
7805
330
DF
100
AcDbEntity
  8
WAKU
 62
     3
100
AcDbLine
 10
1500.892125239839
 20
-149.0194457113242
 30
0.0
 11
1290.892125239839
 21
-149.0194457113242
 31
0.0
  0
LINE
  5
7806
330
DF
100
AcDbEntity
  8
WAKU
 62
     3
100
AcDbLine
 10
1500.892125239839
 20
-15.35278890884604
 30
0.0
 11
1120.892125239839
 21
-15.35278890884604
 31
0.0
  0
LINE
  5
7807
330
DF
100
AcDbEntity
  8
WAKU
 62
     3
100
AcDbLine
 10
1120.892125239839
 20
45.96203357811555
 30
0.0
 11
1500.892125239839
 21
45.96203357811555
 31
0.0
  0
LINE
  5
7808
330
DF
100
AcDbEntity
  8
WAKU
 62
     3
100
AcDbLine
 10
1500.892125239839
 20
15.30462233463447
 30
0.0
 11
1120.892125239839
 21
15.30462233463447
 31
0.0
  0
LINE
  5
7809
330
DF
100
AcDbEntity
  8
WAKU
 62
     3
100
AcDbLine
 10
1430.892125239839
 20
-168.3805551784039
 30
0.0
 11
1430.892125239839
 21
-15.35278890884604
 31
0.0
  0
LINE
  5
780A
330
DF
100
AcDbEntity
  8
WAKU
 62
     3
100
AcDbLine
 10
1255.892125239839
 20
-44.63055517840394
 30
0.0
 11
1255.892125239839
 21
-168.3805551784039
 31
0.0
  0
LINE
  5
780B
330
DF
100
AcDbEntity
  8
WAKU
 62
     3
100
AcDbLine
 10
1290.892125239839
 20
-15.35278890884604
 30
0.0
 11
1290.892125239839
 21
-168.3805551784039
 31
0.0
  0
LINE
  5
780C
330
DF
100
AcDbEntity
  8
WAKU
 62
     3
100
AcDbLine
 10
1395.892125239839
 20
-15.35278890884604
 30
0.0
 11
1395.892125239839
 21
-168.3805551784039
 31
0.0
  0
TEXT
  5
780E
330
DF
100
AcDbEntity
  8
WAKU
 62
     3
100
AcDbText
 10
1128.392125239839
 20
-163.9435389047071
 30
0.0
 40
10.0
  1
～
  7
K
 11
1128.392125239839
 21
-158.9435389047072
 31
0.0
100
AcDbText
 73
     2
  0
TEXT
  5
780F
330
DF
100
AcDbEntity
  8
WAKU
 62
     3
100
AcDbText
 10
1343.685743592665
 20
-163.7000004448641
 30
0.0
 40
10.0
  1
2000以下
 41
0.8
  7
K
 72
     2
 11
1391.228600735522
 21
-158.7000004448641
 31
0.0
100
AcDbText
 73
     2
  0
TEXT
  5
7810
330
DF
100
AcDbEntity
  8
WAKU
 62
     3
100
AcDbText
 10
1294.772447961466
 20
-163.7000004448641
 30
0.0
 40
10.0
  1
1000ｦｺｴ
 41
0.8
  7
K
 72
     2
 11
1338.048638437657
 21
-158.7000004448641
 31
0.0
100
AcDbText
 73
     2
  0
TEXT
  5
7811
330
DF
100
AcDbEntity
  8
WAKU
 62
     3
100
AcDbText
 10
1403.392125239839
 20
-163.7000004448641
 30
0.0
 40
10.0
  1
0.5
 41
0.8
  7
K
 11
1403.392125239839
 21
-158.7000004448641
 31
0.0
100
AcDbText
 73
     2
  0
TEXT
  5
7812
330
DF
100
AcDbEntity
  8
WAKU
 62
     3
100
AcDbText
 10
1262.677839525554
 20
-147.1632594673511
 30
0.0
 40
7.5
  1
mm
  7
K
 72
     1
 11
1273.392125239839
 21
-147.1632594673511
 31
0.0
100
AcDbText
  0
TEXT
  5
7813
330
DF
100
AcDbEntity
  8
WAKU
 62
     3
100
AcDbText
 10
1128.392125239839
 20
-37.65926101824766
 30
0.0
 40
15.0
  1
標準加工アラサ
  7
K
 72
     4
 11
1188.392125239839
 21
-30.15926101824766
 31
0.0
100
AcDbText
  0
LINE
  5
7814
330
DF
100
AcDbEntity
  8
WAKU
 62
     3
100
AcDbLine
 10
1255.892125239839
 20
76.61944482159606
 30
0.0
 11
1255.892125239839
 21
-44.63055517840394
 31
0.0
  0
LINE
  5
7815
330
DF
100
AcDbEntity
  8
WAKU
 62
     3
100
AcDbLine
 10
1120.892125239839
 20
-44.96573312764929
 30
0.0
 11
1255.892125239839
 21
-44.96573312764929
 31
0.0
  0
LINE
  5
7816
330
DF
100
AcDbEntity
  8
WAKU
 62
     3
100
AcDbLine
 10
1120.892125239839
 20
-74.01039244143681
 30
0.0
 11
1255.892125239839
 21
-74.01039244143681
 31
0.0
  0
TEXT
  5
7817
330
DF
100
AcDbEntity
  8
WAKU
 62
     3
100
AcDbText
 10
1129.992125239839
 20
-65.74904523849181
 30
0.0
 40
15.0
  1
(標準外ﾊ指定ﾉｺﾄ)
 41
0.8
  7
K
 72
     4
 11
1188.392125239839
 21
-59.32047380992037
 31
0.0
100
AcDbText
  0
TEXT
  5
7818
330
DF
100
AcDbEntity
  8
WAKU
 62
     3
100
AcDbText
 10
1128.392125239839
 20
-107.3214412625268
 30
0.0
 40
10.0
  1
▽▽▽
  7
K
 11
1128.392125239839
 21
-102.3214412625268
 31
0.0
100
AcDbText
 73
     2
  0
TEXT
  5
7819
330
DF
100
AcDbEntity
  8
WAKU
 62
     3
100
AcDbText
 10
1128.392125239839
 20
-126.1954738099203
 30
0.0
 40
10.0
  1
▽▽
  7
K
 11
1128.392125239839
 21
-121.1954738099203
 31
0.0
100
AcDbText
 73
     2
  0
TEXT
  5
781A
330
DF
100
AcDbEntity
  8
WAKU
 62
     3
100
AcDbText
 10
1128.392125239839
 20
-145.0695063573139
 30
0.0
 40
10.0
  1
▽
  7
K
 11
1128.392125239839
 21
-140.0695063573139
 31
0.0
100
AcDbText
 73
     2
  0
TEXT
  5
781B
330
DF
100
AcDbEntity
  8
WAKU
 62
     3
100
AcDbText
 10
1128.392125239839
 20
-88.44740871513357
 30
0.0
 40
10.0
  1
▽▽▽▽
  7
K
 11
1128.392125239839
 21
-83.44740871513357
 31
0.0
100
AcDbText
 73
     2
  0
TEXT
  5
781C
330
DF
100
AcDbEntity
  8
WAKU
 62
     3
100
AcDbText
 10
1267.092125239839
 20
-103.83687013816
 30
0.0
 40
13.5
  1
法
  7
K
 72
     1
 11
1273.392125239839
 21
-103.83687013816
 31
0.0
100
AcDbText
  0
TEXT
  5
781D
330
DF
100
AcDbEntity
  8
WAKU
 62
     3
100
AcDbText
 10
1211.725458573173
 20
-145.0695063573139
 30
0.0
 40
10.0
  1
100Z
  7
K
 72
     2
 11
1248.39212523984
 21
-140.0695063573139
 31
0.0
100
AcDbText
 73
     2
  0
TEXT
  5
781E
330
DF
100
AcDbEntity
  8
WAKU
 62
     3
100
AcDbText
 10
1221.249268096982
 20
-126.1954738099203
 30
0.0
 40
10.0
  1
25Z
  7
K
 72
     2
 11
1248.39212523984
 21
-121.1954738099203
 31
0.0
100
AcDbText
 73
     2
  0
TEXT
  5
781F
330
DF
100
AcDbEntity
  8
WAKU
 62
     3
100
AcDbText
 10
1216.487363335077
 20
-107.3214412625268
 30
0.0
 40
10.0
  1
6.3Z
  7
K
 72
     2
 11
1248.39212523984
 21
-102.3214412625268
 31
0.0
100
AcDbText
 73
     2
  0
TEXT
  5
7820
330
DF
100
AcDbEntity
  8
WAKU
 62
     3
100
AcDbText
 10
1255.654030001744
 20
-142.5710348485569
 30
0.0
 40
10.0
  1
(
  7
K
 72
     2
 11
1260.892125239839
 21
-137.5710348485569
 31
0.0
100
AcDbText
 73
     2
  0
TEXT
  5
7821
330
DF
100
AcDbEntity
  8
WAKU
 62
     3
100
AcDbText
 10
1267.201649049363
 20
-137.5710348485569
 30
0.0
 40
10.0
  1
±
  7
K
 72
     1
 11
1273.392125239839
 21
-137.5710348485569
 31
0.0
100
AcDbText
  0
TEXT
  5
7822
330
DF
100
AcDbEntity
  8
WAKU
 62
     3
100
AcDbText
 10
1267.092125239839
 20
-119.3368701381602
 30
0.0
 40
13.5
  1
差
  7
K
 72
     1
 11
1273.392125239839
 21
-119.3368701381602
 31
0.0
100
AcDbText
  0
TEXT
  5
7823
330
DF
100
AcDbEntity
  8
WAKU
 62
     3
100
AcDbText
 10
1216.487363335077
 20
-88.44740871513357
 30
0.0
 40
10.0
  1
0.8Z
  7
K
 72
     2
 11
1248.39212523984
 21
-83.44740871513357
 31
0.0
100
AcDbText
 73
     2
  0
TEXT
  5
7824
330
DF
100
AcDbEntity
  8
WAKU
 62
     3
100
AcDbText
 10
1267.092125239839
 20
-72.83687013816012
 30
0.0
 40
13.5
  1
通
  7
K
 72
     1
 11
1273.392125239839
 21
-72.83687013816012
 31
0.0
100
AcDbText
  0
TEXT
  5
7825
330
DF
100
AcDbEntity
  8
WAKU
 62
     3
100
AcDbText
 10
1267.092125239839
 20
-88.33687013816023
 30
0.0
 40
13.5
  1
寸
  7
K
 72
     1
 11
1273.392125239839
 21
-88.33687013816023
 31
0.0
100
AcDbText
  0
TEXT
  5
7826
330
DF
100
AcDbEntity
  8
WAKU
 62
     3
100
AcDbText
 10
1267.092125239839
 20
-57.33687013816029
 30
0.0
 40
13.5
  1
普
  7
K
 72
     1
 11
1273.392125239839
 21
-57.33687013816029
 31
0.0
100
AcDbText
  0
TEXT
  5
7827
330
DF
100
AcDbEntity
  8
WAKU
 62
     3
100
AcDbText
 10
1136.221057542985
 20
53.79073919985581
 30
0.0
 40
15.0
  1
表面処理
  7
K
 11
1136.221057542985
 21
61.29073919985581
 31
0.0
100
AcDbText
 73
     2
  0
TEXT
  5
7828
330
DF
100
AcDbEntity
  8
WAKU
 62
     3
100
AcDbText
 10
1136.221057542985
 20
-7.524083287105781
 30
0.0
 40
15.0
  1
適用規格など
  7
K
 11
1136.221057542985
 21
-0.0240832871057819
 31
0.0
100
AcDbText
 73
     2
  0
TEXT
  5
7829
330
DF
100
AcDbEntity
  8
WAKU
 62
     3
100
AcDbText
 10
1136.221057542985
 20
23.13332795637501
 30
0.0
 40
15.0
  1
色調
  7
K
 11
1136.221057542985
 21
30.63332795637502
 31
0.0
100
AcDbText
 73
     2
  0
TEXT
  5
782A
330
DF
100
AcDbEntity
  8
WAKU
 62
     3
100
AcDbText
 10
1358.92383883076
 20
-86.25556257654528
 30
0.0
 40
10.0
  1
30以下
 41
0.8
  7
K
 72
     2
 11
1391.228600735522
 21
-81.25556257654528
 31
0.0
100
AcDbText
 73
     2
  0
TEXT
  5
782B
330
DF
100
AcDbEntity
  8
WAKU
 62
     3
100
AcDbText
 10
1351.304791211713
 20
-105.616672043625
 30
0.0
 40
10.0
  1
120以下
 41
0.8
  7
K
 72
     2
 11
1391.228600735522
 21
-100.616672043625
 31
0.0
100
AcDbText
 73
     2
  0
TEXT
  5
782C
330
DF
100
AcDbEntity
  8
WAKU
 62
     3
100
AcDbText
 10
1343.685743592665
 20
-144.3388909777844
 30
0.0
 40
10.0
  1
1000以下
 41
0.8
  7
K
 72
     2
 11
1391.228600735522
 21
-139.3388909777844
 31
0.0
100
AcDbText
 73
     2
  0
TEXT
  5
782D
330
DF
100
AcDbEntity
  8
WAKU
 62
     3
100
AcDbText
 10
1351.304791211713
 20
-124.9777815107047
 30
0.0
 40
10.0
  1
315以下
 41
0.8
  7
K
 72
     2
 11
1391.228600735522
 21
-119.9777815107047
 31
0.0
100
AcDbText
 73
     2
  0
TEXT
  5
782E
330
DF
100
AcDbEntity
  8
WAKU
 62
     3
100
AcDbText
 10
1302.391495580514
 20
-144.3388909777844
 30
0.0
 40
10.0
  1
315ｦｺｴ
 41
0.8
  7
K
 72
     2
 11
1338.048638437657
 21
-139.3388909777844
 31
0.0
100
AcDbText
 73
     2
  0
TEXT
  5
782F
330
DF
100
AcDbEntity
  8
WAKU
 62
     3
100
AcDbText
 10
1302.391495580514
 20
-124.9777815107047
 30
0.0
 40
10.0
  1
120ｦｺｴ
 41
0.8
  7
K
 72
     2
 11
1338.048638437657
 21
-119.9777815107047
 31
0.0
100
AcDbText
 73
     2
  0
TEXT
  5
7830
330
DF
100
AcDbEntity
  8
WAKU
 62
     3
100
AcDbText
 10
1310.010543199562
 20
-105.616672043625
 30
0.0
 40
10.0
  1
30ｦｺｴ
 41
0.8
  7
K
 72
     2
 11
1338.048638437657
 21
-100.616672043625
 31
0.0
100
AcDbText
 73
     2
  0
TEXT
  5
7831
330
DF
100
AcDbEntity
  8
WAKU
 62
     3
100
AcDbText
 10
1284.009768497327
 20
-142.5710348485569
 30
0.0
 40
10.0
  1
)
  7
K
 11
1284.009768497327
 21
-137.5710348485569
 31
0.0
100
AcDbText
 73
     2
  0
TEXT
  5
7832
330
DF
100
AcDbEntity
  8
WAKU
 62
     3
100
AcDbText
 10
1317.629590818609
 20
-86.25556257654528
 30
0.0
 40
10.0
  1
6ｦｺｴ
 41
0.8
  7
K
 72
     2
 11
1338.048638437657
 21
-81.25556257654528
 31
0.0
100
AcDbText
 73
     2
  0
TEXT
  5
7833
330
DF
100
AcDbEntity
  8
WAKU
 62
     3
100
AcDbText
 10
1317.629590818609
 20
-66.89445310946559
 30
0.0
 40
10.0
  1
3ｦｺｴ
 41
0.8
  7
K
 72
     2
 11
1338.048638437657
 21
-61.89445310946559
 31
0.0
100
AcDbText
 73
     2
  0
TEXT
  5
7834
330
DF
100
AcDbEntity
  8
WAKU
 62
     3
100
AcDbText
 10
1301.934352723371
 20
-47.53334364238589
 30
0.0
 40
10.0
  1
0.5以上
 41
0.8
  7
K
 72
     2
 11
1338.048638437657
 21
-42.53334364238589
 31
0.0
100
AcDbText
 73
     2
  0
TEXT
  5
7835
330
DF
100
AcDbEntity
  8
WAKU
 62
     3
100
AcDbText
 10
1403.392125239839
 20
-124.9777815107047
 30
0.0
 40
10.0
  1
0.2
 41
0.8
  7
K
 11
1403.392125239839
 21
-119.9777815107047
 31
0.0
100
AcDbText
 73
     2
  0
TEXT
  5
7836
330
DF
100
AcDbEntity
  8
WAKU
 62
     3
100
AcDbText
 10
1403.392125239839
 20
-144.3388909777844
 30
0.0
 40
10.0
  1
0.3
 41
0.8
  7
K
 11
1403.392125239839
 21
-139.3388909777844
 31
0.0
100
AcDbText
 73
     2
  0
TEXT
  5
7837
330
DF
100
AcDbEntity
  8
WAKU
 62
     3
100
AcDbText
 10
1403.392125239839
 20
-105.616672043625
 30
0.0
 40
10.0
  1
0.15
 41
0.8
  7
K
 11
1403.392125239839
 21
-100.616672043625
 31
0.0
100
AcDbText
 73
     2
  0
TEXT
  5
7838
330
DF
100
AcDbEntity
  8
WAKU
 62
     3
100
AcDbText
 10
1366.542886449808
 20
-66.89445310946559
 30
0.0
 40
10.0
  1
6以下
 41
0.8
  7
K
 72
     2
 11
1391.228600735522
 21
-61.89445310946559
 31
0.0
100
AcDbText
 73
     2
  0
TEXT
  5
7839
330
DF
100
AcDbEntity
  8
WAKU
 62
     3
100
AcDbText
 10
1366.542886449808
 20
-47.53334364238589
 30
0.0
 40
10.0
  1
3以下
 41
0.8
  7
K
 72
     2
 11
1391.228600735522
 21
-42.53334364238589
 31
0.0
100
AcDbText
 73
     2
  0
TEXT
  5
783A
330
DF
100
AcDbEntity
  8
WAKU
 62
     3
100
AcDbText
 10
1403.392125239839
 20
-66.89445310946559
 30
0.0
 40
10.0
  1
0.05
 41
0.8
  7
K
 11
1403.392125239839
 21
-61.89445310946559
 31
0.0
100
AcDbText
 73
     2
  0
TEXT
  5
783B
330
DF
100
AcDbEntity
  8
WAKU
 62
     3
100
AcDbText
 10
1403.392125239839
 20
-86.25556257654528
 30
0.0
 40
10.0
  1
0.1
 41
0.8
  7
K
 11
1403.392125239839
 21
-81.25556257654528
 31
0.0
100
AcDbText
 73
     2
  0
TEXT
  5
783C
330
DF
100
AcDbEntity
  8
WAKU
 62
     3
100
AcDbText
 10
1403.392125239839
 20
-47.53334364238589
 30
0.0
 40
10.0
  1
0.05
 41
0.8
  7
K
 11
1403.392125239839
 21
-42.53334364238589
 31
0.0
100
AcDbText
 73
     2
  0
TEXT
  5
783D
330
DF
100
AcDbEntity
  8
WAKU
 62
     3
100
AcDbText
 10
1300.642125239839
 20
-30.85278890884604
 30
0.0
 40
13.5
  1
呼 ビ 寸 法
  7
K
 72
     1
 11
1343.392125239839
 21
-24.10278890884604
 31
0.0
100
AcDbText
 73
     2
  0
TEXT
  5
783E
330
DF
100
AcDbEntity
  8
WAKU
 62
     3
100
AcDbText
 10
1408.892125239839
 20
-30.85278890884604
 30
0.0
 40
13.5
  1
J
  7
K
 72
     1
 11
1413.392125239839
 21
-24.10278890884604
 31
0.0
100
AcDbText
 73
     2
  0
TEXT
  5
783F
330
DF
100
AcDbEntity
  8
WAKU
 62
     3
100
AcDbText
 10
1505.892125239839
 20
-158.3805551784039
 30
0.0
 40
15.0
  1
承認
  7
K
100
AcDbText
  0
LINE
  5
7840
330
DF
100
AcDbEntity
  8
WAKU
 62
     3
100
AcDbLine
 10
1685.892125239839
 20
-168.3805551784039
 30
0.0
 11
1685.892125239839
 21
-103.3805551784039
 31
0.0
  0
LINE
  5
7841
330
DF
100
AcDbEntity
  8
WAKU
 62
     3
100
AcDbLine
 10
1605.892125239839
 20
-3.380555178403938
 30
0.0
 11
1605.892125239839
 21
-168.3805551784039
 31
0.0
  0
LINE
  5
7842
330
DF
100
AcDbEntity
  8
WAKU
 62
     3
100
AcDbLine
 10
1500.892125239839
 20
-168.3805551784039
 30
0.0
 11
1500.892125239839
 21
-3.380555178403938
 31
0.0
  0
LINE
  5
7843
330
DF
100
AcDbEntity
  8
WAKU
 62
     3
100
AcDbLine
 10
1545.892125239839
 20
-3.380555178403938
 30
0.0
 11
1545.892125239839
 21
-168.3805551784039
 31
0.0
  0
LINE
  5
7844
330
DF
100
AcDbEntity
  8
WAKU
 62
     3
100
AcDbLine
 10
1465.892125239839
 20
-15.35278890884604
 30
0.0
 11
1465.892125239839
 21
-168.3805551784039
 31
0.0
  0
TEXT
  5
7845
330
DF
100
AcDbEntity
  8
WAKU
 62
     3
100
AcDbText
 10
1473.392125239839
 20
-163.7000004448641
 30
0.0
 40
10.0
  1
3
 41
0.8
  7
K
 11
1473.392125239839
 21
-158.7000004448641
 31
0.0
100
AcDbText
 73
     2
  0
LINE
  5
7848
330
DF
100
AcDbEntity
  8
WAKU
 62
     3
100
AcDbLine
 10
1500.892125239839
 20
-3.380555178403938
 30
0.0
 11
1685.892125239839
 21
-3.380555178403938
 31
0.0
  0
LINE
  5
7849
330
DF
100
AcDbEntity
  8
WAKU
 62
     3
100
AcDbLine
 10
1500.892125239839
 20
-85.88055517840393
 30
0.0
 11
1685.892125239839
 21
-85.88055517840393
 31
0.0
  0
LINE
  5
784A
330
DF
100
AcDbEntity
  8
WAKU
 62
     3
100
AcDbLine
 10
1685.892125239839
 20
-127.1305551784039
 30
0.0
 11
1500.892125239839
 21
-127.1305551784039
 31
0.0
  0
LINE
  5
784B
330
DF
100
AcDbEntity
  8
WAKU
 62
     3
100
AcDbLine
 10
1685.892125239839
 20
-44.63055517840394
 30
0.0
 11
1500.892125239839
 21
-44.63055517840394
 31
0.0
  0
TEXT
  5
784C
330
DF
100
AcDbEntity
  8
WAKU
 62
     3
100
AcDbText
 10
1505.892125239839
 20
-117.1305551784039
 30
0.0
 40
15.0
  1
検図
  7
K
100
AcDbText
  0
TEXT
  5
784D
330
DF
100
AcDbEntity
  8
WAKU
 62
     3
100
AcDbText
 10
1505.892125239839
 20
-75.88055517840394
 30
0.0
 40
15.0
  1
製図
  7
K
100
AcDbText
  0
TEXT
  5
784E
330
DF
100
AcDbEntity
  8
WAKU
 62
     3
100
AcDbText
 10
1473.392125239839
 20
-124.9777815107047
 30
0.0
 40
10.0
  1
1.2
 41
0.8
  7
K
 11
1473.392125239839
 21
-119.9777815107047
 31
0.0
100
AcDbText
 73
     2
  0
TEXT
  5
784F
330
DF
100
AcDbEntity
  8
WAKU
 62
     3
100
AcDbText
 10
1473.392125239839
 20
-105.616672043625
 30
0.0
 40
10.0
  1
0.8
 41
0.8
  7
K
 11
1473.392125239839
 21
-100.616672043625
 31
0.0
100
AcDbText
 73
     2
  0
TEXT
  5
7850
330
DF
100
AcDbEntity
  8
WAKU
 62
     3
100
AcDbText
 10
1473.392125239839
 20
-144.3388909777844
 30
0.0
 40
10.0
  1
2
 41
0.8
  7
K
 11
1473.392125239839
 21
-139.3388909777844
 31
0.0
100
AcDbText
 73
     2
  0
LINE
  5
7851
330
DF
100
AcDbEntity
  8
WAKU
 62
     3
100
AcDbLine
 10
1473.392125239839
 20
-42.53334364238589
 30
0.0
 11
1491.422291536643
 21
-42.53334364238589
 31
0.0
  0
TEXT
  5
7852
330
DF
100
AcDbEntity
  8
WAKU
 62
     3
100
AcDbText
 10
1473.392125239839
 20
-66.89445310946559
 30
0.0
 40
10.0
  1
0.2
 41
0.8
  7
K
 11
1473.392125239839
 21
-61.89445310946559
 31
0.0
100
AcDbText
 73
     2
  0
TEXT
  5
7853
330
DF
100
AcDbEntity
  8
WAKU
 62
     3
100
AcDbText
 10
1473.392125239839
 20
-86.25556257654528
 30
0.0
 40
10.0
  1
0.5
 41
0.8
  7
K
 11
1473.392125239839
 21
-81.25556257654528
 31
0.0
100
AcDbText
 73
     2
  0
TEXT
  5
7854
330
DF
100
AcDbEntity
  8
WAKU
 62
     3
100
AcDbText
 10
1505.892125239839
 20
26.61944482159606
 30
0.0
 40
15.0
  1
品名
  7
K
100
AcDbText
  0
TEXT
  5
7855
330
DF
100
AcDbEntity
  8
WAKU
 62
     3
100
AcDbText
 10
1505.892125239839
 20
-34.63055517840394
 30
0.0
 40
15.0
  1
設計
  7
K
100
AcDbText
  0
LINE
  5
7856
330
DF
100
AcDbEntity
  8
WAKU
 62
     3
100
AcDbLine
 10
1500.892125239839
 20
-3.380555178403938
 30
0.0
 11
1500.892125239839
 21
76.61944482159606
 31
0.0
  0
TEXT
  5
7857
330
DF
100
AcDbEntity
  8
WAKU
 62
     3
100
AcDbText
 10
1476.963553811268
 20
-30.85278890884604
 30
0.0
 40
13.5
  1
L
  7
K
 72
     1
 11
1483.392125239839
 21
-24.10278890884604
 31
0.0
100
AcDbText
 73
     2
  0
LINE
  5
7858
330
DF
100
AcDbEntity
  8
WAKU
 62
     3
100
AcDbLine
 10
1545.892125239839
 20
76.61944482159606
 30
0.0
 11
1545.892125239839
 21
-3.380555178403938
 31
0.0
  0
LINE
  5
7859
330
DF
100
AcDbEntity
  8
WAKU
 62
     3
100
AcDbLine
 10
1685.892125239839
 20
-38.38055517840394
 30
0.0
 11
1685.892125239839
 21
-3.380555178403938
 31
0.0
  0
LINE
  5
785A
330
DF
100
AcDbEntity
  8
WAKU
 62
     3
100
AcDbLine
 10
1685.892125239839
 20
-103.3805551784039
 30
0.0
 11
1685.892125239839
 21
-38.38055517840394
 31
0.0
  0
LINE
  5
7861
330
DF
100
AcDbEntity
  8
WAKU
 62
     3
100
AcDbLine
 10
1745.892125239839
 20
-38.38055517840394
 30
0.0
 11
1745.892125239839
 21
-103.3805551784039
 31
0.0
  0
TEXT
  5
7862
330
DF
100
AcDbEntity
  8
WAKU
 62
     3
100
AcDbText
 10
1708.31796135736
 20
-148.3805551784039
 30
0.0
 40
10.0
  1
株式会社
  7
K
100
AcDbText
  0
TEXT
  5
7863
330
DF
100
AcDbEntity
  8
WAKU
 62
     3
100
AcDbText
 10
1699.392125239839
 20
-78.38055517840394
 30
0.0
 40
15.0
  1
図番
  7
K
 72
     4
 11
1715.89212523984
 21
-70.88055517840394
 31
0.0
100
AcDbText
  0
LINE
  5
7867
330
DF
100
AcDbEntity
  8
WAKU
 62
     3
100
AcDbLine
 10
1985.892125239839
 20
76.61944482159606
 30
0.0
 11
1810.892125239839
 21
76.61944482159606
 31
0.0
  0
TEXT
  5
7868
330
DF
100
AcDbEntity
  8
WAKU
 62
     3
100
AcDbText
 10
1901.208683029195
 20
-31.29425211582009
 30
0.0
 40
12.5
  1
(単位mm)
  7
K
100
AcDbText
  0
LINE
  5
7869
330
DF
100
AcDbEntity
  8
WAKU
 62
     3
100
AcDbLine
 10
1810.892125239839
 20
36.61944482159606
 30
0.0
 11
1985.892125239839
 21
36.61944482159606
 31
0.0
  0
LINE
  5
786A
330
DF
100
AcDbEntity
  8
WAKU
 62
     3
100
AcDbLine
 10
1845.892125239839
 20
-38.38055517840394
 30
0.0
 11
1845.892125239839
 21
-3.380555178403938
 31
0.0
  0
LINE
  5
786B
330
DF
100
AcDbEntity
  8
WAKU
 62
     3
100
AcDbLine
 10
1800.892125239839
 20
-3.380555178403938
 30
0.0
 11
1800.892125239839
 21
-38.38055517840394
 31
0.0
  0
TEXT
  5
786C
330
DF
100
AcDbEntity
  8
WAKU
 62
     3
100
AcDbText
 10
1815.892125239839
 20
46.61944482159606
 30
0.0
 40
15.0
  1
材 質
  7
K
100
AcDbText
  0
TEXT
  5
786D
330
DF
100
AcDbEntity
  8
WAKU
 62
     3
100
AcDbText
 10
1815.892125239839
 20
6.619444821596061
 30
0.0
 40
15.0
  1
板 厚
  7
K
100
AcDbText
  0
LINE
  5
786E
330
DF
100
AcDbEntity
  8
WAKU
 62
     3
100
AcDbLine
 10
1810.892125239839
 20
76.61944482159606
 30
0.0
 11
1810.892125239839
 21
-3.380555178403938
 31
0.0
  0
TEXT
  5
786F
330
DF
100
AcDbEntity
  8
WAKU
 62
     3
100
AcDbText
 10
1805.892125239839
 20
-28.38055517840394
 30
0.0
 40
15.0
  1
尺度
  7
K
100
AcDbText
  0
LINE
  5
7870
330
DF
100
AcDbEntity
  8
WAKU
 62
     3
100
AcDbLine
 10
1865.89212523984
 20
76.61944482159606
 30
0.0
 11
1865.89212523984
 21
-3.380555178403938
 31
0.0
  0
LINE
  5
7883
330
DF
100
AcDbEntity
  8
WAKU
 62
     3
100
AcDbLine
 10
1120.892125239839
 20
76.61944482159606
 30
0.0
 11
1120.892125239839
 21
-168.3805551784039
 31
0.0
  0
VIEWPORT
  5
776F
102
{ACAD_XDICTIONARY
360
78CA
102
}
330
7768
100
AcDbEntity
 67
     1
  8
0
100
AcDbViewport
 10
142.6739196777343
 20
99.17641353607178
 30
0.0
 40
314.3268664550782
 41
234.9259338701948
 68
     1
 69
     1
 12
142.6739196777343
 22
99.17641353607178
 13
0.0
 23
0.0
 14
10.0
 24
10.0
 15
10.0
 25
10.0
 16
0.0
 26
0.0
 36
1.0
 17
0.0
 27
0.0
 37
0.0
 42
50.0
 43
0.0
 44
0.0
 45
234.9259338701948
 50
0.0
 51
0.0
 72
   500
 90
    32800
  1

281
     0
 71
     1
 74
     0
110
0.0
120
0.0
130
0.0
111
1.0
121
0.0
131
0.0
112
0.0
122
1.0
132
0.0
 79
     0
146
0.0
  0
VIEWPORT
  5
7771
102
{ACAD_XDICTIONARY
360
78CC
102
}
330
7768
100
AcDbEntity
 67
     1
  8
SUNPOU
100
AcDbViewport
 10
142.6739201545715
 20
99.11291456222535
 30
0.0
 40
228.2782722473145
 41
158.5806632995605
 68
     2
 69
     2
 12
1039.058791906506
 22
499.819444821596
 13
0.0
 23
0.0
 14
10.0
 24
10.0
 15
10.0
 25
10.0
 16
0.0
 26
0.0
 36
1.0
 17
0.0
 27
0.0
 37
0.0
 42
50.0
 43
0.0
 44
0.0
 45
1406.914649681529
 50
0.0
 51
0.0
 72
   500
 90
    32800
  1

281
     0
 71
     1
 74
     0
110
0.0
120
0.0
130
0.0
111
1.0
121
0.0
131
0.0
112
0.0
122
1.0
132
0.0
 79
     0
146
0.0
  0
ENDSEC
  0
SECTION
  2
OBJECTS
  0
DICTIONARY
  5
D3
330
0
100
AcDbDictionary
281
     1
  3
ACAD_COLOR
350
76D3
  3
ACAD_GROUP
350
D4
  3
ACAD_LAYOUT
350
75E2
  3
ACAD_MATERIAL
350
76CF
  3
ACAD_MLEADERSTYLE
350
76D6
  3
ACAD_MLINESTYLE
350
D5
  3
ACAD_PLOTSETTINGS
350
75E3
  3
ACAD_PLOTSTYLENAME
350
75E0
  3
ACAD_SCALELIST
350
76AD
  3
ACAD_TABLESTYLE
350
76D4
  3
ACDBHEADERROUNDTRIPXREC
350
78B7
  3
ACDBVARIABLEDICTIONARY
350
59C7
  3
ACGREF_MASTER
350
75FA
  3
ACGREFACAD_MASTER
350
75FE
  3
AcmDictionary
350
7604
  3
ACME_BOM_MANAGER_NAME
350
75F3
  3
ACME_COMMAND_HISTORY
350
75EE
  3
ACME_SCOPE_NAME
350
75ED
  3
ACMESTATEMGR
350
75F8
  3
AcmeSysVarManager
350
75EF
  3
AcmSystemVariableManager
350
7608
  3
AMG
350
7600
  3
AMGSNAPSETTINGS
350
7648
  3
AMI_MASTER
350
75FF
  3
CONTENTDICTIONARY
350
50D5
  3
DWGPROPS
350
78B6
  0
DICTIONARY
  5
76DF
330
C9
100
AcDbDictionary
280
     1
281
     1
  3
ACAD_LAYERSTATES
360
76E0
  0
DICTIONARY
  5
7677
330
DF
100
AcDbDictionary
280
     1
281
     1
  3
ACAD_INDEX
360
7678
  3
ACAD_SORTENTS
360
7884
  0
DICTIONARY
  5
78CA
330
776F
100
AcDbDictionary
280
     1
281
     1
  3
ACAD_XREC_ROUNDTRIP
360
78CB
  0
DICTIONARY
  5
78CC
330
7771
100
AcDbDictionary
280
     1
281
     1
  3
ACAD_XREC_ROUNDTRIP
360
78CD
  0
DICTIONARY
  5
76D3
102
{ACAD_REACTORS
330
D3
102
}
330
D3
100
AcDbDictionary
281
     1
  0
DICTIONARY
  5
D4
102
{ACAD_REACTORS
330
D3
102
}
330
D3
100
AcDbDictionary
281
     1
  0
DICTIONARY
  5
75E2
102
{ACAD_REACTORS
330
D3
102
}
330
D3
100
AcDbDictionary
281
     1
  3
Model
350
75E4
  3
レイアウト1
350
7769
  0
DICTIONARY
  5
76CF
102
{ACAD_REACTORS
330
D3
102
}
330
D3
100
AcDbDictionary
281
     1
  3
ByBlock
350
76D1
  3
ByLayer
350
76D0
  3
Global
350
76D2
  0
DICTIONARY
  5
76D6
102
{ACAD_REACTORS
330
D3
102
}
330
D3
100
AcDbDictionary
281
     1
  3
Standard
350
76D7
  0
DICTIONARY
  5
D5
102
{ACAD_REACTORS
330
D3
102
}
330
D3
100
AcDbDictionary
281
     1
  3
STANDARD
350
E2
  0
DICTIONARY
  5
75E3
102
{ACAD_REACTORS
330
D3
102
}
330
D3
100
AcDbDictionary
281
     1
  0
ACDBDICTIONARYWDFLT
  5
75E0
102
{ACAD_REACTORS
330
D3
102
}
330
D3
100
AcDbDictionary
281
     1
  3
Normal
350
75E1
100
AcDbDictionaryWithDefault
340
75E1
  0
DICTIONARY
  5
76AD
102
{ACAD_REACTORS
330
D3
102
}
330
D3
100
AcDbDictionary
281
     1
  3
A0
350
76AE
  3
A1
350
76AF
  3
A2
350
76B0
  3
A3
350
76B1
  3
A4
350
76B2
  3
A5
350
76B3
  3
A6
350
76B4
  3
A7
350
76B5
  3
A8
350
76B6
  3
A9
350
76B7
  3
B0
350
76B8
  3
B1
350
76B9
  3
B2
350
76BA
  3
B3
350
76BB
  3
B4
350
76BC
  3
B5
350
76BD
  3
B6
350
76BE
  3
B7
350
76BF
  3
B8
350
76C0
  3
B9
350
76C1
  3
C0
350
76C2
  3
C1
350
76C3
  3
C2
350
76C4
  3
C3
350
76C5
  3
C4
350
76C6
  3
C5
350
76C7
  3
C6
350
76C8
  3
C7
350
76C9
  3
C8
350
76CA
  3
C9
350
76CB
  3
D0
350
76CC
  3
D1
350
76CD
  3
D2
350
76CE
  0
DICTIONARY
  5
76D4
102
{ACAD_REACTORS
330
D3
102
}
330
D3
100
AcDbDictionary
281
     1
  3
Standard
350
76D5
  0
DICTIONARY
  5
78B7
102
{ACAD_REACTORS
330
D3
102
}
330
D3
100
AcDbDictionary
281
     1
  0
DICTIONARY
  5
59C7
102
{ACAD_REACTORS
330
D3
102
}
330
D3
100
AcDbDictionary
281
     1
  3
CMLEADERSTYLE
350
77AE
  3
CTABLESTYLE
350
77AD
  3
DIMASSOC
350
768C
  3
INDEXCTL
350
768B
  3
PROJECTNAME
350
78B5
  3
SORTENTS
350
59C8
  0
ACAD_PROXY_OBJECT
  5
75FA
102
{ACAD_REACTORS
330
D3
102
}
330
D3
100
AcDbProxyObject
 90
      499
 91
      518
 95
   917527
 70
     0
 93
       34
310
04000042A4
 94
        0
1001
ACAD
1000
AcRTDxfName
1000
ACGREFMASTER
  0
ACAD_PROXY_OBJECT
  5
75FE
102
{ACAD_REACTORS
330
D3
102
}
330
D3
100
AcDbProxyObject
 90
      499
 91
      521
 95
   917527
 70
     0
 93
      114
310
04000041C000000000000000000000
 94
        0
1001
ACAD
1000
AcRTDxfName
1000
ACGREFACADMASTER
  0
DICTIONARY
  5
7604
102
{ACAD_REACTORS
330
D3
102
}
330
D3
100
AcDbDictionary
281
     1
  3
AcmBOMDATA
350
7605
  3
AcmStdDictionary
350
760A
  0
ACAD_PROXY_OBJECT
  5
75F3
102
{ACAD_REACTORS
330
D3
102
}
330
D3
100
AcDbProxyObject
 90
      499
 91
      512
 95
   917527
 70
     0
 93
       50
310
00010040400013
330
0
330
0
330
75F4
 94
        0
1001
ACAD
1000
AcRTDxfName
1000
ACMEDRAWINGMAN
  0
ACAD_PROXY_OBJECT
  5
75EE
102
{ACAD_REACTORS
330
D3
102
}
330
D3
100
AcDbProxyObject
 90
      499
 91
      508
 95
   917527
 70
     0
 93
     1338
310
478050155805015580501558050155805015580501558050155805015580501558050155805015580504504C4F5480504554E444F80504554E444F80504554E444F80504554E444F80504554E444F80504554E444F80504554E444F80504554E444F8050644444544495480504504C4F5480504554E444F80504554E444F80
310
504554E444F80504554E444F80504554E444F80504434F505980506444445444954805044D4F564583
 94
        0
1001
ACAD
1000
AcRTDxfName
1000
ACMECOMMANDHISTORY
  0
ACAD_PROXY_OBJECT
  5
75ED
102
{ACAD_REACTORS
330
D3
102
}
330
D3
100
AcDbProxyObject
 90
      499
 91
      507
 95
   917527
 70
     0
 93
      210
310
060000444000000000000000000010541A0000000000AAA406AAA8
360
75F0
360
75F1
360
75F2
360
75F4
360
7609
 94
        0
1001
ACAD
1000
AcRTDxfName
1000
ACMESCOPE
  0
ACAD_PROXY_OBJECT
  5
75F8
102
{ACAD_REACTORS
330
D3
102
}
330
D3
100
AcDbProxyObject
 90
      499
 91
      517
 95
   917527
 70
     0
 93
       50
310
060000416412A5
 94
        0
1001
ACAD
1000
AcRTDxfName
1000
ACMESTATEMGR
  0
ACAD_PROXY_OBJECT
  5
75EF
102
{ACAD_REACTORS
330
D3
102
}
330
D3
100
AcDbProxyObject
 90
      499
 91
      509
 95
   917527
 70
     0
 93
       48
310
903412000000
330
75F0
330
75F1
330
75F2
 94
        0
1001
ACAD
1000
AcRTDxfName
1000
ACIMSYSVARMAN
  0
ACAD_PROXY_OBJECT
  5
7608
102
{ACAD_REACTORS
330
D3
102
}
330
D3
100
AcDbProxyObject
 90
      499
 91
      509
 95
   917527
 70
     0
 93
       32
310
90140A00
330
7609
 94
        0
1001
ACAD
1000
AcRTDxfName
1000
ACIMSYSVARMAN
  0
DICTIONARY
  5
7600
102
{ACAD_REACTORS
330
D3
102
}
330
D3
100
AcDbDictionary
281
     1
  3
AcMgSettings
350
7601
  3
AMGLAYCFG
350
760C
  0
DICTIONARY
  5
7648
102
{ACAD_REACTORS
330
D3
102
}
330
D3
100
AcDbDictionary
281
     1
  3
DIMENSION
350
764D
  3
FEA
350
764C
  3
HATCH (1)
350
7649
  3
HATCH (2)
350
764A
  3
SIMPLE WELD
350
764E
  3
SYMBOLS
350
764B
  0
ACAD_PROXY_OBJECT
  5
75FF
102
{ACAD_REACTORS
330
D3
102
}
330
D3
100
AcDbProxyObject
 90
      499
 91
      522
 95
   917527
 70
     0
 93
       34
310
0500004280
 94
        0
1001
ACAD
1000
AcRTDxfName
1000
AMIMASTER
  0
DICTIONARY
  5
50D5
102
{ACAD_REACTORS
330
D3
102
}
330
D3
100
AcDbDictionary
281
     1
  0
XRECORD
  5
78B6
102
{ACAD_REACTORS
330
D3
102
}
330
D3
100
AcDbXrecord
280
     1
  1
DWGPROPS COOKIE
  2

  3

  4

  6

  7

  8
1547nh
  9

300
AmdtFileType=84
301
=
302
=
303
=
304
=
305
=
306
=
307
=
308
=
309
=
 40
0.2775046875
 41
2452040.353372442
 42
2460733.716121111
  1

 90
        1
  0
DICTIONARY
  5
76E0
102
{ACAD_REACTORS
330
76DF
102
}
330
76DF
100
AcDbDictionary
281
     1
  0
DICTIONARY
  5
7678
102
{ACAD_REACTORS
330
7677
102
}
330
7677
100
AcDbDictionary
281
     1
  3
*A1
350
7679
  0
SORTENTSTABLE
  5
7884
102
{ACAD_REACTORS
330
7677
102
}
330
7677
100
AcDbSortentsTable
330
DF
331
786A
  5
786A
331
782B
  5
782B
331
77FC
  5
77FC
331
7833
  5
7833
331
77BD
  5
77BD
331
7804
  5
7804
331
783B
  5
783B
331
77C5
  5
77C5
331
7843
  5
7843
331
77CD
  5
77CD
331
7028
  5
7028
331
6F9A
  5
6F9A
331
7030
  5
7030
331
7038
  5
7038
331
7001
  5
7001
331
70FE
  5
70FE
331
7106
  5
7106
331
7040
  5
7040
331
714D
  5
714D
331
7418
  5
7418
331
7353
  5
7353
331
7304
  5
7304
331
73E1
  5
73E1
331
7176
  5
7176
331
735B
  5
735B
331
73AA
  5
73AA
331
736B
  5
736B
331
7428
  5
7428
331
7430
  5
7430
331
73BA
  5
73BA
331
73F9
  5
73F9
331
7186
  5
7186
331
77D5
  5
77D5
331
7727
  5
7727
331
780C
  5
780C
331
784B
  5
784B
331
7853
  5
7853
331
77DD
  5
77DD
331
7814
  5
7814
331
781C
  5
781C
331
7824
  5
7824
331
7863
  5
7863
331
7011
  5
7011
331
7048
  5
7048
331
70D7
  5
70D7
331
7019
  5
7019
331
7116
  5
7116
331
7058
  5
7058
331
7021
  5
7021
331
711E
  5
711E
331
7060
  5
7060
331
7165
  5
7165
331
67D
  5
67D
331
6FDA
  5
6FDA
331
712E
  5
712E
331
7438
  5
7438
331
7383
  5
7383
331
73C2
  5
73C2
331
7409
  5
7409
331
733C
  5
733C
331
738B
  5
738B
331
773F
  5
773F
331
7344
  5
7344
331
719E
  5
719E
331
72FD
  5
72FD
331
7747
  5
7747
331
786B
  5
786B
331
77F5
  5
77F5
331
782C
  5
782C
331
77FD
  5
77FD
331
7834
  5
7834
331
77BE
  5
77BE
331
7883
  5
7883
331
77C6
  5
77C6
331
7805
  5
7805
331
783C
  5
783C
331
7844
  5
7844
331
77CE
  5
77CE
331
7029
  5
7029
331
6F93
  5
6F93
331
6FEA
  5
6FEA
331
7136
  5
7136
331
7031
  5
7031
331
6F9B
  5
6F9B
331
7070
  5
7070
331
7002
  5
7002
331
70FF
  5
70FF
331
70A8
  5
70A8
331
700A
  5
700A
331
7041
  5
7041
331
714E
  5
714E
331
73E2
  5
73E2
331
71B6
  5
71B6
331
7305
  5
7305
331
716F
  5
716F
331
7354
  5
7354
331
735C
  5
735C
331
7421
  5
7421
331
7177
  5
7177
331
7429
  5
7429
331
717F
  5
717F
331
73F2
  5
73F2
331
73FA
  5
73FA
331
7187
  5
7187
331
7431
  5
7431
331
784C
  5
784C
331
77D6
  5
77D6
331
7815
  5
7815
331
7854
  5
7854
331
77DE
  5
77DE
331
77E6
  5
77E6
331
781D
  5
781D
331
7825
  5
7825
331
7049
  5
7049
331
7117
  5
7117
331
7051
  5
7051
331
7022
  5
7022
331
6F8C
  5
6F8C
331
7059
  5
7059
331
6FDB
  5
6FDB
331
7166
  5
7166
331
712F
  5
712F
331
73C3
  5
73C3
331
7402
  5
7402
331
7384
  5
7384
331
740A
  5
740A
331
738C
  5
738C
331
7740
  5
7740
331
7748
  5
7748
331
786C
  5
786C
331
782D
  5
782D
331
77FE
  5
77FE
331
7835
  5
7835
331
77BF
  5
77BF
331
7806
  5
7806
331
783D
  5
783D
331
77C7
  5
77C7
331
7845
  5
7845
331
77CF
  5
77CF
331
7069
  5
7069
331
6F94
  5
6F94
331
702A
  5
702A
331
6F9C
  5
6F9C
331
7032
  5
7032
331
713F
  5
713F
331
7099
  5
7099
331
7003
  5
7003
331
7100
  5
7100
331
700B
  5
700B
331
7108
  5
7108
331
7147
  5
7147
331
714F
  5
714F
331
7168
  5
7168
331
73E3
  5
73E3
331
7355
  5
7355
331
741A
  5
741A
331
7170
  5
7170
331
7306
  5
7306
331
7178
  5
7178
331
7422
  5
7422
331
7180
  5
7180
331
742A
  5
742A
331
737D
  5
737D
331
7432
  5
7432
331
7721
  5
7721
331
71CF
  5
71CF
331
77D7
  5
77D7
331
780E
  5
780E
331
784D
  5
784D
331
7855
  5
7855
331
7816
  5
7816
331
781E
  5
781E
331
77E7
  5
77E7
331
7826
  5
7826
331
704A
  5
704A
331
701B
  5
701B
331
7118
  5
7118
331
6F85
  5
6F85
331
705A
  5
705A
331
7023
  5
7023
331
6FDC
  5
6FDC
331
7188
  5
7188
331
743A
  5
743A
331
7385
  5
7385
331
73C4
  5
73C4
331
7403
  5
7403
331
740B
  5
740B
331
733E
  5
733E
331
738D
  5
738D
331
7741
  5
7741
331
7346
  5
7346
331
786D
  5
786D
331
77F7
  5
77F7
331
782E
  5
782E
331
77C0
  5
77C0
331
77FF
  5
77FF
331
7836
  5
7836
331
77C8
  5
77C8
331
7807
  5
7807
331
783E
  5
783E
331
702B
  5
702B
331
7130
  5
7130
331
6F95
  5
6F95
331
7033
  5
7033
331
7138
  5
7138
331
6F9D
  5
6F9D
331
709A
  5
709A
331
7101
  5
7101
331
7004
  5
7004
331
703B
  5
703B
331
7140
  5
7140
331
7148
  5
7148
331
700C
  5
700C
331
7109
  5
7109
331
7169
  5
7169
331
739D
  5
739D
331
73E4
  5
73E4
331
7307
  5
7307
331
7171
  5
7171
331
7356
  5
7356
331
7179
  5
7179
331
73EC
  5
73EC
331
742B
  5
742B
331
7181
  5
7181
331
731F
  5
731F
331
77D0
  5
77D0
331
7433
  5
7433
331
7722
  5
7722
331
780F
  5
780F
331
784E
  5
784E
331
77D8
  5
77D8
331
7817
  5
7817
331
7856
  5
7856
331
77E8
  5
77E8
331
781F
  5
781F
331
7827
  5
7827
331
7150
  5
7150
331
704B
  5
704B
331
70D2
  5
70D2
331
6F76
  5
6F76
331
7014
  5
7014
331
7119
  5
7119
331
6F86
  5
6F86
331
7053
  5
7053
331
70DA
  5
70DA
331
7121
  5
7121
331
7024
  5
7024
331
705B
  5
705B
331
6FDD
  5
6FDD
331
7063
  5
7063
331
7189
  5
7189
331
73C5
  5
73C5
331
7404
  5
7404
331
7337
  5
7337
331
7386
  5
7386
331
743B
  5
743B
331
73CD
  5
73CD
331
773A
  5
773A
331
7742
  5
7742
331
7347
  5
7347
331
73DD
  5
73DD
331
782F
  5
782F
331
786E
  5
786E
331
77B9
  5
77B9
331
77F8
  5
77F8
331
7800
  5
7800
331
7837
  5
7837
331
77C1
  5
77C1
331
783F
  5
783F
331
77C9
  5
77C9
331
70EA
  5
70EA
331
7131
  5
7131
331
7034
  5
7034
331
6F9E
  5
6F9E
331
703C
  5
703C
331
7005
  5
7005
331
7102
  5
7102
331
710A
  5
710A
331
7044
  5
7044
331
7149
  5
7149
331
73E5
  5
73E5
331
7308
  5
7308
331
7172
  5
7172
331
7357
  5
7357
331
717A
  5
717A
331
7424
  5
7424
331
73B6
  5
73B6
331
7320
  5
7320
331
7182
  5
7182
331
742C
  5
742C
331
77D1
  5
77D1
331
7434
  5
7434
331
7723
  5
7723
331
7808
  5
7808
331
73FD
  5
73FD
331
7810
  5
7810
331
784F
  5
784F
331
7857
  5
7857
331
7818
  5
7818
331
7820
  5
7820
331
77E9
  5
77E9
331
7867
  5
7867
331
70D3
  5
70D3
331
7015
  5
7015
331
704C
  5
704C
331
7159
  5
7159
331
711A
  5
711A
331
6F87
  5
6F87
331
7054
  5
7054
331
6F8F
  5
6F8F
331
705C
  5
705C
331
7122
  5
7122
331
7064
  5
7064
331
718A
  5
718A
331
7330
  5
7330
331
7405
  5
7405
331
7387
  5
7387
331
7338
  5
7338
331
773B
  5
773B
331
7340
  5
7340
331
72F9
  5
72F9
331
73CE
  5
73CE
331
7580
  5
7580
331
7743
  5
7743
331
7348
  5
7348
331
7828
  5
7828
331
73DE
  5
73DE
331
786F
  5
786F
331
77F9
  5
77F9
331
7830
  5
7830
331
77BA
  5
77BA
331
77C2
  5
77C2
331
7801
  5
7801
331
7838
  5
7838
331
7840
  5
7840
331
77CA
  5
77CA
331
70EB
  5
70EB
331
7132
  5
7132
331
7035
  5
7035
331
7006
  5
7006
331
7103
  5
7103
331
6F68
  5
6F68
331
7142
  5
7142
331
714A
  5
714A
331
7045
  5
7045
331
710B
  5
710B
331
73E6
  5
73E6
331
7309
  5
7309
331
7358
  5
7358
331
71C2
  5
71C2
331
742D
  5
742D
331
7321
  5
7321
331
7183
  5
7183
331
73B7
  5
73B7
331
7848
  5
7848
331
77D2
  5
77D2
331
73FE
  5
73FE
331
7724
  5
7724
331
7809
  5
7809
331
73BF
  5
73BF
331
7811
  5
7811
331
7850
  5
7850
331
77DA
  5
77DA
331
7819
  5
7819
331
7858
  5
7858
331
77EA
  5
77EA
331
7821
  5
7821
331
704D
  5
704D
331
70D4
  5
70D4
331
7016
  5
7016
331
6F88
  5
6F88
331
7055
  5
7055
331
70E4
  5
70E4
331
7123
  5
7123
331
705D
  5
705D
331
7162
  5
7162
331
718B
  5
718B
331
7380
  5
7380
331
73C7
  5
73C7
331
75D8
  5
75D8
331
7339
  5
7339
331
7388
  5
7388
331
73CF
  5
73CF
331
773C
  5
773C
331
72FA
  5
72FA
331
7341
  5
7341
331
7744
  5
7744
331
7349
  5
7349
331
7868
  5
7868
331
7829
  5
7829
331
7831
  5
7831
331
7870
  5
7870
331
77BB
  5
77BB
331
77FA
  5
77FA
331
7802
  5
7802
331
7839
  5
7839
331
77C3
  5
77C3
331
7841
  5
7841
331
77CB
  5
77CB
331
702E
  5
702E
331
7036
  5
7036
331
7104
  5
7104
331
7007
  5
7007
331
714B
  5
714B
331
7302
  5
7302
331
73E7
  5
73E7
331
7174
  5
7174
331
7359
  5
7359
331
741E
  5
741E
331
7426
  5
7426
331
73B8
  5
73B8
331
7322
  5
7322
331
73F7
  5
73F7
331
742E
  5
742E
331
77D3
  5
77D3
331
7725
  5
7725
331
780A
  5
780A
331
7849
  5
7849
331
73FF
  5
73FF
331
7851
  5
7851
331
77DB
  5
77DB
331
7812
  5
7812
331
7859
  5
7859
331
781A
  5
781A
331
7822
  5
7822
331
7861
  5
7861
331
70D5
  5
70D5
331
7153
  5
7153
331
7056
  5
7056
331
701F
  5
701F
331
6F89
  5
6F89
331
705E
  5
705E
331
7163
  5
7163
331
718C
  5
718C
331
7381
  5
7381
331
73C0
  5
73C0
331
7389
  5
7389
331
73C8
  5
73C8
331
757A
  5
757A
331
7342
  5
7342
331
72FB
  5
72FB
331
73D0
  5
73D0
331
773D
  5
773D
331
7745
  5
7745
331
734A
  5
734A
331
7417
  5
7417
331
782A
  5
782A
331
7869
  5
7869
331
77FB
  5
77FB
331
7832
  5
7832
331
77BC
  5
77BC
331
77C4
  5
77C4
331
7803
  5
7803
331
783A
  5
783A
331
7842
  5
7842
331
77CC
  5
77CC
331
702F
  5
702F
331
7134
  5
7134
331
7037
  5
7037
331
7105
  5
7105
331
714C
  5
714C
331
7303
  5
7303
331
7352
  5
7352
331
73E8
  5
73E8
331
7175
  5
7175
331
7427
  5
7427
331
73F8
  5
73F8
331
742F
  5
742F
331
7323
  5
7323
331
7185
  5
7185
331
73B9
  5
73B9
331
784A
  5
784A
331
77D4
  5
77D4
331
7726
  5
7726
331
780B
  5
780B
331
7813
  5
7813
331
7852
  5
7852
331
772E
  5
772E
331
77DC
  5
77DC
331
77E4
  5
77E4
331
781B
  5
781B
331
785A
  5
785A
331
7862
  5
7862
331
77EC
  5
77EC
331
7823
  5
7823
331
7115
  5
7115
331
704F
  5
704F
331
70D6
  5
70D6
331
7018
  5
7018
331
7020
  5
7020
331
6F8A
  5
6F8A
331
7057
  5
7057
331
70E6
  5
70E6
331
6FD9
  5
6FD9
331
705F
  5
705F
331
7164
  5
7164
331
73C1
  5
73C1
331
718D
  5
718D
331
7382
  5
7382
331
7408
  5
7408
331
733B
  5
733B
331
738A
  5
738A
331
73D1
  5
73D1
331
773E
  5
773E
331
72FC
  5
72FC
331
7343
  5
7343
331
7746
  5
7746
  0
XRECORD
  5
78CB
102
{ACAD_REACTORS
330
78CA
102
}
330
78CA
100
AcDbXrecord
280
     1
102
SHADEPLOT
 70
     0
  0
XRECORD
  5
78CD
102
{ACAD_REACTORS
330
78CC
102
}
330
78CC
100
AcDbXrecord
280
     1
102
SHADEPLOT
 70
     0
  0
LAYOUT
  5
75E4
102
{ACAD_XDICTIONARY
360
78C6
102
}
102
{ACAD_REACTORS
330
75E2
102
}
330
75E2
100
AcDbPlotSettings
  1

  2
NEC MultiWriter8450N NPDL
  4
A4
  6

 40
5.873749732971191
 41
5.873747825622558
 42
6.000747680664062
 43
5.873748779296875
 44
210.1003265380859
 45
297.0953369140625
 46
0.0
 47
0.0
 48
0.0
 49
0.0
140
0.0
141
0.0
142
1.0
143
18.41258546678376
 70
 11952
 72
     1
 73
     1
 74
     0
  7
Monochrome.ctb
 75
     0
147
0.0543106779764307
148
1164.749563420294
149
1165.188357852026
100
AcDbLayout
  1
Model
 70
     1
 71
     0
 10
0.0
 20
0.0
 11
12.0
 21
9.0
 12
0.0
 22
0.0
 32
0.0
 14
0.0
 24
0.0
 34
0.0
 15
0.0
 25
0.0
 35
0.0
146
0.0
 13
0.0
 23
0.0
 33
0.0
 16
1.0
 26
0.0
 36
0.0
 17
0.0
 27
1.0
 37
0.0
 76
     0
330
DF
1001
ACAD_PSEXT
1000
NEC MultiWriter8450N NPDL
1000
NEC MultiWriter8450N NPDL
1000
172.16.1.89
1000

1070
     0
  0
LAYOUT
  5
7769
102
{ACAD_XDICTIONARY
360
7776
102
}
102
{ACAD_REACTORS
330
75E2
102
}
330
75E2
100
AcDbPlotSettings
  1

  2
NEC MultiWriter8450N NPDL
  4
A4
  6

 40
5.873749732971191
 41
5.873747825622558
 42
6.000747680664062
 43
5.873748779296875
 44
210.1003265380859
 45
297.0953369140625
 46
0.0
 47
0.0
 48
0.0
 49
0.0
140
0.0
141
0.0
142
1.0
143
1.0
 70
   688
 72
     1
 73
     1
 74
     5
  7
Monochrome.ctb
 75
    16
147
1.0
148
0.0
149
0.0
100
AcDbLayout
  1
レイアウト1
 70
     1
 71
     1
 10
-5.873748779296875
 20
-5.873749732971191
 11
291.2215881347656
 21
204.2265768051148
 12
0.0
 22
0.0
 32
0.0
 14
28.53478403091429
 24
19.82258291244505
 34
0.0
 15
256.8130562782288
 25
178.4032462120056
 35
0.0
146
0.0
 13
0.0
 23
0.0
 33
0.0
 16
1.0
 26
0.0
 36
0.0
 17
0.0
 27
1.0
 37
0.0
 76
     0
330
7768
331
776F
1001
ACAD_PSEXT
1000
NEC MultiWriter8450N NPDL
1000
NEC MultiWriter8450N NPDL
1000
172.16.1.89
1000

1070
     0
  0
MATERIAL
  5
76D1
102
{ACAD_REACTORS
330
76CF
102
}
330
76CF
100
AcDbMaterial
  1
ByBlock
  2

  0
MATERIAL
  5
76D0
102
{ACAD_REACTORS
330
76CF
102
}
330
76CF
100
AcDbMaterial
  1
ByLayer
  2

  0
MATERIAL
  5
76D2
102
{ACAD_REACTORS
330
76CF
102
}
330
76CF
100
AcDbMaterial
  1
Global
  2

  0
MLEADERSTYLE
  5
76D7
102
{ACAD_REACTORS
330
76D6
102
}
330
76D6
100
AcDbMLeaderStyle
170
     2
171
     1
172
     0
 90
        2
 40
0.0
 41
0.0
173
     1
 91
-1056964608
340
D9
 92
       -2
290
     1
 42
0.09
291
     1
 43
0.36
  3
Standard
341
0
 44
0.18
300

342
D7
174
     1
178
     1
175
     1
176
     0
 93
-1056964608
 45
0.18
292
     0
297
     0
 46
0.18
343
0
 94
-1056964608
 47
1.0
 49
1.0
140
1.0
293
     1
141
0.0
294
     1
177
     0
142
1.0
295
     0
296
     0
143
0.125
1001
ACAD_MLEADERVER
1070
     2
  0
MLINESTYLE
  5
E2
102
{ACAD_REACTORS
330
D5
102
}
330
D5
100
AcDbMlineStyle
  2
STANDARD
 70
     0
  3

 62
     0
 51
90.0
 52
90.0
 71
     2
 49
0.5
 62
   256
  6
BYLAYER
 49
-0.5
 62
   256
  6
BYLAYER
  0
ACDBPLACEHOLDER
  5
75E1
102
{ACAD_REACTORS
330
75E0
102
}
330
75E0
  0
SCALE
  5
76AE
102
{ACAD_REACTORS
330
76AD
102
}
330
76AD
100
AcDbScale
 70
     0
300
1:1
140
1.0
141
1.0
290
     1
  0
SCALE
  5
76AF
102
{ACAD_REACTORS
330
76AD
102
}
330
76AD
100
AcDbScale
 70
     0
300
1:2
140
1.0
141
2.0
290
     0
  0
SCALE
  5
76B0
102
{ACAD_REACTORS
330
76AD
102
}
330
76AD
100
AcDbScale
 70
     0
300
1:4
140
1.0
141
4.0
290
     0
  0
SCALE
  5
76B1
102
{ACAD_REACTORS
330
76AD
102
}
330
76AD
100
AcDbScale
 70
     0
300
1:5
140
1.0
141
5.0
290
     0
  0
SCALE
  5
76B2
102
{ACAD_REACTORS
330
76AD
102
}
330
76AD
100
AcDbScale
 70
     0
300
1:8
140
1.0
141
8.0
290
     0
  0
SCALE
  5
76B3
102
{ACAD_REACTORS
330
76AD
102
}
330
76AD
100
AcDbScale
 70
     0
300
1:10
140
1.0
141
10.0
290
     0
  0
SCALE
  5
76B4
102
{ACAD_REACTORS
330
76AD
102
}
330
76AD
100
AcDbScale
 70
     0
300
1:16
140
1.0
141
16.0
290
     0
  0
SCALE
  5
76B5
102
{ACAD_REACTORS
330
76AD
102
}
330
76AD
100
AcDbScale
 70
     0
300
1:20
140
1.0
141
20.0
290
     0
  0
SCALE
  5
76B6
102
{ACAD_REACTORS
330
76AD
102
}
330
76AD
100
AcDbScale
 70
     0
300
1:30
140
1.0
141
30.0
290
     0
  0
SCALE
  5
76B7
102
{ACAD_REACTORS
330
76AD
102
}
330
76AD
100
AcDbScale
 70
     0
300
1:40
140
1.0
141
40.0
290
     0
  0
SCALE
  5
76B8
102
{ACAD_REACTORS
330
76AD
102
}
330
76AD
100
AcDbScale
 70
     0
300
1:50
140
1.0
141
50.0
290
     0
  0
SCALE
  5
76B9
102
{ACAD_REACTORS
330
76AD
102
}
330
76AD
100
AcDbScale
 70
     0
300
1:100
140
1.0
141
100.0
290
     0
  0
SCALE
  5
76BA
102
{ACAD_REACTORS
330
76AD
102
}
330
76AD
100
AcDbScale
 70
     0
300
2:1
140
2.0
141
1.0
290
     0
  0
SCALE
  5
76BB
102
{ACAD_REACTORS
330
76AD
102
}
330
76AD
100
AcDbScale
 70
     0
300
4:1
140
4.0
141
1.0
290
     0
  0
SCALE
  5
76BC
102
{ACAD_REACTORS
330
76AD
102
}
330
76AD
100
AcDbScale
 70
     0
300
8:1
140
8.0
141
1.0
290
     0
  0
SCALE
  5
76BD
102
{ACAD_REACTORS
330
76AD
102
}
330
76AD
100
AcDbScale
 70
     0
300
10:1
140
10.0
141
1.0
290
     0
  0
SCALE
  5
76BE
102
{ACAD_REACTORS
330
76AD
102
}
330
76AD
100
AcDbScale
 70
     0
300
100:1
140
100.0
141
1.0
290
     0
  0
SCALE
  5
76BF
102
{ACAD_REACTORS
330
76AD
102
}
330
76AD
100
AcDbScale
 70
     0
300
1/128" = 1'-0"
140
0.0078125
141
12.0
290
     0
  0
SCALE
  5
76C0
102
{ACAD_REACTORS
330
76AD
102
}
330
76AD
100
AcDbScale
 70
     0
300
1/64" = 1'-0"
140
0.015625
141
12.0
290
     0
  0
SCALE
  5
76C1
102
{ACAD_REACTORS
330
76AD
102
}
330
76AD
100
AcDbScale
 70
     0
300
1/32" = 1'-0"
140
0.03125
141
12.0
290
     0
  0
SCALE
  5
76C2
102
{ACAD_REACTORS
330
76AD
102
}
330
76AD
100
AcDbScale
 70
     0
300
1/16" = 1'-0"
140
0.0625
141
12.0
290
     0
  0
SCALE
  5
76C3
102
{ACAD_REACTORS
330
76AD
102
}
330
76AD
100
AcDbScale
 70
     0
300
3/32" = 1'-0"
140
0.09375
141
12.0
290
     0
  0
SCALE
  5
76C4
102
{ACAD_REACTORS
330
76AD
102
}
330
76AD
100
AcDbScale
 70
     0
300
1/8" = 1'-0"
140
0.125
141
12.0
290
     0
  0
SCALE
  5
76C5
102
{ACAD_REACTORS
330
76AD
102
}
330
76AD
100
AcDbScale
 70
     0
300
3/16" = 1'-0"
140
0.1875
141
12.0
290
     0
  0
SCALE
  5
76C6
102
{ACAD_REACTORS
330
76AD
102
}
330
76AD
100
AcDbScale
 70
     0
300
1/4" = 1'-0"
140
0.25
141
12.0
290
     0
  0
SCALE
  5
76C7
102
{ACAD_REACTORS
330
76AD
102
}
330
76AD
100
AcDbScale
 70
     0
300
3/8" = 1'-0"
140
0.375
141
12.0
290
     0
  0
SCALE
  5
76C8
102
{ACAD_REACTORS
330
76AD
102
}
330
76AD
100
AcDbScale
 70
     0
300
1/2" = 1'-0"
140
0.5
141
12.0
290
     0
  0
SCALE
  5
76C9
102
{ACAD_REACTORS
330
76AD
102
}
330
76AD
100
AcDbScale
 70
     0
300
3/4" = 1'-0"
140
0.75
141
12.0
290
     0
  0
SCALE
  5
76CA
102
{ACAD_REACTORS
330
76AD
102
}
330
76AD
100
AcDbScale
 70
     0
300
1" = 1'-0"
140
1.0
141
12.0
290
     0
  0
SCALE
  5
76CB
102
{ACAD_REACTORS
330
76AD
102
}
330
76AD
100
AcDbScale
 70
     0
300
1-1/2" = 1'-0"
140
1.5
141
12.0
290
     0
  0
SCALE
  5
76CC
102
{ACAD_REACTORS
330
76AD
102
}
330
76AD
100
AcDbScale
 70
     0
300
3" = 1'-0"
140
3.0
141
12.0
290
     0
  0
SCALE
  5
76CD
102
{ACAD_REACTORS
330
76AD
102
}
330
76AD
100
AcDbScale
 70
     0
300
6" = 1'-0"
140
6.0
141
12.0
290
     0
  0
SCALE
  5
76CE
102
{ACAD_REACTORS
330
76AD
102
}
330
76AD
100
AcDbScale
 70
     0
300
1'-0" = 1'-0"
140
12.0
141
12.0
290
     0
  0
TABLESTYLE
  5
76D5
102
{ACAD_REACTORS
330
76D4
102
}
330
76D4
100
AcDbTableStyle
  3
Standard
 70
     0
 71
     0
 40
0.06
 41
0.06
280
     0
281
     0
  7
STANDARD
140
4.5
170
     2
 62
     0
 63
   257
283
     0
274
    -2
284
     1
 64
     0
275
    -2
285
     1
 65
     0
276
    -2
286
     1
 66
     0
277
    -2
287
     1
 67
     0
278
    -2
288
     1
 68
     0
279
    -2
289
     1
 69
     0
  7
STANDARD
140
6.0
170
     5
 62
     0
 63
   257
283
     0
274
    -2
284
     1
 64
     0
275
    -2
285
     1
 65
     0
276
    -2
286
     1
 66
     0
277
    -2
287
     1
 67
     0
278
    -2
288
     1
 68
     0
279
    -2
289
     1
 69
     0
  7
STANDARD
140
4.5
170
     5
 62
     0
 63
   257
283
     0
274
    -2
284
     1
 64
     0
275
    -2
285
     1
 65
     0
276
    -2
286
     1
 66
     0
277
    -2
287
     1
 67
     0
278
    -2
288
     1
 68
     0
279
    -2
289
     1
 69
     0
  0
DICTIONARYVAR
  5
77AE
102
{ACAD_REACTORS
330
59C7
102
}
330
59C7
100
DictionaryVariables
280
     0
  1
STANDARD
  0
DICTIONARYVAR
  5
77AD
102
{ACAD_REACTORS
330
59C7
102
}
330
59C7
100
DictionaryVariables
280
     0
  1
STANDARD
  0
DICTIONARYVAR
  5
768C
102
{ACAD_REACTORS
330
59C7
102
}
330
59C7
100
DictionaryVariables
280
     0
  1
1
  0
DICTIONARYVAR
  5
768B
102
{ACAD_REACTORS
330
59C7
102
}
330
59C7
100
DictionaryVariables
280
     0
  1
1
  0
DICTIONARYVAR
  5
78B5
102
{ACAD_REACTORS
330
59C7
102
}
330
59C7
100
DictionaryVariables
280
     0
  1

  0
DICTIONARYVAR
  5
59C8
102
{ACAD_REACTORS
330
59C7
102
}
330
59C7
100
DictionaryVariables
280
     0
  1
96
  0
ACAD_PROXY_OBJECT
  5
7605
102
{ACAD_REACTORS
330
7604
102
}
330
7604
100
AcDbProxyObject
 90
      499
 91
      524
 95
   917527
 70
     0
 93
      118
310
405010040CA904C415CD5B07571028
350
7606
 94
        0
1001
ACAD
1000
AcRTDxfName
1000
ACMDATADICTIONARY
  0
DICTIONARY
  5
760A
102
{ACAD_REACTORS
330
7604
102
}
330
7604
100
AcDbDictionary
281
     1
  3
ISO
350
760B
  0
ACAD_PROXY_OBJECT
  5
75F0
330
0
100
AcDbProxyObject
 90
      499
 91
      510
 95
   917527
 70
     0
 93
      156
310
00010143D050D351505391D5531054925390D495
330
75ED
 94
        0
1001
ACAD
1000
AcRTDxfName
1000
ACIMREALSYSVAR
  0
ACAD_PROXY_OBJECT
  5
75F1
330
0
100
AcDbProxyObject
 90
      499
 91
      510
 95
   917527
 70
     0
 93
      148
310
000101439050D351531253915054925390D491
330
75ED
 94
        0
1001
ACAD
1000
AcRTDxfName
1000
ACIMREALSYSVAR
  0
ACAD_PROXY_OBJECT
  5
75F2
330
0
100
AcDbProxyObject
 90
      499
 91
      511
 95
   917527
 70
     0
 93
      156
310
000101439050D35154D6535093D314D25691508E
330
75ED
 94
        0
1001
ACAD
1000
AcRTDxfName
1000
ACIMINTSYSVAR
  0
ACAD_PROXY_OBJECT
  5
75F4
330
0
100
AcDbProxyObject
 90
      499
 91
      513
 95
   917527
 70
     0
 93
      120
310
000101422565255A6557080C402B00
330
75ED
330
0
330
0
 94
        0
1001
ACAD
1000
AcRTDxfName
1000
ACMEVIEW
  0
ACAD_PROXY_OBJECT
  5
7609
330
0
100
AcDbProxyObject
 90
      499
 91
      526
 95
   917527
 70
     0
 93
      140
310
00010142105350D55494D5110050349534FC
330
75ED
 94
        0
1001
ACAD
1000
AcRTDxfName
1000
ACIMSTRSYSVAR
  0
DICTIONARY
  5
7601
102
{ACAD_REACTORS
330
7600
102
}
330
7600
100
AcDbDictionary
281
     1
  3
DWGSETTINGS
350
7602
  3
TRANSSETTINGS
350
7603
  0
ACAD_PROXY_OBJECT
  5
760C
102
{ACAD_REACTORS
330
7600
102
}
330
7600
100
AcDbProxyObject
 90
      499
 91
      528
 95
   917527
 70
     0
 93
    12938
310
41102491013041105357CC1074CA404C504414D5F31439329013241105357CC9054CA404CD04414D5F33419199013441105357CD103466404D504414D5F3540D199013641105357CD90248E404DD04414D5F37411199013841105357CE101466404E504414D5F397F641102324141505357CC4C1074CA408D10505414D5F31
310
3140D19902495041505357CC4C9074C902408C13905414D5F304E41D32902314E41505357CC5390E4CA408C93905414D5F324E41532902334E41505357CCD3906466408D13905414D5F344E40D19902354E41505357CD53903466408D93905414D5F364E40923902374E41505357CDD3904466408E13905414D5F384E40519
310
902394E41505357CE539FD90440CC9053906414D5F31304E41D3290334414E41905357CC4C5390346640D25413906414D5F31324E41D32409044B4C494E41505357D0D3101465094112539193D08414D5F50415245464111942D055241484D3541905357D093D49074C9094115925155D08414D5F56494557534051942D064
310
24548494E4441905357D253959FD90D415514905253105414D5F545240D194250348494441905357D212511074650940D59254D06414D5F56495341D324250650415244494D42505357D410549112535034650941949151911253509414D5F52454644494D4111942553411092139590139CFFFFFFFF415092139594D06424
310
548494E44CFFFFFFFF411093D48C9055241484D3540519411093D48CD055241484D3540923411093D48D5055241484D35CFFFFFFFF4110D0530C90134CFFFFFFFF4110D0530CD0134409234110D0530D5013441D324110D0530DD0134479464110D1539390137CFFFFFFFF4110D15395D0137CFFFFFFFF4110D312539044B4
310
C494ECFFFFFFFF4110D3D38C50130CFFFFFFFF4110D3D38C90131CFFFFFFFF4110D3D38CD0132CFFFFFFFF4110D3D38D10132CFFFFFFFF411111551050134CFFFFFFFF4111125051D0135CFFFFFFFF411112531250135CFFFFFFFF411112535410650415244494DCFFFFFFFF411112535490652454644494DCFFFFFFFF4111
310
91535390138CFFFFFFFF4151915354139013840CFFFFFFFF4151915354D41023441CFFFFFFFF4151915354D5102344140D1941519153559390132CFFFFFFFF4151915355951013240D194112105510D0138CFFFFFFFF411212511390133CFFFFFFFF4112125115D0133CFFFFFFFF411213125390134CFFFFFFFF411213D0D3
310
90137CFFFFFFFF411213D0D5D0137CFFFFFFFF4112539193D04494E464FCFFFFFFFF411311505110135CFFFFFFFF419397D0921395902394ECFFFFFFFF419397D0D3D38C502304ECFFFFFFFF419397D0D3D38C902314ECFFFFFFFF419397D0D3D38CD02324ECFFFFFFFF419397D0D3D38D102324ECFFFFFFFF419397D0D153
310
93902374ECFFFFFFFF419397D0D15395D02374ECFFFFFFFF419397D1125312502354ECFFFFFFFF419397D2105510D02384ECFFFFFFFF419397D2125113902334ECFFFFFFFF419397D2125115D02334ECFFFFFFFF419397D3115051102354ECFFFFFFFF419397D391D25410349504ECFFFFFFFF419397D412105390334414EC
310
FFFFFFFF419397D510D3D3902304ECFFFFFFFF419397D5121312502344ECFFFFFFFF419397D5131153902304ECFFFFFFFF419397D594131250332414ECFFFFFFFF411391D2541024950CFFFFFFFF411410530C9055241484D3540519411410530CD055241484D3540923411410530D5055241484D35CFFFFFFFF4114121053
310
9023441CFFFFFFFF411413D4D390135CFFFFFFFF411490D1D390137CFFFFFFFF411490D1D5D0137CFFFFFFFF4114D09492D0134CFFFFFFFF4114D150D510134CFFFFFFFF4114D6508CD013540923411354D6535013540923411510D3D390130CFFFFFFFF411512131250134CFFFFFFFF411512550C9055241484D354051941
310
1512550CD055241484D3540923411512550D5055241484D35CFFFFFFFF411513115390130CFFFFFFFF415514905253105545241494CCFFFFFFFF411514931250134CFFFFFFFF411516150C5013640D19411516150C9013640D19411516150CD0136CFFFFFFFF411516150D5013641D32411516150DD0136479464115925155
310
D0456494557CFFFFFFFF4115915112103484944CFFFFFFFF4115915115903564953CFFFFFFFF41159413125023241CFFFFFFFF411692569050134CFFFFFFFFAA9FD404FE4290E4C9074C906465054C904465034650248D014651E519FDAE
340
DB
340
DB
340
DB
340
760D
340
DB
340
DB
340
DB
340
760E
340
DB
340
DB
340
760E
340
760F
340
DB
340
DB
340
DB
340
DB
340
760D
340
DB
340
DB
340
DB
340
760E
340
DB
340
DB
340
760E
340
760F
340
DB
340
7610
340
DB
340
DB
340
DB
340
DB
340
DB
340
760D
340
DB
340
DB
340
DB
340
DA
340
DA
340
DA
340
DA
340
DA
340
DA
340
DA
340
DA
340
DA
340
7611
340
DA
340
DA
340
DA
340
DA
340
DA
340
DA
340
DA
340
DA
340
DA
340
DA
340
DA
340
DA
340
DA
340
DB
340
DA
340
DA
340
DA
340
DA
340
7612
340
DA
340
DA
340
7611
340
DA
340
DA
340
DA
340
DA
340
DA
340
DA
340
DA
340
DA
340
7611
340
DA
340
DA
340
DA
340
7612
340
DA
340
DA
340
DA
340
DA
340
DA
340
DA
340
DA
340
DA
340
DA
340
DA
340
DA
340
DA
340
DA
340
DA
340
7611
340
DA
340
DA
340
DA
340
DA
340
DA
340
DA
340
DA
340
DA
340
DA
340
DA
340
DA
340
DA
340
DA
340
DA
340
DA
340
DA
340
DA
340
DA
340
DA
340
DA
340
DA
340
DA
340
7615
 94
        0
1001
ACAD
1000
AcRTDxfName
1000
AMGOBJPROPCFG
  0
ACAD_PROXY_OBJECT
  5
764D
102
{ACAD_REACTORS
330
7648
102
}
330
7648
100
AcDbProxyObject
 90
      499
 91
      544
 95
   917527
 70
     0
 93
      253
310
43D1444494D454E53494F4E2C414D44545F2A5F44494D404A9012A404A9012AC
 94
        0
1001
ACAD
1000
AcRTDxfName
1000
ACAMGFILTERDAT
  0
ACAD_PROXY_OBJECT
  5
764C
102
{ACAD_REACTORS
330
7648
102
}
330
7648
100
AcDbProxyObject
 90
      499
 91
      544
 95
   917527
 70
     0
 93
      181
310
43D012A42D05357D191504B505357CA9012A404A9012AD
 94
        0
1001
ACAD
1000
AcRTDxfName
1000
ACAMGFILTERDAT
  0
ACAD_PROXY_OBJECT
  5
7649
102
{ACAD_REACTORS
330
7648
102
}
330
7648
100
AcDbProxyObject
 90
      499
 91
      544
 95
   917527
 70
     0
 93
      133
310
43D054841544348404A9012A404A9012AC
 94
        0
1001
ACAD
1000
AcRTDxfName
1000
ACAMGFILTERDAT
  0
ACAD_PROXY_OBJECT
  5
764A
102
{ACAD_REACTORS
330
7648
102
}
330
7648
100
AcDbProxyObject
 90
      499
 91
      544
 95
   917527
 70
     0
 93
      549
310
43D044C494E4549CE0B0E138B0A8B4E0B0A8B4E138B105357CE0B105357CE138B0A8B505357CE0B0A8B505357CE139012A404A910494E534552542C535444504152543244B
 94
        0
1001
ACAD
1000
AcRTDxfName
1000
ACAMGFILTERDAT
  0
ACAD_PROXY_OBJECT
  5
764E
102
{ACAD_REACTORS
330
7648
102
}
330
7648
100
AcDbProxyObject
 90
      499
 91
      544
 95
   917527
 70
     0
 93
      181
310
43D0341524341105357CD5012A404C906494E534552545
 94
        0
1001
ACAD
1000
AcRTDxfName
1000
ACAMGFILTERDAT
  0
ACAD_PROXY_OBJECT
  5
764B
102
{ACAD_REACTORS
330
7648
102
}
330
7648
100
AcDbProxyObject
 90
      499
 91
      544
 95
   917527
 70
     0
 93
     1053
310
43D7841434D46434652414D452C41434D444154554D5441524745542C41434D444154554D49442C41434D57454C4453594D2C41434D5355524653594D2C41434D4645415449442C41434D504152545245462C41434D42414C4C4F4F4E2C414D44544544474553594D2C414D47534352455743414C435441424C45404A9012A
310
404A9012AB
 94
        0
1001
ACAD
1000
AcRTDxfName
1000
ACAMGFILTERDAT
  0
LAYER_INDEX
  5
7679
102
{ACAD_REACTORS
330
7678
102
}
330
7678
100
AcDbIndex
 40
2460733.716121111
100
AcDbLayerIndex
  8
0
360
767A
 90
        0
  8
HASEN
360
767B
 90
        0
  8
ITTEN
360
767C
 90
        2
  8
NITEN
360
767D
 90
        0
  8
HATCH
360
767E
 90
        0
  8
SUNPOU
360
767F
 90
       15
  8
TEXT
360
7680
 90
       17
  8
SAISEN
360
7681
 90
        0
  8
JISSEN
360
7682
 90
      312
  8
HOJO
360
7683
 90
        0
  8
TENSEN
360
7684
 90
        0
  8
HOJOORG
360
7685
 90
        0
  8
WAKU
360
7686
 90
      161
  8
POINT
360
7687
 90
        0
  8
WINDOW
360
7688
 90
        0
  8
DEFPOINTS
360
7689
 90
        0
  8
AM_CL
360
768A
 90
        0
  0
DICTIONARY
  5
78C6
330
75E4
100
AcDbDictionary
280
     1
281
     1
  3
ACAD_XREC_ROUNDTRIP
360
78C7
  0
DICTIONARY
  5
7776
330
7769
100
AcDbDictionary
280
     1
281
     1
  3
ACAD_XREC_ROUNDTRIP
360
78C9
  3
ADSK_XREC_LAYOUTTHUMBNAIL
360
7777
  0
ACAD_PROXY_OBJECT
  5
7606
102
{ACAD_REACTORS
330
7605
102
}
330
7605
100
AcDbProxyObject
 90
      499
 91
      525
 95
   917527
 70
     0
 93
      139
310
057356C1D5C406406AA8FFFFFFFF0AE24050
330
DF
330
0
330
0
 94
        0
1001
ACAD
1000
AcRTDxfName
1000
ACMDATAENTRYBLOCK
  0
ACAD_PROXY_OBJECT
  5
760B
102
{ACAD_REACTORS
330
760A
102
}
330
760A
100
AcDbProxyObject
 90
      499
 91
      527
 95
   917527
 70
     0
 93
     2211
310
5700000000000000C40D0349534F405901409020000000000000310322287A1682DAC8E88AC8CECAA6E8C8812028720B1B6A9BAB9332A32BC3A29BA3220480A1282C6DA8C868CA6E8C88120286A0B1B6ABB2B63234B733A9BA3220480A1082C6DA92C8A6E8C88120285A0B1B6A230BA3AB6A9BA3220480A1282C6DA849E9AA
310
6E8C8812028820B6B23A2232BA30B4B629BCB6A9BA3220480A2282DAC8E8A6CAC6E8D2DEDCA6F2DAA6E8C88120288A0B6B23A21B2B73A32B92634B732A9BA3220480A1682DAC8E89CDEE8CAA6E8C88120285A0B1A0B6B3A630BCA9BA3220480A1682C682DACE88D2DAA6E8C88120288A0B1A0B6B3A437B632A1B430B93A29B
310
A3220480A1A82C682DACEA8D2E8D8CAA6E8C8812032041
340
7616
360
7617
360
7618
360
7619
360
761A
360
761B
360
761C
360
761D
360
761E
360
761F
360
7620
360
7621
360
7627
360
7628
360
7634
360
7635
 94
        0
1001
ACAD
1000
AcRTDxfName
1000
ACMSTANDARDISO
  0
ACAD_PROXY_OBJECT
  5
7602
102
{ACAD_REACTORS
330
7601
102
}
330
7601
100
AcDbProxyObject
 90
      499
 91
      523
 95
   917527
 70
     0
 93
     2396
310
4050B44574753455454494E4753A1286829C8E82A4A482B282A106660F8686AF86C608321A2A720A723A0A849A1ABE1C983E18999AA0C868A9C889282940000000000000488083A1A2A72224A0A9A0A8418983E19183E199820E868A9C8892A6A894000000000000010808321A2A72622A7250000000000000122020C868A9
310
C9E8C8C940000000000000488084A1A624A720A92920ACA0A8418983E19183E19982108698929C8AA8B2A082A0AB098929C8A84A22BA3AAA9A1A0A622A50A0E9882A6A89E849482A02608426A0A5A2AB24A2ABA7E8120CA0A68682988A0C00800010652455649534941501304154D0D0531150540CC4E8D50954494D455354
310
414D504A0E90379914B1F734141D5915494D253D3905414C4D4B8C0C1107B44574753455454494E4753454E447D0
 94
        0
1001
ACAD
1000
AcRTDxfName
1000
AMGSETTINGSOBJ
  0
ACAD_PROXY_OBJECT
  5
7603
102
{ACAD_REACTORS
330
7601
102
}
330
7601
100
AcDbProxyObject
 90
      499
 91
      523
 95
   917527
 70
     0
 93
      852
310
4050D5452414E5353455454494E4753A2488A482AE929C8EA8A4829CA69882A8929E9C0C00800050D4F524947494E414C4C595F4F4E0600400008529A7AAA921A2A620A723A0A81A52827212AAA0A48AA68AA4AC8A0C0080001107B44574753455454494E4753454E447D8
 94
        0
1001
ACAD
1000
AcRTDxfName
1000
AMGSETTINGSOBJ
  0
IDBUFFER
  5
767A
330
0
100
AcDbIdBuffer
  0
IDBUFFER
  5
767B
330
0
100
AcDbIdBuffer
  0
IDBUFFER
  5
767C
330
0
100
AcDbIdBuffer
330
7069
330
737D
  0
IDBUFFER
  5
767D
330
0
100
AcDbIdBuffer
  0
IDBUFFER
  5
767E
330
0
100
AcDbIdBuffer
  0
IDBUFFER
  5
767F
330
0
100
AcDbIdBuffer
330
67D
330
6F68
330
6F76
330
6FD9
330
6FEA
330
719E
330
71B6
330
71C2
330
71CF
330
7330
330
739D
330
73AA
330
757A
330
75D8
330
7727
  0
IDBUFFER
  5
7680
330
0
100
AcDbIdBuffer
330
7721
330
772E
330
773A
330
773B
330
773C
330
773D
330
773E
330
773F
330
7740
330
7741
330
7742
330
7743
330
7744
330
7745
330
7746
330
7747
330
7748
  0
IDBUFFER
  5
7681
330
0
100
AcDbIdBuffer
  0
IDBUFFER
  5
7682
330
0
100
AcDbIdBuffer
330
6F85
330
6F86
330
6F87
330
6F88
330
6F89
330
6F8A
330
6F8C
330
6F8F
330
6F93
330
6F94
330
6F95
330
6F9A
330
6F9B
330
6F9C
330
6F9D
330
6F9E
330
6FDA
330
6FDB
330
6FDC
330
6FDD
330
7001
330
7002
330
7003
330
7004
330
7005
330
7006
330
7007
330
700A
330
700B
330
700C
330
7011
330
7014
330
7015
330
7016
330
7018
330
7019
330
701B
330
701F
330
7020
330
7021
330
7022
330
7023
330
7024
330
7028
330
7029
330
702A
330
702B
330
702E
330
702F
330
7030
330
7031
330
7032
330
7033
330
7034
330
7035
330
7036
330
7037
330
7038
330
703B
330
703C
330
7040
330
7041
330
7044
330
7045
330
7048
330
7049
330
704A
330
704B
330
704C
330
704D
330
704F
330
7051
330
7053
330
7054
330
7055
330
7056
330
7057
330
7058
330
7059
330
705A
330
705B
330
705C
330
705D
330
705E
330
705F
330
7060
330
7063
330
7064
330
7070
330
7099
330
709A
330
70A8
330
70D2
330
70D3
330
70D4
330
70D5
330
70D6
330
70D7
330
70DA
330
70E4
330
70E6
330
70EA
330
70EB
330
70FE
330
70FF
330
7100
330
7101
330
7102
330
7103
330
7104
330
7105
330
7106
330
7108
330
7109
330
710A
330
710B
330
7115
330
7116
330
7117
330
7118
330
7119
330
711A
330
711E
330
7121
330
7122
330
7123
330
712E
330
712F
330
7130
330
7131
330
7132
330
7134
330
7136
330
7138
330
713F
330
7140
330
7142
330
7147
330
7148
330
7149
330
714A
330
714B
330
714C
330
714D
330
714E
330
714F
330
7150
330
7153
330
7159
330
7162
330
7163
330
7164
330
7165
330
7166
330
7168
330
7169
330
716F
330
7170
330
7171
330
7172
330
7174
330
7175
330
7176
330
7177
330
7178
330
7179
330
717A
330
717F
330
7180
330
7181
330
7182
330
7183
330
7185
330
7186
330
7187
330
7188
330
7189
330
718A
330
718B
330
718C
330
718D
330
72F9
330
72FA
330
72FB
330
72FC
330
72FD
330
7302
330
7303
330
7304
330
7305
330
7306
330
7307
330
7308
330
7309
330
731F
330
7320
330
7321
330
7322
330
7323
330
7337
330
7338
330
7339
330
733B
330
733C
330
733E
330
7340
330
7341
330
7342
330
7343
330
7344
330
7346
330
7347
330
7348
330
7349
330
734A
330
7352
330
7353
330
7354
330
7355
330
7356
330
7357
330
7358
330
7359
330
735B
330
735C
330
736B
330
7380
330
7381
330
7382
330
7383
330
7384
330
7385
330
7386
330
7387
330
7388
330
7389
330
738A
330
738B
330
738C
330
738D
330
73B6
330
73B7
330
73B8
330
73B9
330
73BA
330
73BF
330
73C0
330
73C1
330
73C2
330
73C3
330
73C4
330
73C5
330
73C7
330
73C8
330
73CD
330
73CE
330
73CF
330
73D0
330
73D1
330
73DD
330
73DE
330
73E1
330
73E2
330
73E3
330
73E4
330
73E5
330
73E6
330
73E7
330
73E8
330
73EC
330
73F2
330
73F7
330
73F8
330
73F9
330
73FA
330
73FD
330
73FE
330
73FF
330
7402
330
7403
330
7404
330
7405
330
7408
330
7409
330
740A
330
740B
330
7417
330
7418
330
741A
330
741E
330
7421
330
7422
330
7424
330
7426
330
7427
330
7428
330
7429
330
742A
330
742B
330
742C
330
742D
330
742E
330
742F
330
7430
330
7431
330
7432
330
7433
330
7434
330
7438
330
743A
330
743B
330
7580
  0
IDBUFFER
  5
7683
330
0
100
AcDbIdBuffer
  0
IDBUFFER
  5
7684
330
0
100
AcDbIdBuffer
  0
IDBUFFER
  5
7685
330
0
100
AcDbIdBuffer
  0
IDBUFFER
  5
7686
330
0
100
AcDbIdBuffer
330
7854
330
7855
330
7856
330
7857
330
7858
330
7859
330
785A
330
7861
330
7862
330
7863
330
7867
330
7868
330
7869
330
786A
330
786B
330
786C
330
786D
330
786E
330
786F
330
7870
330
7883
330
7722
330
7723
330
7724
330
7725
330
7726
330
77B9
330
77BA
330
77BB
330
77BC
330
77BD
330
77BE
330
77BF
330
77C0
330
77C1
330
77C2
330
77C3
330
77C4
330
77C5
330
77C6
330
77C7
330
77C8
330
77C9
330
77CA
330
77CB
330
77CC
330
77CD
330
77CE
330
77CF
330
77D0
330
77D1
330
77D2
330
77D3
330
77D4
330
77D5
330
77D6
330
77D7
330
77D8
330
77DA
330
77DB
330
77DC
330
77DD
330
77DE
330
77E4
330
77E6
330
77E7
330
77E8
330
77E9
330
77EA
330
77EC
330
77F5
330
77F7
330
77F8
330
77F9
330
77FA
330
77FB
330
77FC
330
77FD
330
77FE
330
77FF
330
7800
330
7801
330
7802
330
7803
330
7804
330
7805
330
7806
330
7807
330
7808
330
7809
330
780A
330
780B
330
780C
330
780E
330
780F
330
7810
330
7811
330
7812
330
7813
330
7814
330
7815
330
7816
330
7817
330
7818
330
7819
330
781A
330
781B
330
781C
330
781D
330
781E
330
781F
330
7820
330
7821
330
7822
330
7823
330
7824
330
7825
330
7826
330
7827
330
7828
330
7829
330
782A
330
782B
330
782C
330
782D
330
782E
330
782F
330
7830
330
7831
330
7832
330
7833
330
7834
330
7835
330
7836
330
7837
330
7838
330
7839
330
783A
330
783B
330
783C
330
783D
330
783E
330
783F
330
7840
330
7841
330
7842
330
7843
330
7844
330
7845
330
7848
330
7849
330
784A
330
784B
330
784C
330
784D
330
784E
330
784F
330
7850
330
7851
330
7852
330
7853
  0
IDBUFFER
  5
7687
330
0
100
AcDbIdBuffer
  0
IDBUFFER
  5
7688
330
0
100
AcDbIdBuffer
  0
IDBUFFER
  5
7689
330
0
100
AcDbIdBuffer
  0
IDBUFFER
  5
768A
330
0
100
AcDbIdBuffer
  0
XRECORD
  5
78C7
102
{ACAD_REACTORS
330
78C6
102
}
330
78C6
100
AcDbXrecord
280
     1
102
SHADEPLOT
 70
     0
102
SHADEPLOTRESLEVEL
 70
     2
102
SHADEPLOTCUSTOMDPI
 70
   300
  0
XRECORD
  5
78C9
102
{ACAD_REACTORS
330
7776
102
}
330
7776
100
AcDbXrecord
280
     1
102
SHADEPLOT
 70
     0
102
SHADEPLOTRESLEVEL
 70
     2
102
SHADEPLOTCUSTOMDPI
 70
   300
  0
XRECORD
  5
7777
102
{ACAD_REACTORS
330
7776
102
}
330
7776
100
AcDbXrecord
280
     1
310
28000000B40000007F00000001000800000000004C59000000000000000000000001000000000000FFFFFF0000000000FFFFFF000000000000000000000000000000000000000000000000000000000000000000330000006600000099000000CC000000FF00000000330000333300006633000099330000CC330000FF3300
310
0000660000336600006666000099660000CC660000FF66000000990000339900006699000099990000CC990000FF99000000CC000033CC000066CC000099CC0000CCCC0000FFCC000000FF000033FF000066FF000099FF0000CCFF0000FFFF000000003300330033006600330099003300CC003300FF003300003333003333
310
33006633330099333300CC333300FF33330000663300336633006666330099663300CC663300FF66330000993300339933006699330099993300CC993300FF99330000CC330033CC330066CC330099CC3300CCCC3300FFCC330000FF330033FF330066FF330099FF3300CCFF3300FFFF330000006600330066006600660099
310
006600CC006600FF00660000336600333366006633660099336600CC336600FF33660000666600336666006666660099666600CC666600FF66660000996600339966006699660099996600CC996600FF99660000CC660033CC660066CC660099CC6600CCCC6600FFCC660000FF660033FF660066FF660099FF6600CCFF6600
310
FFFF660000009900330099006600990099009900CC009900FF00990000339900333399006633990099339900CC339900FF33990000669900336699006666990099669900CC669900FF66990000999900339999006699990099999900CC999900FF99990000CC990033CC990066CC990099CC9900CCCC9900FFCC990000FF99
310
0033FF990066FF990099FF9900CCFF9900FFFF99000000CC003300CC006600CC009900CC00CC00CC00FF00CC000033CC003333CC006633CC009933CC00CC33CC00FF33CC000066CC003366CC006666CC009966CC00CC66CC00FF66CC000099CC003399CC006699CC009999CC00CC99CC00FF99CC0000CCCC0033CCCC0066CC
310
CC0099CCCC00CCCCCC00FFCCCC0000FFCC0033FFCC0066FFCC0099FFCC00CCFFCC00FFFFCC000000FF003300FF006600FF009900FF00CC00FF00FF00FF000033FF003333FF006633FF009933FF00CC33FF00FF33FF000066FF003366FF006666FF009966FF00CC66FF00FF66FF000099FF003399FF006699FF009999FF00CC
310
99FF00FF99FF0000CCFF0033CCFF0066CCFF0099CCFF00CCCCFF00FFCCFF0000FFFF0033FFFF0066FFFF0099FFFF00CCFFFF00FFFFFF00000000000D0D0D001A1A1A00282828003535350043434300505050005D5D5D006B6B6B00787878008686860093939300A1A1A100AEAEAE00BBBBBB00C9C9C900D6D6D600E4E4E400
310
F1F1F100FFFFFF0000000000000000000000000000000000000000000000000000000000000000000000000000000000EFEFE2E2E2E2E2E2E2E2E2E2E2E2E2E2E2E2E2E2E2E2E2E2E2E2E2E2E2E2E2E2E2E2E2E2E2E2E2E2E2E2E2E2E2E2E2E2E2E2E2E2E2E2E2E2E2E2E2E2E2E2E2E2E2E2E2E2E2E2E2E2E2E2E2E2E2E2E2
310
E2E2E2E2E2E2E2E2E2E2E2E2E2E2E2E2E2E2E2E2E2E2E2E2E2E2E2E2E2E2E2E2E2E2E2E2E2E2E2E2E2E2E2E2E2E2E2E2E2E2E2E2E2E2E2E2E2E2E2E2E2E2E2E2E2E2E2E2E2E2E2E2E2E2E2E2E2E2E2E2E2E2E2E2E2E2E2E2E2E2E2E2E2E2E2E2E2E2E2E2EFE2E2E2E2E2E2E2E2E2E2E2E2E2E2E2E2E2E2E2E2E2E2E2E2E2E2
310
E2E2E2E2E2E2E2E2E2E2E2E2E2E2E2E2E2E2E2E2E2E2E2E2E2E2E2E2E2E2E2E2E2E2E2E2E2E2E2E2E2E2E2E2E2E2E2E2E2E2E2E2E2E2E2E2E2E2E2E2E2E2E2E2E2E2E2E2E2E2E2E2E2E2E2E2E2E2E2E2E2E2E2E2E2E2E2E2E2E2E2E2E2E2E2E2E2E2E2E2E2E2E2E2E2E2E2E2E2E2E2E2E2E2E2E2E2E2E2E2E2E2E2E2E2E2E2
310
E2E2E2E2E2E2E2E2E2E2E2E2E2E2E2E2E2E2E2E2E2E2E2E2E2E2EFE2F5F5F5F5F5F5F5F5F5F5F5F5F5F5F5F5F5F5F5F5F5F5F5F5F5F5F5F5F5F5F5F5F5F5F5F5F5F5F5F5F5F5F5F5F5F5F5F5F5F5F5F5F5F5F5F5F5F5F5F5F5F5F5F5F5F5F5F5F5F5F5F5F5F5F5F5F5F5F5F5F5F5F5F5F5F5F5F5F5F5F5F5F5F5F5F5F5F5F5
310
F5F5F5F5F5F5F5F5F5F5F5F5F5F5F5F5F5F5F5F5F5F5F5F5F5F5F5F5F5F5F5F5F5F5F5F5F5F5F5F5F5F5F5F5F5F5F5F5F5F5F5F5F5F5F5F5F5F5F5F5F5F5F5F5F5F5F5F5F5F5F5F5F5F5F5F5F5F5E2EFE2F5F5F5F5F5F5F5F5F5F5F5F5F5F5F5F5F5F5F5F5F5F5F5F5F5F5F5F5F5F5F5F5F5F5F5F5F5F5F5F5F5F5F5F5F5F5
310
F5F5F5F5F5F5F5F5F5F5F5F5F5F5F5F5F5F5F5F5F5F5F5F5F5F5F5F5F5F5F5F5F5F5F5F5F5F5F5F5F5F5F5F5F5F5F5F5F5F5F5F5F5F5F5F5F5F5F5F5F5F5F5F5F5F5F5F5F5F5F5F5F5F5F5F5F5F5F5F5F5F5F5F5F5F5F5F5F5F5F5F5F5F5F5F5F5F5F5F5F5F5F5F5F5F5F5F5F5F5F5F5F5F5F5F5F5F5F5F5F5F5F5F5F5F5F5
310
F5F5F5F5E2EFE2F5F5F5E2E2E2E2E2E2E2E2F5F5F5F5F5F5F5F5F5E2E2E2E2E2E2E2E2E2E2E2E2E2E2E2E2F5F5F5F5F5F5F5F5E2E2E2E2E2E2E2E2E2E2E2E2E2E2E2E2F5F5F5F5F5F5F5F5F5E2E2E2E2E2E2E2E2E2E2E2E2E2E2E2F5F5F5F5F5F5F5F5F5E2E2E2E2E2E2E2E2E2E2E2E2E2E2E2F5F5F5F5F5F5F5F5F5E2E2E2
310
E2E2E2E2E2E2E2E2E2E2E2E2E2F5F5F5F5F5F5F5F5E2E2E2E2E2E2E2E2E2E2E2E2E2E2E2E2F5F5F5F5F5F5F5F5F5E2E2E2E2E2E2E2E2F5F5F5E2EFE2F5F5F5E2F5F5F5F5F5F5F5F5F5F5F5F5F5F5F5F5F5F5F5F5F5F5F5F5F5F5F5F5F5F5F5F5F5F5F5F5F5F5F5F5F5F5F5F5F5F5F5F5F5F5F5F5F5F5F5F5F5F5F5F5F5F5F5
310
F5F5F5F5F5F5F5F5F5F5F5F5F5F5F5F5F5F5F5F5F5F5F5F5F5F5F5F5F5F5F5F5F5F5F5F5F5F5F5F5F5F5F5F5F5F5F5F5F5F5F5F5F5F5F5F5F5F5F5F5F5F5F5F5F5F5F5F5F5F5F5F5F5F5F5F5F5F5F5F5F5F5F5F5F5F5F5F5F5F5F5F5F5F5F5F5F5F5F5F5F5F5F5F5F5F5E2F5F5F5E2EFE2F5F5F5E2F5F5F5F5F5F5F5F5F5F5
310
F5F5F5F5F5F5F5F5F5F5F5F5F5F5F5F5F5F5F5F5F5F5F5F5F5F5F5F5F5F5F5F5F5F5F5F5F5F5F5F5F5F5F5F5F5F5F5F5F5F5F5F5F5F5F5F5F5F5F5F5F5F5F5F5F5F5F5F5F5F5F5F5F5F5F5F5F5F5F5F5F5F5F5F5F5F5F5F5F5F5F5F5F5F5F5F5F5F5F5F5F5F5F5F5F5F5F5F5F5F5F5F5F5F5F5F5F5F5F5F5F5F5F5F5F5F5F5
310
F5F5F5F5F5F5F5F5F5F5F5F5F5F5F5F5F5F5F5F5F5F5F5F5F5F5F5F5F5F5F5F5E2F5F5F5E2EFE2F5F5F5E2F5F5F5F5F5F5F5F5F5F5F5F5F5F5F5F5F5F5F5F5F5F5F5F5F5F5F5F5F5F5F5F5F5F5F5F5F5F5F5F5F5F5F5F5F5F5F5F5F5F5F5F5F5F5F5F5F5F5F5F5F5F5F5F5F5F5F5F5F5F5F5F5F5F5F5F5F5F5F5F5F5F5F5F5
310
F5F5F5F5F5F5F5F5F5F5F5F5F5F5F5F5F5F5F5F5F5F5F5F5F5F5F5F5F5F5F5F5F5F5F5F5F5F5F5F5F5F5F5F5F5F5F5F5F5F5F5F5F5F5F5F5F5F5F5F5F5F5F5F5F5F5F5F5F5F5F5F5F5F5F5F5F5F5F5F5F5F5F5F5F5E2F5F5F5E2EFE2F5F5F5E2F5F5F5F5F5F5F5F5F5F5F5F5F5F5F5F5F5F5F5F5F5F5F5F5F5F5F5F5F5F5F5
310
F5F5F5F5F5F5F5F5F5F5F5F5F5F5F5F5F5F5F5F5F5F5F5F5F5F5F5F5F5F5F5F5F5F5F5F5F5F5F5F5F5F5F5F5F5F5F5F5F5F5F5F5F5F5F5F5F5F5F5F5F5F5F5F5F5F5F5F5F5F5F5F5F5F5F5F5F5F5F5F5F5F5F5F5F5F5F5F5F5F5F5F5F5F5F5F5F5F5F5F5F5F5F5F5F5F5F5F5F5F5F5F5F5F5F5F5F5F5F5F5F5F5F5F5F5F5F5
310
F5F5F5F5F5F5F5F5F5F5F5E2F5F5F5E2EFE2F5F5F5E2F5F5F5F5F5F5F5F5F5F5F5F5F5F5F5F5F5F5F5F5F5F5F5F5F5F5F5F5F5F5F5F5F5F5F5F5F5F5F5F5F5F5F5F5F5F5F5F5F5F5F5F5F5F5F5F5F5F5F5F5F5F5F5F5F5F5F5F5F5F5F5F5F5F5F5F5F5F5F5F5F5F5F5F5F5F5F5F5F5F5F5F5F5F5F5F5F5F5F5F5F5F5F5F5F5
310
F5F5F5F5F5F5F5F5F5F5F5F5F5F5F5F5F5F5F5F5F5F5F5F5F5F5F5F5F5F5F5F5F5F5F5F5F5F5F5F5F5F5F5F5F5F5F5F5F5F5F5F5F5F5F5F5F5F5F5F5F5F5F5F5E2F5F5F5E2EFE2F5F5F5E2F5F5F5F5F5F5F5F5F5F5F5F5F5F5F5F5F5F5F5F5F5F5F5F5F5F5F5F5F5F5F5F5F5F5F5F5F5F5F5F5F5F5F5F5F5F5F5F5F5F5F5F5
310
F5F5F5F5F5F5F5F5F5F5F5F5F5F5F5F5F5F5F5F5F5F5F5F5F5F5F5F5F5F5F5F5F5F5F5F5F5F5F5F5F5F5F5F5F5F5F5F5F5F5F5F5F5F5F5F5F5F5F5F5F5F5F5F5F5F5F5F5F5F5F5F5F5F5F5F5F5F5F5F5F5F5F5F5F5F5F5F5F5F5F5F5F5F5F5F5F5F5F5F5F5F5F5F5F5F5F5F5F5F5F5F5F5F5F5F5F5E2F5F5F5E2EFE2F5F5F5
310
E2F5F5F5F5F5F5F5F5F5F5F5F5F5F5F5F5F5F5F5F5F5F5F5F5F5F5F5F5F5F5F5F5F5F5F5F5F5F5F5F5F5F5F5F5F5F5F5F5F5F5F5F5F5F5F5F5F5F5F5F5F5F5F5F5F5F5F5F5F5F5F5F5F5F5F5F5F5F5F5F5F5F5F5F5F5F5F5F5F5F5F5F5F5F5F5F5F5F5F5F5F5F5F5F5F5F5F5F5F5F5F5F5F5F5F5F5F5F5F5F5F5F5F5F5F5F5
310
F5F5F5F5F5F5F5F5F5F5F5F5F5F5F5F5F5F5F5F5F5F5F5F5F5F5F5F5F5F5F5F5F5F5F5F5F5F5F5F5F5F5F5E2F5F5F5E2EFE2F5F5F5F5F5F5F5F5F5F5F5F5F5F5F5F5F5F5F5F5F5F5F5F5F5F5F5F5F5F5F5F5F5F5F5F5F5F5F5F5F5F5F5F5F5F5F5F5F5F5F5F5F5F5F5F5F5F5F5F5F5F5F5F5F5F5F5F5F5F5F5F5F5F5F5F5F5
310
F5F5F5F5F5F5F5F5F5F5F5F5F5F5F5F5F5F5F5F5F5F5F5F5F5F5F5F5F5F5F5F5F5F5F5F5F5F5F5F5F5F5F5F5F5F5F5F5F5F5F5F5F5F5F5F5F5F5F5F5F5F5F5F5F5F5F5F5F5F5F5F5F5F5F5F5F5F5F5F5F5F5F5F5F5F5F5F5F5F5F5F5F5F5F5F5F5F5F5F5E2EFE2F5F5F5F5F5F5F5F5F5F5F5F5F5F5F5F5F5F5F5F5F5F5F5F5
310
F5F5F5F5F5F5F5F5F5F5F5F5F5F5F5F5F5F5F5F5F5F5F5F5F5F5F5F5F5F5F5F5F5F5F5F5F5F5F5F5F5F5F5F5F5F5F5F5F5F5F5F5F5F5F5F5F5F5F5F5F5F5F5F5F5F5F5F5F5F5F5F5F5F5F5F5F5F5F5F5F5F5F5F5F5F5F5F5F5F5F5F5F5F5F5F5F5F5F5F5F5F5F5F5F5F5F5F5F5F5F5F5F5F5F5F5F5F5F5F5F5F5F5F5F5F5F5
310
F5F5F5F5F5F5F5F5F5F5F5F5F5F5F5F5F5F5F5F5F5F5F5F5F5F5E2EFE2F5F5F5F5F5F5F5F5F5F5F5F5F5F5F5F5F5F5F5F5F5F5F5F5F5F5F5F5F5F5F5F5F5F5F5F5F5F5F5F5F5F5F5F5F5F5F5F5F5F5F5F5F5F5F5F5F5F5F5F5F5F5F5F5F5F5F5F5F5F5F5F5F5F5F5F5F5F5F5F5F5F5F5F5F5F5F5F5F5F5F5F5F5F5F5F5F5F5
310
F5F5F5F5F5F5F5F5F5F5F5F5F5F5F5F5F5F5F5F5F5F5F5F5F5F5F5F5F5F5F5F5F5F5F5F5F5F5F5F5F5F5F5F5F5F5F5F5F5F5F5F5F5F5F5F5F5F5F5F5F5F5F5F5F5F5F5F5F5F5F5F5F5F5F5F5F5F5F5E2EFE2F5F5F5F5F5F5F5F5F5F5F5F5F5F5F5F5F5F5F5F5F5F5F5F5F5F5F5F5F5F5F5F5F5F5F5F5F5F5F5F5F5F5F5F5F5
310
F5F5F5F5F5F5F5F5F5F5F5F5F5F5F5F5F5F5F5F5F5F5F5F5F5F5F5F5F5F5F5F5F5F5F5F5F5F5F5F5F5F5F5F5F5F5F5F5F5F5F5F5F5F5F5F5F5F5F5F5F5F5F5F5F5F5F5F5F5F5F5F5F5F5F5F5F5F5F5F5F5F5F5F5F5F5F5F5F5F5F5F5F5F5F5F5F5F5F5F5F5F5F5F5F5F5F5F5F5F5F5F5F5F5F5F5F5F5F5F5F5F5F5F5F5F5F5
310
F5F5F5F5F5E2EFE2F5F5F5F5F5F5F5F5F5F5F5F5F5F5F5F5F5F5F5F5282828282828282828282828282828282828282828282828282828282828282828282828282828282828282828282828282828282828282828282828282828282828282828282828282828282828282828282828282828282828282828282828282828
310
2828282828282828282828282828282828282828282828282828282828282828282828282828F5F5F5F5F5F5F5F5F5F5F5F5F5F5F5F5F5F5F5F5E2EFE2F5F5F5F5F5F5F5F5F5F5F5F5F5F5F5F5F5F5F5F528F5F5F5F5F5F5F5F5F5F5F5F5F5F5F5F5F5F5F5F5F5F5F5F5F5F5F5F5F5F5F5F5F5F5F5F5F5F5F5F5F5F5F5F5F5
310
F5F5F5F5F5F5F5F5F5F5F5F5F5F5F5F5F5F5F5F5F5F5F5F5F5F5F5F5F5F5F5282828282828282828282828282828282828F528282828282828F5282828282828282828F5F5F5F5F5F5F5F5F5F5F5F5F5F5F5F5F5F5F5F5F5F5F528F5F5F5F5F5F5F5F5F5F5F5F5F5F5F5F5F5F5F5F5E2EFE2F5F5F5F5F5F5F5F5F5F5F5F5F5
310
F5F5F5F5F5F5F528F5F5F50F0F0F280F0F0F0F0F0F0F0F0F0F0F0F280F0F0F0F0F0F280F0F0F0F280F0F280F0F280F0F0F0F0F0F0F0F0F0F0F0F0F0F0F0F0F0F0F0F0F0F0F0F0F0F0F0F0F0F0F0F0F0F0F0F0F0F282828282828282828282828282828282828282828280F2828282828282828282828280F0F0F0F0F0F0F0F
310
0F0F0F0F0F0F0F0F0F0F0F0F0FF5F5F528F5F5F5F5F5F5F5F5F5F5F5F5F5F5F5F5F5F5F5F5E2EFE2F5F5F5F5F5F5F5F5F5F5F5F5F5F5F5F5F5F5F5F528F5F5F50FF5F528F5F5282828282828282828F52828282828282828282828282828F528F5F528F5F5F5F5F5F5F5F5F5F5F5F5F5F5F5F5F5F5F5F5F5F5F5F5F5F5F5F5
310
F5F5F5F5F5F5F50F28F5F5F5F5F5F5F528F52828282828282828282828F528280F282828F5F5F52828282828280FF5F5F5F5F5F5F5F5F5F5F5F5F5F5F5F5F5F5F50FF5F5F528F5F5F5F5F5F5F5F5F5F5F5F5F5F5F5F5F5F5F5F5E2EFE2F5F5F5F5F5F5F5F5F5F5F5F5F5F5F5F5F5F5F5F528F5F5F528282828282828282828
310
28282828282828282828282828282828282828282828282828F5F5F5F5F5F5F5F5F5F5F5F5F5F5F5F5F5F5F5F5F5F5F5F5F5F5F5F5F5F5F5F5F5F5F50F28F5F5F5F528F5F5282828282828282828282828282828280F28282828F5F52828282828280F282828282828282828282828282828282828F50FF5F5F528F5F5F5F5
310
F5F5F5F5F5F5F5F5F5F5F5F5F5F5F5F5E2EFE2F5F5F5E2F5F5F5F5F5F5F5F5F5F5F5F5F5F5F5F528F5F5F50F282828282828282828F5F5F5F5F5F528282828282828282828282828F5F528F5F528F5F5F5F5F5F5F5F5F5F5F5F5F5F5F5F5F5F5F5F5F5F5F5F5F5F5F5F5F5F5F5F5F5F5F50FF5F5F5F5F5F5F5F52828282828
310
2828282828282828282828282828282828282828E228E22828F5F5F5F5282828F5F5F52828F5F528F528F5F50FF5F5F528F5F5F5F5F5F5F5F5F5F5F5F5F5F5F5F5E2F5F5F5E2EFE2F5F5F5E2F5F5F5F5F5F5F5F5F5F5F5F5F5F5F5F528F5F5F528282828282828282828282828282828282828282828282828282828282828
310
28282828F5F5F5F5F5F5F5F5F5F5F5F5F5F5F5F5F5F5F5F5F5F5F5F5F5F5F5F5F5F5F5F5F5F5F50FF5F5F5F5F528F5F52828282828282828282828282828282828282828F5F5F528F5F5F5F5F50FF5F5F5F5F5F5F5F5F5F5F5F5F5F5F5F5F5F5F50FF5F5F528F5F5F5F5F5F5F5F5F5F5F5F5F5F5F5F5E2F5F5F5E2EFE2F5F5
310
F5E2F5F5F5F5F5F5F5F5F5F5F5F5F5F5F5F528F5F5F50F2828282828282828F5F5F5F5F5F5F528F5F5F5F5F5F5282828282828F5F528F5F528F5F5F5F5F5F5F5F5F5F5F5F5F5F5F5F5F5F5F5F5F5F5F5F5F5F5F5F5F5F5F5F5F5F5F50FF5F5F5F5F528F5F5282828282828282828282828282828280F282828F5F5F528F5F5
310
F5F5F50F0F0F0F280F0F0F0F0F0F0F0F0F0F0F0F0F0F0F0FF5F5F528F5F5F5F5F5F5F5F5F5F5F5F5F5F5F5F5E2F5F5F5E2EFE2F5F5F5E2F5F5F5F5F5F5F5F5F5F5F5F5F5F5F5F528F5F5F52828282828282828282828282828282828282828282828282828282828282828282828F5F5F5F5F5F5F5F5F5F5F5F5F5F5F5F5F5
310
F5F5F5F5F5F5F5F5F5F5F5F5F5F5F5F5F5F50F282828F5F528F5F5282828F528F5F528F528282828F528F5282828282828282828282828280FF5F5F52828282828282828282828F5F5F5F5F50FF5F5F528F5F5F5F5F5F5F5F5F5F5F5F5F5F5F5F5E2F5F5F5E2EFE2F5F5F5E2F5F5F5F5F5F5F5F5F5F5F5F5F5F5F5F528F5F5
310
F50F28282828282828282828282828282828282828282828282828282828F5F528F5F528F5F5F5F5F5F5F5F5F5F5F5F5F5F5F5F5F5F5F5F5F5F5F5F5F5F5F5F5F5F5F5F5F5F5F50F282828282828282828F528282828282828282828282828282828282828F5F52828282828280F28F5F52828282828282828282828F5F5F5
310
F5F50FF5F5F528F5F5F5F5F5F5F5F5F5F5F5F5F5F5F5F5E2F5F5F5E2EFE2F5F5F5E2F5F5F5F5F5F5F5F5F5F5F5F5F5F5F5F528F5F5F52828282828282828282828282828282828282828282828282828282828282828282828F5F5F5F5F5F5F5F5F5F5F5F5F5F5F5F5F5F5F5F5F5F5F5F5F5F5F5F5F5F5F5F5F5F5F50F2828
310
282828282828282828282828282828282828282828280F28F528F5F5F528F5F5F5F5F50FF5F5F528F5F5F5F5F5F5F5F5F5F5F5F5F5F5F50FF5F5F528F5F5F5F5F5F5F5F5F5F5F5F5F5F5F5F5E2F5F5F5E2EFE2F5F5F5E2F5F5F5F5F5F5F5F5F5F5F5F5F5F5F5F528F5F5F50FF5F5F5F5F5F5F5F5F5F5F5F5F5F5F5F5F5F5F5
310
F5F5F5F5F5F5F5F5F5F5F5F5F5F5F5F5F5F5F5F5F5F5F5F5F5F5F5F5F5F5F5F5F5F5F5F5F5F5F5F5F5F5F5F5F5F5F5F5F5F50F282828282828282828282828282828282828282828282828282828282828282828282828280F0F0F0F280F0F280F0F280F280F280F0F0F0F280FF5F5F528F5F5F5F5F5F5F5F5F5F5F5F5F5F5
310
F5F5E2F5F5F5E2EFE2F5F5F5E2F5F5F5F5F5F5F5F5F5F5F5F5F5F5F5F528F5F5F50FF5F5F5F5F5F5F5F5F5F5F5F5F5F5F5F5F5F5F5F5F5F5F5F5F5F5F5F5F5F5F5F5F5F5F5F5F5F5F5F5F5F5F5F5F5F5F5F5F5F5F5F5F5F5F5F5F5F5F5F5F5F5F5F5F5F5F5F5F50F282828282828282828F528282828282828282828282828
310
282828282828F5F52828282828280F28282828282828F5F52828F5282828282828280FF5F5F528F5F5F5F5F5F5F5F5F5F5F5F5F5F5F5F5E2F5F5F5E2EFE2F5F5F5E2F5F5F5F5F5F5F5F5F5F5F5F5F5F5F5F528F5F5F50FF5F5F5F5F5F5F5F5F5F5F5F5F5F5F5F5F5F5F5F5F5F5F5F5F5F5F5F5F5F5F5F5F5F5F5F5F5F5F5F5
310
F5F5F5F5F5F5F5F5F5F5F5F5F5F5F5F5F5F5F5F5F5F5F5F5F5F5F5F5F50F282828282828280F280F280F0F0F0F0F0F280F280F0F280F0F0F0F280F0F0F0F0F0F0F0F0F0F0F0F0F0F0F0F28280F28282828280F0F0F0F280FF5F5F528F5F5F5F5F5F5F5F5F5F5F5F5F5F5F5F5E2F5F5F5E2EFE2F5F5F5E2F5F5F5F5F5F5F5F5
310
F5F5F5F5F5F5F5F528F5F5F50FF5F5F5F5F5F5F5F5F5F5F5F5F5F5F5F5F5F5F5F5F5F5F5F5F5F5F5F5F5F5F5F5F5F5F5F5F5F5F5F5F5F5F5F5F5F5F5F5F5F5F5F5F5F5F5F5F5F5F5F5F5F5F5F5F5F5F5F5F50F282828282828282828F5F5F52828282828282828F5F5F5F50FF5F528F5F5F5F5F5F5F5F5F5F5F5F5F5F5F5F5
310
F50F28282828F5F5F5F5F5F5F50FF5F5F528F5F5F5F5F5F5F5F5F5F5F5F5F5F5F5F5E2F5F5F5E2EFE2F5F5F5E2F5F5F5F5F5F5F5F5F5F5F5F5F5F5F5F528F5F5F50FF5F5F5F5F5F5F5F5F5F5F5F5F5F5F5F5F5F5F5F5F5F5F5F5F5F5F5F5F5F5F5F5F5F5F5F5F5F5F5F5F5F5F5F5F5F5F5F5F5F5F5F5F5F5F5F5F5F5F5F5F5
310
F5F5F5F5F5F5F5F50F2828282828282828282828282828282828282828282828280FF5F528F52828F52828282828282828F5F5F5F5F50F28282828F52828282828F50FF5F5F528F5F5F5F5F5F5F5F5F5F5F5F5F5F5F5F5E2F5F5F5E2EFE2F5F5F5E2F5F5F5F5F5F5F5F5F5F5F5F5F5F5F5F528F5F5F50FF5F5F5F5F5F5F5F5
310
F5F5F5F5F5F5F5F5F5F5F5F5F5F5F5F5F5F5F5F5F5F5F5F5F5F5F5F5F5F5F5F5F5F5F5F5F5F5F5F5F5F5F5F5F5F5F5F5F5F5F5F5F5F5F5F5F5F5F5F5F50F28F5F5F5F5F5F5F528F5F5F52828282828282828F5F5F5F50F28F528F52828282828282828282828F5F5F5F5F50F282828282828282828282828F5F5F528F5F5F5
310
F5F5F5F5F5F5F5F5F5F5F5F5F5E2F5F5F5E2EFE2F5F5F5E2F5F5F5F5F5F5F5F5F5F5F5F5F5F5F5F528F5F5F50FF5F5F5F5F5F5F5F5F5F5F5F5F5F5F5F5F5F5F5F5F5F5F5F5F5F5F5F5F5F5F5F5F5F5F5F5F5F5F5F5F5F5F5F5F5F5F5F5F5F5F5F5F5F5F5F5F5F5F5F5F5F5F5F5F5F5F5F5F50F282828282828282828282828
310
2828282828282828282828280FF5F528F5F5F5F5F5F5F5F5F5F5F5F5F5F5F5F5F50F28282828F52828282828F50FF5F5F528F5F5F5F5F5F5F5F5F5F5F5F5F5F5F5F5E2F5F5F5E2EFE2F5F5F5E2F5F5F5F5F5F5F5F5F5F5F5F5F5F5F5F528F5F5F50FF5F5F5F5F5F5F5F5F5F5F5F5F5F5F5F5F5F5F5F5F5F5F5F5F5F5F5F5F5
310
F5F5F5F5F5F5F5F5F5F5F5F5F5F5F5F5F5F5F5F5F5F5F5F5F5F5F5F5F5F5F5F5F5F5F5F5F5F5F5F50F2828282828F5F5F528F5F5F52828282828282828F5F5F5F50FF5F528F5F5F5F5F5F5F5F5F5F5F5F5F5F5F5F5F50F28282828F5F5F5F5F5F5F50FF5F5F528F5F5F5F5F5F5F5F5F5F5F5F5F5F5F5F5E2F5F5F5E2EFE2F5
310
F5F5E2F5F5F5F5F5F5F5F5F5F5F5F5F5F5F5F528F5F5F50FF5F5F5F5F5F5F5F5F5F5F5F5F5F5F5F5F5F5F5F5F5F5F5F5F5F5F5F5F5F5F5F5F5F5F5F5F5F5F5F5F5F5F5F5F5F5F5F5F5F5F5F5F5F5F5F5F5F5F5F5F5F5F5F5F5F5F5F5F50F0F0F0F0F0F0F0F0F280F0F0F0F0F0F0F0F0F0F0F0F0F0F0F0F0F0F280F0F0F280F
310
0F0F0F0F0F0F0F0F0F0F0F0F0F0F0F0F280F0F0F0F0F0F0F0FF5F5F528F5F5F5F5F5F5F5F5F5F5F5F5F5F5F5F5E2F5F5F5E2EFE2F5F5F5F5F5F5F5F5F5F5F5F5F5F5F5F5F5F5F5F528F5F5F50FF5F5F5F5F5F5F5F5F5F5F5F5F5F5F5F5F5F5F5F5F5F5F5F5F5F5F5F5F5F5F5F5F5F5F5F5F5F5F5F5F5F5F5F5F5F5F5F5F5F5
310
F5F5F5F5F5F5F5F5F5F5F5F5F5F5F5F5F5F5F528F528F5F5F52828F5F5F5F52828F5F5F528F5F5F52828F5F5F5F5F528F5F5F528F5F5F5F5F52828F5F5F5F5F5F5F5F5F5F5F5F52828F5F5F5F50F28F5F528F5F5F5F5F5F5F5F5F5F5F5F5F5F5F5F5F5F5F5F5E2EFE2F5F5F5F5F5F5F5F5F5F5F5F5F5F5F5F5F5F5F5F528F5
310
F5F50FF5F5F5F5F5F5F5F5F5F5F5F5F5F5F5F5F5F5F5F5F5F5F5F5F5F5F5F5F5F5F5F5F5F5F5F5F5F5F5F5F5F5F5F5F5F5F5F5F5F5F5F5F5F5F5F5F5F5F5F5F5F5F5F5F5F5F5F5F528282828282828282828282828282828282828282828282828282828282828282828282828282828282828282828282828282828282828
310
28282828F5F5F528F5F5F5F5F5F5F5F5F5F5F5F5F5F5F5F5F5F5F5F5E2EFE2F5F5F5F5F5F5F5F5F5F5F5F5F5F5F5F5F5F5F5F528F5F5F50FF5F5F5F5F5F5F5F5F5F5F5F528282828282828282828282828282828F5F5F5F5F5F5F5F5F5F5F5F5F5F5F5F5F5F5F5F5F5F5F5F5F5F5F5F5F5F5F5F5F5F5F5F5F5F5F5F5F528F5
310
28F5F5F5F5F5F5F5F5F5F5F5F5F5F528F5F5F5F5F5F5F5F5F5F5F5F5F5F528F5F5F5F5F5F5F5F5F5F5F5F5F5F5F5F5F5F5F5F5F5F5F5F5F52828F5F528F5F5F5F5F5F5F5F5F5F5F5F5F5F5F5F5F5F5F5F5E2EFE2F5F5F5F5F5F5F5F5F5F5F5F5F5F5F5F5F5F5F5F528F5F5F50FF5F5F5F5F5F5F5F5F5F5F5F528F5F5F5F5F5
310
28282828F5F5F5F5F528F5F5F5F5F5F5F5F5F5F5F5F5F5F528282828282828282828282828282828282828F5F5F5F5F5F5F5F528F528F5F5F5F5F5F5F5F5F5F5F5F5F5F528F5F5F5F5F5F5F5F5F5F5F5F5F5F528F5F5F5F5F5F5F5F5F5F5F5F5F5F5F5F5F5F5F5F5F5F5F5F5F52828F5F528F5F5F5F5F5F5F5F5F5F5F5F5F5
310
F5F5F5F5F5F5F5E2EFE2F5F5F5F5F5F5F5F5F5F5F5F5F5F5F5F5F5F5F5F528F5F5F50FF5F5F5F5F5F5F5F5F5F5F5F528F5F5F5F5F528282828F5F5F5F5F528F5F5F5F5F5F5F5F5F5F5F5F5F5F528F5F5F5F5F5F528282828F5F5F5F5F5F5F528F5F5F5F5F5F5F5F52828282828282828282828282828282828282828282828
310
282828282828282828282828282828282828282828282828282828282828282828282828F5F5F528F5F5F5F5F5F5F5F5F5F5F5F5F5F5F5F5F5F5F5F5E2EFE2F5F5F5F5F5F5F5F5F5F5F5F5F5F5F5F5F5F5F5F528F5F5F50FF5F5F5F5F5F5F5F5F5F5F5F528F5282828282828282828282828F528F5F5F5F5F5F5F5F5F5F5F5
310
F5F5F52828282828282828282828282828282828F528F5F5F5F5F5F5F5F528F528F5F5F5F5F5F5F5F5F5F5F5F5F5F528F5F5F5F5F5F5F5F5F5F5F5F5F5F528F5F5F5F5F5F5F5F5F5F5F5F5F5F5F5F5F5F5F5F5F5F5F5F5F528F5F5F528F5F5F5F5F5F5F5F5F5F5F5F5F5F5F5F5F5F5F5F5E2EFE2F5F5F5F5F5F5F5F5F5F5F5
310
F5F5F5F5F5F5F5F5F528F5F5F50FF5F5F5F5F5F5F5F5F5F5F5F528F528F5F5F528282828F5F5F528F528F5F5F5F5F5F5F5F5F5F5F5F5F5F528F5F528F5F5F5F528282828F5F5F5F528F528F5F5F5F5F5F5F5F52828282828282828282828282828282828282828282828282828282828282828282828282828282828282828
310
282828282828282828282828282828F5F5F528F5F5F5F5F5F5F5F5F5F5F5F5F5F5F5F5F5F5F5F5E2EFE2F5F5F5F5F5F5F5F5F5F5F5F5F5F5F5F5F5F5F5F528F5F5F50FF5F5F5F5F5F5F5F5F5F5F5F528F528F5F5F5282828F5F5F5F528F528F5F5F5F5F5F5F5F5F5F5F5F5F5F52828F528F5F5F5F528282828F5F5F5F528F5
310
28F5F5F5F5F5F5F5F528F528F5F5F5F5F5F5F5F5F5F5F5F5F5F528F5F5F5F5F5F5F5F5F5F5F5F5F5F528F5F5F5F5F5F5F5F5F5F5F5F5F5F5F5F5F5F5F5F5F5F5F5F5F50F28F5F528F5F5F5F5F5F5F5F5F5F5F5F5F5F5F5F5F5F5F5F5E2EFE2F5F5F5E2F5F5F5F5F5F5F5F5F5F5F5F5F5F5F5F528F5F5F50FF5F5F5F5F5F5F5
310
F5F5F5F5F528F528F5F5F5F5F5BEF5F5F5F528F528F5F5F5F5F5F5F5F5F5F5F5F5F5F528F5F528F5F5F5F5F5F5F5F5F5F5F5F528F528F5F5F5F5F5F5F5F5282828282828282828282828282828282828282828282828282828282828282828282828282828282828282828282828282828282828282828282828F5F528F5F5
310
F5F5F5F5F5F5F5F5F5F5F5F5F5F5E2F5F5F5E2EFE2F5F5F5E2F5F5F5F5F5F5F5F5F5F5F5F5F5F5F5F528F5F5F50FF5F5F5F5F5F5F5F5F5F5F5F528F528F5F5F5F5F5BEF5F5F5F528F528F5F5F5F5F5F5F5F5F5F5F5F5F5F528F5F528F5F5F5F5F5F5F5F5F5F5F5F528F528F5F5F5F5F5F5F5F5F5F5F5F5F5F5F5F5F5F5F5F5
310
F5F5F5F5F5F5F5F5F5F5F5F5F5F5F5F5F5F5F5F5F5F5F5F5F5F5F5F5F5F5F5F5F5F5F5F5F5F5F5F5F5F5F5F5F5F50FF5F5F528F5F5F5F5F5F5F5F5F5F5F5F5F5F5F5F5E2F5F5F5E2EFE2F5F5F5E2F5F5F5F5F5F5F5F5F5F5F5F5F5F5F5F528F5F5F50FF5F5F52828282828282828282828E2F5F5F5F5F5BEF5F5F5F5E2E228
310
F5F5F5F5F5F5F5F5F5F5F5F5F5F528F5F528E2F5F5F5F5F5F5F5F5F5F5E22828282828282828282828282828F5F5F5F5F5F5F5F5F5F5F5F5F5F5F5F5F5F5F5F5F5F5F5F5F5F5F5F5F5F5F5F5F5F5F5F5F5F5F5F5F5F5F5F5F5F5F5F5F5F5F5F5F5F5F528F5F5F528F5F5F5F5F5F5F5F5F5F5F5F5F5F5F5F5E2F5F5F5E2EFE2
310
F5F5F5E2F5F5F5F5F5F5F5F5F5F5F5F5F5F5F5F528F5F5F50FF5F5F528F5F5F5F5F5F5F5F5E2E2E2E2E2E2E2E2BEE2E2E2E2E2E2E2F5F5F5F5F5F5F5F5F5F5F5F5F5F528E2E2E2E2E2E2E2E2E2E2E2E2E2E2E2E2E228F5F5F5F5F5F5F5F5F5F528F5F5F5F5F5F5F5F5F5F5F5F5F5F5F5F5F5F5F5F5F5F5F5F5F5F5F5F5F5F5
310
F5F5F5F5F5F5F5F5F5F5F5F5F5F5F5F5F5F5F5F5F5F5F5F5F50FF5F5F528F5F5F5F5F5F5F5F5F5F5F5F5F5F5F5F5E2F5F5F5E2EFE2F5F5F5E2F5F5F5F5F5F5F5F5F5F5F5F5F5F5F5F528F5F5F50FF5F5F528F5F5F5F5F5F5F5F5E2E2E2E2E2E2E2E2BEE2E2E2E2E2E2E2F5F5F5F5F5F5F5F5F5F52828282828E2E2E2E2F5F5
310
F5F5F5E2F5F5F5F5F5F5E2E2F5F5F5F5F5F5F5F528F528F5F5F5F5F5F5F5F5F5F5F5F5F5F5F5F5F5F5F5F5F5F5F5F5F5F5F5F5F5F5F5F5F5F5F5F5F5F5F5F5F5F5F5F5F5F5F5F5F5F5F5F5F5F5F528F5F5F528F5F5F5F5F5F5F5F5F5F5F5F5F5F5F5F5E2F5F5F5E2EFE2F5F5F5E2F5F5F5F5F5F5F5F5F5F5F5F5F5F5F5F528
310
F5F5F50FF5F5F528F5F5F5F5F5F5F5F5E2E2E2E2E2E2E2E2BEE2E2E2E2E2E2E2F5F5F5F5F5F5F5F5F5F528F5F5F5F5F5F5F5F5E2E2E2E2E2E2F5F5F5F5F5F5E2E2F5F5F5E2F5F5F5F5F5F528F5F5F5F5F5F5F5F5F5F5F5F5F5F5F5F5F5F5F5F5F5F5F5F5F5F5F5F5F5F5F5F5F5F5F5F5F5F5F5F5F5F5F5F5F5F5F5F5F5F5F5
310
F5F5F5F50FF5F5F528F5F5F5F5F5F5F5F5F5F5F5F5F5F5F5F5E2F5F5F5E2EFE2F5F5F5E2F5F5F5F5F5F5F5F5F5F5F5F5F5F5F5F528F5F5F50FF5F5F528F5F5F5F5F5F5F5F5E2E2E2F5F5F5F5F5BEF5F5F5F5F5E2E2F5F5F5F5F5F5F5F5F5F528F5F5F5F5F5F5F5F5F5E2F5F5F5E2F5F5F5F5F5F5E2E2E2E2E2E2E2E2E22828
310
2828F5F5F5F5F5F5F5F5F5F5F5F5F5F5F5F5F5F5F5F5F5F5F5F5F5F5F5F5F5F5F5F5F5F5F5F5F5F5F5F5F5F5F5F5F5F5F5F5F5F5F5F5F5F5F528F5F5F528F5F5F5F5F5F5F5F5F5F5F5F5F5F5F5F5E2F5F5F5E2EFE2F5F5F5E2F5F5F5F5F5F5F5F5F5F5F5F5F5F5F5F528F5F5F50FF5F5F528F5F5F5F5F5F5F5F5E2E2E2F5F5
310
F5F5F5BEF5F5F5F5F5E2E2F5F5F5F5F5F5F5F5F5F528F5F5F5F5F5F5F5F5F5E2F5F5F5E2F5F5F5F5F5F5E2E2F5F5F5E2F5F5F5F5F5F5F5F5F5F5F5F5F5F5F5F5F5F5F5F5F5F5F5F5F5F5F5F5F5F5F5F5F5F5F5F5F5F5F5F5F5F5F5F5F5F5F5F5F5F5F5F5F5F5F5F5F5F5F5F5F5F528F5F5F528F5F5F5F5F5F5F5F5F5F5F5F5
310
F5F5F5F5E2F5F5F5E2EFE2F5F5F5E2F5F5F5F5F5F5F5F5F5F5F5F5F5F5F5F528F5F5F50FF5F5F528F5F5F5F5F5F5F5F5E2E2E2F5F5F5F5F5BEF5F5F5F5F5E2E2F5F5F5F5F5F5F5F5F5F528F5F5F5F5F5F5F5F5F5E2F5F5F5E2F5F5F5F5F5F5E2E2F5F5F5F5F5F5F5F5F5F5F5F5F5F5F5F5F5F5F5F5F5F5F5F5F5F5F5F5F5F5
310
F5F5F5F5F5F5F5F5F5F5F5F5F5F5F5F5F5F5F5F5F5F5F5F5F5F5F5F5F5F5F5F5F5F5F5F50FF5F5F528F5F5F5F5F5F5F5F5F5F5F5F5F5F5F5F5E2F5F5F5E2EFE2F5F5F5E2F5F5F5F5F5F5F5F5F5F5F5F5F5F5F5F528F5F5F50FF5F5F528F5F5F5F5F5F5F5F5E2E2E2F5F5F5F5F5BEF5F5F5F5F5E2E2F5F5F5F5F5F5F5F5F528
310
28F5F5F5F5F5F5F5F5F5E2F5F5F5E2F5F5F5F5F5F5E2E2F5F5F5F5F5F5F5F5F5F5F5F5F5F5F5F5F5F5F5F5F5F5F5F5F5F5F5F5F5F5F5F5F5F5F5F5F5F5F5F5F5F5F5F5F5F5F5F5F5F5F5F5F5F5F5F5F5F5F5F5F5F5F5F5F5F50F28F5F528F5F5F5F5F5F5F5F5F5F5F5F5F5F5F5F5E2F5F5F5E2EFE2F5F5F5E2F5F5F5F5F5F5
310
F5F5F5F5F5F5F5F5F5F528F5F5F50FF5F5F528F5F5F5F5F5F5F5F5E2E2E2F5F5F5F5F5BEF5F5F5F5F5E2E2F5F5F5F5F5F5F5F5F52828F5F5F5F5F5F5F5F5F5E2F5F5F5E2F5F5F5F5F5F5E2E2F5F5F5F5F5F5F5F5F5F5F5F5F5F5F5F5F5F5F5F5F5F5F5F5F5F5F5F5F5F5F5F5F5F5F5F5F5F5F5F5F5F5F5F5F5F5F5F5F5F5F5
310
F5F5F5F5F5F5F5F5F5F5F5F5F5F5F50F28F5F528F5F5F5F5F5F5F5F5F5F5F5F5F5F5F5F5E2F5F5F5E2EFE2F5F5F5E2F5F5F5F5F5F5F5F5F5F5F5F5F5F5F5F528F5F5F50FF5F5F528F5F5F5F5F5F5F5F5E2E2E2F5F5F5F5F5BEF5F5F5F5F5E2E2F5F5F5F5F5F5F5F5F52828F5F5F5F5F5F5F5F5F5E2F5F5F5E2F5F5F5F5F5F5
310
E2E2F5F5F5F5F5F5F5F5F5F5F5F5F5F5F5F5F5F5F5F5F5F5F5F5F5F5F5F5F5F5F5F5F5F5F5F5F5F5F5F5F5F5F5F5F5F5F5F5F5F5F5F5F5F5F5F5F5F5F5F5F5F5F5F5F5F50FF5F5F528F5F5F5F5F5F5F5F5F5F5F5F5F5F5F5F5E2F5F5F5E2EFE2F5F5F5E2F5F5F5F5F5F5F5F5F5F5F5F5F5F5F5F528F5F5F50FF5F5F528F5F5
310
F5F5F5F5F5F5E2E2E2F5F5F5F5F5F5F5F5F5F5F5E2E2F5F5F5F5F5F5F5F5F52828F5F5F5F5F5F5F5F5F5E2F5F5F5E2F5F5F5F5F5F5E2E2F5F5F5F5F5F5F5F5F5F5F5F5F5F5F5F5F5F5F5F5F5F5F5F5F5F5F5F5F5F5F5F5F5F5F5F5F5F5F5F5F5F5F5F5F5F5F5F5F5F5F5F5F5F5F5F5F5F5F5F5F5F5F5F5F5F528F5F5F528F5
310
F5F5F5F5F5F5F5F5F5F5F5F5F5F5F5E2F5F5F5E2EFE2F5F5F5E2F5F5F5F5F5F5F5F5F5F5F5F5F5F5F5F528F5F5F50FF5F5F528F5F5F5F5F5F5F5F5E2E2E2F5F5F5F5F5F5F5F5F5F5F5E2E2F5F5F5F5F5F5F5F5F5F528F5F5F5F5F5F5F5F5F5E2F5F5F5E2F5F5F5F5F5F5E2E2F5F5F5F5F5F5F5F5F5F5F5F5F5F5F5F5F5F5F5
310
F5F5F5F5F5F5F5F5F5F5F5F5F5F5F5F5F5F5F5F5F5F5F5F5F5F5F5F5F5F5F5F5F5F5F5F5F5F5F5F5F5F5F5F5F5F5F50FF5F5F528F5F5F5F5F5F5F5F5F5F5F5F5F5F5F5F5E2F5F5F5E2EFE2F5F5F5E2F5F5F5F5F5F5F5F5F5F5F5F5F5F5F5F528F5F5F50FF5F5F528F5F5F5F5F5F5F5F5E2E2E2F5F5F5F5F5BEF5F5F5F5F5E2
310
E2F5F5F5F5F5F5F5F5F5F528F5F5F5F5F5F5F5F5F5E2F5F5F5E2F5F5F5F5F5F5E2E2F5F5F5F5F5F5F5F5F5F5F5F5F5F5F5F5F5F5F5F5F5F5F5F5F5F5F5F5F5F5F5F5F5F5F5F5F5F5F5F5F5F5F5F5F5F5F5F5F5F5F5F5F5F5F5F5F5F5F5F5F5F5F5F5F5F50F28F5F528F5F5F5F5F5F5F5F5F5F5F5F5F5F5F5F5E2F5F5F5E2EF
310
E2F5F5F5E2F5F5F5F5F5F5F5F5F5F5F5F5F5F5F5F528F5F5F50FF5F52828F5F5F5F5F5F5F5F5E2E2E2F5F5F5F5F5BEF5F5F5F5F5E2E2F5F5F5F5F5F5F5F5F5F528F5F5F5F5F5F5F5F5F5E2F5F5F5E2F5F5F5F5F5F5E2E2F5F5F5F5F5F5F5F5F5F5F5F5F5F5F5F5F5F5F5F5F5F5F5F5F5F5F5F5F5F5F5F5F5F5F5F5F5F5F5F5
310
F5F5F5F5F5F5F5F5F5F5F5F5F5F5F5F5F5F5F5F5F5F5F5F5F5F50FF5F5F528F5F5F5F5F5F5F5F5F5F5F5F5F5F5F5F5E2F5F5F5E2EFE2F5F5F5F5F5F5F5F5F5F5F5F5F5F5F5F5F5F5F5F528F5F5F50FF5F5F528F5F5F5F5F5F5F5F5E2E2E2F5F5F5E2E2BEF5F5F5F5F5E2E2F5F5F5F5F5F5F5F5F5F5F5F5F5F5F5F5F5F5F5E2
310
E2F5F5F5E2F5F5F5F5F5F5E2E2F5F5F5F5F5F5F5F5F5F5F5F5F5F5F5F5F5F5F5F5F5F5F5F5F5F5F5F5F5F5F5F5F5F5F5F5F5F5F5F5F5F5F5F5F5F5F5F5F5F5F5F5F5F5F5F5F5F5F5F5F5F5F5F5F5F528F5F5F528F5F5F5F5F5F5F5F5F5F5F5F5F5F5F5F5F5F5F5F5E2EFE2F5F5F5F5F5F5F5F5F5F5F5F5F5F5F5F5F5F5F5F5
310
28F5F5F50FF5F5F528F5F5F5F5F5F5F5F5E2E2E2E2E2E2E2F5BEE2E2E2E2E2E2E2F5F5F5F5F5F5F5F5F5F5282828282828282828E2E2F5F5F5E2F5F5F5F5F5F5E2E2F5F5F5F5F5F5F5F5F5F5F5F5F5F5F5F5F5F5F5F5F5F5F5F5F5F5F5F5F5F5F5F5F5F5F5F5F5F5F5F5F5F5F5F5F5F5F5F5F5F5F5F5F5F5F5F5F5F5F5F5F5
310
F5F5F5F5F528F5F5F528F5F5F5F5F5F5F5F5F5F5F5F5F5F5F5F5F5F5F5F5E2EFE2F5F5F5F5F5F5F5F5F5F5F5F5F5F5F5F5F5F5F5F528F5F5F50FF5F5F528F5F5F5F5F5F5F5F5E2E2E2F5F5E2E2E2BEE2E2E2E2E2E2E2F5F5F5F5F5F5F5F5F5F5F5F5F5F5E2E2E2E2E2E2F5F5F5F5E2F5F5F5F5F5F5E2E2F5F5F5F5F5F5F5F5
310
F5F5F5F5F5F5F5F5F5F5F5F5F5F5F5F5F5F5F5F5F5F5F5F5F5F5F5F5F5F5F5F5F5F5F5F5F5F5F5F5F5F5F5F5F5F5F5F5F5F5F5F5F5F5F5F5F5F50FF5F5F528F5F5F5F5F5F5F5F5F5F5F5F5F5F5F5F5F5F5F5F5E2EFE2F5F5F5F5F5F5F5F5F5F5F5F5F5F5F5F5F5F5F5F528F5F50F0FF5F5F528F5F5F5F5F5F5F5F5E2E2E2E2
310
E2E2E2E2E2E2E2E2E2E2E2E2F5F5F5F5F5F5F5F5F5F5F5F5F5F5E2E2E2E2F5F5F5F5F5E2E2F5F5F5F5F5F5E2E2F5F5F5F5F5F5F5F5F5F5F5F5F5F5F5F5F5F5F5F5F5F5F5F5F5F5F5F5F5F5F5F5F5F5F5F5F5F5F5F5F5F5F5F5F5F5F5F5F5F5F5F5F5F5F5F5F5F5F5F5F5F5F5F5F5F528F5F5F528F5F5F5F5F5F5F5F5F5F5F5
310
F5F5F5F5F5F5F5F5F5E2EFE2F5F5F5F5F5F5F5F5F5F5F5F5F5F5F5F5F5F5F5F528F5F5F50FF5F5F528F5F5F5F5F5F5F5F5E2E2E2E2E2E2E2E2E2E2E2E2E2E2E2E2F5F5F5F5F5F5F5F5F5F5F5F5F5F528E2F5F5F5F5F5E2E2F5F5F5F5F5F5F5F5E2E2F5F5F5F5F5F5F5F5F5F5F5F5F5F5F5F5F5F5F5F5F5F5F5F5F5F5F5F528
310
F5F5F52828F5F5F5F5F5F528F5F5F5F5F5F5F5F5F5F5F5F5F5F5F5F5F5F5F5F5F5F5F5F5F50FF5F5F528F5F5F5F5F5F5F5F5F5F5F5F5F5F5F5F5F5F5F5F5E2EFE2F5F5F5F5F5F5F5F5F5F5F5F5F5F5F5F5F5F5F5F528F5F5F50FF5F5F528F5F5F5F5F5F5F5F5E2E2E2E2E2E2E2E2E2E2E2E2E2E2E2E2F5F5F5F5F5F5F5F5F5
310
F5F5F5F5F528F5F5F5F5E2E2F5F5F5F5F5F5F5F5F5F5E2E2F5F5F5F5F5F5F5F5F5F5F5F5F5F5F5F5F5F5F5F528282828282828282828282828F5282828282828F52828282828F5F5F5F5F5F5F5F5F5F5F5F5F5F5F5F5F5F5F5F528F5F5F528F5F5F5F5F5F5F5F5F5F5F5F5F5F5F5F5F5F5F5F5E2EFE2F5F5F5F5F5F5F5F5F5
310
F5F5F5F5F5F5F5F5F5F5F528F5F5F50FF5F5F528F5F5F5F5F5F5F5F5E2E2E2F5F5F5F5F5BEF5F5F5E2E2E2E2F5F5F5F5F5F5F5F5F5F5F5F5F52828F5F5F5E2E2F5F5F5F5F5F5F5F5F5F5F5E2E2F5F5F5F5F5F5F5F5F5F5F5F5F5F5F5F5F5F5F5F52828282828F52828F528282828282828F5F52828F5282828F528F5F5F5F5
310
F5F5F5F5F5F5F5F5F5F5F5F5F5F5F5F528F5F5F528F5F5F5F5F5F5F5F5F5F5F5F5F5F5F5F5F5F5F5F5E2EFE2F5F5F5F5F5F5F5F5F5F5F5F5F5F5F5F5F5F5F5F528F5F5F50FF5F5F528F5F5F5F5F5F5F5F5E2E2E2E2E2E2E2E2BEE2E2E2E2E2E2E2F5F5F5F5F5F5F5F5F5F5F5F5F52828E2F5E2F5E2F5F5F5F5F5F5F5F5F5F5
310
F5E2E2F5F5F5F5F5F5F5F5F5F5F5F5F5F5F5F5F5F5F5F528282828282828282828282828282828F5F5F5F5F5F5F5F5F5F5F5F5F5F5F5F5F5F5F5F5F5F5F5F5F5F5F5F5F5F50FF5F5F528F5F5F5F5F5F5F5F5F5F5F5F5F5F5F5F5F5F5F5F5E2EFE2F5F5F5E2F5F5F5F5F5F5F5F5F5F5F5F5F5F5F5F528F5F5F50FF5F5F528F5
310
F5F5F5F5F5F5F5E2E2E2F5F5F5F5F5BEF5F5F5F5F5E2E2F5F5F5F5F5F5F5F5F5F5F5F5F52828F5E2F5F5F5E2E2F5F5F5F5F5F5F5F5F5E2E2F5F5F5F5F5F5F5F5F5F5F5F5F5F5F5F5F5F5F5F52828282828F52828282828F5282828F5F5F5F5F5F5F5F5F5F5F5F5F5F5F5F5F5F5F5F5F5F5F5F5F5F5F5F5F5F5F50FF5F5F528
310
F5F5F5F5F5F5F5F5F5F5F5F5F5F5F5F5E2F5F5F5E2EFE2F5F5F5E2F5F5F5F5F5F5F5F5F5F5F5F5F5F5F5F528F5F5F50FF5F5F528F5F5F5F5F5F5F5F5E2E2E2E2E2E2E2E2BEE2E2E2E2F5E2E2F5F5F5F5F5F5F5F5F5F5F5F5F52828F5E2F5F5F5F5E2E2E2E2E2E2E2E2E2E2E228F5F5F5F5F5F5F5F5F5F5F5F5F5F5F5F5F5F5
310
F5F52828282828282828282828F5F5F5F5F5F5F5F5F5F5F5F5F5F5F5F5F5F5F5F5F5F5F5F5F5F5F5F5F5F5F5F5F5F5F50FF5F5F528F5F5F5F5F5F5F5F5F5F5F5F5F5F5F5F5E2F5F5F5E2EFE2F5F5F5E2F5F5F5F5F5F5F5F5F5F5F5F5F5F5F5F528F5F5F50FF5F5F528F5F5F5F5F5F5F5F5E2E2E2E2E2E2E2E2BEE2E2E2E2E2
310
E2E2F5F5F5F5F5F5F5F5F5F5F5F5F52828F5F5E2F5F5F5F5F5F5F5F5F5F5F5F5F5E228F5F5F5F5F5F5F5F5F5F5F5F5F5F5F5F5F5F5F5F52828282828F5282828F5F5F5F5F5F5F5F5F5F5F5F5F5F5F5F5F5F5F5F5F5F5F5F5F5F5F5F5F5F5F5F5F5F5F5F5F50FF5F5F528F5F5F5F5F5F5F5F5F5F5F5F5F5F5F5F5E2F5F5F5E2
310
EFE2F5F5F5E2F5F5F5F5F5F5F5F5F5F5F5F5F5F5F5F528F5F5F50FF5F5F528F5F5F5F5F5F5F5F5E2E2E2F5F5F5F5F5BEF5F5F5F5F5E2E2F5F5F5F5F5F5F5F5F5F5F5F5F52828F5F5F5E2E2F5F5F5F5F5F5F5F5F5F5F5E228F5F5F5F5F5F5F5F5F5F5F5F5F5F5F5F5F5F5F5F528282828282828282828F5F5F5F5F5F5F5F5F5
310
F5F5F5F5F5F5F5F5F5F5F5F5F5F5F5F5F5F5F5F5F5F5F5F5F5F5F50FF5F5F528F5F5F5F5F5F5F5F5F5F5F5F5F5F5F5F5E2F5F5F5E2EFE2F5F5F5E2F5F5F5F5F5F5F5F5F5F5F5F5F5F5F5F528F5F5F50FF5F5F5282828282828282828E2E2E2E2E2E2E2E2BEE2E2E2E2E2E2E2F5F5F5F5F5F5F5F5F5F5F5F5F52828F5F5F5F5
310
F5E2E2E2E2E2E2E2E2E2E2E2E228F5F5F5F5F5F5F5F5F5F5F5F5F5F5F5F5F5F5F5F5282828282828F528282828282828282828F528F528282828F5F5F5F5F5F5F5F5F5F5F5F5F5F5F5F5F5F5F5F5F5F50FF5F5F528F5F5F5F5F5F5F5F5F5F5F5F5F5F5F5F5E2F5F5F5E2EFE2F5F5F5E2F5F5F5F5F5F5F5F5F5F5F5F5F5F5F5
310
F528F5F5F50FF5F5F5F5F5F5F5F5F5F5F5F528F5F5F5F5F5F5F5BEF5F5F5F5F5F528F5F5F5F5F5F5F5F5F5F5F5F5F52828F5F5F5F5F5F5F5F5F5F5F5F5F5F5F5F5F528F5F5F5F5F5F5F5F5F5F5F5F5F5F5F5F5F5F5F5F5282828282828282828282828282828282828282828282828F5F5F5F5F5F5F5F5F5F5F5F5F5F5F5F5
310
F5F5F5F5F5F50FF5F5F528F5F5F5F5F5F5F5F5F5F5F5F5F5F5F5F5E2F5F5F5E2EFE2F5F5F5E2F5F5F5F5F5F5F5F5F5F5F5F5F5F5F5F528F5F5F50FF5F5F5F5F5F5F5F5F5F5F5F528F5F5F5F5F5F5F5BEF5F5F5F5F5F528F5F5F5F5F5F5F5F5F5F5F5F5F52828282828282828282828282828282828282828F5F5F5F5F5F5F5
310
F5F5F5F5F5F5F5F5F5F5F5F5F52828282828282828282828282828F5F5F5F5F5F5F5F5F5F5F5F5F5F5F5F5F5F5F5F5F5F5F5F5F5F5F5F5F5F5F5F50FF5F5F528F5F5F5F5F5F5F5F5F5F5F5F5F5F5F5F5E2F5F5F5E2EFE2F5F5F5E2F5F5F5F5F5F5F5F5F5F5F5F5F5F5F5F528F5F5F50FF5F5F5F5F5F5F5F5F5F5F5F528F5F5
310
F5F5F5F5F5BEF5F5F5F5F5F528F5F5F5F5F5F5F5F5F5F5F5F5F52828F5F5F5F5F5F5F5F5F5F5F5F5F5F5F5F5F528F5F5F5F5F5F5F5F5F5F5F5F5F5F5F5F5F5F5F5F52828282828282828282828282828F5F5F5F5F5F5F5F5F5F5F5F5F5F5F5F5F5F5F5F5F5F5F5F5F5F5F5F5F5F5F5F50FF5F5F528F5F5F5F5F5F5F5F5F5F5
310
F5F5F5F5F5F5E2F5F5F5E2EFE2F5F5F5E2F5F5F5F5F5F5F5F5F5F5F5F5F5F5F5F528F5F5F50FF5F5F5F5F5F5F5F5F5F5F5F528F5F5F5F5F5F5F5BEF5F5F5F5F5F528F5F5F5F5F5F5F5F5F5F5F5F5F528F5F5F5F5F5F5F5F528F5F5F5F5F5F5F5F5F528F5F5F5F5F5F5F5F5F5F5F5F5F5F5F5F5F5F5F5F52828282828282828
310
28282828282828282828282828282828F5282828F5F5F5F5F5F5F5F5F5F5F5F5F5F5F5F5F5F50FF5F5F528F5F5F5F5F5F5F5F5F5F5F5F5F5F5F5F5E2F5F5F5E2EFE2F5F5F5E2F5F5F5F5F5F5F5F5F5F5F5F5F5F5F5F528F5F5F50FF5F5F5F5F5F5F5F5F5F5F5F528F5F5F5F5F5F5F5F5F5F5F5F5F5F528F5F5F5F5F5F5F5F5
310
F5F5F5F5F528F5F5F5F5F5F5F5F5F5F5F5F5F5F5F5F5F5F528F5F5F5F5F5F5F5F5F5F5F5F5F5F5F5F5F5F5F5F528F52828F5282828282828282828282828282828282828282828282828F5F5F5F5F5F5F528F5F5F5F5F5F5F5F5F50FF5F5F528F5F5F5F5F5F5F5F5F5F5F5F5F5F5F5F5E2F5F5F5E2EFE2F5F5F5E2F5F5F5F5
310
F5F5F5F5F5F5F5F5F5F5F5F528F5F5F50FF5F5F5F5F5F5F5F5F5F5F5F528282828282828282828282828282828F5F5F5F5F5F5F5F5F5F5F5F5F52828282828282828282828282828282828282828F5F5F5F5F5F5F5F5F5F5F5F5F5F5F5F5F52828282828282828282828282828282828282828282828282828282828282828
310
28282828F52828282828282828F5F5F5F50FF5F5F528F5F5F5F5F5F5F5F5F5F5F5F5F5F5F5F5E2F5F5F5E2EFE2F5F5F5E2F5F5F5F5F5F5F5F5F5F5F5F5F5F5F5F528F5F5F50FF5F5F5F5F5F5F5F5F5F5F5F5F5F5F5F5F5F528282828F5F5F5F5F5F5F5F5F5F5F5F5F5F5F5F5F5F5F5F5F5F5F5F5F5F5F5F528F5F5F5F5F5F5
310
F5F5F5F5F5F5F5F5F5F5F5F5F5F5F5F5F5F5F5F5F5F528F528282828282828282828282828282828282828282828282828282828F528282828282828F5282828F528F5F5F5F50FF5F5F528F5F5F5F5F5F5F5F5F5F5F5F5F5F5F5F5E2F5F5F5E2EFE2F5F5F5E2F5F5F5F5F5F5F5F5F5F5F5F5F5F5F5F528F5F5F50FF5F5F5F5
310
F5F5F5F5F5F5F5F5F5F5F5F5F5F5F5F5F5F5F5F5F5F5F5F5F5F5F5F5F5F5F5F5F5F5F5F5F5F5F5F5F5F5F5F5F5F5F5F5F5F5F5F5F5F5F5F5F5F5F5F5F5F5F5F5F5F5F5F5F5F5F5F5F5F5F5F5F5282828282828282828282828282828282828F5F5F5F5F5F5F5F5F5F5F5F5F5F5F5F5F5F5F5F5F5F5F5F5F5F5F5F50FF5F5F5
310
28F5F5F5F5F5F5F5F5F5F5F5F5F5F5F5F5E2F5F5F5E2EFE2F5F5F5E2F5F5F5F5F5F5F5F5F5F5F5F5F5F5F5F528F5F5F50FF5F5F5F5F5F5F5F5F5F5F5F5F5F5F5F5F5F5F5F5F5F5F5F5F5F5F5F5F5F5F5F5F5F5F5F5F5F5F5F5F5F5F5F5F5F5F5F5F5F5F5F5F5F5F5F5F5F5F5F5F5F5F5F5F5F5F5F5F5F5F5F5F5F5F5F5F5F5
310
F5F5F528282828282828282828F528282828282828F5F5F5F5F5F5F5F5F5F5F5F5F5F5F5F5F5F5F5F5F5F5F5F5F5F5F5F50FF5F5F528F5F5F5F5F5F5F5F5F5F5F5F5F5F5F5F5E2F5F5F5E2EFE2F5F5F5E2F5F5F5F5F5F5F5F5F5F5F5F5F5F5F5F528F5F5F50FF5F5F5F5F5F5F5F5F5F5F5F5F5F5F5F5F5F5F5F5F5F5F5F5F5
310
F5F5F5F5F5F5F5F5F5F5F5F5F5F5F5F5F5F5F5F5F5F5F5F5F5F5F5F5F5F5F5F5F5F5F5F5F5F5F5F5F5F5F5F5F5F5F5F5F5F5F5F5F5F5F5F52828282828282828282828282828282828282828282828F5F5F5F5F5F5F5F5F5F5F5F5F5F5F5F5F5F5F5F5F5F5F50FF5F5F528F5F5F5F5F5F5F5F5F5F5F5F5F5F5F5F5E2F5F5F5
310
E2EFE2F5F5F5E2F5F5F5F5F5F5F5F5F5F5F5F5F5F5F5F528F5F5F50FF5F5F5F5F5F5F5F5F5F5F5F5F5F5F5F5F5F5F5F5F5F5F5F5F5F5F5F5F5F5F5F5F5F5F5F5F5F5F5F5F5F5F5F5F5F5F5F5F5F5F5F5F5F5F5F5F5F5F5F528F5F5F5F5F5F5F528F5F5F5F5F5F5F5F5F5F5F5F5282828282828282828282828F5F528282828
310
2828282828F5F5F5F5F5F5F5F5F5F5F5F5F5F5F5F5F5F5F5F5F5F5F50FF5F5F528F5F5F5F5F5F5F5F5F5F5F5F5F5F5F5F5E2F5F5F5E2EFE2F5F5F5F5F5F5F5F5F5F5F5F5F5F5F5F5F5F5F5F528F5F5F50FF5F5F5F5F5F5F5F5F5F5F5F5F5F5F5F5F5F5F5F5F5F5F5F5F5F5F5F5F5F5F5F5F5F5F5F5F5F5F5F5F5F5F5F5F5F5
310
F5F5F5F5F5F5F5F5F5F5F5F5F5F5282828282828282828F5F5F5F5F5F5F5F5F5F5F5F528282828282828282828F52828282828F5F5F5F5F5F5F5F5F5F5F5F5F5F5F5F5F5F5F5F5F5F5F5F5F5F5F5F5F5F50FF5F5F528F5F5F5F5F5F5F5F5F5F5F5F5F5F5F5F5F5F5F5F5E2EFE2F5F5F5F5F5F5F5F5F5F5F5F5F5F5F5F5F5F5
310
F5F528F5F5F50FF5F5F5F5F5F5F5F5F5F5F5F5F5F5F5F5F5F5F5F5F5F5F5F5F5F5F5F5F5F5F5F5F5F5F5F5F5F5F5F5F5F5F5F5F5F5F5F5F5F5F5F5F5F5F5F5F5F5F5F528F52828282828F528F5F5F5F5F5F5F5F5F5F5F5F52828282828282828F528F5F52828F5F5F5F5F5F5F5F5F5F5F5F5F5F5F5F5F5F5F5F5F5F5F5F5F5
310
F5F5F5F5F5F5F50FF5F5F528F5F5F5F5F5F5F5F5F5F5F5F5F5F5F5F5F5F5F5F5E2EFE2F5F5F5F5F5F5F5F5F5F5F5F5F5F5F5F5F5F5F5F528F5F5F50FF5F5F5F5F5F5F5F5F5F5F5F5F5F5F5F5F5F5F5F5F5F5F5F5F5F5F5F5F5F5F5F5F5F5F5F5F5F5F5F5F5F5F5F5F5F5F5F5F5F5F5F5F5F5F5F5F5F5F5F528F5F5F5F5F5F5
310
F528F5F5F5F5F5F5F5F5F5F5F5F528282828282828F5F5F5F5F5F5F5F5F5F5F5F5F5F5F5F5F5F5F5F5F5F5F5F5F5F5F5F5F5F5F5F5F5F5F5F5F5F5F50FF5F5F528F5F5F5F5F5F5F5F5F5F5F5F5F5F5F5F5F5F5F5F5E2EFE2F5F5F5F5F5F5F5F5F5F5F5F5F5F5F5F5F5F5F5F528F5F5F50FF5F5F5F5F5F5F5F5F5F5F5F5F5F5
310
F5F5F5F5F5F5F5F5F5F5F5F5F5F5F5F5F5F5F5F5F5F5F5F5F5F5F5F5E2E2E2E2E2E2E2E2E2E2E2E2E2E2E2E2E2E228F5F5F5F5F5F5F528F5F5F5F5F5F5F5F5F5F5F5F52828282828F52828282828282828282828282828282828282828282828282828F5F5F5F5F5F5F5F5F5F5F5F5F5F50FF5F5F528F5F5F5F5F5F5F5F5F5
310
F5F5F5F5F5F5F5F5F5F5F5E2EFE2F5F5F5F5F5F5F5F5F5F5F5F5F5F5F5F5F5F5F5F528F5F5F50FF5F5F5F5F5F5F5F5F5F5F5F5F5F5F5F5F5F5F5F5F5F5F5F5F5F5F5F5F5F5F5F5F5F5F5F5F5F5F5F5F5F5E2E2E2E2E2E2E2E2E2E2E2E2E2E2E2E2E2E2E2F5F5F5F5F5F5F528F5F5F5F5F5F5F5F5F5F5F5F528282828282828
310
28282828282828282828282828282828282828282828282828F5F5F5F5F5F5F5F5F5F5F5F5F5F50FF5F5F528F5F5F5F5F5F5F5F5F5F5F5F5F5F5F5F5F5F5F5F5E2EFE2F5F5F5F5F5F5F5F5F5F5F5F5F5F5F5F5F5F5F5F528F5F5F50FF5F5F5F5F5F5F5F5F5F5F5F5F5F5F5F5F5F5F5F5F5F5F5F5F5F5F5F5F5F5F5F5F5F5F5
310
F5F5F5F5F5F5E2E2E2E2F5F5E2F5F5F5F5F5F5F5F5F5F5F5E2E2F5F5F5F5F5F5F528F5F5F5F5F5F5F5F5F5F5F5F5282828282828F5F5F5F5F5F5F5F5F5F5F5F5F5F5F5F5F5F5F5F5F5F5F5F5F5F5F5F5F5F5F5F5F5F5F5F5F5F5F5F50FF5F5F528F5F5F5F5F5F5F5F5F5F5F5F5F5F5F5F5F5F5F5F5E2EFE2F5F5F5F5F5F5F5
310
F5F5F5F5F5F5F5F5F5F5F5F5F528F5F5F50FF5F5F5F5F5F5F5F5F5F5F5F5F5F5F5F5F5F5F5F5F5F5F5F5F5F5F5F5F5F5F5F5F5F5F5F5F5F5F5F5F5F5E2E2E2F5E2E2F5F5F5F5F5F5F5F5F5F5F5E2E2E2E2E2E2E2E2E228282828F5F5F5F5F5F5F5F5F5F528F5F5F5F5F5F5F5F5F5F5F5F5F5F5F5F5F5F5F5F5F5F5F5F5F5F5
310
F5F5F5F5F5F5F5F5F5F5F5F5F5F5F5F5F5F50FF5F5F528F5F5F5F5F5F5F5F5F5F5F5F5F5F5F5F5F5F5F5F5E2EFE2F5F5F5F5F5F5F5F5F5F5F5F5F5F5F5F5F5F5F5F528F5F5F50FF5F5F5F5F5F5F5F5F5F5F5F5F5F5F5F5F5F5F5F5F5F5F5F5F5F5F5F5F5F5F5F5F5F5F5F5F5F5F5F5F5F5E2E2E2E2E2E2F5F5F5F5F5F5F5F5
310
F5F5F5E2E2E2E2E2E2E2E2E2E2E2F528F5F5F5F5F5F5F5F5F5F5F5F5F5F5F5F5F5F5F5F5F5F5F5F5F5F5F5F5F5F5F5F5F5F5F5F5F5F5F5F5F5F5F5F5F5F5F5F5F5F5F5F5F5F5F50FF5F5F528F5F5F5F5F5F5F5F5F5F5F5F5F5F5F5F5F5F5F5F5E2EFE2F5F5F5E2F5F5F5F5F5F5F5F5F5F5F5F5F5F5F5F528F5F5F50FF5F5F5
310
F5F5F5F5F5F5F5F5F5F5F5F5F5F5F5F5F5F5F5F5F5F5F5F5F5F5F5F5F5F5F5F5F5F5F5F5F5F5F5E2E2E2E2F5E2F5F5F5F5F5F5F5F5F5F5F5E2E2F5F5F5F5F5F5F5F5F52828F5F5F5F5F5F5F5F5F5F5F5F5F5F5F5F5F5F5F5F5F5F5F5F5F5F5F5F5F5F5F5F5F5F5F5F5F5F5F5F5F5F5F5F5F5F5F5F5F5F5F5F5F5F5F50FF5F5
310
F528F5F5F5F5F5F5F5F5F5F5F5F5F5F5F5F5E2F5F5F5E2EFE2F5F5F5E2F5F5F5F5F5F5F5F5F5F5F5F5F5F5F5F528F5F5F50FF5F5F5F5F5F5F5F5F5F5F5F5F5F5F5F5F5F5F5F5F5F5F5F5F5F5F5F5F5F5F5F5F5F5F5F5F5F5F5F5F5F5E2E2E2E2F5E2F5F5F5F5F5F5F5F5F5F5F5E2E2F5F5F5F5F5F5F5F5F5F528F5F5F5F5F5
310
F5F5F5F5F5F5F5F5F5F5F5F5F5F5F5F5F5F5F5F5F5F5F5F5F5F5F5F5F5F5F5F5F5F5F5F5F5F5F5F5F5F5F5F5F5F5F5F5F5F50FF5F5F528F5F5F5F5F5F5F5F5F5F5F5F5F5F5F5F5E2F5F5F5E2EFE2F5F5F5E2F5F5F5F5F5F5F5F5F5F5F5F5F5F5F5F528F5F5F50FF5F5F5F5F5F5F5F5F5F5F5F5F5F5F5F5F5F5F5F5F5F5F5F5
310
F5F5F5F5F5F5F5F5F5F5F5F5F5F5F5F5F5F5E2E2E2E2F5E2F5F5F5F5F5F5F5F5F5F5F5E2E2F5F5F5F5F5F5F5F5F5F528F5F5F5F5F5F5F5F5F5F5F5F5F5F5F5F5F5F5F5F5F5F5F5F5F5F5F5F5F5F5F5F5F5F5F5F5F5F5F5F5F5F5F5F5F5F5F5F5F5F5F5F5F5F5F50FF5F5F528F5F5F5F5F5F5F5F5F5F5F5F5F5F5F5F5E2F5F5
310
F5E2EFE2F5F5F5E2F5F5F5F5F5F5F5F5F5F5F5F5F5F5F5F528F5F5F50FF5F5F5F5F5F5F5F5F5F5F5F5F5F5F5F5F5F5F5F5F5F5F5F5F5F5F5F5F5F5F5F5F5F5F5F5F5F5F5F5BEBEE2E2E2E2BEE2BEBEBEBEBEBEBEBEBEBEBEE2E2BEBEBE2828282828282828F5F5F5F5F5F5F5F5F5F5F5F5F5F5F5F5F5F5F5F5F5F5F5F5F5F5
310
F5F5F5F5F5F5F5F5F5F5F5F5F5F5F5F5F5F5F5F5F5F5F5F5F5F5F5F5F50FF5F5F528F5F5F5F5F5F5F5F5F5F5F5F5F5F5F5F5E2F5F5F5E2EFE2F5F5F5E2F5F5F5F5F5F5F5F5F5F5F5F5F5F5F5F528F5F5F50FF5F5F5F5F5F5F5F5F5F5F5F5F5F5F5F5F5F5F5F5F5F5F5F5F5F5F5F5F5F5F5F5F5F5F5F5F5F5F5F5F5F5E2E2E2
310
E2F5E2F5F5F5F5F5F5F5F5F5F5F5E2E2F5F5F5F5F5F5F5F5F5F5F5F5F5F5F5F5F5F5F5F5F5F5F5F5F5F5F5F5F5F5F5F5F5F5F5F5F5F5F5F5F5F5F5F5F5F5F5F5F5F5F5F5F5F5F5F5F5F5F5F5F5F5F5F5F5F50FF5F5F528F5F5F5F5F5F5F5F5F5F5F5F5F5F5F5F5E2F5F5F5E2EFE2F5F5F5E2F5F5F5F5F5F5F5F5F5F5F5F5F5
310
F5F5F528F5F5F50FF5F5F5F5F5F5F5F5F5F5F5F5F5F5F5F5F5F5F5F5F5F5F5F5F5F5F5F5F5F5F5F5F5F5F5F5F5F5F5F5F5F5E2E2E2E2F5E2F5F5F5F5F5F5F5F5F5F5F5E2E2F5F5F5F5F5F5F5F5F5F5F5F5F5F5F5F5F5F5F5F5F5F5F5F5F5F5F5F5F5F5F5F5F5F5F5F5F5F5F5F5F5F5F5F5F5F5F5F5F5F5F5F5F5F5F5F5F5F5
310
F5F5F5F5F5F5F5F50FF5F5F528F5F5F5F5F5F5F5F5F5F5F5F5F5F5F5F5E2F5F5F5E2EFE2F5F5F5E2F5F5F5F5F5F5F5F5F5F5F5F5F5F5F5F528F5F5F50FF5F5F5F5F5F5F5F5F5F5F5F5F5F5F5F5F5F5F5F5F5F5F5F5F5F5F5F5F5F5F5F5F5F5F5F5F5F5F5F5F5F5E2E2E2E2E2E2F5F5F5F5F5F5F5F5F5F5F5E2E2F5F5F5F5F5
310
F5F5F5F5F5F5F5F5F5F5F5F5F5F5F5F5F5F5F5F5F5F5F5F5F5F5F5F5F5F5F5F5F5F5F5F5F5F5F5F5F5F5F5F5F5F5F5F5F5F5F5F5F5F5F5F5F5F5F5F5F50FF5F5F528F5F5F5F5F5F5F5F5F5F5F5F5F5F5F5F5E2F5F5F5E2EFE2F5F5F5E2F5F5F5F5F5F5F5F5F5F5F5F5F5F5F5F528F5F5F50FF5F5F5F5F5F5F5F5F5F5F5F5F5
310
F5F5F5F5F5F5F5F5F5F5F5F5F5F5F5F5F5F5F5F5F5F5F5F5F5F5F5F5F5E2E2E2F5E2E2F5F5F5F5F5F5F5F5F5F5F5E2E2F5F5F5F5F5F5F5F5F5F5F5F5F5F5F5F5F5F5F5F5F5F5F5F5F5F5F5F5F5F5F5F5F5F5F5F5F5F5F5F5F5F5F5F5F5F5F5F5F5F5F5F5F5F5F5F5F5F5F5F5F5F5F5F5F5F50FF5F5F528F5F5F5F5F5F5F5F5
310
F5F5F5F5F5F5F5F5E2F5F5F5E2EFE2F5F5F5E2F5F5F5F5F5F5F5F5F5F5F5F5F5F5F5F528F5F5F50FF5F5F5F5F5F5F5F5F5F5F5F5F5F5F5F5F5F5F5F5F5F5F5F5F5F5F5F5F5F5F5F5F5F5F5F5F5F5F5F5F5F5E2E2E2F5F5E2F5F5F5F5F5F5F5F5F5F5F5E2E2F5F5F5F5F5F5F5F5F5F5F5F5F5F5F5F5F5F5F5F5F5F5F5F5F5F5
310
F5F5F5F5F5F5F5F5F5F5F5F5F5F5F5F5F5F5F5F5F5F5F5F5F5F5F5F5F5F5F5F5F5F5F5F5F5F5F5F50FF5F5F528F5F5F5F5F5F5F5F5F5F5F5F5F5F5F5F5E2F5F5F5E2EFE2F5F5F5E2F5F5F5F5F5F5F5F5F5F5F5F5F5F5F5F528F5F5F50FF5F5F5F5F5F5F5F5F5F5F5F5F5F5F5F5F5F5F5F5F5F5F5F5F5F5F5F5F5F5F5F5F5F5
310
F5F5F5F5F5F5F5F5E2E2E2E2E2E2E2E2E2E2E2E2E2E2E2E2E2E2E2F5F5F5F5F5F5F5F5F5F5F5F5F5F5F5F5F5F5F5F5F5F5F5F5F5F5F5F5F5F5F5F5F5F5F5F5F5F5F5F5F5F5F5F5F5F5F5F5F5F5F5F5F5F5F5F5F5F5F5F5F5F5F5F5F5F50FF5F5F528F5F5F5F5F5F5F5F5F5F5F5F5F5F5F5F5E2F5F5F5E2EFE2F5F5F5E2F5F5
310
F5F5F5F5F5F5F5F5F5F5F5F5F5F528F5F5F50FF5F5F5F5F5F5F5F5F5F5F5F5F5F5F5F5F5F5F5F5F5F5F5F5F5F5F5F5F5F5F5F5F5F5F5F5F5F5F5F5F5F5E2E2E2E2E2E2E2E2E2E2E2E2E2E2E2E2E2E2F5F5F5F5F5F5F5F5F5F5F5F5F5F5F5F5F5F5F5F5F5F5F5F5F5F5F5F5F5F5F5F5F5F5F5F5F5F5F5F5F5F5F5F5F5F5F5F5
310
F5F5F5F5F5F5F5F5F5F5F5F5F5F5F5F5F5F5F50FF5F5F528F5F5F5F5F5F5F5F5F5F5F5F5F5F5F5F5E2F5F5F5E2EFE2F5F5F5E2F5F5F5F5F5F5F5F5F5F5F5F5F5F5F5F528F5F5F50FF5F5F5F5F5F5F5F5F5F5F5F5F5F5F5F5F5F5F5F5F5F5F5F5F5F5F5F5F5F5F5F5F5F5F5F5F5F5F5F5F5F5F5F5F5F5F5F5F5F5F5F5F5F5F5
310
F5F5F5F5F5F5F5F5F5F5F5F5F5F5F5F5F5F5F5F5F5F5F5F5F5F5F5F5F5F5F5F5F5F5F5F5F5F5F5F5F5F5F5F5F5F5F5F5F5F5F5F5F5F5F5F5F5F5F5F5F5F5F5F5F5F5F5F5F5F5F5F50FF5F5F528F5F5F5F5F5F5F5F5F5F5F5F5F5F5F5F5E2F5F5F5E2EFE2F5F5F5E2F5F5F5F5F5F5F5F5F5F5F5F5F5F5F5F528F5F5F50FF5F5
310
F5F5F5F5F5F5F5F5F5F5F5F5F5F5F5F5F5F5F5F5F5F5F5F5F5F5F5F5F5F5F5F5F5F5F5F5F5F5F5F5F5F5F5F5F5F5F5F5F5F5F5F5F5F5F5F5F5F5F5F5F5F5F5F5F5F5F5F5F5F5F5F5F5F5F5F5F5F5F5F5F5F5F5F5F5F5F5F5F5F5F5F5F5F5F5F5F5F5F5F5F5F5F5F5F5F5F5F5F5F5F5F5F5F5F5F5F5F5F5F5F5F5F5F5F50FF5
310
F5F528F5F5F5F5F5F5F5F5F5F5F5F5F5F5F5F5E2F5F5F5E2EFE2F5F5F5E2F5F5F5F5F5F5F5F5F5F5F5F5F5F5F5F528F5F5F50FF5F5F5F5F5F5F5F5F5F5F5F5F5F5F5F5F5F5F5F5F5F5F5F5F5F5F5F5F5F5F5F5F5F5F5F5F5F5F5F5F5F5F5F5F5F5F5F5F5F5F5F5F5F5F5F5F5F5F5F5F5F5F5F5F5F5F5F5F5F5F5F5F5F5F5F5
310
F5F5F5F5F5F5F5F5F5F5F5F5F5F5F5F5F5F5F5F5F5F5F5F5F5F5F5F5F5F5F5F5F5F5F5F5F5F5F5F5F5F5F5F5F5F5F5F5F5F5F50FF5F5F528F5F5F5F5F5F5F5F5F5F5F5F5F5F5F5F5E2F5F5F5E2EFE2F5F5F5E2F5F5F5F5F5F5F5F5F5F5F5F5F5F5F5F528F5F5F50FF5F5F5F5F5F5F5F5F5F5F5F5F5F5F5F5F5F5F5F5F5F5F5
310
F5F5F5F5F5F5F5F5F5F5F5F5F5F5F5F5F5F5F5F5F5F5F5F5F5F5F5F5F5F5F5F5F5F5F5F5F5F5F5F5F5F5F5F5F5F5F5F5F5F5F5F5F5F5F5F5F5F5F5F5F5F5F5F5F5F5F5F5F5F5F5F5F5F5F5F5F5F5F5F5F5F5F5F5F5F5F5F5F5F5F5F5F5F5F5F5F5F5F5F5F5F5F5F50FF5F5F528F5F5F5F5F5F5F5F5F5F5F5F5F5F5F5F5E2F5
310
F5F5E2EFE2F5F5F5F5F5F5F5F5F5F5F5F5F5F5F5F5F5F5F5F528F5F5F50F0F0F0F0F0F0F0F0F0F0F0F0F0F0F0F280F0F0F0F0F0F0F0F0F0F0F0F0F0F0F0F0F0F0F0F0F0F0F0F0F0F0F0F0F0F0F0F0F0F0F0F0F0F0F0F0F0F0F0F0F0F0F0F0F0F0F0F0F0F0F0F0F0F0F0F0F0F0F0F0F0F0F0F0F0F0F0F0F0F0F0F0F0F0F0F0F
310
0F0F0F0F0F0F0F0F0F0F0F0F0F0F0F0F0F0F0F0F0F0F0F0F0F0F0F0F0F0F0FF5F5F528F5F5F5F5F5F5F5F5F5F5F5F5F5F5F5F5F5F5F5F5E2EFE2F5F5F5F5F5F5F5F5F5F5F5F5F5F5F5F5F5F5F5F528F5F5F50FF5F5F5F5F52828282828282828282828F5F5F50FF5F5F5F5F5F5F5F5F5F5F5F5F5F5F5F5F5F5F5F5F5F5F5F5
310
F5F5F5F5F5F5F5F5F5F5F5F5F5F5F5F5F5F5F5F5F5F5F5F5F5F5F5F5F5F5F5F5F5F5F5F5F5F5F5F5F5F5F5F5F5F5F5F5F5F5F5F5F5F5F5F5F5F5F5F5F5F5F5F5F5F5F5F5F5F5F5F5F5F5F5F5F5F5F5F5F5F5F5F5F5F5F528F5F5F5F5F5F5F5F5F5F5F5F5F5F5F5F5F5F5F5F5E2EFE2F5F5F5F5F5F5F5F5F5F5F5F5F5F5F5F5
310
F5F5F5F528F5F5F50FF5F5F5F5F52828282828282828282828F5F5280FF5F5F5F5F5F5F5F5F5F5F5F5F5F5F5F5F5F5F5F5F5F5F5F5F5F5F5F5F5F5F5F5F5F5F5F5F5F5F5F5F5F5F5F5F5F5F5F5F5F5F5F5F5F5F5F5F5F5F5F5F5F5F5F5F5F5F5F5F5F5F5F5F5F5F5F5F5F5F5F5F5F5F5F5F5F5F5F5F5F5F5F5F5F5F5F5F5F5
310
F5F5F5F5F5F5F5F5F5F5F5F5F528F5F5F5F5F5F5F5F5F5F5F5F5F5F5F5F5F5F5F5F5E2EFE2F5F5F5F5F5F5F5F5F5F5F5F5F5F5F5F5F5F5F5F528F5F5F50FF5F5F5F5F5F5F5F5F5F5F5F5F5F5F528F5F5F50FF5F5F5F5F5F5F5F5F5F5F5F5F5F5F5F5F5F5F5F5F5F5F5F5F5F5F5F5F5F5F5F5F5F5F5F5F5F5F5F5F5F5F5F5F5
310
F5F5F5F5F5F5F5F5F5F5F5F5F5F5F5F5F5F5F5F5F5F5F5F5F5F5F5F5F5F5F5F5F5F5F5F5F5F5F5F5F5F5F5F5F5F5F5F5F5F5F5F5F5F5F5F5F5F5F5F5F5F5F5F5F5F528F5F5F5F5F5F5F5F5F5F5F5F5F5F5F5F5F5F5F5F5E2EFE2F5F5F5F5F5F5F5F5F5F5F5F5F5F5F5F5F5F5F5F52828282828282828282828282828282828
310
282828282828282828282828282828282828282828282828282828282828282828282828282828282828282828282828282828282828282828282828282828282828282828282828282828282828282828282828282828282828282828282828282828282828282828282828282828282828282828282828F5F5F5F5F5F5F5
310
F5F5F5F5F5F5F5F5F5F5F5F5F5E2EFE2F5F5F5F5F5F5F5F5F5F5F5F5F5F5F5F5F5F5F5F5F5F5F5F5F5F5F5F5F5F5F5F5F5F5F5F5F5F5F5F5F5F5F5F5F5F5F5F5F5F5F5F5F5F5F5F5F5F5F5F5F5F5F5F5F5F5F5F5F5F5F5F5F5F5F5F5F5F5F5F5F5F5F5F5F5F5F5F5F5F5F5F5F5F5F5F5F5F5F5F5F5F5F5F5F5F5F5F5F5F5F5
310
F5F5F5F5F5F5F5F5F5F5F5F5F5F5F5F5F5F5F5F5F5F5F5F5F5F5F5F5F5F5F5F5F5F5F5F5F5F5F5F5F5F5F5F5F5F5F5F5F5F5F5F5F5F5F5F5F5F5F5F5F5F5F5F5F5F5E2EFE2F5F5F5F5F5F5F5F5F5F5F5F5F5F5F5F5F5F5F5F5F5F5F5F5F5F5F5F5F5F5F5F5F5F5F5F5F5F5F5F5F5F5F5F5F5F5F5F5F5F5F5F5F5F5F5F5F5F5
310
F5F5F5F5F5F5F5F5F5F5F5F5F5F5F5F5F5F5F5F5F5F5F5F5F5F5F5F5F5F5F5F5F5F5F5F5F5F5F5F5F5F5F5F5F5F5F5F5F5F5F5F5F5F5F5F5F5F5F5F5F5F5F5F5F5F5F5F5F5F5F5F5F5F5F5F5F5F5F5F5F5F5F5F5F5F5F5F5F5F5F5F5F5F5F5F5F5F5F5F5F5F5F5F5F5F5F5F5F5F5F5F5F5F5F5F5F5F5F5E2EFE2F5F5F5F5F5
310
F5F5F5F5F5F5F5F5F5F5F5F5F5F5F5F5F5F5F5F5F5F5F5F5F5F5F5F5F5F5F5F5F5F5F5F5F5F5F5F5F5F5F5F5F5F5F5F5F5F5F5F5F5F5F5F5F5F5F5F5F5F5F5F5F5F5F5F5F5F5F5F5F5F5F5F5F5F5F5F5F5F5F5F5F5F5F5F5F5F5F5F5F5F5F5F5F5F5F5F5F5F5F5F5F5F5F5F5F5F5F5F5F5F5F5F5F5F5F5F5F5F5F5F5F5F5F5
310
F5F5F5F5F5F5F5F5F5F5F5F5F5F5F5F5F5F5F5F5F5F5F5F5F5F5F5F5F5F5F5F5F5F5F5F5F5F5F5F5F5F5F5F5F5E2EFE2F5F5F5F5F5F5F5F5F5F5F5F5F5F5F5F5F5F5F5F5F5F5F5F5F5F5F5F5F5F5F5F5F5F5F5F5F5F5F5F5F5F5F5F5F5F5F5F5F5F5F5F5F5F5F5F5F5F5F5F5F5F5F5F5F5F5F5F5F5F5F5F5F5F5F5F5F5F5F5
310
F5F5F5F5F5F5F5F5F5F5F5F5F5F5F5F5F5F5F5F5F5F5F5F5F5F5F5F5F5F5F5F5F5F5F5F5F5F5F5F5F5F5F5F5F5F5F5F5F5F5F5F5F5F5F5F5F5F5F5F5F5F5F5F5F5F5F5F5F5F5F5F5F5F5F5F5F5F5F5F5F5F5F5F5F5F5F5F5F5F5F5F5F5F5F5F5F5F5E2EFE2F5F5F5E2F5F5F5F5F5F5F5F5F5F5F5F5F5F5F5F5F5F5F5F5F5F5
310
F5F5F5F5F5F5F5F5F5F5F5F5F5F5F5F5F5F5F5F5F5F5F5F5F5F5F5F5F5F5F5F5F5F5F5F5F5F5F5F5F5F5F5F5F5F5F5F5F5F5F5F5F5F5F5F5F5F5F5F5F5F5F5F5F5F5F5F5F5F5F5F5F5F5F5F5F5F5F5F5F5F5F5F5F5F5F5F5F5F5F5F5F5F5F5F5F5F5F5F5F5F5F5F5F5F5F5F5F5F5F5F5F5F5F5F5F5F5F5F5F5F5F5F5F5F5F5
310
F5F5F5F5F5F5F5F5F5F5F5F5F5F5F5F5F5F5F5F5E2F5F5F5E2EFE2F5F5F5E2F5F5F5F5F5F5F5F5F5F5F5F5F5F5F5F5F5F5F5F5F5F5F5F5F5F5F5F5F5F5F5F5F5F5F5F5F5F5F5F5F5F5F5F5F5F5F5F5F5F5F5F5F5F5F5F5F5F5F5F5F5F5F5F5F5F5F5F5F5F5F5F5F5F5F5F5F5F5F5F5F5F5F5F5F5F5F5F5F5F5F5F5F5F5F5F5
310
F5F5F5F5F5F5F5F5F5F5F5F5F5F5F5F5F5F5F5F5F5F5F5F5F5F5F5F5F5F5F5F5F5F5F5F5F5F5F5F5F5F5F5F5F5F5F5F5F5F5F5F5F5F5F5F5F5F5F5F5F5F5F5F5F5F5F5F5F5F5F5F5F5E2F5F5F5E2EFE2F5F5F5E2F5F5F5F5F5F5F5F5F5F5F5F5F5F5F5F5F5F5F5F5F5F5F5F5F5F5F5F5F5F5F5F5F5F5F5F5F5F5F5F5F5F5F5
310
F5F5F5F5F5F5F5F5F5F5F5F5F5F5F5F5F5F5F5F5F5F5F5F5F5F5F5F5F5F5F5F5F5F5F5F5F5F5F5F5F5F5F5F5F5F5F5F5F5F5F5F5F5F5F5F5F5F5F5F5F5F5F5F5F5F5F5F5F5F5F5F5F5F5F5F5F5F5F5F5F5F5F5F5F5F5F5F5F5F5F5F5F5F5F5F5F5F5F5F5F5F5F5F5F5F5F5F5F5F5F5F5F5F5F5F5F5F5F5F5F5F5F5F5F5F5E2
310
F5F5F5E2EFE2F5F5F5E2F5F5F5F5F5F5F5F5F5F5F5F5F5F5F5F5F5F5F5F5F5F5F5F5F5F5F5F5F5F5F5F5F5F5F5F5F5F5F5F5F5F5F5F5F5F5F5F5F5F5F5F5F5F5F5F5F5F5F5F5F5F5F5F5F5F5F5F5F5F5F5F5F5F5F5F5F5F5F5F5F5F5F5F5F5F5F5F5F5F5F5F5F5F5F5F5F5F5F5F5F5F5F5F5F5F5F5F5F5F5F5F5F5F5F5F5F5
310
F5F5F5F5F5F5F5F5F5F5F5F5F5F5F5F5F5F5F5F5F5F5F5F5F5F5F5F5F5F5F5F5F5F5F5F5F5F5F5F5F5F5F5F5F5F5F5F5F5F5F5F5E2F5F5F5E2EFE2F5F5F5E2F5F5F5F5F5F5F5F5F5F5F5F5F5F5F5F5F5F5F5F5F5F5F5F5F5F5F5F5F5F5F5F5F5F5F5F5F5F5F5F5F5F5F5F5F5F5F5F5F5F5F5F5F5F5F5F5F5F5F5F5F5F5F5F5
310
F5F5F5F5F5F5F5F5F5F5F5F5F5F5F5F5F5F5F5F5F5F5F5F5F5F5F5F5F5F5F5F5F5F5F5F5F5F5F5F5F5F5F5F5F5F5F5F5F5F5F5F5F5F5F5F5F5F5F5F5F5F5F5F5F5F5F5F5F5F5F5F5F5F5F5F5F5F5F5F5F5F5F5F5F5F5F5F5F5F5F5F5F5F5F5F5F5F5F5F5F5F5F5F5F5E2F5F5F5E2EFE2F5F5F5E2F5F5F5F5F5F5F5F5F5F5F5
310
F5F5F5F5F5F5F5F5F5F5F5F5F5F5F5F5F5F5F5F5F5F5F5F5F5F5F5F5F5F5F5F5F5F5F5F5F5F5F5F5F5F5F5F5F5F5F5F5F5F5F5F5F5F5F5F5F5F5F5F5F5F5F5F5F5F5F5F5F5F5F5F5F5F5F5F5F5F5F5F5F5F5F5F5F5F5F5F5F5F5F5F5F5F5F5F5F5F5F5F5F5F5F5F5F5F5F5F5F5F5F5F5F5F5F5F5F5F5F5F5F5F5F5F5F5F5F5
310
F5F5F5F5F5F5F5F5F5F5F5F5F5F5F5F5F5F5F5F5F5F5F5F5F5F5F5F5F5F5F5E2F5F5F5E2EFE2F5F5F5E2F5F5F5F5F5F5F5F5F5F5F5F5F5F5F5F5F5F5F5F5F5F5F5F5F5F5F5F5F5F5F5F5F5F5F5F5F5F5F5F5F5F5F5F5F5F5F5F5F5F5F5F5F5F5F5F5F5F5F5F5F5F5F5F5F5F5F5F5F5F5F5F5F5F5F5F5F5F5F5F5F5F5F5F5F5
310
F5F5F5F5F5F5F5F5F5F5F5F5F5F5F5F5F5F5F5F5F5F5F5F5F5F5F5F5F5F5F5F5F5F5F5F5F5F5F5F5F5F5F5F5F5F5F5F5F5F5F5F5F5F5F5F5F5F5F5F5F5F5F5F5F5F5F5F5F5F5F5F5F5F5F5F5F5F5F5F5F5F5F5F5E2F5F5F5E2EFE2F5F5F5E2E2E2E2E2E2E2E2F5F5F5F5F5F5F5F5F5E2E2E2E2E2E2E2E2E2E2E2E2E2E2E2E2
310
F5F5F5F5F5F5F5F5E2E2E2E2E2E2E2E2E2E2E2E2E2E2E2E2F5F5F5F5F5F5F5F5F5E2E2E2E2E2E2E2E2E2E2E2E2E2E2E2F5F5F5F5F5F5F5F5F5E2E2E2E2E2E2E2E2E2E2E2E2E2E2E2F5F5F5F5F5F5F5F5F5E2E2E2E2E2E2E2E2E2E2E2E2E2E2E2E2F5F5F5F5F5F5F5F5E2E2E2E2E2E2E2E2E2E2E2E2E2E2E2E2F5F5F5F5F5F5
310
F5F5F5E2E2E2E2E2E2E2E2F5F5F5E2EFE2F5F5F5F5F5F5F5F5F5F5F5F5F5F5F5F5F5F5F5F5F5F5F5F5F5F5F5F5F5F5F5F5F5F5F5F5F5F5F5F5F5F5F5F5F5F5F5F5F5F5F5F5F5F5F5F5F5F5F5F5F5F5F5F5F5F5F5F5F5F5F5F5F5F5F5F5F5F5F5F5F5F5F5F5F5F5F5F5F5F5F5F5F5F5F5F5F5F5F5F5F5F5F5F5F5F5F5F5F5F5
310
F5F5F5F5F5F5F5F5F5F5F5F5F5F5F5F5F5F5F5F5F5F5F5F5F5F5F5F5F5F5F5F5F5F5F5F5F5F5F5F5F5F5F5F5F5F5F5F5F5F5F5F5F5F5F5F5F5F5F5F5F5F5F5F5F5F5F5E2EFE2F5F5F5F5F5F5F5F5F5F5F5F5F5F5F5F5F5F5F5F5F5F5F5F5F5F5F5F5F5F5F5F5F5F5F5F5F5F5F5F5F5F5F5F5F5F5F5F5F5F5F5F5F5F5F5F5F5
310
F5F5F5F5F5F5F5F5F5F5F5F5F5F5F5F5F5F5F5F5F5F5F5F5F5F5F5F5F5F5F5F5F5F5F5F5F5F5F5F5F5F5F5F5F5F5F5F5F5F5F5F5F5F5F5F5F5F5F5F5F5F5F5F5F5F5F5F5F5F5F5F5F5F5F5F5F5F5F5F5F5F5F5F5F5F5F5F5F5F5F5F5F5F5F5F5F5F5F5F5F5F5F5F5F5F5F5F5F5F5F5F5F5F5F5F5F5F5F5F5E2EFE2E2E2E2E2
310
E2E2E2E2E2E2E2E2E2E2E2E2E2E2E2E2E2E2E2E2E2E2E2E2E2E2E2E2E2E2E2E2E2E2E2E2E2E2E2E2E2E2E2E2E2E2E2E2E2E2E2E2E2E2E2E2E2E2E2E2E2E2E2E2E2E2E2E2E2E2E2E2E2E2E2E2E2E2E2E2E2E2E2E2E2E2E2E2E2E2E2E2E2E2E2E2E2E2E2E2E2E2E2E2E2E2E2E2E2E2E2E2E2E2E2E2E2E2E2E2E2E2E2E2E2E2E2
310
E2E2E2E2E2E2E2E2E2E2E2E2E2E2E2E2E2E2E2E2E2E2E2E2E2E2E2E2E2E2E2E2E2E2E2E2E2E2E2E2E2E2E2E2E2E2E2EF
  0
ACAD_PROXY_OBJECT
  5
7617
330
760B
100
AcDbProxyObject
 90
      499
 91
      529
 95
   917527
 70
     0
 93
       12
310
5710
 94
        0
1001
ACAD
1000
AcRTDxfName
1000
AMDTEDGESTANDARDISO
  0
ACAD_PROXY_OBJECT
  5
7618
330
760B
100
AcDbProxyObject
 90
      499
 91
      530
 95
   917527
 70
     0
 93
       96
310
572A0E80A0280A0280A0280F
 94
        0
1001
ACAD
1000
AcRTDxfName
1000
ACMSURFSTANDARDISO
  0
ACAD_PROXY_OBJECT
  5
7619
330
760B
100
AcDbProxyObject
 90
      499
 91
      531
 95
   917527
 70
     0
 93
      272
310
5710E4050140501405014050140501405014050140D01405012C0000000000000040
340
7622
 94
        0
1001
ACAD
1000
AcRTDxfName
1000
ACMFCFSTANDARDISO
  0
ACAD_PROXY_OBJECT
  5
761A
330
760B
100
AcDbProxyObject
 90
      499
 91
      532
 95
   917527
 70
     0
 93
      496
310
5728666666666667A67E199999999999E99FD224050140501405014050140501405014050140501405014050140501405014050140501405014050140501
340
7623
 94
        0
1001
ACAD
1000
AcRTDxfName
1000
ACMWELDSTANDARDISO
  0
ACAD_PROXY_OBJECT
  5
761B
330
760B
100
AcDbProxyObject
 90
      499
 91
      533
 95
   917527
 70
     0
 93
       10
310
5728
 94
        0
1001
ACAD
1000
AcRTDxfName
1000
ACMIDSTANDARDISO
  0
ACAD_PROXY_OBJECT
  5
761C
330
760B
100
AcDbProxyObject
 90
      499
 91
      534
 95
   917527
 70
     0
 93
      223
310
572290EA22A7D90F49F8000000000000108140000000000000420204
340
7624
340
7625
 94
        0
1001
ACAD
1000
AcRTDxfName
1000
ACMDATUMSTANDARDISO
  0
ACAD_PROXY_OBJECT
  5
761D
330
760B
100
AcDbProxyObject
 90
      499
 91
      535
 95
   917527
 70
     0
 93
    12255
310
5710E411255115350141236025B690140501406901000000000000091013347454E545241434F2C4A504E2C302C8D8096DA2C47454E54524154582C25732C2847454E4D53472067656E647767203232322940690120281A8AA2CA0282484A4BE52028120280A0320200000000000012202668E8A9CA8A482869E5894A09C58
310
605921292F94588E8A9CA8A482A8B0584AE658508E8A9C9AA68E40CECADCC8EECE406464665280D202405044E414D454050496BC914F4051C40640A80000000000004E404CD1D15395149050D3CB1294138B0C0B25AF2453CB11D15395149055160B095CCB0A11D1539354D1C819D95B991DD9C80C8C8D8A50190B3D424C4F
310
434B3A4E414D4540480A0A888AA686A480A0921C12D7C80A3A80C81D0000000000100A28099A3A2A72A2920A1A79625282716181648704B5F1623A2A72A2920AA2C1612B9961423A2A726A9A39033B2B7323BB39019189B94A034809014214D51053911054911014122D2E29A50147501904A000000000000125013347454E
310
545241434F2C4A504E2C302C8B4B8A692C47454E54524154582C25732C2847454E4D53472067656E64776720323138294069012028426A0AA22A924A0A62028246EF4BDFA028EA0320B40000000000001CA02668E8A9CA8A482869E5894A09C5860591BBD2F7E588E8A9CA8A482A8B0584AE658508E8A9C9AA68E40CECADCC
310
8EECE406464625280D202405044E4F544540504928D8B4C4051D40641A80000000000003E404CD1D15395149050D3CB1294138B0C0B24A362D30B11D15395149055160B095CCB0A11D1539354D1C819D95B991DD9C80C8C8D4A501240480A0CAC8A9C889EA480A0D9BBDBB81BD6080A3A80C83D00000000000007C809AA3A2
310
A72A2920A1A79625282716181666EF6EE06F581623A2A72A2920AA2C1612B9961423A2A726A9A39033B2B7323BB39019191A14A0248090141911154D0D48C90141A43825AF880C90147501908A000000000020145013447454E545241434F2C4A504E2C302C90E096BE20322C47454E54524154582C25732C2847454E4D534
310
72067656E6477672033362940490120284A9AA20A72220A922192028345A5C53490192028EA03213400000000000024A026A8E8A9CA8A482869E5894A09C586059169714D24064588E8A9CA8A482A8B0584AE658508E8A9C9AA68E40CECADCC8EECE4064646052809202405094D4154455249414C32405068DDE97BF203240
310
51D40642A8713D0AD7A37045404D11D15395149050D3CB1294138B0C0B2377A5EFC80C8B11D15395149055160B095CCB0A11D1539354D1C819D95B991DD9C80D0C0A501240480A089A82A6A680A091D7F2F9480A3A80A0485A068100000000000007C809923A2A72A2920A1A796252827161816475FCBE51623A2A72A2920A
310
A2C1612B9961423A2A726A9A39033B2B7323BB3901A1914A024809014154149250D150141226FE29A501475014090C409020000000000000F9013247454E545241434F2C4A504E2C302C89BF8A692C47454E54524154582C25732C2847454E4D53472067656E6477672034332940490120281A224A6A02824850CB202028EA
310
028121A81A040000000000001F202648E8A9CA8A482869E5894A09C58605921432C80588E8A9CA8A482A8B0584AE658508E8A9C9AA68E40CECADCC8EECE406868528092024050E445020000000000000510107004060000000000000F9000000000000003E4041CF4F125511534F9014060000000000000F90000000000000
310
03E4041CF4F125511534F9014060000000000000D100000000000000344041CF4F125511534F9014060000000000000D100000000000000344041CF4F125511534F90140A4040000000000003E400000000000000F901073D3C4954454D3E405063D3C5154593E4050180000000000003E400000000000000F901073D3C495
310
4454D3E406404000000000000003E400000000000000F902888000000000000208081A0881A068120480A032208521122080D21480D211480A1485214852050000000000003C2FC000000000000F0BF4050241CCDCCCCCCCCCCEC3F3373333333333B0FC0000000000000C40480D0590140D04416406800000000000018808
310
120480A026280A03
340
0
340
0
 94
        0
1001
ACAD
1000
AcRTDxfName
1000
ACMBOMSTANDARDISO
  0
ACAD_PROXY_OBJECT
  5
761E
330
760B
100
AcDbProxyObject
 90
      499
 91
      536
 95
   917527
 70
     0
 93
      864
310
5704000000000000144048CF4F11115510525317D3105091530F880A0F11115510525317D05094D4D0D053114F8A51141C9A9999999999B93F26A666666666724FC000000000000E03F4000000000000004000000000000005100000000000000244041C0000000000001440
340
DB
340
7616
 94
        0
1001
ACAD
1000
AcRTDxfName
1000
ACMDETAILSTANDARDISO
  0
ACAD_PROXY_OBJECT
  5
761F
330
760B
100
AcDbProxyObject
 90
      499
 91
      537
 95
   917527
 70
     0
 93
      745
310
5700B00000000000002880959E9E29A2A1AA24A7A72FA620A122A62FA324A929AA1F169E29A2A1AA24A7A72FA620A122A62FA620A9AA1F00000000000004880FF41C88A0E0000000000001220000000000000028800000000000000A2000
340
F2
340
7616
 94
        0
1001
ACAD
1000
AcRTDxfName
1000
ACMSECTIONSTANDARDISO
  0
ACAD_PROXY_OBJECT
  5
7620
330
760B
100
AcDbProxyObject
 90
      499
 91
      538
 95
   917527
 70
     0
 93
      151
310
57280000000000000840A3D0A5723F0BD1F200
 94
        0
1001
ACAD
1000
AcRTDxfName
1000
ACMCENTERLINESTANDARDISO
  0
ACAD_PROXY_OBJECT
  5
7621
330
760B
100
AcDbProxyObject
 90
      499
 91
      539
 95
   917527
 70
     0
 93
     8042
310
571084050B90142A4050240509C3DDCCDFDAB0C420314043A013D2525633C486F6C653A63746469613E2078203C486F6C653A637464657074683E20555C503C696628657175616C28486F6C653A7461707065642C223022292C22252563222C486F6C653A6E6F6D696E616C202220782022293E3C696628657175616C28486
310
F6C653A7461707065642C223022292C486F6C653A6469612C486F6C653A706974636864657363293E3C696628657175616C28486F6C653A7461707065642C223122292C22207820222C2222293E3C696628657175616C28486F6C653A7461707065642C223122292C486F6C653A74617064657074682C2222293E203C69662
310
8657175616C28486F6C653A7465726D696E6174696F6E2C223022292C22202F20222C2222293E3C696628657175616C28486F6C653A7465726D696E6174696F6E2C223022292C486F6C653A64657074682C2222293E4064050340509C3DDCCDFDAB0C420314043B013D2525633C486F6C653A63746469613E2078203C486F6
310
C653A6374616E676C653E2525645C503C696628657175616C28486F6C653A7461707065642C223022292C22252563222C486F6C653A6E6F6D696E616C202220782022293E3C696628657175616C28486F6C653A7461707065642C223022292C486F6C653A6469612C486F6C653A706974636864657363293E3C69662865717
310
5616C28486F6C653A7461707065642C223122292C22207820222C2222293E3C696628657175616C28486F6C653A7461707065642C223122292C486F6C653A74617064657074682C2222293E203C696628657175616C28486F6C653A7465726D696E6174696F6E2C223022292C22202F20222C2222293E3C696628657175616
310
C28486F6C653A7465726D696E6174696F6E2C223022292C486F6C653A64657074682C2222293E4064050140509C3DDCCDFDAB0C4203140416013D3C696628657175616C28486F6C653A7461707065642C223022292C22252563222C486F6C653A6E6F6D696E616C202220782022293E3C696628657175616C28486F6C653A7
310
461707065642C223022292C486F6C653A6469612C486F6C653A706974636864657363293E3C696628657175616C28486F6C653A7461707065642C223122292C22207820222C2222293E3C696628657175616C28486F6C653A7461707065642C223122292C486F6C653A74617064657074682C2222293E203C6966286571756
310
16C28486F6C653A7465726D696E6174696F6E2C223022292C22202F20222C2222293E3C696628657175616C28486F6C653A7465726D696E6174696F6E2C223022292C486F6C653A64657074682C2222293E4064051E40509C3DDCCDFDAB0C420314050C3D3C535444503A444553433E40640515AB5
 94
        0
1001
ACAD
1000
AcRTDxfName
1000
ACMNOTESTANDARDISO
  0
ACAD_PROXY_OBJECT
  5
7627
330
760B
100
AcDbProxyObject
 90
      499
 91
      540
 95
   917527
 70
     0
 93
       20
310
571014
340
760C
 94
        0
1001
ACAD
1000
AcRTDxfName
1000
ACAMGLAYSTD
  0
ACAD_PROXY_OBJECT
  5
7628
330
760B
100
AcDbProxyObject
 90
      499
 91
      541
 95
   917527
 70
     0
 93
      250
310
571020000000000000A1000000000000002440408F0F9023C3E409A0DCFFFF86
340
7629
340
0
340
0
340
762A
340
762B
340
762C
340
762D
340
762E
340
7633
340
0
 94
        0
1001
ACAD
1000
AcRTDxfName
1000
ACAMGDIMSTD
  0
ACAD_PROXY_OBJECT
  5
7634
330
760B
100
AcDbProxyObject
 90
      499
 91
      542
 95
   917527
 70
     0
 93
    13131
310
5711A003FFFFFFFD03030003000000000000031000903030003000000000000031000805098DC0955782CCD8BDC4014E11D15395149050D3CB1294138B0C0B23702555E0B3362F710B11D15395149055160B095CCB0A11D1539354D1C819D95B991A5B5E880CCC0A78000C0000000000000000000000000000000100000000
310
0000031010240000000000000C4040A0141E322B0EC3337B64053647454E545241434F2C4A504E2C302C8C8AC3B0CCDED92C47454E54524154582C25732C2847454E4D53472067656E64696D7A20333129E00030000000000000000000000000000000040000000000000C40409000000000000031010290D4411140903411
310
0541D0C4350F4050E44D03449074510F000141232D24D7C053247454E545241434F2C4A504E2C302C8CB4935F2C47454E54524154582C25732C2847454E4D53472067656E64696D7A20312900010105002214000281464500A608E8A9CA8A482869E5894A09C5860591914588E8A9CA8A482A8B0584AE658508E8A9C9AA68E
310
40CECADCC8D2DAF4406452029F9E9E27B934B3B4B71F1E24A31427A91424A9A12620A7259427B934B3B4B7149624A9A12620A7259424B73232BC149496111116111711149F1E24B73232BC1F00808200111A000140560052F47454E545241434F2C4A504E2C302C582C47454E54524154582C25732C2847454E4D534720676
310
56E64696D7A20332900010100002054000280AC80A5E8E8A9CA8A482869E5894A09C586058B2588E8A9CA8A482A8B0584AE658508E8A9C9AA68E40CECADCC8D2DAF4406852000202000040E800050152014BD1D15395149050D3CB1294138B0C0B148B11D15395149055160B095CCB0A11D1539354D1C819D95B991A5B5E88
310
0D8A400040400008250000A0507A6029823A2A72A2920A1A79625282716181641E99623A2A72A2920AA2C1612B9961423A2A726A9A39033B2B73234B6BD101B948000808180105A000140A0F4C053047454E545241434F2C4A504E2C302C83D32C47454E54524154582C25732C2847454E4D53472067656E64696D7A203829
310
000101010020F400028248704B5F00A668E8A9CA8A482869E5894A09C58605921C12D7C588E8A9CA8A482A8B0584AE658508E8A9C9AA68E40CECADCC8D2DAF440646052000200080043280005048B4B8A69014CD1D15395149050D3CB1294138B0C0B22D2E29A4B11D15395149055160B095CCB0A11D1539354D1C819D95B9
310
91A5B5E880C8C4A4000400100086D0000A09196926BE029923A2A72A2920A1A796252827161816465A49AF9623A2A72A2920AA2C1612B9961423A2A726A9A39033B2B73234B6BD10189480A026202020A0043E80005048D8096DA014CD1D15395149050D3CB1294138B0C0B236025B68B11D15395149055160B095CCB0A11D
310
1539354D1C819D95B991A5B5E880C4D0A4000404140080D0000A0F65BB87BD5F717A029B23A2A72A2920A1A796252827161816596EE1EF57DC5E9623A2A72A2920AA2C1612B9961423A2A726A9A39033B2B73234B6BD10189A94800080828010EA0001426322ACB770F7ABEE2F4053847454E545241434F2C4A504E2C302C8
310
C8AB2DDC3DEAFB8BD2C47454E54524154582C25732C2847454E4D53472067656E64696D7A2031372900010105002274000281464500A628E8A9CA8A482869E5894A09C5860591914588E8A9CA8A482A8B0584AE658508E8A9C9AA68E40CECADCC8D2DAF440626C52000202080044A8000504909497CA014CD1D15395149050
310
D3CB1294138B0C0B242525F28B11D15395149055160B095CCB0A11D1539354D1C819D95B991A5B5E880C4E4A400040418008A521E000000000000001CA040C00000000000034408080000000000006881010000000000000D102040000000000001A2040800000000000034408180000000000007281030000000000001250
310
20600000000004028A040000000000000034408000000000000004881000000000000000D102000000000000001A204000000000000003440818000000000000508143C0000000000000039408180000000000006881030000000000000D102060000000000001A2040C000000000000344081800000000000068810300000
310
00000000E5020600000000000024A040C000000000080514080000000000000068810000000000000009102000000000000001A2040000000000000034408180000000000006881030000000000000A10283A2000000087800000204000000818000002080000008280000020E00000080A24000001E
340
0
340
0
340
0
340
0
 94
        0
1001
ACAD
1000
AcRTDxfName
1000
ACAMGHOLECHARTSTDISO
  0
ACAD_PROXY_OBJECT
  5
7635
330
760B
100
AcDbProxyObject
 90
      499
 91
      543
 95
   917527
 70
     0
 93
     6922
310
5719740D254D3D0649534F5F4133429254D3D7D5125513115051349534F5F42525F5265766973696F6E6C69737446111413478342028323937783834316D6D2920421254D3D7D04D1E0D11141327835202835393478323130326D6D29421254D3D7D04C9E0D51141347839202832393778313839326D6D29421254D3D7D04D
310
1E0E51141337837202834323078323038306D6D29421254D3D7D04CDE0DD1141347838202832393778313638326D6D29421254D3D7D04D1E0E11141327834202835393478313638326D6D29421254D3D7D04C9E0D10E41312028353934783834316D6D29419254D3D7D04C51141347837202832393778313437316D6D29421
310
254D3D7D04D1E0DD1141347836202832393778313236316D6D29421254D3D7D04D1E0D91141347835202832393778313035316D6D29421254D3D7D04D1E0D5104130202838343078313138396D6D2920419254D3D7D04C10E41332028323937783432306D6D29419254D3D7D04CD1141327833202835393478313236316D6D
310
29421254D3D7D04C9E0CD10413478332028323937783633306D6D29421254D3D7D04D1E0CD1141337834202834323078313138396D6D29421254D3D7D04CDE0D11141337836202834323078313738336D6D29421254D3D7D04CDE0D91141337835202834323078313438366D6D29421254D3D7D04CDE0D50E4132202834323
310
0783539346D6D29419254D3D7D04C910413378332028343230783839316D6D29421254D3D7D04CDE0CD0E41342028323937783231306D6D29419254D3D7D04D1124130783220283131383978313638326D6D29421254D3D7D04C1E0C9124130783320283131383978323532336D6D29421254D3D7D04C1E0CD114131783420
310
2838343178323337386D6D29421254D3D7D04C5E0D11141317833202838343178313738336D6D29421254D3D7D04C5E0CD02431254D3C82557247A25E4C81050A49534F5F5449544C4541431254D3C82557247A25E4C81090A49534F5F5449544C45424110B979A97F0D8BDC45F424C5F44D254D3D7D09317D4995D9A5CDA5
310
BDB9B1A5CDD10B979A97F0D8BDC45F544C5F44D254D3D7D51317D4995D9A5CDA5BDB9B1A5CDD10B979A97F0D8BDC45F42525F44D254D3D7D09497D4995D9A5CDA5BDB9B1A5CDD10B979A97F0D8BDC45F54525F44D254D3D7D51497D4995D9A5CDA5BDB9B1A5CDD31
 94
        0
1001
ACAD
1000
AcRTDxfName
1000
ACAMGTITLESTD
  0
ENDSEC
  0
EOF
