  0
SECTION
  2
HEADER
  9
$ACADVER
  1
AC1014
  9
$ACADMAINTVER
 70
     9
  9
$DWGCODEPAGE
  3
ANSI_932
  9
$INSBASE
 10
0.0
 20
0.0
 30
0.0
  9
$EXTMIN
 10
77.28318691889945
 20
42.96270197438832
 30
-0.00000001
  9
$EXTMAX
 10
923.6821315111866
 20
939.9835979990124
 30
0.00000001
  9
$LIMMIN
 10
0.0
 20
0.0
  9
$LIMMAX
 10
1499.999994
 20
999.9999999999998
  9
$ORTHOMODE
 70
     0
  9
$REGENMODE
 70
     1
  9
$FILLMODE
 70
     1
  9
$QTEXTMODE
 70
     0
  9
$MIRRTEXT
 70
     0
  9
$DRAGMODE
 70
     2
  9
$LTSCALE
 40
5.0
  9
$OSMODE
 70
    37
  9
$ATTMODE
 70
     1
  9
$TEXTSIZE
 40
3.0
  9
$TRACEWID
 40
0.05
  9
$TEXTSTYLE
  7
K
  9
$CLAYER
  8
SUNPOU
  9
$CELTYPE
  6
BYLAYER
  9
$CECOLOR
 62
   256
  9
$CELTSCALE
 40
1.0
  9
$DELOBJ
 70
     1
  9
$DISPSILH
 70
     0
  9
$DIMSCALE
 40
5.0
  9
$DIMASZ
 40
3.0
  9
$DIMEXO
 40
1.0
  9
$DIMDLI
 40
6.0
  9
$DIMRND
 40
0.0
  9
$DIMDLE
 40
0.0
  9
$DIMEXE
 40
1.0
  9
$DIMTP
 40
0.01
  9
$DIMTM
 40
0.02
  9
$DIMTXT
 40
3.0
  9
$DIMCEN
 40
0.0
  9
$DIMTSZ
 40
0.0
  9
$DIMTOL
 70
     0
  9
$DIMLIM
 70
     0
  9
$DIMTIH
 70
     0
  9
$DIMTOH
 70
     0
  9
$DIMSE1
 70
     0
  9
$DIMSE2
 70
     0
  9
$DIMTAD
 70
     3
  9
$DIMZIN
 70
     8
  9
$DIMBLK
  1
ARROW
  9
$DIMASO
 70
     1
  9
$DIMSHO
 70
     0
  9
$DIMPOST
  1

  9
$DIMAPOST
  1

  9
$DIMALT
 70
     0
  9
$DIMALTD
 70
     2
  9
$DIMALTF
 40
25.4
  9
$DIMLFAC
 40
1.0
  9
$DIMTOFL
 70
     1
  9
$DIMTVP
 40
0.0
  9
$DIMTIX
 70
     1
  9
$DIMSOXD
 70
     0
  9
$DIMSAH
 70
     1
  9
$DIMBLK1
  1
ARROW
  9
$DIMBLK2
  1
ARROW
  9
$DIMSTYLE
  2
IMCADLT
  9
$DIMCLRD
 70
     0
  9
$DIMCLRE
 70
     0
  9
$DIMCLRT
 70
     0
  9
$DIMTFAC
 40
0.45
  9
$DIMGAP
 40
1.5
  9
$DIMJUST
 70
     0
  9
$DIMSD1
 70
     0
  9
$DIMSD2
 70
     0
  9
$DIMTOLJ
 70
     1
  9
$DIMTZIN
 70
     8
  9
$DIMALTZ
 70
     0
  9
$DIMALTTZ
 70
     0
  9
$DIMFIT
 70
     3
  9
$DIMUPT
 70
     1
  9
$DIMUNIT
 70
     2
  9
$DIMDEC
 70
     2
  9
$DIMTDEC
 70
     2
  9
$DIMALTU
 70
     2
  9
$DIMALTTD
 70
     2
  9
$DIMTXSTY
  7
STANDARD
  9
$DIMAUNIT
 70
     0
  9
$LUNITS
 70
     2
  9
$LUPREC
 70
     2
  9
$SKETCHINC
 40
0.1
  9
$FILLETRAD
 40
2.5
  9
$AUNITS
 70
     0
  9
$AUPREC
 70
     2
  9
$MENU
  1
STDR12J
  9
$ELEVATION
 40
0.0
  9
$PELEVATION
 40
0.0
  9
$THICKNESS
 40
0.0
  9
$LIMCHECK
 70
     0
  9
$BLIPMODE
 70
     0
  9
$CHAMFERA
 40
0.0
  9
$CHAMFERB
 40
0.0
  9
$CHAMFERC
 40
0.0
  9
$CHAMFERD
 40
0.0
  9
$SKPOLY
 70
     0
  9
$TDCREATE
 40
2452041.375161331
  9
$TDUPDATE
 40
2453133.653999930
  9
$TDINDWG
 40
0.1151222454
  9
$TDUSRTIMER
 40
0.1151222454
  9
$USRTIMER
 70
     1
  9
$ANGBASE
 50
0.0
  9
$ANGDIR
 70
     0
  9
$PDMODE
 70
     3
  9
$PDSIZE
 40
0.0
  9
$PLINEWID
 40
0.0
  9
$COORDS
 70
     1
  9
$SPLFRAME
 70
     0
  9
$SPLINETYPE
 70
     6
  9
$SPLINESEGS
 70
     8
  9
$ATTDIA
 70
     0
  9
$ATTREQ
 70
     1
  9
$HANDLING
 70
 10241
  9
$HANDSEED
  5
7AFA
  9
$SURFTAB1
 70
     6
  9
$SURFTAB2
 70
     6
  9
$SURFTYPE
 70
     6
  9
$SURFU
 70
     6
  9
$SURFV
 70
     6
  9
$UCSNAME
  2

  9
$UCSORG
 10
0.0
 20
0.0
 30
0.0
  9
$UCSXDIR
 10
1.0
 20
0.0
 30
0.0
  9
$UCSYDIR
 10
0.0
 20
1.0
 30
0.0
  9
$PUCSNAME
  2

  9
$PUCSORG
 10
0.0
 20
0.0
 30
0.0
  9
$PUCSXDIR
 10
1.0
 20
0.0
 30
0.0
  9
$PUCSYDIR
 10
0.0
 20
1.0
 30
0.0
  9
$USERI1
 70
     3
  9
$USERI2
 70
     1
  9
$USERI3
 70
     1
  9
$USERI4
 70
     1
  9
$USERI5
 70
     1
  9
$USERR1
 40
1.0
  9
$USERR2
 40
3.0
  9
$USERR3
 40
3.0
  9
$USERR4
 40
3.0
  9
$USERR5
 40
10.0
  9
$WORLDVIEW
 70
     1
  9
$SHADEDGE
 70
     3
  9
$SHADEDIF
 70
    70
  9
$TILEMODE
 70
     0
  9
$MAXACTVP
 70
    16
  9
$PINSBASE
 10
0.0
 20
0.0
 30
0.0
  9
$PLIMCHECK
 70
     0
  9
$PEXTMIN
 10
0.0
 20
0.0
 30
0.0
  9
$PEXTMAX
 10
419.9999983199999
 20
296.9999999999999
 30
0.0
  9
$PLIMMIN
 10
-7.10697691147189
 20
-7.097611858311501
  9
$PLIMMAX
 10
433.0776435385851
 20
304.1377033203973
  9
$UNITMODE
 70
     0
  9
$VISRETAIN
 70
     0
  9
$PLINEGEN
 70
     0
  9
$PSLTSCALE
 70
     0
  9
$TREEDEPTH
 70
     0
  9
$PICKSTYLE
 70
     1
  9
$CMLSTYLE
  2
STANDARD
  9
$CMLJUST
 70
     0
  9
$CMLSCALE
 40
1.0
  9
$PROXYGRAPHICS
 70
     1
  9
$MEASUREMENT
 70
     1
  0
ENDSEC
  0
SECTION
  2
CLASSES
  0
CLASS
  1
LWPOLYLINE
  2
AcDbPolyline
  3
AutoCAD 2000
 90
        0
280
     0
281
     1
  0
CLASS
  1
HATCH
  2
AcDbHatch
  3
AutoCAD 2000
 90
        0
280
     0
281
     1
  0
CLASS
  1
DICTIONARYVAR
  2
AcDbDictionaryVar
  3
AutoCAD 2000
 90
        0
280
     0
281
     0
  0
CLASS
  1
ACDBDICTIONARYWDFLT
  2
AcDbDictionaryWithDefault
  3
AutoCAD 2000
 90
        0
280
     0
281
     0
  0
CLASS
  1
ACDBPLACEHOLDER
  2
AcDbPlaceHolder
  3
AutoCAD 2000
 90
        0
280
     0
281
     0
  0
CLASS
  1
LAYOUT
  2
AcDbLayout
  3
AutoCAD 2000
 90
        0
280
     0
281
     0
  0
CLASS
  1
LONG_TRANSACTION
  2
AcDbLongTransaction
  3
AutoCAD 2000
 90
        0
280
     0
281
     0
  0
CLASS
  1
LWPOLYLINE
  2
AcDbPolyline
  3
AutoCAD 2000
 90
        0
280
     0
281
     1
  0
CLASS
  1
HATCH
  2
AcDbHatch
  3
AutoCAD 2000
 90
        0
280
     0
281
     1
  0
CLASS
  1
XRECORD
  2
AcDbXrecord
  3
AutoCAD 2000
 90
        0
280
     0
281
     0
  0
ENDSEC
  0
SECTION
  2
TABLES
  0
TABLE
  2
VPORT
  5
CF
330
0
100
AcDbSymbolTable
 70
     9
  0
VPORT
  5
F5
330
CF
100
AcDbSymbolTableRecord
100
AcDbViewportTableRecord
  2
2
 70
     0
 10
0.5
 20
0.0
 11
1.0
 21
1.0
 12
0.9240312421264802
 22
1.052650975462766
 13
0.0
 23
0.0
 14
1.0
 24
1.0
 15
10.0
 25
10.0
 16
0.0
 26
0.0
 36
1.0
 17
0.0
 27
0.0
 37
0.0
 40
2.105301950925533
 41
0.8778135048231511
 42
50.0
 43
0.0
 44
0.0
 50
0.0
 51
0.0
 71
     0
 72
   500
 73
     1
 74
     1
 75
     0
 76
     0
 77
     0
 78
     0
  0
VPORT
  5
F6
330
CF
100
AcDbSymbolTableRecord
100
AcDbViewportTableRecord
  2
2
 70
     0
 10
0.0
 20
0.0
 11
0.5
 21
1.0
 12
0.9240312421264802
 22
1.052650975462766
 13
0.0
 23
0.0
 14
1.0
 24
1.0
 15
10.0
 25
10.0
 16
0.0
 26
0.0
 36
1.0
 17
0.0
 27
0.0
 37
0.0
 40
2.105301950925533
 41
0.8778135048231511
 42
50.0
 43
0.0
 44
0.0
 50
0.0
 51
0.0
 71
     0
 72
   500
 73
     1
 74
     1
 75
     0
 76
     0
 77
     0
 78
     0
  0
VPORT
  5
F7
330
CF
100
AcDbSymbolTableRecord
100
AcDbViewportTableRecord
  2
3
 70
     0
 10
0.0
 20
0.5
 11
1.0
 21
1.0
 12
2.832169994473273
 22
1.052650975462766
 13
0.0
 23
0.0
 14
1.0
 24
1.0
 15
10.0
 25
10.0
 16
0.0
 26
0.0
 36
1.0
 17
0.0
 27
0.0
 37
0.0
 40
2.105301950925533
 41
3.571428571428571
 42
50.0
 43
0.0
 44
0.0
 50
0.0
 51
0.0
 71
     0
 72
   500
 73
     1
 74
     1
 75
     0
 76
     0
 77
     0
 78
     0
  0
VPORT
  5
F8
330
CF
100
AcDbSymbolTableRecord
100
AcDbViewportTableRecord
  2
3
 70
     0
 10
0.0
 20
0.0
 11
1.0
 21
0.5
 12
2.856741679241311
 22
1.052650975462766
 13
0.0
 23
0.0
 14
1.0
 24
1.0
 15
10.0
 25
10.0
 16
0.0
 26
0.0
 36
1.0
 17
0.0
 27
0.0
 37
0.0
 40
2.105301950925533
 41
3.594771241830065
 42
50.0
 43
0.0
 44
0.0
 50
0.0
 51
0.0
 71
     0
 72
   500
 73
     1
 74
     1
 75
     0
 76
     0
 77
     0
 78
     0
  0
VPORT
  5
F9
330
CF
100
AcDbSymbolTableRecord
100
AcDbViewportTableRecord
  2
4
 70
     0
 10
0.5
 20
0.0
 11
1.0
 21
0.5
 12
2.886857516709719
 22
1.052650975462766
 13
0.0
 23
0.0
 14
1.0
 24
1.0
 15
10.0
 25
10.0
 16
0.0
 26
0.0
 36
1.0
 17
0.0
 27
0.0
 37
0.0
 40
4.27520703030907
 41
1.784313725490195
 42
50.0
 43
0.0
 44
0.0
 50
0.0
 51
0.0
 71
     0
 72
   500
 73
     1
 74
     1
 75
     0
 76
     0
 77
     0
 78
     0
  0
VPORT
  5
FA
330
CF
100
AcDbSymbolTableRecord
100
AcDbViewportTableRecord
  2
4
 70
     0
 10
0.5
 20
0.5
 11
1.0
 21
1.0
 12
2.862090274555523
 22
1.052650975462766
 13
0.0
 23
0.0
 14
1.0
 24
1.0
 15
10.0
 25
10.0
 16
0.0
 26
0.0
 36
1.0
 17
0.0
 27
0.0
 37
0.0
 40
4.27520703030907
 41
1.772727272727272
 42
50.0
 43
0.0
 44
0.0
 50
0.0
 51
0.0
 71
     0
 72
   500
 73
     1
 74
     1
 75
     0
 76
     0
 77
     0
 78
     0
  0
VPORT
  5
FB
330
CF
100
AcDbSymbolTableRecord
100
AcDbViewportTableRecord
  2
4
 70
     0
 10
0.0
 20
0.5
 11
0.5
 21
1.0
 12
2.862090274555523
 22
1.052650975462766
 13
0.0
 23
0.0
 14
1.0
 24
1.0
 15
10.0
 25
10.0
 16
0.0
 26
0.0
 36
1.0
 17
0.0
 27
0.0
 37
0.0
 40
4.27520703030907
 41
1.772727272727272
 42
50.0
 43
0.0
 44
0.0
 50
0.0
 51
0.0
 71
     0
 72
   500
 73
     1
 74
     1
 75
     0
 76
     0
 77
     0
 78
     0
  0
VPORT
  5
FC
330
CF
100
AcDbSymbolTableRecord
100
AcDbViewportTableRecord
  2
4
 70
     0
 10
0.0
 20
0.0
 11
0.5
 21
0.5
 12
2.886857516709719
 22
1.052650975462766
 13
0.0
 23
0.0
 14
1.0
 24
1.0
 15
10.0
 25
10.0
 16
0.0
 26
0.0
 36
1.0
 17
0.0
 27
0.0
 37
0.0
 40
4.27520703030907
 41
1.784313725490195
 42
50.0
 43
0.0
 44
0.0
 50
0.0
 51
0.0
 71
     0
 72
   500
 73
     1
 74
     1
 75
     0
 76
     0
 77
     0
 78
     0
  0
VPORT
  5
7AC7
330
CF
100
AcDbSymbolTableRecord
100
AcDbViewportTableRecord
  2
*ACTIVE
 70
     0
 10
0.0
 20
0.0
 11
1.0
 21
1.0
 12
-201.0409482934246
 22
482.3070631663378
 13
0.0
 23
0.0
 14
1.0
 24
1.0
 15
10.0
 25
10.0
 16
0.0
 26
0.0
 36
1.0
 17
0.0
 27
0.0
 37
0.0
 40
2479.777273237505
 41
1.84990253411306
 42
50.0
 43
0.0
 44
0.0
 50
0.0
 51
0.0
 71
     0
 72
   500
 73
     1
 74
     0
 75
     0
 76
     0
 77
     0
 78
     0
  0
ENDTAB
  0
TABLE
  2
LTYPE
  5
CC
330
0
100
AcDbSymbolTable
 70
     5
  0
LTYPE
  5
D9
330
CC
100
AcDbSymbolTableRecord
100
AcDbLinetypeTableRecord
  2
BYBLOCK
 70
     0
  3

 72
    65
 73
     0
 40
0.0
  0
LTYPE
  5
DA
330
CC
100
AcDbSymbolTableRecord
100
AcDbLinetypeTableRecord
  2
BYLAYER
 70
     0
  3

 72
    65
 73
     0
 40
0.0
  0
LTYPE
  5
DB
330
CC
100
AcDbSymbolTableRecord
100
AcDbLinetypeTableRecord
  2
CONTINUOUS
 70
     0
  3
実線
 72
    65
 73
     0
 40
0.0
  0
LTYPE
  5
F1
330
CC
100
AcDbSymbolTableRecord
100
AcDbLinetypeTableRecord
  2
DASHED
 70
     0
  3
__ __ __ __ __ __ __ __ __ __ __ __ __ __ __
 72
    65
 73
     2
 40
0.75
 49
0.5
 74
     0
 49
-0.25
 74
     0
  0
LTYPE
  5
F2
330
CC
100
AcDbSymbolTableRecord
100
AcDbLinetypeTableRecord
  2
CENTER
 70
     0
  3
____ _ ____ _ ____ _ ____ _ ____ _ ____ _ ____
 72
    65
 73
     4
 40
2.0
 49
1.25
 74
     0
 49
-0.25
 74
     0
 49
0.25
 74
     0
 49
-0.25
 74
     0
  0
LTYPE
  5
F3
330
CC
100
AcDbSymbolTableRecord
100
AcDbLinetypeTableRecord
  2
PHANTOM
 70
     0
  3
_____ _ _ _____ _ _ _____ _ _ _____ _ _ ____
 72
    65
 73
     6
 40
2.5
 49
1.25
 74
     0
 49
-0.25
 74
     0
 49
0.25
 74
     0
 49
-0.25
 74
     0
 49
0.25
 74
     0
 49
-0.25
 74
     0
  0
LTYPE
  5
F4
330
CC
100
AcDbSymbolTableRecord
100
AcDbLinetypeTableRecord
  2
HIDDEN
 70
     0
  3
_ _ _ _ _ _ _ _ _ _ _ _ _ _ _ _ _ _ _ _ _ _ _
 72
    65
 73
     2
 40
0.375
 49
0.25
 74
     0
 49
-0.125
 74
     0
  0
ENDTAB
  0
TABLE
  2
LAYER
  5
C9
330
0
100
AcDbSymbolTable
 70
    19
  0
LAYER
  5
D6
330
C9
100
AcDbSymbolTableRecord
100
AcDbLayerTableRecord
  2
0
 70
     0
 62
     7
  6
CONTINUOUS
  0
LAYER
  5
100
330
C9
100
AcDbSymbolTableRecord
100
AcDbLayerTableRecord
  2
HASEN
 70
     0
 62
     2
  6
DASHED
  0
LAYER
  5
101
330
C9
100
AcDbSymbolTableRecord
100
AcDbLayerTableRecord
  2
ITTEN
 70
     0
 62
     1
  6
CENTER
  0
LAYER
  5
102
330
C9
100
AcDbSymbolTableRecord
100
AcDbLayerTableRecord
  2
NITEN
 70
     0
 62
     2
  6
PHANTOM
  0
LAYER
  5
103
330
C9
100
AcDbSymbolTableRecord
100
AcDbLayerTableRecord
  2
HATCH
 70
     0
 62
     4
  6
CONTINUOUS
  0
LAYER
  5
104
330
C9
100
AcDbSymbolTableRecord
100
AcDbLayerTableRecord
  2
SUNPOU
 70
     0
 62
     3
  6
CONTINUOUS
  0
LAYER
  5
105
330
C9
100
AcDbSymbolTableRecord
100
AcDbLayerTableRecord
  2
TEXT
 70
     0
 62
     3
  6
CONTINUOUS
  0
LAYER
  5
106
330
C9
100
AcDbSymbolTableRecord
100
AcDbLayerTableRecord
  2
SAISEN
 70
     0
 62
     4
  6
CONTINUOUS
  0
LAYER
  5
107
330
C9
100
AcDbSymbolTableRecord
100
AcDbLayerTableRecord
  2
JISSEN
 70
     0
 62
     7
  6
CONTINUOUS
  0
LAYER
  5
108
330
C9
100
AcDbSymbolTableRecord
100
AcDbLayerTableRecord
  2
HOJO
 70
     0
 62
     6
  6
CONTINUOUS
  0
LAYER
  5
109
330
C9
100
AcDbSymbolTableRecord
100
AcDbLayerTableRecord
  2
TENSEN
 70
     0
 62
     2
  6
HIDDEN
  0
LAYER
  5
10A
330
C9
100
AcDbSymbolTableRecord
100
AcDbLayerTableRecord
  2
HOJOORG
 70
     0
 62
     1
  6
CONTINUOUS
  0
LAYER
  5
10B
330
C9
100
AcDbSymbolTableRecord
100
AcDbLayerTableRecord
  2
WAKU
 70
     0
 62
     5
  6
CONTINUOUS
  0
LAYER
  5
10C
330
C9
100
AcDbSymbolTableRecord
100
AcDbLayerTableRecord
  2
POINT
 70
     0
 62
     7
  6
CONTINUOUS
  0
LAYER
  5
6F31
330
C9
100
AcDbSymbolTableRecord
100
AcDbLayerTableRecord
  2
WINDOW
 70
     0
 62
     7
  6
CONTINUOUS
  0
LAYER
  5
6F58
330
C9
100
AcDbSymbolTableRecord
100
AcDbLayerTableRecord
  2
DEFPOINTS
 70
     0
 62
     7
  6
CONTINUOUS
  0
LAYER
  5
6F7C
330
C9
100
AcDbSymbolTableRecord
100
AcDbLayerTableRecord
  2
BODY
 70
     0
 62
   131
  6
CONTINUOUS
  0
LAYER
  5
72AB
330
C9
100
AcDbSymbolTableRecord
100
AcDbLayerTableRecord
  2
SUNPOU2
 70
     0
 62
     3
  6
CONTINUOUS
  0
LAYER
  5
73A5
330
C9
100
AcDbSymbolTableRecord
100
AcDbLayerTableRecord
  2
HIDDEN_L
 70
     0
 62
     7
  6
CONTINUOUS
  0
ENDTAB
  0
TABLE
  2
STYLE
  5
CA
330
0
100
AcDbSymbolTable
 70
     2
  0
STYLE
  5
D7
330
CA
100
AcDbSymbolTableRecord
100
AcDbTextStyleTableRecord
  2
STANDARD
 70
     0
 40
0.0
 41
1.0
 50
0.0
 71
     0
 42
0.2
  3
ROMANS
  4
EXTFONT
  0
STYLE
  5
F0
330
CA
100
AcDbSymbolTableRecord
100
AcDbTextStyleTableRecord
  2
K
 70
     0
 40
0.0
 41
1.0
 50
0.0
 71
     0
 42
3.0
  3
ROMANS
  4
EXTFONT
  0
ENDTAB
  0
TABLE
  2
VIEW
  5
CD
330
0
100
AcDbSymbolTable
 70
     0
  0
ENDTAB
  0
TABLE
  2
UCS
  5
CE
330
0
100
AcDbSymbolTable
 70
     0
  0
ENDTAB
  0
TABLE
  2
APPID
  5
D0
330
0
100
AcDbSymbolTable
 70
     3
  0
APPID
  5
D8
330
D0
100
AcDbSymbolTableRecord
100
AcDbRegAppTableRecord
  2
ACAD
 70
     0
  0
APPID
  5
50D6
330
D0
100
AcDbSymbolTableRecord
100
AcDbRegAppTableRecord
  2
CONTENTTABDATA
 70
     0
  0
APPID
  5
50D7
330
D0
100
AcDbSymbolTableRecord
100
AcDbRegAppTableRecord
  2
CONTENTCURRENTTAB
 70
     0
  0
ENDTAB
  0
TABLE
  2
DIMSTYLE
  5
D1
330
0
100
AcDbSymbolTable
 70
    12
  0
DIMSTYLE
105
FF
330
D1
100
AcDbSymbolTableRecord
100
AcDbDimStyleTableRecord
  2
IMAO
 70
     0
  3

  4

  5
ARROW
  6
OPEN
  7
OPEN
 40
1.0
 41
1.5
 42
1.0
 43
6.0
 44
1.0
 45
0.0
 46
0.0
 47
495.0
 48
0.0
140
3.0
141
0.0
142
0.0
143
25.4
144
1.0
145
0.0
146
1.0
147
1.5
 71
     0
 72
     0
 73
     0
 74
     0
 75
     0
 76
     0
 77
     1
 78
     8
170
     0
171
     2
172
     1
173
     0
174
     1
175
     0
176
     0
177
     0
178
     0
270
     2
271
     2
272
     2
273
     2
274
     2
340
F0
275
     0
280
     0
281
     0
282
     0
283
     1
284
     8
285
     8
286
     8
287
     3
288
     1
  0
DIMSTYLE
105
401
330
D1
100
AcDbSymbolTableRecord
100
AcDbDimStyleTableRecord
  2
STANDARD
 70
     0
  3

  4

  5

  6
ARROW
  7
ARROW
 40
0.0
 41
6.0
 42
1.0
 43
6.0
 44
1.0
 45
0.0
 46
0.0
 47
0.5
 48
0.5
140
3.0
141
0.0
142
0.0
143
25.4
144
1.0
145
0.0
146
0.5
147
1.5
 71
     1
 72
     0
 73
     0
 74
     0
 75
     0
 76
     0
 77
     1
 78
     8
170
     0
171
     2
172
     1
173
     1
174
     1
175
     0
176
     0
177
     0
178
     0
270
     2
271
     0
272
     0
273
     2
274
     2
340
D7
275
     0
280
     0
281
     0
282
     0
283
     1
284
     0
285
     0
286
     0
287
     3
288
     1
  0
DIMSTYLE
105
402
102
{ACAD_REACTORS
330
7623
330
763B
330
7652
330
768B
330
76B7
330
795B
330
796F
330
7994
330
7A9A
102
}
330
D1
100
AcDbSymbolTableRecord
100
AcDbDimStyleTableRecord
  2
IMCADLT
 70
     0
  3

  4

  5
ARROW
  6
ARROW
  7
ARROW
 40
5.0
 41
3.0
 42
1.0
 43
6.0
 44
1.0
 45
0.0
 46
0.0
 47
0.01
 48
0.02
140
3.0
141
0.0
142
0.0
143
25.4
144
1.0
145
0.0
146
0.45
147
1.5
 71
     0
 72
     0
 73
     0
 74
     0
 75
     0
 76
     0
 77
     3
 78
     8
170
     0
171
     2
172
     1
173
     1
174
     1
175
     0
176
     0
177
     0
178
     0
270
     2
271
     2
272
     2
273
     2
274
     2
340
D7
275
     0
280
     0
281
     0
282
     0
283
     1
284
     8
285
     0
286
     0
287
     3
288
     1
  0
DIMSTYLE
105
F97
330
D1
100
AcDbSymbolTableRecord
100
AcDbDimStyleTableRecord
  2
IMAO_1
 70
     0
  3

  4

  5
ARROW
  6
ARROW
  7
ARROW
 40
0.0
 41
1.5
 42
1.0
 43
6.0
 44
1.0
 45
0.0
 46
0.0
 47
1.0
 48
0.0
140
3.0
141
0.0
142
0.0
143
25.4
144
1.0
145
0.0
146
0.5
147
1.5
 71
     1
 72
     0
 73
     0
 74
     0
 75
     0
 76
     0
 77
     1
 78
     8
170
     0
171
     2
172
     1
173
     1
174
     1
175
     0
176
     0
177
     0
178
     0
270
     2
271
     0
272
     0
273
     2
274
     2
340
D7
275
     0
280
     0
281
     0
282
     0
283
     1
284
     0
285
     0
286
     0
287
     3
288
     1
  0
DIMSTYLE
105
F98
330
D1
100
AcDbSymbolTableRecord
100
AcDbDimStyleTableRecord
  2
IMAO_05
 70
     0
  3

  4

  5
ARROW
  6
ARROW
  7
ARROW
 40
0.0
 41
1.5
 42
1.0
 43
6.0
 44
1.0
 45
0.0
 46
0.0
 47
0.5
 48
0.5
140
3.0
141
0.0
142
0.0
143
25.4
144
1.0
145
0.0
146
1.0
147
1.5
 71
     1
 72
     0
 73
     0
 74
     0
 75
     0
 76
     0
 77
     1
 78
     8
170
     0
171
     2
172
     1
173
     1
174
     1
175
     0
176
     0
177
     0
178
     0
270
     2
271
     1
272
     1
273
     2
274
     2
340
D7
275
     0
280
     0
281
     0
282
     0
283
     1
284
     0
285
     0
286
     0
287
     3
288
     1
  0
DIMSTYLE
105
F99
330
D1
100
AcDbSymbolTableRecord
100
AcDbDimStyleTableRecord
  2
IMAO_NOMAL
 70
     0
  3

  4

  5
ARROW
  6
ARROW
  7
ARROW
 40
0.0
 41
1.5
 42
1.0
 43
6.0
 44
1.0
 45
0.0
 46
0.0
 47
1.0
 48
0.0
140
3.0
141
0.0
142
0.0
143
25.4
144
1.0
145
0.0
146
0.5
147
1.5
 71
     0
 72
     0
 73
     0
 74
     0
 75
     0
 76
     0
 77
     1
 78
     8
170
     0
171
     2
172
     1
173
     1
174
     1
175
     0
176
     0
177
     0
178
     0
270
     2
271
     1
272
     1
273
     2
274
     2
340
D7
275
     0
280
     0
281
     0
282
     0
283
     1
284
     0
285
     0
286
     0
287
     3
288
     1
  0
DIMSTYLE
105
12F0
330
D1
100
AcDbSymbolTableRecord
100
AcDbDimStyleTableRecord
  2
IMAO_07
 70
     0
  3

  4

  5
ARROW
  6
ARROW
  7
ARROW
 40
0.0
 41
1.5
 42
1.0
 43
6.0
 44
1.0
 45
0.0
 46
0.0
 47
0.7
 48
0.7
140
3.0
141
0.0
142
0.0
143
25.4
144
1.0
145
0.0
146
1.0
147
1.5
 71
     1
 72
     0
 73
     0
 74
     0
 75
     0
 76
     0
 77
     1
 78
     8
170
     0
171
     2
172
     1
173
     1
174
     1
175
     0
176
     0
177
     0
178
     0
270
     2
271
     1
272
     1
273
     2
274
     2
340
D7
275
     0
280
     0
281
     0
282
     0
283
     1
284
     8
285
     8
286
     8
287
     5
288
     0
  0
DIMSTYLE
105
136D
330
D1
100
AcDbSymbolTableRecord
100
AcDbDimStyleTableRecord
  2
IMAO_M1
 70
     0
  3

  4

  5
ARROW
  6
ARROW
  7
ARROW
 40
0.0
 41
1.5
 42
1.0
 43
6.0
 44
1.0
 45
0.0
 46
0.0
 47
0.0
 48
1.0
140
3.0
141
0.0
142
0.0
143
25.4
144
1.0
145
0.0
146
0.5
147
1.5
 71
     1
 72
     0
 73
     0
 74
     0
 75
     0
 76
     0
 77
     1
 78
     8
170
     0
171
     2
172
     1
173
     1
174
     1
175
     0
176
     0
177
     0
178
     0
270
     2
271
     1
272
     1
273
     2
274
     2
340
D7
275
     0
280
     0
281
     0
282
     0
283
     1
284
     8
285
     8
286
     8
287
     3
288
     0
  0
DIMSTYLE
105
13E1
330
D1
100
AcDbSymbolTableRecord
100
AcDbDimStyleTableRecord
  2
IMAO_NOMAL_W
 70
     0
  3

  4

  5
ARROW
  6
ARROW
  7
ARROW
 40
0.0
 41
3.0
 42
1.0
 43
6.0
 44
1.0
 45
0.0
 46
0.0
 47
1.0
 48
0.0
140
6.0
141
0.0
142
0.0
143
25.4
144
1.0
145
0.0
146
0.5
147
3.0
 71
     0
 72
     0
 73
     0
 74
     0
 75
     0
 76
     0
 77
     1
 78
     8
170
     0
171
     2
172
     1
173
     1
174
     1
175
     0
176
     0
177
     0
178
     0
270
     2
271
     1
272
     1
273
     2
274
     2
340
D7
275
     0
280
     0
281
     0
282
     0
283
     1
284
     0
285
     0
286
     0
287
     3
288
     1
  0
DIMSTYLE
105
140E
330
D1
100
AcDbSymbolTableRecord
100
AcDbDimStyleTableRecord
  2
IMAO_05_W
 70
     0
  3

  4

  5
ARROW
  6
ARROW
  7
ARROW
 40
0.0
 41
3.0
 42
1.0
 43
6.0
 44
1.0
 45
0.0
 46
0.0
 47
0.5
 48
0.5
140
6.0
141
0.0
142
0.0
143
25.4
144
1.0
145
0.0
146
1.0
147
3.0
 71
     1
 72
     0
 73
     0
 74
     0
 75
     0
 76
     0
 77
     1
 78
     8
170
     0
171
     2
172
     1
173
     1
174
     1
175
     0
176
     0
177
     0
178
     0
270
     2
271
     1
272
     1
273
     2
274
     2
340
D7
275
     0
280
     0
281
     0
282
     0
283
     1
284
     0
285
     0
286
     0
287
     3
288
     1
  0
DIMSTYLE
105
140F
330
D1
100
AcDbSymbolTableRecord
100
AcDbDimStyleTableRecord
  2
IMAO_1_W
 70
     0
  3

  4

  5
ARROW
  6
ARROW
  7
ARROW
 40
0.0
 41
3.0
 42
1.0
 43
6.0
 44
1.0
 45
0.0
 46
0.0
 47
1.0
 48
0.0
140
6.0
141
0.0
142
0.0
143
25.4
144
1.0
145
0.0
146
0.5
147
3.0
 71
     1
 72
     0
 73
     0
 74
     0
 75
     0
 76
     0
 77
     1
 78
     8
170
     0
171
     2
172
     1
173
     1
174
     1
175
     0
176
     0
177
     0
178
     0
270
     2
271
     0
272
     0
273
     2
274
     2
340
D7
275
     0
280
     0
281
     0
282
     0
283
     1
284
     0
285
     0
286
     0
287
     3
288
     1
  0
DIMSTYLE
105
79AF
330
D1
100
AcDbSymbolTableRecord
100
AcDbDimStyleTableRecord
  2
ITM
 70
     0
  3

  4

  5

  6

  7

 40
1.0
 41
1.5
 42
1.0
 43
6.0
 44
1.0
 45
0.0
 46
0.0
 47
495.0
 48
0.0
140
3.0
141
0.0
142
0.0
143
25.4
144
1.0
145
0.0
146
1.0
147
0.5
 71
     0
 72
     0
 73
     0
 74
     0
 75
     0
 76
     0
 77
     3
 78
     8
170
     0
171
     2
172
     1
173
     1
174
     1
175
     0
176
     0
177
     0
178
     0
270
     2
271
     4
272
     4
273
     2
274
     2
340
F0
275
     0
280
     0
281
     0
282
     0
283
     1
284
     0
285
     0
286
     0
287
     3
288
     0
  0
ENDTAB
  0
TABLE
  2
BLOCK_RECORD
  5
C8
330
0
100
AcDbSymbolTable
 70
    13
  0
BLOCK_RECORD
  5
DF
102
{ACAD_XDICTIONARY
360
7AF0
102
}
330
C8
100
AcDbSymbolTableRecord
100
AcDbBlockTableRecord
  2
*MODEL_SPACE
  0
BLOCK_RECORD
  5
DC
102
{ACAD_XDICTIONARY
360
7AEE
102
}
330
C8
100
AcDbSymbolTableRecord
100
AcDbBlockTableRecord
  2
*PAPER_SPACE
  0
BLOCK_RECORD
  5
E3
330
C8
100
AcDbSymbolTableRecord
100
AcDbBlockTableRecord
  2
ARROW
  0
BLOCK_RECORD
  5
145
330
C8
100
AcDbSymbolTableRecord
100
AcDbBlockTableRecord
  2
_OPEN
  0
BLOCK_RECORD
  5
6F3F
330
C8
100
AcDbSymbolTableRecord
100
AcDbBlockTableRecord
  2
WAKU
  0
BLOCK_RECORD
  5
7617
330
C8
100
AcDbSymbolTableRecord
100
AcDbBlockTableRecord
  2
*D3
  0
BLOCK_RECORD
  5
762F
330
C8
100
AcDbSymbolTableRecord
100
AcDbBlockTableRecord
  2
*D4
  0
BLOCK_RECORD
  5
7647
330
C8
100
AcDbSymbolTableRecord
100
AcDbBlockTableRecord
  2
*D5
  0
BLOCK_RECORD
  5
767F
330
C8
100
AcDbSymbolTableRecord
100
AcDbBlockTableRecord
  2
*D6
  0
BLOCK_RECORD
  5
76AB
330
C8
100
AcDbSymbolTableRecord
100
AcDbBlockTableRecord
  2
*D7
  0
BLOCK_RECORD
  5
794F
330
C8
100
AcDbSymbolTableRecord
100
AcDbBlockTableRecord
  2
*D8
  0
BLOCK_RECORD
  5
7962
330
C8
100
AcDbSymbolTableRecord
100
AcDbBlockTableRecord
  2
*D9
  0
BLOCK_RECORD
  5
7988
330
C8
100
AcDbSymbolTableRecord
100
AcDbBlockTableRecord
  2
*D10
  0
BLOCK_RECORD
  5
79B0
330
C8
100
AcDbSymbolTableRecord
100
AcDbBlockTableRecord
  2
S3
  0
BLOCK_RECORD
  5
7A8E
330
C8
100
AcDbSymbolTableRecord
100
AcDbBlockTableRecord
  2
*D12
  0
ENDTAB
  0
ENDSEC
  0
SECTION
  2
BLOCKS
  0
BLOCK
  5
10F
330
DF
100
AcDbEntity
  8
0
100
AcDbBlockBegin
  2
*MODEL_SPACE
 70
     0
 10
0.0
 20
0.0
 30
0.0
  3
*MODEL_SPACE
  1

  0
ENDBLK
  5
110
330
DF
100
AcDbEntity
  8
0
100
AcDbBlockEnd
  0
BLOCK
  5
10D
330
DC
100
AcDbEntity
 67
     1
  8
0
100
AcDbBlockBegin
  2
*PAPER_SPACE
 70
     0
 10
0.0
 20
0.0
 30
0.0
  3
*PAPER_SPACE
  1

  0
ENDBLK
  5
10E
330
DC
100
AcDbEntity
 67
     1
  8
0
100
AcDbBlockEnd
  0
BLOCK
  5
1
330
E3
100
AcDbEntity
  8
0
100
AcDbBlockBegin
  2
ARROW
 70
     0
 10
1.0
 20
0.5
 30
0.0
  3
ARROW
  1

  0
LINE
  5
2
330
E3
100
AcDbEntity
  8
0
100
AcDbLine
 10
1.0
 20
0.5
 30
0.0
 11
-0.5000000000000214
 21
0.0980762113533018
 31
0.0
  0
LINE
  5
3
330
E3
100
AcDbEntity
  8
0
100
AcDbLine
 10
0.0
 20
0.5
 30
0.0
 11
1.0
 21
0.5
 31
0.0
  0
LINE
  5
4
330
E3
100
AcDbEntity
  8
0
100
AcDbLine
 10
1.0
 20
0.5
 30
0.0
 11
-0.4999999999999574
 21
0.9019237886467408
 31
0.0
  0
ENDBLK
  5
5
330
E3
100
AcDbEntity
  8
0
100
AcDbBlockEnd
  0
BLOCK
  5
149
330
145
100
AcDbEntity
  8
0
100
AcDbBlockBegin
  2
_OPEN
 70
     0
 10
0.0
 20
0.0
 30
0.0
  3
_OPEN
  1

  0
LINE
  5
146
330
145
100
AcDbEntity
  8
0
  6
BYBLOCK
 62
     0
100
AcDbLine
 10
-1.0
 20
0.1666666666666666
 30
0.0
 11
0.0
 21
0.0
 31
0.0
  0
LINE
  5
147
330
145
100
AcDbEntity
  8
0
  6
BYBLOCK
 62
     0
100
AcDbLine
 10
0.0
 20
0.0
 30
0.0
 11
-1.0
 21
-0.1666666666666666
 31
0.0
  0
LINE
  5
148
330
145
100
AcDbEntity
  8
0
  6
BYBLOCK
 62
     0
100
AcDbLine
 10
0.0
 20
0.0
 30
0.0
 11
-1.0
 21
0.0
 31
0.0
  0
ENDBLK
  5
14A
330
145
100
AcDbEntity
  8
0
100
AcDbBlockEnd
  0
BLOCK
  5
6F44
330
6F3F
100
AcDbEntity
  8
0
100
AcDbBlockBegin
  2
WAKU
 70
     0
 10
0.0
 20
0.0
 30
0.0
  3
WAKU
  1

  0
LINE
  5
6F40
330
6F3F
100
AcDbEntity
  8
WAKU
100
AcDbLine
 10
0.0
 20
0.0
 30
0.0
 11
0.0
 21
0.9999999999999998
 31
0.0
  0
LINE
  5
6F41
330
6F3F
100
AcDbEntity
  8
WAKU
100
AcDbLine
 10
0.999999996
 20
0.0
 30
0.0
 11
0.0
 21
0.0
 31
0.0
  0
LINE
  5
6F42
330
6F3F
100
AcDbEntity
  8
WAKU
100
AcDbLine
 10
0.0
 20
0.9999999999999998
 30
0.0
 11
0.999999996
 21
0.9999999999999998
 31
0.0
  0
LINE
  5
6F43
330
6F3F
100
AcDbEntity
  8
WAKU
100
AcDbLine
 10
0.999999996
 20
0.0
 30
0.0
 11
0.999999996
 21
0.9999999999999998
 31
0.0
  0
ENDBLK
  5
6F45
330
6F3F
100
AcDbEntity
  8
0
100
AcDbBlockEnd
  0
BLOCK
  5
7919
330
7617
100
AcDbEntity
  8
0
100
AcDbBlockBegin
  2
*D3
 70
     1
 10
0.0
 20
0.0
 30
0.0
  3
*D3
  1

  0
LINE
  5
791A
330
7617
100
AcDbEntity
  8
0
  6
BYBLOCK
 62
     0
100
AcDbLine
 10
352.0913877899999
 20
289.8785715273607
 30
0.0
 11
497.0654494773584
 21
289.8785715273607
 31
0.0
  0
LINE
  5
791B
330
7617
100
AcDbEntity
  8
0
  6
BYBLOCK
 62
     0
100
AcDbLine
 10
429.59138779
 20
120.8785715273608
 30
0.0
 11
497.0654494773584
 21
120.8785715273608
 31
0.0
  0
LINE
  5
791C
330
7617
100
AcDbEntity
  8
0
  6
BYBLOCK
 62
     0
100
AcDbLine
 10
492.0654494773584
 20
274.8785715273607
 30
0.0
 11
492.0654494773584
 21
135.8785715273608
 31
0.0
  0
INSERT
  5
791D
330
7617
100
AcDbEntity
  8
0
  6
BYBLOCK
 62
     0
100
AcDbBlockReference
  2
ARROW
 10
492.0654494773584
 20
289.8785715273607
 30
0.0
 41
15.0
 42
15.0
 43
15.0
 50
90.0
  0
INSERT
  5
791E
330
7617
100
AcDbEntity
  8
0
  6
BYBLOCK
 62
     0
100
AcDbBlockReference
  2
ARROW
 10
492.0654494773584
 20
120.8785715273608
 30
0.0
 41
15.0
 42
15.0
 43
15.0
 50
270.0
  0
MTEXT
  5
791F
330
7617
100
AcDbEntity
  8
0
  6
BYBLOCK
 62
     0
100
AcDbMText
 10
477.0654494773585
 20
209.3710451939796
 30
0.0
 40
15.0
 41
0.0
 71
     5
 72
     1
  1
\A1;169
 11
0.0000000000000001
 21
1.0
 31
0.0
1001
ACAD
1000
MTEXTBEGIN
1070
    73
1070
     1
1070
    44
1040
1.0
1070
    74
1070
     0
1000
MTEXTEND
  0
POINT
  5
7920
330
7617
100
AcDbEntity
  8
DEFPOINTS
  6
BYBLOCK
 62
     0
100
AcDbPoint
 10
347.09138779
 20
289.8785715273607
 30
0.0
  0
POINT
  5
7921
330
7617
100
AcDbEntity
  8
DEFPOINTS
  6
BYBLOCK
 62
     0
100
AcDbPoint
 10
424.5913877899999
 20
120.8785715273608
 30
0.0
  0
POINT
  5
7922
330
7617
100
AcDbEntity
  8
DEFPOINTS
  6
BYBLOCK
 62
     0
100
AcDbPoint
 10
492.0654494773584
 20
120.8785715273608
 30
0.0
  0
ENDBLK
  5
7923
330
7617
100
AcDbEntity
  8
0
100
AcDbBlockEnd
  0
BLOCK
  5
79A2
330
762F
100
AcDbEntity
  8
0
100
AcDbBlockBegin
  2
*D4
 70
     1
 10
0.0
 20
0.0
 30
0.0
  3
*D4
  1

  0
LINE
  5
79A3
330
762F
100
AcDbEntity
  8
0
  6
BYBLOCK
 62
     0
100
AcDbLine
 10
434.59138779
 20
120.8785715273608
 30
0.0
 11
555.7558331772643
 21
120.8785715273608
 31
0.0
  0
LINE
  5
79A4
330
762F
100
AcDbEntity
  8
0
  6
BYBLOCK
 62
     0
100
AcDbLine
 10
349.09138779
 20
620.8785715273608
 30
0.0
 11
555.7558331772643
 21
620.8785715273608
 31
0.0
  0
LINE
  5
79A5
330
762F
100
AcDbEntity
  8
0
  6
BYBLOCK
 62
     0
100
AcDbLine
 10
550.7558331772643
 20
135.8785715273608
 30
0.0
 11
550.7558331772643
 21
605.8785715273607
 31
0.0
  0
INSERT
  5
79A6
330
762F
100
AcDbEntity
  8
0
  6
BYBLOCK
 62
     0
100
AcDbBlockReference
  2
ARROW
 10
550.7558331772643
 20
120.8785715273608
 30
0.0
 41
15.0
 42
15.0
 43
15.0
 50
270.0
  0
INSERT
  5
79A7
330
762F
100
AcDbEntity
  8
0
  6
BYBLOCK
 62
     0
100
AcDbBlockReference
  2
ARROW
 10
550.7558331772643
 20
620.8785715273608
 30
0.0
 41
15.0
 42
15.0
 43
15.0
 50
90.0
  0
MTEXT
  5
79A8
330
762F
100
AcDbEntity
  8
0
  6
BYBLOCK
 62
     0
100
AcDbMText
 10
535.7558331772643
 20
370.8785715273607
 30
0.0
 40
15.0
 41
0.0
 71
     5
 72
     1
  1
\A1;500
 11
0.0000000000000001
 21
1.0
 31
0.0
1001
ACAD
1000
MTEXTBEGIN
1070
    73
1070
     1
1070
    44
1040
1.0
1070
    74
1070
     0
1000
MTEXTEND
  0
POINT
  5
79A9
330
762F
100
AcDbEntity
  8
DEFPOINTS
  6
BYBLOCK
 62
     0
100
AcDbPoint
 10
429.59138779
 20
120.8785715273608
 30
0.0
  0
POINT
  5
79AA
330
762F
100
AcDbEntity
  8
DEFPOINTS
  6
BYBLOCK
 62
     0
100
AcDbPoint
 10
344.0913877899999
 20
620.8785715273608
 30
0.0
  0
POINT
  5
79AB
330
762F
100
AcDbEntity
  8
DEFPOINTS
  6
BYBLOCK
 62
     0
100
AcDbPoint
 10
550.7558331772643
 20
620.8785715273608
 30
0.0
  0
ENDBLK
  5
79AC
330
762F
100
AcDbEntity
  8
0
100
AcDbBlockEnd
  0
BLOCK
  5
7998
330
7647
100
AcDbEntity
  8
0
100
AcDbBlockBegin
  2
*D5
 70
     1
 10
0.0
 20
0.0
 30
0.0
  3
*D5
  1

  0
LINE
  5
7AF2
330
7647
100
AcDbEntity
  8
SUNPOU
 62
     0
100
AcDbLine
 10
349.09138779
 20
737.8785715273608
 30
0.0
 11
555.7558331772643
 21
737.8785715273608
 31
0.0
  0
LINE
  5
7AF3
330
7647
100
AcDbEntity
  8
SUNPOU
 62
     0
100
AcDbLine
 10
550.7558331772643
 20
635.8785715273608
 30
0.0
 11
550.7558331772643
 21
722.8785715273608
 31
0.0
  0
INSERT
  5
7AF4
330
7647
100
AcDbEntity
  8
SUNPOU
 62
     0
100
AcDbBlockReference
  2
ARROW
 10
550.7558331772643
 20
620.8785715273608
 30
0.0
 41
15.0
 42
15.0
 43
15.0
 50
270.0
  0
INSERT
  5
7AF5
330
7647
100
AcDbEntity
  8
SUNPOU
 62
     0
100
AcDbBlockReference
  2
ARROW
 10
550.7558331772643
 20
737.8785715273608
 30
0.0
 41
15.0
 42
15.0
 43
15.0
 50
90.0
  0
MTEXT
  5
7AF6
330
7647
100
AcDbEntity
  8
SUNPOU
 62
     0
100
AcDbMText
 10
535.7558331772642
 20
679.3785715273608
 30
0.0
 40
15.0
 41
0.0
 71
     5
 72
     1
  1
\A1;117
 11
0.0000000000000001
 21
1.0
 31
0.0
  0
POINT
  5
7AF7
330
7647
100
AcDbEntity
  8
DEFPOINTS
 62
     0
100
AcDbPoint
 10
344.0913877899999
 20
620.8785715273608
 30
0.0
  0
POINT
  5
7AF8
330
7647
100
AcDbEntity
  8
DEFPOINTS
 62
     0
100
AcDbPoint
 10
344.0913877899999
 20
737.8785715273608
 30
0.0
  0
POINT
  5
7AF9
330
7647
100
AcDbEntity
  8
DEFPOINTS
 62
     0
100
AcDbPoint
 10
550.7558331772643
 20
737.8785715273608
 30
0.0
  0
ENDBLK
  5
79A1
330
7647
100
AcDbEntity
  8
0
100
AcDbBlockEnd
  0
BLOCK
  5
7939
330
767F
100
AcDbEntity
  8
0
100
AcDbBlockBegin
  2
*D6
 70
     1
 10
0.0
 20
0.0
 30
0.0
  3
*D6
  1

  0
LINE
  5
793A
330
767F
100
AcDbEntity
  8
0
  6
BYBLOCK
 62
     0
100
AcDbLine
 10
213.59138779
 20
120.8785715273608
 30
0.0
 11
94.78318691889944
 21
120.8785715273608
 31
0.0
  0
LINE
  5
793B
330
767F
100
AcDbEntity
  8
0
  6
BYBLOCK
 62
     0
100
AcDbLine
 10
314.09138779
 20
753.3785715273608
 30
0.0
 11
94.78318691889946
 21
753.3785715273608
 31
0.0
  0
LINE
  5
793C
330
767F
100
AcDbEntity
  8
0
  6
BYBLOCK
 62
     0
100
AcDbLine
 10
99.78318691889944
 20
135.8785715273608
 30
0.0
 11
99.78318691889946
 21
738.3785715273607
 31
0.0
  0
INSERT
  5
793D
330
767F
100
AcDbEntity
  8
0
  6
BYBLOCK
 62
     0
100
AcDbBlockReference
  2
ARROW
 10
99.78318691889944
 20
120.8785715273608
 30
0.0
 41
15.0
 42
15.0
 43
15.0
 50
270.0
  0
INSERT
  5
793E
330
767F
100
AcDbEntity
  8
0
  6
BYBLOCK
 62
     0
100
AcDbBlockReference
  2
ARROW
 10
99.78318691889946
 20
753.3785715273608
 30
0.0
 41
15.0
 42
15.0
 43
15.0
 50
90.0
  0
MTEXT
  5
793F
330
767F
100
AcDbEntity
  8
0
  6
BYBLOCK
 62
     0
100
AcDbMText
 10
84.78318691889944
 20
419.3605535378314
 30
0.0
 40
15.0
 41
0.0
 71
     5
 72
     1
  1
\A1;640
 11
0.0000000000000001
 21
1.0
 31
0.0
1001
ACAD
1000
MTEXTBEGIN
1070
    73
1070
     1
1070
    44
1040
1.0
1070
    74
1070
     0
1000
MTEXTEND
  0
POINT
  5
7940
330
767F
100
AcDbEntity
  8
DEFPOINTS
  6
BYBLOCK
 62
     0
100
AcDbPoint
 10
218.59138779
 20
120.8785715273608
 30
0.0
  0
POINT
  5
7941
330
767F
100
AcDbEntity
  8
DEFPOINTS
  6
BYBLOCK
 62
     0
100
AcDbPoint
 10
319.0913877899999
 20
753.3785715273608
 30
0.0
  0
POINT
  5
7942
330
767F
100
AcDbEntity
  8
DEFPOINTS
  6
BYBLOCK
 62
     0
100
AcDbPoint
 10
99.78318691889946
 20
753.3785715273608
 30
0.0
  0
ENDBLK
  5
7943
330
767F
100
AcDbEntity
  8
0
100
AcDbBlockEnd
  0
BLOCK
  5
7944
330
76AB
100
AcDbEntity
  8
0
100
AcDbBlockBegin
  2
*D7
 70
     1
 10
0.0
 20
0.0
 30
0.0
  3
*D7
  1

  0
LINE
  5
7945
330
76AB
100
AcDbEntity
  8
0
  6
BYBLOCK
 62
     0
100
AcDbLine
 10
509.09138779
 20
568.3785715273607
 30
0.0
 11
509.09138779
 21
809.7388573686966
 31
0.0
  0
LINE
  5
7946
330
76AB
100
AcDbEntity
  8
0
  6
BYBLOCK
 62
     0
100
AcDbLine
 10
129.09138779
 20
568.3785715273607
 30
0.0
 11
129.09138779
 21
809.7388573686966
 31
0.0
  0
LINE
  5
7947
330
76AB
100
AcDbEntity
  8
0
  6
BYBLOCK
 62
     0
100
AcDbLine
 10
494.0913877899999
 20
804.7388573686967
 30
0.0
 11
144.09138779
 21
804.7388573686967
 31
0.0
  0
INSERT
  5
7948
330
76AB
100
AcDbEntity
  8
0
  6
BYBLOCK
 62
     0
100
AcDbBlockReference
  2
ARROW
 10
509.09138779
 20
804.7388573686967
 30
0.0
 41
15.0
 42
15.0
 43
15.0
  0
INSERT
  5
7949
330
76AB
100
AcDbEntity
  8
0
  6
BYBLOCK
 62
     0
100
AcDbBlockReference
  2
ARROW
 10
129.09138779
 20
804.7388573686967
 30
0.0
 41
15.0
 42
15.0
 43
15.0
 50
180.0
  0
MTEXT
  5
794A
330
76AB
100
AcDbEntity
  8
0
  6
BYBLOCK
 62
     0
100
AcDbMText
 10
318.8455624495886
 20
819.7388573686966
 30
0.0
 40
15.0
 41
0.0
 71
     5
 72
     1
  1
\A1;\U+2205380
1001
ACAD
1000
MTEXTBEGIN
1070
    73
1070
     1
1070
    44
1040
1.0
1070
    74
1070
     0
1000
MTEXTEND
  0
POINT
  5
794B
330
76AB
100
AcDbEntity
  8
DEFPOINTS
  6
BYBLOCK
 62
     0
100
AcDbPoint
 10
509.09138779
 20
563.3785715273607
 30
0.0
  0
POINT
  5
794C
330
76AB
100
AcDbEntity
  8
DEFPOINTS
  6
BYBLOCK
 62
     0
100
AcDbPoint
 10
129.09138779
 20
563.3785715273607
 30
0.0
  0
POINT
  5
794D
330
76AB
100
AcDbEntity
  8
DEFPOINTS
  6
BYBLOCK
 62
     0
100
AcDbPoint
 10
129.09138779
 20
804.7388573686967
 30
0.0
  0
ENDBLK
  5
794E
330
76AB
100
AcDbEntity
  8
0
100
AcDbBlockEnd
  0
BLOCK
  5
7950
330
794F
100
AcDbEntity
  8
0
100
AcDbBlockBegin
  2
*D8
 70
     1
 10
0.0
 20
0.0
 30
0.0
  3
*D8
  1

  0
LINE
  5
7951
330
794F
100
AcDbEntity
  8
0
  6
BYBLOCK
 62
     0
100
AcDbLine
 10
722.47502473
 20
125.8785715273607
 30
0.0
 11
722.47502473
 21
43.99155880408943
 31
0.0
  0
LINE
  5
7952
330
794F
100
AcDbEntity
  8
0
  6
BYBLOCK
 62
     0
100
AcDbLine
 10
914.4750247299999
 20
125.8785715273608
 30
0.0
 11
914.4750247299999
 21
43.99155880408943
 31
0.0
  0
LINE
  5
7953
330
794F
100
AcDbEntity
  8
0
  6
BYBLOCK
 62
     0
100
AcDbLine
 10
737.4750247299999
 20
48.99155880408944
 30
0.0
 11
899.4750247299998
 21
48.99155880408944
 31
0.0
  0
INSERT
  5
7954
330
794F
100
AcDbEntity
  8
0
  6
BYBLOCK
 62
     0
100
AcDbBlockReference
  2
ARROW
 10
722.47502473
 20
48.99155880408944
 30
0.0
 41
15.0
 42
15.0
 43
15.0
 50
180.0
  0
INSERT
  5
7955
330
794F
100
AcDbEntity
  8
0
  6
BYBLOCK
 62
     0
100
AcDbBlockReference
  2
ARROW
 10
914.4750247299999
 20
48.99155880408944
 30
0.0
 41
15.0
 42
15.0
 43
15.0
  0
MTEXT
  5
7956
330
794F
100
AcDbEntity
  8
0
  6
BYBLOCK
 62
     0
100
AcDbMText
 10
816.3049582397439
 20
63.99155880408944
 30
0.0
 40
15.0
 41
0.0
 71
     5
 72
     1
  1
\A1;192
1001
ACAD
1000
MTEXTBEGIN
1070
    73
1070
     1
1070
    44
1040
1.0
1070
    74
1070
     0
1000
MTEXTEND
  0
POINT
  5
7957
330
794F
100
AcDbEntity
  8
DEFPOINTS
  6
BYBLOCK
 62
     0
100
AcDbPoint
 10
722.47502473
 20
130.8785715273607
 30
0.0
  0
POINT
  5
7958
330
794F
100
AcDbEntity
  8
DEFPOINTS
  6
BYBLOCK
 62
     0
100
AcDbPoint
 10
914.4750247299999
 20
130.8785715273607
 30
0.0
  0
POINT
  5
7959
330
794F
100
AcDbEntity
  8
DEFPOINTS
  6
BYBLOCK
 62
     0
100
AcDbPoint
 10
914.4750247299999
 20
48.99155880408944
 30
0.0
  0
ENDBLK
  5
795A
330
794F
100
AcDbEntity
  8
0
100
AcDbBlockEnd
  0
BLOCK
  5
797C
330
7962
100
AcDbEntity
  8
0
100
AcDbBlockBegin
  2
*D9
 70
     1
 10
0.0
 20
0.0
 30
0.0
  3
*D9
  1

  0
LINE
  5
797D
330
7962
100
AcDbEntity
  8
0
  6
BYBLOCK
 62
     0
100
AcDbLine
 10
879.97502473
 20
378.3785715273609
 30
0.0
 11
879.97502473
 21
448.7749745502115
 31
0.0
  0
LINE
  5
797E
330
7962
100
AcDbEntity
  8
0
  6
BYBLOCK
 62
     0
100
AcDbLine
 10
756.97502473
 20
378.3785715273608
 30
0.0
 11
756.97502473
 21
448.7749745502115
 31
0.0
  0
LINE
  5
797F
330
7962
100
AcDbEntity
  8
0
  6
BYBLOCK
 62
     0
100
AcDbLine
 10
864.9750247300001
 20
443.7749745502115
 30
0.0
 11
771.9750247300001
 21
443.7749745502115
 31
0.0
  0
LINE
  5
7980
330
7962
100
AcDbEntity
  8
0
  6
BYBLOCK
 62
     0
100
AcDbLine
 10
756.97502473
 20
443.7749745502115
 30
0.0
 11
674.8321675871429
 21
443.7749745502115
 31
0.0
  0
INSERT
  5
7981
330
7962
100
AcDbEntity
  8
0
  6
BYBLOCK
 62
     0
100
AcDbBlockReference
  2
ARROW
 10
879.97502473
 20
443.7749745502115
 30
0.0
 41
15.0
 42
15.0
 43
15.0
  0
INSERT
  5
7982
330
7962
100
AcDbEntity
  8
0
  6
BYBLOCK
 62
     0
100
AcDbBlockReference
  2
ARROW
 10
756.97502473
 20
443.7749745502115
 30
0.0
 41
15.0
 42
15.0
 43
15.0
 50
180.0
  0
MTEXT
  5
7983
330
7962
100
AcDbEntity
  8
0
  6
BYBLOCK
 62
     0
100
AcDbMText
 10
708.4035961585715
 20
458.7749745502114
 30
0.0
 40
15.0
 41
0.0
 71
     5
 72
     1
  1
\A1;\U+2205123
1001
ACAD
1000
MTEXTBEGIN
1070
    73
1070
     1
1070
    44
1040
1.0
1070
    74
1070
     0
1000
MTEXTEND
  0
POINT
  5
7984
330
7962
100
AcDbEntity
  8
DEFPOINTS
  6
BYBLOCK
 62
     0
100
AcDbPoint
 10
879.97502473
 20
373.3785715273609
 30
0.0
  0
POINT
  5
7985
330
7962
100
AcDbEntity
  8
DEFPOINTS
  6
BYBLOCK
 62
     0
100
AcDbPoint
 10
756.97502473
 20
373.3785715273608
 30
0.0
  0
POINT
  5
7986
330
7962
100
AcDbEntity
  8
DEFPOINTS
  6
BYBLOCK
 62
     0
100
AcDbPoint
 10
756.97502473
 20
443.7749745502115
 30
0.0
  0
ENDBLK
  5
7987
330
7962
100
AcDbEntity
  8
0
100
AcDbBlockEnd
  0
BLOCK
  5
7989
330
7988
100
AcDbEntity
  8
0
100
AcDbBlockBegin
  2
*D10
 70
     1
 10
0.0
 20
0.0
 30
0.0
  3
*D10
  1

  0
LINE
  5
798A
330
7988
100
AcDbEntity
  8
0
  6
BYBLOCK
 62
     0
100
AcDbLine
 10
818.47502473
 20
669.79715621
 30
0.0
 11
818.47502473
 21
683.6432186736629
 31
0.0
  0
LINE
  5
798B
330
7988
100
AcDbEntity
  8
0
  6
BYBLOCK
 62
     0
100
AcDbLine
 10
923.47502473
 20
582.3785715299997
 30
0.0
 11
923.47502473
 21
683.6432186736629
 31
0.0
  0
LINE
  5
798C
330
7988
100
AcDbEntity
  8
0
  6
BYBLOCK
 62
     0
100
AcDbLine
 10
833.47502473
 20
678.6432186736629
 30
0.0
 11
908.47502473
 21
678.6432186736629
 31
0.0
  0
INSERT
  5
798D
330
7988
100
AcDbEntity
  8
0
  6
BYBLOCK
 62
     0
100
AcDbBlockReference
  2
ARROW
 10
818.47502473
 20
678.6432186736629
 30
0.0
 41
15.0
 42
15.0
 43
15.0
 50
180.0
  0
INSERT
  5
798E
330
7988
100
AcDbEntity
  8
0
  6
BYBLOCK
 62
     0
100
AcDbBlockReference
  2
ARROW
 10
923.47502473
 20
678.6432186736629
 30
0.0
 41
15.0
 42
15.0
 43
15.0
  0
MTEXT
  5
798F
330
7988
100
AcDbEntity
  8
0
  6
BYBLOCK
 62
     0
100
AcDbMText
 10
871.1374473854526
 20
693.6432186736628
 30
0.0
 40
15.0
 41
0.0
 71
     5
 72
     1
  1
\A1;105
1001
ACAD
1000
MTEXTBEGIN
1070
    73
1070
     1
1070
    44
1040
1.0
1070
    74
1070
     0
1000
MTEXTEND
  0
POINT
  5
7990
330
7988
100
AcDbEntity
  8
DEFPOINTS
  6
BYBLOCK
 62
     0
100
AcDbPoint
 10
818.47502473
 20
664.79715621
 30
0.0
  0
POINT
  5
7991
330
7988
100
AcDbEntity
  8
DEFPOINTS
  6
BYBLOCK
 62
     0
100
AcDbPoint
 10
923.47502473
 20
577.3785715299998
 30
0.0
  0
POINT
  5
7992
330
7988
100
AcDbEntity
  8
DEFPOINTS
  6
BYBLOCK
 62
     0
100
AcDbPoint
 10
923.47502473
 20
678.6432186736629
 30
0.0
  0
ENDBLK
  5
7993
330
7988
100
AcDbEntity
  8
0
100
AcDbBlockEnd
  0
BLOCK
  5
7A7C
330
79B0
100
AcDbEntity
  8
0
100
AcDbBlockBegin
  2
S3
 70
     0
 10
0.0
 20
0.0
 30
0.0
  3
S3
  1

  0
LINE
  5
79B1
330
79B0
100
AcDbEntity
  8
WAKU
100
AcDbLine
 10
3.0
 20
269.0
 30
0.0
 11
384.0
 21
269.0
 31
0.0
  0
LINE
  5
79B2
330
79B0
100
AcDbEntity
  8
WAKU
100
AcDbLine
 10
384.0
 20
6.0
 30
0.0
 11
3.0
 21
6.0
 31
0.0
  0
LINE
  5
79B3
330
79B0
100
AcDbEntity
  8
WAKU
100
AcDbLine
 10
3.0
 20
6.0
 30
0.0
 11
3.0
 21
269.0
 31
0.0
  0
TEXT
  5
79B4
330
79B0
100
AcDbEntity
  8
TEXT
100
AcDbText
 10
72.09999999999999
 20
7.5
 30
0.0
 40
3.0
  1
 年 月 日
  7
K
 72
     4
 11
80.5
 21
9.0
 31
0.0
100
AcDbText
  0
LINE
  5
79B5
330
79B0
100
AcDbEntity
  8
SUNPOU
100
AcDbLine
 10
106.0
 20
12.0
 30
0.0
 11
13.0
 21
12.0
 31
0.0
  0
LINE
  5
79B6
330
79B0
100
AcDbEntity
  8
SUNPOU
100
AcDbLine
 10
13.0
 20
18.0
 30
0.0
 11
106.0
 21
18.0
 31
0.0
  0
LINE
  5
79B7
330
79B0
100
AcDbEntity
  8
SUNPOU
100
AcDbLine
 10
106.0
 20
24.0
 30
0.0
 11
13.0
 21
24.0
 31
0.0
  0
LINE
  5
79B8
330
79B0
100
AcDbEntity
  8
SUNPOU
100
AcDbLine
 10
13.0
 20
12.0
 30
0.0
 11
106.0
 21
12.0
 31
0.0
  0
LINE
  5
79B9
330
79B0
100
AcDbEntity
  8
SUNPOU
100
AcDbLine
 10
106.0
 20
18.0
 30
0.0
 11
13.0
 21
18.0
 31
0.0
  0
LINE
  5
79BA
330
79B0
100
AcDbEntity
  8
SUNPOU
100
AcDbLine
 10
13.0
 20
24.0
 30
0.0
 11
106.0
 21
24.0
 31
0.0
  0
LINE
  5
79BB
330
79B0
100
AcDbEntity
  8
SUNPOU
100
AcDbLine
 10
106.0
 20
30.0
 30
0.0
 11
3.0
 21
30.0
 31
0.0
  0
TEXT
  5
79BC
330
79B0
100
AcDbEntity
  8
TEXT
100
AcDbText
 10
4.299999999999999
 20
7.5
 30
0.0
 40
3.0
  1
記号
  7
K
 72
     4
 11
7.5
 21
9.0
 31
0.0
100
AcDbText
  0
LINE
  5
79BD
330
79B0
100
AcDbEntity
  8
SUNPOU
100
AcDbLine
 10
13.0
 20
6.0
 30
0.0
 11
13.0
 21
30.0
 31
0.0
  0
LINE
  5
79BE
330
79B0
100
AcDbEntity
  8
SUNPOU
100
AcDbLine
 10
12.0
 20
30.0
 30
0.0
 11
12.0
 21
6.0
 31
0.0
  0
LINE
  5
79BF
330
79B0
100
AcDbEntity
  8
SUNPOU
100
AcDbLine
 10
12.0
 20
6.0
 30
0.0
 11
12.0
 21
30.0
 31
0.0
  0
LINE
  5
79C0
330
79B0
100
AcDbEntity
  8
SUNPOU
100
AcDbLine
 10
13.0
 20
30.0
 30
0.0
 11
13.0
 21
6.0
 31
0.0
  0
LINE
  5
79C1
330
79B0
100
AcDbEntity
  8
SUNPOU
100
AcDbLine
 10
7.5
 20
24.0
 30
0.0
 11
3.0
 21
18.0
 31
0.0
  0
LINE
  5
79C2
330
79B0
100
AcDbEntity
  8
SUNPOU
100
AcDbLine
 10
7.5
 20
24.0
 30
0.0
 11
12.0
 21
18.0
 31
0.0
  0
LINE
  5
79C3
330
79B0
100
AcDbEntity
  8
SUNPOU
100
AcDbLine
 10
7.5
 20
18.0
 30
0.0
 11
3.0
 21
12.0
 31
0.0
  0
LINE
  5
79C4
330
79B0
100
AcDbEntity
  8
SUNPOU
100
AcDbLine
 10
3.0
 20
18.0
 30
0.0
 11
12.0
 21
18.0
 31
0.0
  0
LINE
  5
79C5
330
79B0
100
AcDbEntity
  8
SUNPOU
100
AcDbLine
 10
12.0
 20
12.0
 30
0.0
 11
3.0
 21
12.0
 31
0.0
  0
LINE
  5
79C6
330
79B0
100
AcDbEntity
  8
SUNPOU
100
AcDbLine
 10
12.0
 20
12.0
 30
0.0
 11
3.0
 21
12.0
 31
0.0
  0
LINE
  5
79C7
330
79B0
100
AcDbEntity
  8
SUNPOU
100
AcDbLine
 10
12.0
 20
18.0
 30
0.0
 11
3.0
 21
18.0
 31
0.0
  0
LINE
  5
79C8
330
79B0
100
AcDbEntity
  8
SUNPOU
100
AcDbLine
 10
7.5
 20
18.0
 30
0.0
 11
12.0
 21
12.0
 31
0.0
  0
LINE
  5
79C9
330
79B0
100
AcDbEntity
  8
SUNPOU
100
AcDbLine
 10
7.5
 20
30.0
 30
0.0
 11
3.0
 21
24.0
 31
0.0
  0
LINE
  5
79CA
330
79B0
100
AcDbEntity
  8
SUNPOU
100
AcDbLine
 10
12.0
 20
24.0
 30
0.0
 11
3.0
 21
24.0
 31
0.0
  0
LINE
  5
79CB
330
79B0
100
AcDbEntity
  8
SUNPOU
100
AcDbLine
 10
12.0
 20
24.0
 30
0.0
 11
3.0
 21
24.0
 31
0.0
  0
LINE
  5
79CC
330
79B0
100
AcDbEntity
  8
SUNPOU
100
AcDbLine
 10
12.0
 20
24.0
 30
0.0
 11
7.5
 21
30.0
 31
0.0
  0
TEXT
  5
79CD
330
79B0
100
AcDbEntity
  8
TEXT
100
AcDbText
 10
56.2
 20
7.5
 30
0.0
 40
3.0
  1
設変番号
  7
K
 72
     4
 11
63.0
 21
9.0
 31
0.0
100
AcDbText
  0
TEXT
  5
79CE
330
79B0
100
AcDbEntity
  8
TEXT
100
AcDbText
 10
20.9
 20
7.5
 30
0.0
 40
3.0
  1
変更内容・理由
  7
K
 72
     4
 11
33.0
 21
9.0
 31
0.0
100
AcDbText
  0
LINE
  5
79CF
330
79B0
100
AcDbEntity
  8
SUNPOU
100
AcDbLine
 10
73.0
 20
6.0
 30
0.0
 11
73.0
 21
30.0
 31
0.0
  0
LINE
  5
79D0
330
79B0
100
AcDbEntity
  8
SUNPOU
100
AcDbLine
 10
53.0
 20
30.0
 30
0.0
 11
53.0
 21
6.0
 31
0.0
  0
LINE
  5
79D1
330
79B0
100
AcDbEntity
  8
WAKU
100
AcDbLine
 10
3.0
 20
139.0
 30
0.0
 11
0.0
 21
139.0
 31
0.0
  0
TEXT
  5
79D2
330
79B0
100
AcDbEntity
  8
TEXT
100
AcDbText
 10
98.40000000000001
 20
7.5
 30
0.0
 40
3.0
  1
検図
  7
K
 72
     4
 11
101.5
 21
9.0
 31
0.0
100
AcDbText
  0
TEXT
  5
79D3
330
79B0
100
AcDbEntity
  8
TEXT
100
AcDbText
 10
89.36428571428571
 20
7.5
 30
0.0
 40
3.0
  1
担当
  7
K
 72
     4
 11
92.5
 21
9.0
 31
0.0
100
AcDbText
  0
LINE
  5
79D4
330
79B0
100
AcDbEntity
  8
SUNPOU
100
AcDbLine
 10
106.0
 20
30.0
 30
0.0
 11
106.0
 21
6.0
 31
0.0
  0
LINE
  5
79D5
330
79B0
100
AcDbEntity
  8
SUNPOU
100
AcDbLine
 10
97.0
 20
6.0
 30
0.0
 11
97.0
 21
30.0
 31
0.0
  0
LINE
  5
79D6
330
79B0
100
AcDbEntity
  8
SUNPOU
100
AcDbLine
 10
88.0
 20
30.0
 30
0.0
 11
88.0
 21
6.0
 31
0.0
  0
LINE
  5
79D7
330
79B0
100
AcDbEntity
  8
WAKU
100
AcDbLine
 10
63.0
 20
279.0
 30
0.0
 11
3.0
 21
279.0
 31
0.0
  0
LINE
  5
79D8
330
79B0
100
AcDbEntity
  8
WAKU
100
AcDbLine
 10
3.0
 20
269.0
 30
0.0
 11
3.0
 21
279.0
 31
0.0
  0
LINE
  5
79D9
330
79B0
100
AcDbEntity
  8
SUNPOU
100
AcDbLine
 10
51.0
 20
269.0
 30
0.0
 11
51.0
 21
279.0
 31
0.0
  0
TEXT
  5
79DA
330
79B0
100
AcDbEntity
  8
TEXT
100
AcDbText
 10
60.1842957707867
 20
275.4965050308843
 30
0.0
 40
3.0
  1
図番
 50
180.0
  7
K
 72
     4
 11
56.88429577078671
 21
273.9965050308843
 31
0.0
100
AcDbText
  0
LINE
  5
79DB
330
79B0
100
AcDbEntity
  8
WAKU
100
AcDbLine
 10
63.0
 20
279.0
 30
0.0
 11
63.0
 21
269.0
 31
0.0
  0
LINE
  5
79DC
330
79B0
100
AcDbEntity
  8
WAKU
100
AcDbLine
 10
384.0
 20
269.0
 30
0.0
 11
384.0
 21
6.0
 31
0.0
  0
TEXT
  5
79DD
330
79B0
100
AcDbEntity
  8
TEXT
100
AcDbText
 10
385.1333333333333
 20
144.6013421640234
 30
0.0
 40
4.0
  1
本
  7
K
 72
     1
 11
387.0
 21
146.6013421640234
 31
0.0
100
AcDbText
 73
     2
  0
TEXT
  5
79DE
330
79B0
100
AcDbEntity
  8
TEXT
100
AcDbText
 10
329.1072754745071
 20
34.0
 30
0.0
 40
3.0
  1
三 角 法
  7
K
100
AcDbText
  0
LINE
  5
79DF
330
79B0
100
AcDbEntity
  8
WAKU
100
AcDbLine
 10
324.0
 20
19.0
 30
0.0
 11
384.0
 21
19.0
 31
0.0
  0
LINE
  5
79E0
330
79B0
100
AcDbEntity
  8
WAKU
100
AcDbLine
 10
384.0
 20
32.0
 30
0.0
 11
324.0
 21
32.0
 31
0.0
  0
LINE
  5
79E1
330
79B0
100
AcDbEntity
  8
WAKU
100
AcDbLine
 10
324.0
 20
39.0
 30
0.0
 11
384.0
 21
39.0
 31
0.0
  0
TEXT
  5
79E2
330
79B0
100
AcDbEntity
  8
TEXT
100
AcDbText
 10
338.4611183004224
 20
10.0
 30
0.0
 40
3.5
  1
中部コーポレーション
  7
K
100
AcDbText
  0
TEXT
  5
79E3
330
79B0
100
AcDbEntity
  8
TEXT
100
AcDbText
 10
326.5466508537902
 20
57.23202258979018
 30
0.0
 40
3.0
  1
備                    考
  7
K
 72
     1
 11
347.7466508537902
 21
58.73202258979017
 31
0.0
100
AcDbText
 73
     2
  0
LINE
  5
79E4
330
79B0
100
AcDbEntity
  8
WAKU
100
AcDbLine
 10
287.0
 20
55.0
 30
0.0
 11
349.0
 21
55.0
 31
0.0
  0
LINE
  5
79E5
330
79B0
100
AcDbEntity
  8
TEXT
100
AcDbLine
 10
211.0
 20
83.0
 30
0.0
 11
384.0
 21
83.0
 31
0.0
  0
LINE
  5
79E6
330
79B0
100
AcDbEntity
  8
SUNPOU
100
AcDbLine
 10
384.0
 20
69.0
 30
0.0
 11
211.0
 21
69.0
 31
0.0
  0
LINE
  5
79E7
330
79B0
100
AcDbEntity
  8
SUNPOU
100
AcDbLine
 10
211.0
 20
62.0
 30
0.0
 11
384.0
 21
62.0
 31
0.0
  0
LINE
  5
79E8
330
79B0
100
AcDbEntity
  8
TEXT
100
AcDbLine
 10
211.0
 20
76.00315013427092
 30
0.0
 11
384.0
 21
76.00315013427092
 31
0.0
  0
LINE
  5
79E9
330
79B0
100
AcDbEntity
  8
SUNPOU
100
AcDbLine
 10
308.0
 20
83.0
 30
0.0
 11
308.0
 21
55.0
 31
0.0
  0
LINE
  5
79EA
330
79B0
100
AcDbEntity
  8
SUNPOU
100
AcDbLine
 10
263.0
 20
83.0
 30
0.0
 11
263.0
 21
55.0
 31
0.0
  0
LINE
  5
79EB
330
79B0
100
AcDbEntity
  8
SUNPOU
100
AcDbLine
 10
218.0
 20
83.0
 30
0.0
 11
218.0
 21
55.0
 31
0.0
  0
LINE
  5
79EC
330
79B0
100
AcDbEntity
  8
SUNPOU
100
AcDbLine
 10
211.0
 20
83.0
 30
0.0
 11
211.0
 21
55.0
 31
0.0
  0
LINE
  5
79ED
330
79B0
100
AcDbEntity
  8
WAKU
100
AcDbLine
 10
287.0
 20
55.0
 30
0.0
 11
211.0
 21
55.0
 31
0.0
  0
TEXT
  5
79EE
330
79B0
100
AcDbEntity
  8
TEXT
100
AcDbText
 10
220.8767108238105
 20
3.0
 30
0.0
 40
2.6
  1
複写図面配布先： 購買  →発注先 フード生産技術 フード品質保証 開発部
  7
K
100
AcDbText
  0
TEXT
  5
79EF
330
79B0
100
AcDbEntity
  8
TEXT
100
AcDbText
 10
274.5
 20
30.16944230720361
 30
0.0
 40
2.0
  1
0.1
 41
0.8
  7
K
 11
274.5
 21
31.16944230720361
 31
0.0
100
AcDbText
 73
     2
  0
TEXT
  5
79F0
330
79B0
100
AcDbEntity
  8
TEXT
100
AcDbText
 10
274.5
 20
26.29722041378767
 30
0.0
 40
2.0
  1
0.1
 41
0.8
  7
K
 11
274.5
 21
27.29722041378767
 31
0.0
100
AcDbText
 73
     2
  0
TEXT
  5
79F1
330
79B0
100
AcDbEntity
  8
TEXT
100
AcDbText
 10
274.5
 20
22.42499852037173
 30
0.0
 40
2.0
  1
0.2
 41
0.8
  7
K
 11
274.5
 21
23.42499852037172
 31
0.0
100
AcDbText
 73
     2
  0
TEXT
  5
79F2
330
79B0
100
AcDbEntity
  8
TEXT
100
AcDbText
 10
274.5
 20
18.55277662695579
 30
0.0
 40
2.0
  1
0.3
 41
0.8
  7
K
 11
274.5
 21
19.55277662695579
 31
0.0
100
AcDbText
 73
     2
  0
TEXT
  5
79F3
330
79B0
100
AcDbEntity
  8
TEXT
100
AcDbText
 10
274.5
 20
14.68055473353985
 30
0.0
 40
2.0
  1
0.5
 41
0.8
  7
K
 11
274.5
 21
15.68055473353985
 31
0.0
100
AcDbText
 73
     2
  0
TEXT
  5
79F4
330
79B0
100
AcDbEntity
  8
TEXT
100
AcDbText
 10
274.5
 20
10.80833284012391
 30
0.0
 40
2.0
  1
0.8
 41
0.8
  7
K
 11
274.5
 21
11.8083328401239
 31
0.0
100
AcDbText
 73
     2
  0
TEXT
  5
79F5
330
79B0
100
AcDbEntity
  8
TEXT
100
AcDbText
 10
275.0857142857142
 20
33.50555325391157
 30
0.0
 40
2.7
  1
K
  7
K
 72
     1
 11
276.5
 21
34.85555325391158
 31
0.0
100
AcDbText
 73
     2
  0
TEXT
  5
79F6
330
79B0
100
AcDbEntity
  8
TEXT
100
AcDbText
 10
274.5
 20
6.93611094670797
 30
0.0
 40
2.0
  1
1.2
 41
0.8
  7
K
 11
274.5
 21
7.93611094670797
 31
0.0
100
AcDbText
 73
     2
  0
LINE
  5
79F7
330
79B0
100
AcDbEntity
  8
TEXT
100
AcDbLine
 10
245.0
 20
33.10555325391158
 30
0.0
 11
287.0
 21
33.10555325391158
 31
0.0
  0
LINE
  5
79F8
330
79B0
100
AcDbEntity
  8
TEXT
100
AcDbLine
 10
245.0
 20
29.23333136049564
 30
0.0
 11
287.0
 21
29.23333136049564
 31
0.0
  0
LINE
  5
79F9
330
79B0
100
AcDbEntity
  8
TEXT
100
AcDbLine
 10
287.0
 20
25.3611094670797
 30
0.0
 11
245.0
 21
25.3611094670797
 31
0.0
  0
LINE
  5
79FA
330
79B0
100
AcDbEntity
  8
TEXT
100
AcDbLine
 10
245.0
 20
21.48888757366376
 30
0.0
 11
287.0
 21
21.48888757366376
 31
0.0
  0
LINE
  5
79FB
330
79B0
100
AcDbEntity
  8
TEXT
100
AcDbLine
 10
287.0
 20
17.61666568024782
 30
0.0
 11
245.0
 21
17.61666568024782
 31
0.0
  0
LINE
  5
79FC
330
79B0
100
AcDbEntity
  8
TEXT
100
AcDbLine
 10
245.0
 20
13.74444378683188
 30
0.0
 11
287.0
 21
13.74444378683188
 31
0.0
  0
LINE
  5
79FD
330
79B0
100
AcDbEntity
  8
TEXT
100
AcDbLine
 10
287.0
 20
9.87222189341594
 30
0.0
 11
245.0
 21
9.87222189341594
 31
0.0
  0
LINE
  5
79FE
330
79B0
100
AcDbEntity
  8
WAKU
100
AcDbLine
 10
287.0
 20
36.60555325391158
 30
0.0
 11
211.0
 21
36.60555325391158
 31
0.0
  0
LINE
  5
79FF
330
79B0
100
AcDbEntity
  8
TEXT
100
AcDbLine
 10
211.0
 20
48.8685177513039
 30
0.0
 11
287.0
 21
48.8685177513039
 31
0.0
  0
LINE
  5
7A00
330
79B0
100
AcDbEntity
  8
TEXT
100
AcDbLine
 10
287.0
 20
42.73703550260768
 30
0.0
 11
211.0
 21
42.73703550260768
 31
0.0
  0
LINE
  5
7A01
330
79B0
100
AcDbEntity
  8
TEXT
100
AcDbLine
 10
273.0
 20
6.0
 30
0.0
 11
273.0
 21
36.60555325391158
 31
0.0
  0
LINE
  5
7A02
330
79B0
100
AcDbEntity
  8
SUNPOU
100
AcDbLine
 10
238.0
 20
30.75
 30
0.0
 11
238.0
 21
6.0
 31
0.0
  0
LINE
  5
7A03
330
79B0
100
AcDbEntity
  8
TEXT
100
AcDbLine
 10
245.0
 20
36.60555325391158
 30
0.0
 11
245.0
 21
6.0
 31
0.0
  0
LINE
  5
7A04
330
79B0
100
AcDbEntity
  8
TEXT
100
AcDbLine
 10
266.0
 20
36.60555325391158
 30
0.0
 11
266.0
 21
6.0
 31
0.0
  0
TEXT
  5
7A05
330
79B0
100
AcDbEntity
  8
TEXT
100
AcDbText
 10
220.8767108238105
 20
0.1999999999999886
 30
0.0
 40
2.399999999999999
  1
（必要に応じて追加・抹消）
  7
K
100
AcDbText
  0
TEXT
  5
7A06
330
79B0
100
AcDbEntity
  8
TEXT
100
AcDbText
 10
212.5
 20
6.887403254739353
 30
0.0
 40
2.0
  1
～
  7
K
 11
212.5
 21
7.887403254739353
 31
0.0
100
AcDbText
 73
     2
  0
TEXT
  5
7A07
330
79B0
100
AcDbEntity
  8
TEXT
100
AcDbText
 10
255.5587236705651
 20
6.93611094670797
 30
0.0
 40
2.0
  1
2000以下
 41
0.8
  7
K
 72
     2
 11
265.0672950991365
 21
7.93611094670797
 31
0.0
100
AcDbText
 73
     2
  0
TEXT
  5
7A08
330
79B0
100
AcDbEntity
  8
TEXT
100
AcDbText
 10
245.7760645443253
 20
6.93611094670797
 30
0.0
 40
2.0
  1
1000ｦｺｴ
 41
0.8
  7
K
 72
     2
 11
254.4313026395634
 21
7.93611094670797
 31
0.0
100
AcDbText
 73
     2
  0
TEXT
  5
7A09
330
79B0
100
AcDbEntity
  8
TEXT
100
AcDbText
 10
267.5
 20
6.93611094670797
 30
0.0
 40
2.0
  1
0.5
 41
0.8
  7
K
 11
267.5
 21
7.93611094670797
 31
0.0
100
AcDbText
 73
     2
  0
TEXT
  5
7A0A
330
79B0
100
AcDbEntity
  8
TEXT
100
AcDbText
 10
239.3571428571428
 20
10.24345914221055
 30
0.0
 40
1.5
  1
mm
  7
K
 72
     1
 11
241.5
 21
10.24345914221055
 31
0.0
100
AcDbText
  0
TEXT
  5
7A0B
330
79B0
100
AcDbEntity
  8
TEXT
100
AcDbText
 10
212.5
 20
32.14425883203125
 30
0.0
 40
3.0
  1
標準加工アラサ
  7
K
 72
     4
 11
224.5
 21
33.64425883203125
 31
0.0
100
AcDbText
  0
LINE
  5
7A0C
330
79B0
100
AcDbEntity
  8
SUNPOU
100
AcDbLine
 10
238.0
 20
55.0
 30
0.0
 11
238.0
 21
30.75
 31
0.0
  0
LINE
  5
7A0D
330
79B0
100
AcDbEntity
  8
TEXT
100
AcDbLine
 10
211.0
 20
30.68296441015093
 30
0.0
 11
238.0
 21
30.68296441015093
 31
0.0
  0
LINE
  5
7A0E
330
79B0
100
AcDbEntity
  8
TEXT
100
AcDbLine
 10
211.0
 20
24.87403254739342
 30
0.0
 11
238.0
 21
24.87403254739342
 31
0.0
  0
TEXT
  5
7A0F
330
79B0
100
AcDbEntity
  8
TEXT
100
AcDbText
 10
212.82
 20
26.52630198798243
 30
0.0
 40
3.0
  1
(標準外ﾊ指定ﾉｺﾄ)
 41
0.8
  7
K
 72
     4
 11
224.5
 21
27.81201627369671
 31
0.0
100
AcDbText
  0
TEXT
  5
7A10
330
79B0
100
AcDbEntity
  8
TEXT
100
AcDbText
 10
212.5
 20
18.21182278317542
 30
0.0
 40
2.0
  1
▽▽▽
  7
K
 11
212.5
 21
19.21182278317542
 31
0.0
100
AcDbText
 73
     2
  0
TEXT
  5
7A11
330
79B0
100
AcDbEntity
  8
TEXT
100
AcDbText
 10
212.5
 20
14.43701627369671
 30
0.0
 40
2.0
  1
▽▽
  7
K
 11
212.5
 21
15.43701627369671
 31
0.0
100
AcDbText
 73
     2
  0
TEXT
  5
7A12
330
79B0
100
AcDbEntity
  8
TEXT
100
AcDbText
 10
212.5
 20
10.662209764218
 30
0.0
 40
2.0
  1
▽
  7
K
 11
212.5
 21
11.662209764218
 31
0.0
100
AcDbText
 73
     2
  0
TEXT
  5
7A13
330
79B0
100
AcDbEntity
  8
TEXT
100
AcDbText
 10
212.5
 20
21.98662929265407
 30
0.0
 40
2.0
  1
▽▽▽▽
  7
K
 11
212.5
 21
22.98662929265407
 31
0.0
100
AcDbText
 73
     2
  0
TEXT
  5
7A14
330
79B0
100
AcDbEntity
  8
TEXT
100
AcDbText
 10
240.24
 20
18.90873700804877
 30
0.0
 40
2.7
  1
法
  7
K
 72
     1
 11
241.5
 21
18.90873700804877
 31
0.0
100
AcDbText
  0
TEXT
  5
7A15
330
79B0
100
AcDbEntity
  8
TEXT
100
AcDbText
 10
229.1666666666666
 20
10.662209764218
 30
0.0
 40
2.0
  1
100Z
  7
K
 72
     2
 11
236.5
 21
11.662209764218
 31
0.0
100
AcDbText
 73
     2
  0
TEXT
  5
7A16
330
79B0
100
AcDbEntity
  8
TEXT
100
AcDbText
 10
231.0714285714285
 20
14.43701627369671
 30
0.0
 40
2.0
  1
25Z
  7
K
 72
     2
 11
236.5
 21
15.43701627369671
 31
0.0
100
AcDbText
 73
     2
  0
TEXT
  5
7A17
330
79B0
100
AcDbEntity
  8
TEXT
100
AcDbText
 10
230.1190476190476
 20
18.21182278317542
 30
0.0
 40
2.0
  1
6.3Z
  7
K
 72
     2
 11
236.5
 21
19.21182278317542
 31
0.0
100
AcDbText
 73
     2
  0
TEXT
  5
7A18
330
79B0
100
AcDbEntity
  8
TEXT
100
AcDbText
 10
237.9523809523809
 20
11.16190406596939
 30
0.0
 40
2.0
  1
(
  7
K
 72
     2
 11
239.0
 21
12.16190406596939
 31
0.0
100
AcDbText
 73
     2
  0
TEXT
  5
7A19
330
79B0
100
AcDbEntity
  8
TEXT
100
AcDbText
 10
240.5666666666666
 20
12.16190406596939
 30
0.0
 40
2.0
  1
±
  7
K
 72
     1
 11
241.5
 21
12.16190406596939
 31
0.0
100
AcDbText
  0
TEXT
  5
7A1A
330
79B0
100
AcDbEntity
  8
TEXT
100
AcDbText
 10
240.24
 20
15.80873700804875
 30
0.0
 40
2.7
  1
差
  7
K
 72
     1
 11
241.5
 21
15.80873700804875
 31
0.0
100
AcDbText
  0
TEXT
  5
7A1B
330
79B0
100
AcDbEntity
  8
TEXT
100
AcDbText
 10
230.1190476190476
 20
21.98662929265407
 30
0.0
 40
2.0
  1
0.8Z
  7
K
 72
     2
 11
236.5
 21
22.98662929265407
 31
0.0
100
AcDbText
 73
     2
  0
TEXT
  5
7A1C
330
79B0
100
AcDbEntity
  8
TEXT
100
AcDbText
 10
240.24
 20
25.10873700804876
 30
0.0
 40
2.7
  1
通
  7
K
 72
     1
 11
241.5
 21
25.10873700804876
 31
0.0
100
AcDbText
  0
TEXT
  5
7A1D
330
79B0
100
AcDbEntity
  8
TEXT
100
AcDbText
 10
240.24
 20
22.00873700804874
 30
0.0
 40
2.7
  1
寸
  7
K
 72
     1
 11
241.5
 21
22.00873700804874
 31
0.0
100
AcDbText
  0
TEXT
  5
7A1E
330
79B0
100
AcDbEntity
  8
TEXT
100
AcDbText
 10
240.24
 20
28.20873700804872
 30
0.0
 40
2.7
  1
普
  7
K
 72
     1
 11
241.5
 21
28.20873700804872
 31
0.0
100
AcDbText
  0
TEXT
  5
7A1F
330
79B0
100
AcDbEntity
  8
TEXT
100
AcDbText
 10
214.0657864606291
 20
50.43425887565195
 30
0.0
 40
3.0
  1
表面処理
  7
K
 11
214.0657864606291
 21
51.93425887565195
 31
0.0
100
AcDbText
 73
     2
  0
TEXT
  5
7A20
330
79B0
100
AcDbEntity
  8
TEXT
100
AcDbText
 10
214.0657864606291
 20
38.17129437825963
 30
0.0
 40
3.0
  1
適用規格など
  7
K
 11
214.0657864606291
 21
39.67129437825963
 31
0.0
100
AcDbText
 73
     2
  0
TEXT
  5
7A21
330
79B0
100
AcDbEntity
  8
TEXT
100
AcDbText
 10
214.0657864606291
 20
44.30277662695579
 30
0.0
 40
3.0
  1
色調
  7
K
 11
214.0657864606291
 21
45.80277662695579
 31
0.0
100
AcDbText
 73
     2
  0
TEXT
  5
7A22
330
79B0
100
AcDbEntity
  8
TEXT
100
AcDbText
 10
258.6063427181841
 20
22.42499852037173
 30
0.0
 40
2.0
  1
30以下
 41
0.8
  7
K
 72
     2
 11
265.0672950991365
 21
23.42499852037172
 31
0.0
100
AcDbText
 73
     2
  0
TEXT
  5
7A23
330
79B0
100
AcDbEntity
  8
TEXT
100
AcDbText
 10
257.0825331943746
 20
18.55277662695579
 30
0.0
 40
2.0
  1
120以下
 41
0.8
  7
K
 72
     2
 11
265.0672950991365
 21
19.55277662695579
 31
0.0
100
AcDbText
 73
     2
  0
TEXT
  5
7A24
330
79B0
100
AcDbEntity
  8
TEXT
100
AcDbText
 10
255.5587236705651
 20
10.80833284012391
 30
0.0
 40
2.0
  1
1000以下
 41
0.8
  7
K
 72
     2
 11
265.0672950991365
 21
11.8083328401239
 31
0.0
100
AcDbText
 73
     2
  0
TEXT
  5
7A25
330
79B0
100
AcDbEntity
  8
TEXT
100
AcDbText
 10
257.0825331943746
 20
14.68055473353985
 30
0.0
 40
2.0
  1
315以下
 41
0.8
  7
K
 72
     2
 11
265.0672950991365
 21
15.68055473353985
 31
0.0
100
AcDbText
 73
     2
  0
TEXT
  5
7A26
330
79B0
100
AcDbEntity
  8
TEXT
100
AcDbText
 10
247.2998740681349
 20
10.80833284012391
 30
0.0
 40
2.0
  1
315ｦｺｴ
 41
0.8
  7
K
 72
     2
 11
254.4313026395634
 21
11.8083328401239
 31
0.0
100
AcDbText
 73
     2
  0
TEXT
  5
7A27
330
79B0
100
AcDbEntity
  8
TEXT
100
AcDbText
 10
247.2998740681349
 20
14.68055473353985
 30
0.0
 40
2.0
  1
120ｦｺｴ
 41
0.8
  7
K
 72
     2
 11
254.4313026395634
 21
15.68055473353985
 31
0.0
100
AcDbText
 73
     2
  0
TEXT
  5
7A28
330
79B0
100
AcDbEntity
  8
TEXT
100
AcDbText
 10
248.8236835919444
 20
18.55277662695579
 30
0.0
 40
2.0
  1
30ｦｺｴ
 41
0.8
  7
K
 72
     2
 11
254.4313026395634
 21
19.55277662695579
 31
0.0
100
AcDbText
 73
     2
  0
TEXT
  5
7A29
330
79B0
100
AcDbEntity
  8
TEXT
100
AcDbText
 10
243.6235286514975
 20
11.16190406596939
 30
0.0
 40
2.0
  1
)
  7
K
 11
243.6235286514975
 21
12.16190406596939
 31
0.0
100
AcDbText
 73
     2
  0
TEXT
  5
7A2A
330
79B0
100
AcDbEntity
  8
TEXT
100
AcDbText
 10
250.3474931157539
 20
22.42499852037173
 30
0.0
 40
2.0
  1
6ｦｺｴ
 41
0.8
  7
K
 72
     2
 11
254.4313026395634
 21
23.42499852037172
 31
0.0
100
AcDbText
 73
     2
  0
TEXT
  5
7A2B
330
79B0
100
AcDbEntity
  8
TEXT
100
AcDbText
 10
250.3474931157539
 20
26.29722041378767
 30
0.0
 40
2.0
  1
3ｦｺｴ
 41
0.8
  7
K
 72
     2
 11
254.4313026395634
 21
27.29722041378767
 31
0.0
100
AcDbText
 73
     2
  0
TEXT
  5
7A2C
330
79B0
100
AcDbEntity
  8
TEXT
100
AcDbText
 10
247.2084454967063
 20
30.16944230720361
 30
0.0
 40
2.0
  1
0.5以上
 41
0.8
  7
K
 72
     2
 11
254.4313026395634
 21
31.16944230720361
 31
0.0
100
AcDbText
 73
     2
  0
TEXT
  5
7A2D
330
79B0
100
AcDbEntity
  8
TEXT
100
AcDbText
 10
267.5
 20
14.68055473353985
 30
0.0
 40
2.0
  1
0.2
 41
0.8
  7
K
 11
267.5
 21
15.68055473353985
 31
0.0
100
AcDbText
 73
     2
  0
TEXT
  5
7A2E
330
79B0
100
AcDbEntity
  8
TEXT
100
AcDbText
 10
267.5
 20
10.80833284012391
 30
0.0
 40
2.0
  1
0.3
 41
0.8
  7
K
 11
267.5
 21
11.8083328401239
 31
0.0
100
AcDbText
 73
     2
  0
TEXT
  5
7A2F
330
79B0
100
AcDbEntity
  8
TEXT
100
AcDbText
 10
267.5
 20
18.55277662695579
 30
0.0
 40
2.0
  1
0.15
 41
0.8
  7
K
 11
267.5
 21
19.55277662695579
 31
0.0
100
AcDbText
 73
     2
  0
TEXT
  5
7A30
330
79B0
100
AcDbEntity
  8
TEXT
100
AcDbText
 10
260.1301522419936
 20
26.29722041378767
 30
0.0
 40
2.0
  1
6以下
 41
0.8
  7
K
 72
     2
 11
265.0672950991365
 21
27.29722041378767
 31
0.0
100
AcDbText
 73
     2
  0
TEXT
  5
7A31
330
79B0
100
AcDbEntity
  8
TEXT
100
AcDbText
 10
260.1301522419936
 20
30.16944230720361
 30
0.0
 40
2.0
  1
3以下
 41
0.8
  7
K
 72
     2
 11
265.0672950991365
 21
31.16944230720361
 31
0.0
100
AcDbText
 73
     2
  0
TEXT
  5
7A32
330
79B0
100
AcDbEntity
  8
TEXT
100
AcDbText
 10
267.5
 20
26.29722041378767
 30
0.0
 40
2.0
  1
0.05
 41
0.8
  7
K
 11
267.5
 21
27.29722041378767
 31
0.0
100
AcDbText
 73
     2
  0
TEXT
  5
7A33
330
79B0
100
AcDbEntity
  8
TEXT
100
AcDbText
 10
267.5
 20
22.42499852037173
 30
0.0
 40
2.0
  1
0.1
 41
0.8
  7
K
 11
267.5
 21
23.42499852037172
 31
0.0
100
AcDbText
 73
     2
  0
TEXT
  5
7A34
330
79B0
100
AcDbEntity
  8
TEXT
100
AcDbText
 10
267.5
 20
30.16944230720361
 30
0.0
 40
2.0
  1
0.05
 41
0.8
  7
K
 11
267.5
 21
31.16944230720361
 31
0.0
100
AcDbText
 73
     2
  0
TEXT
  5
7A35
330
79B0
100
AcDbEntity
  8
TEXT
100
AcDbText
 10
246.95
 20
33.50555325391157
 30
0.0
 40
2.7
  1
呼 ビ 寸 法
  7
K
 72
     1
 11
255.5
 21
34.85555325391158
 31
0.0
100
AcDbText
 73
     2
  0
TEXT
  5
7A36
330
79B0
100
AcDbEntity
  8
TEXT
100
AcDbText
 10
268.6
 20
33.50555325391157
 30
0.0
 40
2.7
  1
J
  7
K
 72
     1
 11
269.4999999999999
 21
34.85555325391158
 31
0.0
100
AcDbText
 73
     2
  0
TEXT
  5
7A37
330
79B0
100
AcDbEntity
  8
TEXT
100
AcDbText
 10
288.0
 20
8.0
 30
0.0
 40
3.0
  1
承認
  7
K
100
AcDbText
  0
LINE
  5
7A38
330
79B0
100
AcDbEntity
  8
WAKU
100
AcDbLine
 10
324.0
 20
6.0
 30
0.0
 11
324.0
 21
19.0
 31
0.0
  0
LINE
  5
7A39
330
79B0
100
AcDbEntity
  8
SUNPOU
100
AcDbLine
 10
308.0
 20
39.0
 30
0.0
 11
308.0
 21
6.0
 31
0.0
  0
LINE
  5
7A3A
330
79B0
100
AcDbEntity
  8
WAKU
100
AcDbLine
 10
287.0
 20
6.0
 30
0.0
 11
287.0
 21
39.0
 31
0.0
  0
LINE
  5
7A3B
330
79B0
100
AcDbEntity
  8
SUNPOU
100
AcDbLine
 10
296.0
 20
39.0
 30
0.0
 11
296.0
 21
6.0
 31
0.0
  0
LINE
  5
7A3C
330
79B0
100
AcDbEntity
  8
TEXT
100
AcDbLine
 10
280.0
 20
36.60555325391158
 30
0.0
 11
280.0
 21
6.0
 31
0.0
  0
TEXT
  5
7A3D
330
79B0
100
AcDbEntity
  8
TEXT
100
AcDbText
 10
281.4999999999999
 20
6.93611094670797
 30
0.0
 40
2.0
  1
3
 41
0.8
  7
K
 11
281.4999999999999
 21
7.93611094670797
 31
0.0
100
AcDbText
 73
     2
  0
CIRCLE
  5
7A3E
330
79B0
100
AcDbEntity
  8
JISSEN
100
AcDbCircle
 10
313.3333333333332
 20
7.0
 30
0.0
 40
0.2
  0
CIRCLE
  5
7A3F
330
79B0
100
AcDbEntity
  8
JISSEN
100
AcDbCircle
 10
318.6666666666667
 20
7.0
 30
0.0
 40
0.2
  0
LINE
  5
7A40
330
79B0
100
AcDbEntity
  8
WAKU
100
AcDbLine
 10
287.0
 20
39.0
 30
0.0
 11
324.0
 21
39.0
 31
0.0
  0
LINE
  5
7A41
330
79B0
100
AcDbEntity
  8
SUNPOU
100
AcDbLine
 10
287.0
 20
22.5
 30
0.0
 11
324.0
 21
22.5
 31
0.0
  0
LINE
  5
7A42
330
79B0
100
AcDbEntity
  8
SUNPOU
100
AcDbLine
 10
324.0
 20
14.25
 30
0.0
 11
287.0
 21
14.25
 31
0.0
  0
LINE
  5
7A43
330
79B0
100
AcDbEntity
  8
SUNPOU
100
AcDbLine
 10
324.0
 20
30.75
 30
0.0
 11
287.0
 21
30.75
 31
0.0
  0
TEXT
  5
7A44
330
79B0
100
AcDbEntity
  8
TEXT
100
AcDbText
 10
288.0
 20
16.25
 30
0.0
 40
3.0
  1
検図
  7
K
100
AcDbText
  0
TEXT
  5
7A45
330
79B0
100
AcDbEntity
  8
TEXT
100
AcDbText
 10
288.0
 20
24.5
 30
0.0
 40
3.0
  1
製図
  7
K
100
AcDbText
  0
TEXT
  5
7A46
330
79B0
100
AcDbEntity
  8
TEXT
100
AcDbText
 10
281.4999999999999
 20
14.68055473353985
 30
0.0
 40
2.0
  1
1.2
 41
0.8
  7
K
 11
281.4999999999999
 21
15.68055473353985
 31
0.0
100
AcDbText
 73
     2
  0
TEXT
  5
7A47
330
79B0
100
AcDbEntity
  8
TEXT
100
AcDbText
 10
281.4999999999999
 20
18.55277662695579
 30
0.0
 40
2.0
  1
0.8
 41
0.8
  7
K
 11
281.4999999999999
 21
19.55277662695579
 31
0.0
100
AcDbText
 73
     2
  0
TEXT
  5
7A48
330
79B0
100
AcDbEntity
  8
TEXT
100
AcDbText
 10
281.4999999999999
 20
10.80833284012391
 30
0.0
 40
2.0
  1
2
 41
0.8
  7
K
 11
281.4999999999999
 21
11.8083328401239
 31
0.0
100
AcDbText
 73
     2
  0
LINE
  5
7A49
330
79B0
100
AcDbEntity
  8
TEXT
100
AcDbLine
 10
281.4999999999999
 20
31.16944230720361
 30
0.0
 11
285.1060332593608
 21
31.16944230720361
 31
0.0
  0
TEXT
  5
7A4A
330
79B0
100
AcDbEntity
  8
TEXT
100
AcDbText
 10
281.4999999999999
 20
26.29722041378767
 30
0.0
 40
2.0
  1
0.2
 41
0.8
  7
K
 11
281.4999999999999
 21
27.29722041378767
 31
0.0
100
AcDbText
 73
     2
  0
TEXT
  5
7A4B
330
79B0
100
AcDbEntity
  8
TEXT
100
AcDbText
 10
281.4999999999999
 20
22.42499852037173
 30
0.0
 40
2.0
  1
0.5
 41
0.8
  7
K
 11
281.4999999999999
 21
23.42499852037172
 31
0.0
100
AcDbText
 73
     2
  0
TEXT
  5
7A4C
330
79B0
100
AcDbEntity
  8
TEXT
100
AcDbText
 10
288.0
 20
45.0
 30
0.0
 40
3.0
  1
品名
  7
K
100
AcDbText
  0
TEXT
  5
7A4D
330
79B0
100
AcDbEntity
  8
TEXT
100
AcDbText
 10
288.0
 20
32.75
 30
0.0
 40
3.0
  1
設計
  7
K
100
AcDbText
  0
LINE
  5
7A4E
330
79B0
100
AcDbEntity
  8
WAKU
100
AcDbLine
 10
287.0
 20
39.0
 30
0.0
 11
287.0
 21
55.0
 31
0.0
  0
TEXT
  5
7A4F
330
79B0
100
AcDbEntity
  8
TEXT
100
AcDbText
 10
282.2142857142857
 20
33.50555325391157
 30
0.0
 40
2.7
  1
L
  7
K
 72
     1
 11
283.4999999999999
 21
34.85555325391158
 31
0.0
100
AcDbText
 73
     2
  0
LINE
  5
7A50
330
79B0
100
AcDbEntity
  8
SUNPOU
100
AcDbLine
 10
296.0
 20
55.0
 30
0.0
 11
296.0
 21
39.0
 31
0.0
  0
LINE
  5
7A51
330
79B0
100
AcDbEntity
  8
WAKU
100
AcDbLine
 10
324.0
 20
32.0
 30
0.0
 11
324.0
 21
39.0
 31
0.0
  0
LINE
  5
7A52
330
79B0
100
AcDbEntity
  8
WAKU
100
AcDbLine
 10
324.0
 20
19.0
 30
0.0
 11
324.0
 21
32.0
 31
0.0
  0
CIRCLE
  5
7A53
330
79B0
100
AcDbEntity
  8
JISSEN
100
AcDbCircle
 10
313.3333333333332
 20
15.25
 30
0.0
 40
0.2
  0
CIRCLE
  5
7A54
330
79B0
100
AcDbEntity
  8
JISSEN
100
AcDbCircle
 10
318.6666666666667
 20
15.25
 30
0.0
 40
0.2
  0
CIRCLE
  5
7A55
330
79B0
100
AcDbEntity
  8
JISSEN
100
AcDbCircle
 10
313.3333333333332
 20
23.5
 30
0.0
 40
0.2
  0
CIRCLE
  5
7A56
330
79B0
100
AcDbEntity
  8
JISSEN
100
AcDbCircle
 10
313.3333333333332
 20
31.75
 30
0.0
 40
0.2
  0
CIRCLE
  5
7A57
330
79B0
100
AcDbEntity
  8
JISSEN
100
AcDbCircle
 10
318.6666666666667
 20
23.5
 30
0.0
 40
0.2
  0
CIRCLE
  5
7A58
330
79B0
100
AcDbEntity
  8
JISSEN
100
AcDbCircle
 10
318.6666666666667
 20
31.75
 30
0.0
 40
0.2
  0
LINE
  5
7A59
330
79B0
100
AcDbEntity
  8
SUNPOU
100
AcDbLine
 10
336.0
 20
32.0
 30
0.0
 11
336.0
 21
19.0
 31
0.0
  0
TEXT
  5
7A5A
330
79B0
100
AcDbEntity
  8
TEXT
100
AcDbText
 10
328.485167223504
 20
10.0
 30
0.0
 40
2.0
  1
株式会社
  7
K
100
AcDbText
  0
TEXT
  5
7A5B
330
79B0
100
AcDbEntity
  8
TEXT
100
AcDbText
 10
326.6999999999999
 20
24.0
 30
0.0
 40
3.0
  1
図番
  7
K
 72
     4
 11
330.0
 21
25.5
 31
0.0
100
AcDbText
  0
TEXT
  5
7A5C
330
79B0
100
AcDbEntity
  8
TEXT
100
AcDbText
 10
274.3
 20
57.23202258979018
 30
0.0
 40
3.0
  1
品         名
  7
K
 72
     1
 11
285.5
 21
58.73202258979017
 31
0.0
100
AcDbText
 73
     2
  0
TEXT
  5
7A5D
330
79B0
100
AcDbEntity
  8
TEXT
100
AcDbText
 10
229.0999999999999
 20
57.23202258979018
 30
0.0
 40
3.0
  1
図         番
  7
K
 72
     1
 11
240.5
 21
58.73202258979017
 31
0.0
100
AcDbText
 73
     2
  0
TEXT
  5
7A5E
330
79B0
100
AcDbEntity
  8
TEXT
100
AcDbText
 10
212.0714285714285
 20
57.73202258979018
 30
0.0
 40
2.0
  1
No.
  7
K
 72
     1
 11
214.5
 21
58.73202258979017
 31
0.0
100
AcDbText
 73
     2
  0
LINE
  5
7A5F
330
79B0
100
AcDbEntity
  8
WAKU
100
AcDbLine
 10
384.0
 20
55.0
 30
0.0
 11
349.0
 21
55.0
 31
0.0
  0
TEXT
  5
7A60
330
79B0
100
AcDbEntity
  8
TEXT
100
AcDbText
 10
367.0633115578711
 20
33.41726061251677
 30
0.0
 40
2.5
  1
(単位mm)
  7
K
100
AcDbText
  0
LINE
  5
7A61
330
79B0
100
AcDbEntity
  8
SUNPOU
100
AcDbLine
 10
349.0
 20
47.0
 30
0.0
 11
384.0
 21
47.0
 31
0.0
  0
LINE
  5
7A62
330
79B0
100
AcDbEntity
  8
SUNPOU
100
AcDbLine
 10
356.0
 20
32.0
 30
0.0
 11
356.0
 21
39.0
 31
0.0
  0
LINE
  5
7A63
330
79B0
100
AcDbEntity
  8
SUNPOU
100
AcDbLine
 10
347.0
 20
39.0
 30
0.0
 11
347.0
 21
32.0
 31
0.0
  0
TEXT
  5
7A64
330
79B0
100
AcDbEntity
  8
TEXT
100
AcDbText
 10
350.0
 20
49.0
 30
0.0
 40
3.0
  1
材 質
  7
K
100
AcDbText
  0
TEXT
  5
7A65
330
79B0
100
AcDbEntity
  8
TEXT
100
AcDbText
 10
350.0
 20
41.0
 30
0.0
 40
3.0
  1
板 厚
  7
K
100
AcDbText
  0
LINE
  5
7A66
330
79B0
100
AcDbEntity
  8
WAKU
100
AcDbLine
 10
349.0
 20
55.0
 30
0.0
 11
349.0
 21
39.0
 31
0.0
  0
TEXT
  5
7A67
330
79B0
100
AcDbEntity
  8
TEXT
100
AcDbText
 10
348.0
 20
34.0
 30
0.0
 40
3.0
  1
尺度
  7
K
100
AcDbText
  0
LINE
  5
7A68
330
79B0
100
AcDbEntity
  8
SUNPOU
100
AcDbLine
 10
360.0
 20
55.0
 30
0.0
 11
360.0
 21
39.0
 31
0.0
  0
TEXT
  5
7A69
330
79B0
100
AcDbEntity
  8
TEXT
100
AcDbText
 10
385.1333333333333
 20
99.60134216402344
 30
0.0
 40
4.0
  1
ず
  7
K
 72
     1
 11
387.0
 21
101.6013421640234
 31
0.0
100
AcDbText
 73
     2
  0
TEXT
  5
7A6A
330
79B0
100
AcDbEntity
  8
TEXT
100
AcDbText
 10
385.0346249501075
 20
64.86078937622085
 30
0.0
 40
4.0
  1
の
  7
K
 72
     4
 11
386.9012916167741
 21
66.86078937622085
 31
0.0
100
AcDbText
  0
TEXT
  5
7A6B
330
79B0
100
AcDbEntity
  8
TEXT
100
AcDbText
 10
385.1333333333333
 20
60.60134216402343
 30
0.0
 40
4.0
  1
こ
  7
K
 72
     1
 11
387.0
 21
62.60134216402343
 31
0.0
100
AcDbText
 73
     2
  0
TEXT
  5
7A6C
330
79B0
100
AcDbEntity
  8
TEXT
100
AcDbText
 10
385.1333333333333
 20
55.60134216402343
 30
0.0
 40
4.0
  1
と
  7
K
 72
     1
 11
387.0
 21
57.60134216402343
 31
0.0
100
AcDbText
 73
     2
  0
TEXT
  5
7A6D
330
79B0
100
AcDbEntity
  8
TEXT
100
AcDbText
 10
385.1333333333333
 20
69.60134216402344
 30
0.0
 40
4.0
  1
却
  7
K
 72
     1
 11
387.0
 21
71.60134216402344
 31
0.0
100
AcDbText
 73
     2
  0
TEXT
  5
7A6E
330
79B0
100
AcDbEntity
  8
TEXT
100
AcDbText
 10
385.1333333333333
 20
74.60134216402344
 30
0.0
 40
4.0
  1
返
  7
K
 72
     1
 11
387.0
 21
76.60134216402344
 31
0.0
100
AcDbText
 73
     2
  0
TEXT
  5
7A6F
330
79B0
100
AcDbEntity
  8
TEXT
100
AcDbText
 10
385.1333333333333
 20
89.60134216402343
 30
0.0
 40
4.0
  1
行
  7
K
 72
     1
 11
387.0
 21
91.60134216402344
 31
0.0
100
AcDbText
 73
     2
  0
TEXT
  5
7A70
330
79B0
100
AcDbEntity
  8
TEXT
100
AcDbText
 10
385.1333333333333
 20
84.60134216402343
 30
0.0
 40
4.0
  1
元
  7
K
 72
     1
 11
387.0
 21
86.60134216402344
 31
0.0
100
AcDbText
 73
     2
  0
TEXT
  5
7A71
330
79B0
100
AcDbEntity
  8
TEXT
100
AcDbText
 10
385.2666666666666
 20
79.60134216402344
 30
0.0
 40
4.0
  1
へ
  7
K
 72
     1
 11
387.0
 21
81.60134216402344
 31
0.0
100
AcDbText
 73
     2
  0
TEXT
  5
7A72
330
79B0
100
AcDbEntity
  8
TEXT
100
AcDbText
 10
385.1333333333333
 20
94.60134216402343
 30
0.0
 40
4.0
  1
発
  7
K
 72
     1
 11
387.0
 21
96.60134216402344
 31
0.0
100
AcDbText
 73
     2
  0
TEXT
  5
7A73
330
79B0
100
AcDbEntity
  8
TEXT
100
AcDbText
 10
385.1333333333333
 20
124.6013421640234
 30
0.0
 40
4.0
  1
済
  7
K
 72
     1
 11
387.0
 21
126.6013421640234
 31
0.0
100
AcDbText
 73
     2
  0
TEXT
  5
7A74
330
79B0
100
AcDbEntity
  8
TEXT
100
AcDbText
 10
385.1333333333333
 20
104.6013421640234
 30
0.0
 40
4.0
  1
必
  7
K
 72
     1
 11
387.0
 21
106.6013421640234
 31
0.0
100
AcDbText
 73
     2
  0
TEXT
  5
7A75
330
79B0
100
AcDbEntity
  8
TEXT
100
AcDbText
 10
387.9256954922052
 20
111.2049702787619
 30
0.0
 40
4.0
  1
、
  7
K
 72
     1
 11
388.4590288255385
 21
113.2049702787619
 31
0.0
100
AcDbText
 73
     2
  0
TEXT
  5
7A76
330
79B0
100
AcDbEntity
  8
TEXT
100
AcDbText
 10
385.1333333333333
 20
114.6013421640234
 30
0.0
 40
4.0
  1
後
  7
K
 72
     1
 11
387.0
 21
116.6013421640234
 31
0.0
100
AcDbText
 73
     2
  0
TEXT
  5
7A77
330
79B0
100
AcDbEntity
  8
TEXT
100
AcDbText
 10
385.2666666666666
 20
119.6013421640234
 30
0.0
 40
4.0
  1
み
  7
K
 72
     1
 11
387.0
 21
121.6013421640234
 31
0.0
100
AcDbText
 73
     2
  0
TEXT
  5
7A78
330
79B0
100
AcDbEntity
  8
TEXT
100
AcDbText
 10
385.1333333333333
 20
134.6013421640234
 30
0.0
 40
4.0
  1
は
  7
K
 72
     1
 11
387.0
 21
136.6013421640234
 31
0.0
100
AcDbText
 73
     2
  0
TEXT
  5
7A79
330
79B0
100
AcDbEntity
  8
TEXT
100
AcDbText
 10
385.2666666666666
 20
129.6013421640234
 30
0.0
 40
4.0
  1
用
  7
K
 72
     1
 11
387.0
 21
131.6013421640234
 31
0.0
100
AcDbText
 73
     2
  0
TEXT
  5
7A7A
330
79B0
100
AcDbEntity
  8
TEXT
100
AcDbText
 10
385.1333333333333
 20
139.6013421640234
 30
0.0
 40
4.0
  1
図
  7
K
 72
     1
 11
387.0
 21
141.6013421640234
 31
0.0
100
AcDbText
 73
     2
  0
LINE
  5
7A7B
330
79B0
100
AcDbEntity
  8
WAKU
100
AcDbLine
 10
211.0
 20
55.0
 30
0.0
 11
211.0
 21
6.0
 31
0.0
  0
ENDBLK
  5
7A7D
330
79B0
100
AcDbEntity
  8
0
100
AcDbBlockEnd
  0
BLOCK
  5
7A9B
330
7A8E
100
AcDbEntity
  8
0
100
AcDbBlockBegin
  2
*D12
 70
     1
 10
0.0
 20
0.0
 30
0.0
  3
*D12
  1

  0
LINE
  5
7A9C
330
7A8E
100
AcDbEntity
  8
0
  6
BYBLOCK
 62
     0
100
AcDbLine
 10
214.09138779
 20
125.8785715273608
 30
0.0
 11
214.09138779
 21
50.61745371553366
 31
0.0
  0
LINE
  5
7A9D
330
7A8E
100
AcDbEntity
  8
0
  6
BYBLOCK
 62
     0
100
AcDbLine
 10
429.0913877899998
 20
125.8785715273608
 30
0.0
 11
429.0913877899998
 21
50.61745371553366
 31
0.0
  0
LINE
  5
7A9E
330
7A8E
100
AcDbEntity
  8
0
  6
BYBLOCK
 62
     0
100
AcDbLine
 10
229.0913877900001
 20
55.61745371553366
 30
0.0
 11
414.0913877899999
 21
55.61745371553366
 31
0.0
  0
INSERT
  5
7A9F
330
7A8E
100
AcDbEntity
  8
0
  6
BYBLOCK
 62
     0
100
AcDbBlockReference
  2
ARROW
 10
214.09138779
 20
55.61745371553366
 30
0.0
 41
15.0
 42
15.0
 43
15.0
 50
180.0
  0
INSERT
  5
7AA0
330
7A8E
100
AcDbEntity
  8
0
  6
BYBLOCK
 62
     0
100
AcDbBlockReference
  2
ARROW
 10
429.0913877899998
 20
55.61745371553366
 30
0.0
 41
15.0
 42
15.0
 43
15.0
  0
MTEXT
  5
7AA1
330
7A8E
100
AcDbEntity
  8
0
  6
BYBLOCK
 62
     0
100
AcDbMText
 10
313.8144104355215
 20
70.61745371553366
 30
0.0
 40
15.0
 41
0.0
 71
     5
 72
     1
  1
\A1;215
1001
ACAD
1000
MTEXTBEGIN
1070
    73
1070
     1
1070
    44
1040
1.0
1070
    74
1070
     0
1000
MTEXTEND
  0
POINT
  5
7AA2
330
7A8E
100
AcDbEntity
  8
DEFPOINTS
  6
BYBLOCK
 62
     0
100
AcDbPoint
 10
214.09138779
 20
130.8785715273608
 30
0.0
  0
POINT
  5
7AA3
330
7A8E
100
AcDbEntity
  8
DEFPOINTS
  6
BYBLOCK
 62
     0
100
AcDbPoint
 10
429.0913877899998
 20
130.8785715273607
 30
0.0
  0
POINT
  5
7AA4
330
7A8E
100
AcDbEntity
  8
DEFPOINTS
  6
BYBLOCK
 62
     0
100
AcDbPoint
 10
429.0913877899998
 20
55.61745371553366
 30
0.0
  0
ENDBLK
  5
7AA5
330
7A8E
100
AcDbEntity
  8
0
100
AcDbBlockEnd
  0
ENDSEC
  0
SECTION
  2
ENTITIES
  0
MTEXT
  5
67D
330
DF
100
AcDbEntity
  8
SUNPOU
100
AcDbMText
 10
5227.136216033687
 20
-13932.05408441242
 30
0.0
 40
6.0
 41
0.0
 71
     6
 72
     1
  1
\A1;
1001
ACAD
1000
MTEXTBEGIN
1070
    73
1070
     1
1070
    44
1040
1.0
1070
    74
1070
     0
1000
MTEXTEND
  0
LINE
  5
751C
330
DF
100
AcDbEntity
  8
ITTEN
100
AcDbLine
 10
254.09138779
 20
120.8785715273608
 30
0.0
 11
254.09138779
 21
620.8785715273608
 31
0.0
  0
LINE
  5
7526
330
DF
100
AcDbEntity
  8
JISSEN
100
AcDbLine
 10
242.84138779
 20
190.8785715273608
 30
0.0
 11
242.84138779
 21
280.8785715273608
 31
0.0
  0
LINE
  5
7527
330
DF
100
AcDbEntity
  8
JISSEN
100
AcDbLine
 10
265.3413877899999
 20
280.8785715273608
 30
0.0
 11
265.3413877899999
 21
190.8785715273608
 31
0.0
  0
LINE
  5
7528
330
DF
100
AcDbEntity
  8
JISSEN
100
AcDbLine
 10
242.84138779
 20
510.8785715273608
 30
0.0
 11
242.84138779
 21
330.8785715273608
 31
0.0
  0
LINE
  5
7529
330
DF
100
AcDbEntity
  8
JISSEN
100
AcDbLine
 10
265.3413877899999
 20
330.8785715273608
 30
0.0
 11
265.3413877899999
 21
510.8785715273608
 31
0.0
  0
LINE
  5
752D
330
DF
100
AcDbEntity
  8
JISSEN
100
AcDbLine
 10
254.09138779
 20
510.8785715273608
 30
0.0
 11
236.59138779
 21
510.8785715273608
 31
0.0
  0
LINE
  5
752E
330
DF
100
AcDbEntity
  8
JISSEN
100
AcDbLine
 10
234.0913877899999
 20
513.3785715273607
 30
0.0
 11
234.0913877899999
 21
590.8785715273607
 31
0.0
  0
LINE
  5
752F
330
DF
100
AcDbEntity
  8
JISSEN
100
AcDbLine
 10
239.09138779
 20
595.8785715273607
 30
0.0
 11
356.5913877899999
 21
595.8785715273608
 31
0.0
  0
LINE
  5
7530
330
DF
100
AcDbEntity
  8
JISSEN
100
AcDbLine
 10
359.0913877900001
 20
593.3785715273607
 30
0.0
 11
359.0913877900001
 21
533.3785715273608
 31
0.0
  0
LINE
  5
7531
330
DF
100
AcDbEntity
  8
JISSEN
100
AcDbLine
 10
356.5913877900001
 20
530.8785715273607
 30
0.0
 11
279.0913877900001
 21
530.8785715273607
 31
0.0
  0
LINE
  5
7532
330
DF
100
AcDbEntity
  8
JISSEN
100
AcDbLine
 10
269.0913877900001
 20
520.8785715273608
 30
0.0
 11
269.0913877899999
 21
513.3785715273607
 31
0.0
  0
LINE
  5
7533
330
DF
100
AcDbEntity
  8
JISSEN
100
AcDbLine
 10
266.59138779
 20
510.8785715273608
 30
0.0
 11
254.09138779
 21
510.8785715273608
 31
0.0
  0
LINE
  5
7535
330
DF
100
AcDbEntity
  8
ITTEN
100
AcDbLine
 10
334.09138779
 20
266.5753294873608
 30
0.0
 11
334.09138779
 21
763.0170821373608
 31
0.0
  0
LINE
  5
7536
330
DF
100
AcDbEntity
  8
JISSEN
100
AcDbLine
 10
214.09138779
 20
130.8785715273608
 30
0.0
 11
214.09138779
 21
173.3785715273608
 31
0.0
  0
LINE
  5
7537
330
DF
100
AcDbEntity
  8
JISSEN
100
AcDbLine
 10
214.09138779
 20
173.3785715273603
 30
0.0
 11
214.09138779
 21
188.3785715273608
 31
0.0
  0
LINE
  5
7538
330
DF
100
AcDbEntity
  8
JISSEN
100
AcDbLine
 10
216.59138779
 20
190.8785715273608
 30
0.0
 11
254.09138779
 21
190.8785715273608
 31
0.0
  0
LINE
  5
753B
330
DF
100
AcDbEntity
  8
JISSEN
100
AcDbLine
 10
254.09138779
 20
190.8785715273608
 30
0.0
 11
270.34138779
 21
190.8785715273608
 31
0.0
  0
LINE
  5
753C
330
DF
100
AcDbEntity
  8
JISSEN
100
AcDbLine
 10
272.84138779
 20
188.3785715273608
 30
0.0
 11
272.84138779
 21
175.8785715273608
 31
0.0
  0
LINE
  5
753E
330
DF
100
AcDbEntity
  8
JISSEN
100
AcDbLine
 10
272.84138779
 20
175.8785715273608
 30
0.0
 11
426.9863640427665
 21
151.2153753269181
 31
0.0
  0
LINE
  5
753F
330
DF
100
AcDbEntity
  8
JISSEN
100
AcDbLine
 10
429.09138779
 20
148.7467737471263
 30
0.0
 11
429.0913877899998
 21
130.8785715273607
 31
0.0
  0
LINE
  5
7541
330
DF
100
AcDbEntity
  8
JISSEN
100
AcDbLine
 10
216.5913877900001
 20
128.3785715273608
 30
0.0
 11
426.5913877899999
 21
128.3785715273608
 31
0.0
  0
LINE
  5
7553
330
DF
100
AcDbEntity
  8
JISSEN
100
AcDbLine
 10
254.09138779
 20
330.8785715273608
 30
0.0
 11
236.59138779
 21
330.8785715273608
 31
0.0
  0
LINE
  5
7554
330
DF
100
AcDbEntity
  8
JISSEN
100
AcDbLine
 10
234.0913877899999
 20
328.3785715273608
 30
0.0
 11
234.0913877899999
 21
283.3785715273608
 31
0.0
  0
LINE
  5
7555
330
DF
100
AcDbEntity
  8
JISSEN
100
AcDbLine
 10
236.59138779
 20
280.8785715273608
 30
0.0
 11
254.09138779
 21
280.8785715273608
 31
0.0
  0
LINE
  5
7557
330
DF
100
AcDbEntity
  8
JISSEN
100
AcDbLine
 10
254.09138779
 20
280.8785715273608
 30
0.0
 11
269.0913877899999
 21
280.8785715273608
 31
0.0
  0
LINE
  5
7559
330
DF
100
AcDbEntity
  8
JISSEN
100
AcDbLine
 10
254.09138779
 20
330.8785715273608
 30
0.0
 11
399.09138779
 21
330.8785715273608
 31
0.0
  0
LINE
  5
755A
330
DF
100
AcDbEntity
  8
JISSEN
100
AcDbLine
 10
399.09138779
 20
330.8785715273608
 30
0.0
 11
399.09138779
 21
323.3785715273608
 31
0.0
  0
LINE
  5
755B
330
DF
100
AcDbEntity
  8
JISSEN
100
AcDbLine
 10
271.5913877899999
 20
319.6733566673608
 30
0.0
 11
271.5913877899999
 21
283.3785715273608
 31
0.0
  0
LINE
  5
755E
330
DF
100
AcDbEntity
  8
JISSEN
100
AcDbLine
 10
343.09138779
 20
530.8785715273607
 30
0.0
 11
343.09138779
 21
418.3785715273607
 31
0.0
  0
LINE
  5
755F
330
DF
100
AcDbEntity
  8
JISSEN
100
AcDbLine
 10
325.0913877899999
 20
418.3785715273609
 30
0.0
 11
325.0913877899999
 21
530.8785715273607
 31
0.0
  0
LINE
  5
7566
330
DF
100
AcDbEntity
  8
JISSEN
100
AcDbLine
 10
354.09138779
 20
598.3785715273608
 30
0.0
 11
354.09138779
 21
610.8785715273608
 31
0.0
  0
LINE
  5
7567
330
DF
100
AcDbEntity
  8
JISSEN
100
AcDbLine
 10
314.09138779
 20
598.3785715273608
 30
0.0
 11
314.09138779
 21
610.8785715273608
 31
0.0
  0
LINE
  5
7568
330
DF
100
AcDbEntity
  8
JISSEN
100
AcDbLine
 10
324.09138779
 20
620.8785715273608
 30
0.0
 11
344.0913877899999
 21
620.8785715273608
 31
0.0
  0
CIRCLE
  5
756B
330
DF
100
AcDbEntity
  8
JISSEN
100
AcDbCircle
 10
319.0913877899999
 20
563.3785715273607
 30
0.0
 40
10.0
  0
LINE
  5
756C
330
DF
100
AcDbEntity
  8
ITTEN
100
AcDbLine
 10
434.09138779
 20
364.19272865694
 30
0.0
 11
311.152913935818
 21
577.1284115773608
 31
0.0
  0
LINE
  5
7574
330
DF
100
AcDbEntity
  8
JISSEN
100
AcDbLine
 10
405.8641464540478
 20
394.0837448083174
 30
0.0
 11
422.3186291259521
 21
403.5837448083175
 31
0.0
  0
LINE
  5
7575
330
DF
100
AcDbEntity
  8
JISSEN
100
AcDbLine
 10
343.2660702426944
 20
496.5067932624499
 30
0.0
 11
364.9167053373054
 21
509.00679326245
 31
0.0
  0
LINE
  5
7576
330
DF
100
AcDbEntity
  8
JISSEN
100
AcDbLine
 10
364.9167053373054
 20
509.00679326245
 30
0.0
 11
423.4167053373054
 21
407.6818210196708
 31
0.0
  0
LINE
  5
7577
330
DF
100
AcDbEntity
  8
JISSEN
100
AcDbLine
 10
401.7660702426944
 20
395.1818210196707
 30
0.0
 11
343.2660702426944
 21
496.5067932624499
 31
0.0
  0
LINE
  5
7581
330
DF
100
AcDbEntity
  8
JISSEN
100
AcDbLine
 10
217.59138779
 20
128.3785715273608
 30
0.0
 11
217.59138779
 21
121.8785715273608
 31
0.0
  0
LINE
  5
7582
330
DF
100
AcDbEntity
  8
JISSEN
100
AcDbLine
 10
218.59138779
 20
120.8785715273608
 30
0.0
 11
234.59138779
 21
120.8785715273608
 31
0.0
  0
LINE
  5
7583
330
DF
100
AcDbEntity
  8
JISSEN
100
AcDbLine
 10
235.5913877899999
 20
121.8785715273608
 30
0.0
 11
235.5913877899999
 21
128.3785715273608
 31
0.0
  0
LINE
  5
7584
330
DF
100
AcDbEntity
  8
JISSEN
100
AcDbLine
 10
425.59138779
 20
121.8785715273608
 30
0.0
 11
425.59138779
 21
128.3785715273608
 31
0.0
  0
LINE
  5
7585
330
DF
100
AcDbEntity
  8
JISSEN
100
AcDbLine
 10
408.59138779
 20
120.8785715273608
 30
0.0
 11
424.5913877899999
 21
120.8785715273608
 31
0.0
  0
LINE
  5
7586
330
DF
100
AcDbEntity
  8
JISSEN
100
AcDbLine
 10
407.5913877899999
 20
128.3785715273608
 30
0.0
 11
407.5913877899999
 21
121.8785715273608
 31
0.0
  0
LINE
  5
75AE
330
DF
100
AcDbEntity
  8
JISSEN
100
AcDbLine
 10
269.0913877899999
 20
330.8785715273608
 30
0.0
 11
269.0913877899999
 21
370.8785715273608
 31
0.0
  0
LINE
  5
75AF
330
DF
100
AcDbEntity
  8
JISSEN
100
AcDbLine
 10
399.09138779
 20
330.8785715273608
 30
0.0
 11
399.09138779
 21
370.8785715273609
 31
0.0
  0
LINE
  5
75B1
330
DF
100
AcDbEntity
  8
JISSEN
100
AcDbLine
 10
271.5913877899999
 20
373.3785715273608
 30
0.0
 11
396.59138779
 21
373.3785715273609
 31
0.0
  0
LINE
  5
75B2
330
DF
100
AcDbEntity
  8
JISSEN
100
AcDbLine
 10
321.59138779
 20
418.3785715273609
 30
0.0
 11
346.59138779
 21
418.3785715273607
 31
0.0
  0
LINE
  5
75B4
330
DF
100
AcDbEntity
  8
JISSEN
100
AcDbLine
 10
319.0913877899999
 20
394.0484445084387
 30
0.0
 11
319.0913877899999
 21
415.8785715273609
 31
0.0
  0
LINE
  5
75B5
330
DF
100
AcDbEntity
  8
JISSEN
100
AcDbLine
 10
349.09138779
 20
394.0484445084385
 30
0.0
 11
349.09138779
 21
415.8785715273607
 31
0.0
  0
LINE
  5
75B6
330
DF
100
AcDbEntity
  8
JISSEN
100
AcDbLine
 10
360.6383931737925
 20
373.3785715273609
 30
0.0
 11
349.4263242805388
 21
392.7984445084386
 31
0.0
  0
LINE
  5
75B7
330
DF
100
AcDbEntity
  8
JISSEN
100
AcDbLine
 10
307.5443824062074
 20
373.3785715273608
 30
0.0
 11
318.7564512994611
 21
392.7984445084387
 31
0.0
  0
LINE
  5
75B8
330
DF
100
AcDbEntity
  8
JISSEN
100
AcDbLine
 10
354.09138779
 20
299.8785715273608
 30
0.0
 11
399.09138779
 21
323.3785715273608
 31
0.0
  0
LINE
  5
75B9
330
DF
100
AcDbEntity
  8
JISSEN
100
AcDbLine
 10
271.5913877899999
 20
323.3785715273608
 30
0.0
 11
399.09138779
 21
323.3785715273608
 31
0.0
  0
LINE
  5
75BF
330
DF
100
AcDbEntity
  8
JISSEN
100
AcDbLine
 10
354.09138779
 20
299.8785715273608
 30
0.0
 11
334.09138779
 21
299.8785715273608
 31
0.0
  0
LINE
  5
75C0
330
DF
100
AcDbEntity
  8
JISSEN
100
AcDbLine
 10
349.09138779
 20
299.8785715273608
 30
0.0
 11
349.09138779
 21
291.8785715273608
 31
0.0
  0
LINE
  5
75C1
330
DF
100
AcDbEntity
  8
JISSEN
100
AcDbLine
 10
319.0913877899999
 20
299.8785715273608
 30
0.0
 11
319.0913877899999
 21
291.8785715273607
 31
0.0
  0
LINE
  5
75C2
330
DF
100
AcDbEntity
  8
JISSEN
100
AcDbLine
 10
281.5913877899999
 20
299.8785715273608
 30
0.0
 11
334.09138779
 21
299.8785715273608
 31
0.0
  0
LINE
  5
75C3
330
DF
100
AcDbEntity
  8
JISSEN
100
AcDbLine
 10
314.09138779
 20
299.8785715273608
 30
0.0
 11
271.5913877899999
 21
322.0730159718052
 31
0.0
  0
LINE
  5
75C5
330
DF
100
AcDbEntity
  8
JISSEN
100
AcDbLine
 10
321.0913877899999
 20
289.8785715273607
 30
0.0
 11
347.09138779
 21
289.8785715273607
 31
0.0
  0
ARC
  5
75C6
330
DF
100
AcDbEntity
  8
JISSEN
100
AcDbCircle
 10
281.5913877899999
 20
289.8785715273607
 30
0.0
 40
10.0
100
AcDbArc
 50
90.0
 51
180.0
  0
LINE
  5
75D5
330
DF
100
AcDbEntity
  8
JISSEN
100
AcDbLine
 10
354.1846545297364
 20
523.5952505305698
 30
0.0
 11
363.1846545297364
 21
508.00679326245
 31
0.0
  0
LINE
  5
75D6
330
DF
100
AcDbEntity
  8
JISSEN
100
AcDbLine
 10
344.9981210502633
 20
497.5067932624499
 30
0.0
 11
343.09138779
 21
500.8093521457074
 31
0.0
  0
LINE
  5
75D7
330
DF
100
AcDbEntity
  8
JISSEN
100
AcDbLine
 10
343.09138779
 20
519.4999510689491
 30
0.0
 11
351.4526037221676
 21
524.3273013381386
 31
0.0
  0
ARC
  5
75D8
330
DF
100
AcDbEntity
  8
JISSEN
100
AcDbCircle
 10
352.4526037221676
 20
522.5952505305698
 30
0.0
 40
2.0
100
AcDbArc
 50
30.00000000000007
 51
120.0000000000001
  0
LINE
  5
75DB
330
DF
100
AcDbEntity
  8
JISSEN
100
AcDbLine
 10
343.0514239613693
 20
530.8785715273607
 30
0.0
 11
347.9885021070299
 21
522.3273013381388
 31
0.0
  0
ARC
  5
75DC
330
DF
100
AcDbEntity
  8
JISSEN
100
AcDbCircle
 10
404.3641464540478
 20
396.6818210196706
 30
0.0
 40
3.0
100
AcDbArc
 50
210.0
 51
300.0
  0
ARC
  5
75DD
330
DF
100
AcDbEntity
  8
JISSEN
100
AcDbCircle
 10
420.8186291259521
 20
406.1818210196707
 30
0.0
 40
3.0
100
AcDbArc
 50
300.0
 51
30.00000000000007
  0
LINE
  5
75DF
330
DF
100
AcDbEntity
  8
JISSEN
100
AcDbLine
 10
272.84138779
 20
175.8785715273608
 30
0.0
 11
216.59138779
 21
175.8785715273608
 31
0.0
  0
LINE
  5
75E1
330
DF
100
AcDbEntity
  8
JISSEN
100
AcDbLine
 10
301.59138779
 20
595.8785715273608
 30
0.0
 11
301.59138779
 21
530.8785715273607
 31
0.0
  0
ARC
  5
75E8
330
DF
100
AcDbEntity
  8
JISSEN
100
AcDbCircle
 10
270.34138779
 20
188.3785715273608
 30
0.0
 40
2.5
100
AcDbArc
 50
0.0
 51
90.0
  0
ARC
  5
75E9
330
DF
100
AcDbEntity
  8
JISSEN
100
AcDbCircle
 10
216.59138779
 20
188.3785715273608
 30
0.0
 40
2.5
100
AcDbArc
 50
90.0
 51
180.0
  0
ARC
  5
75EA
330
DF
100
AcDbEntity
  8
JISSEN
100
AcDbCircle
 10
216.59138779
 20
173.3785715273608
 30
0.0
 40
2.5
100
AcDbArc
 50
90.0
 51
180.0
  0
ARC
  5
75EB
330
DF
100
AcDbEntity
  8
JISSEN
100
AcDbCircle
 10
426.59138779
 20
148.7467737471263
 30
0.0
 40
2.5
100
AcDbArc
 50
0.0
 51
80.90972307917766
  0
ARC
  5
75EC
330
DF
100
AcDbEntity
  8
JISSEN
100
AcDbCircle
 10
426.5913877899999
 20
130.8785715273607
 30
0.0
 40
2.5
100
AcDbArc
 50
270.0
 51
0.0
  0
ARC
  5
75ED
330
DF
100
AcDbEntity
  8
JISSEN
100
AcDbCircle
 10
216.5913877900001
 20
130.8785715273608
 30
0.0
 40
2.5
100
AcDbArc
 50
180.0
 51
270.0
  0
ARC
  5
75EE
330
DF
100
AcDbEntity
  8
JISSEN
100
AcDbCircle
 10
236.59138779
 20
283.3785715273608
 30
0.0
 40
2.5
100
AcDbArc
 50
180.0
 51
270.0
  0
ARC
  5
75EF
330
DF
100
AcDbEntity
  8
JISSEN
100
AcDbCircle
 10
236.59138779
 20
328.3785715273608
 30
0.0
 40
2.5
100
AcDbArc
 50
90.0
 51
180.0
  0
ARC
  5
75F0
330
DF
100
AcDbEntity
  8
JISSEN
100
AcDbCircle
 10
269.0913877899999
 20
283.3785715273608
 30
0.0
 40
2.5
100
AcDbArc
 50
270.0
 51
0.0
  0
ARC
  5
75F1
330
DF
100
AcDbEntity
  8
JISSEN
100
AcDbCircle
 10
396.59138779
 20
370.8785715273609
 30
0.0
 40
2.5
100
AcDbArc
 50
0.0
 51
90.0
  0
ARC
  5
75F2
330
DF
100
AcDbEntity
  8
JISSEN
100
AcDbCircle
 10
271.5913877899999
 20
370.8785715273608
 30
0.0
 40
2.5
100
AcDbArc
 50
90.00000000000003
 51
180.0
  0
ARC
  5
75F3
330
DF
100
AcDbEntity
  8
JISSEN
100
AcDbCircle
 10
236.59138779
 20
513.3785715273607
 30
0.0
 40
2.5
100
AcDbArc
 50
180.0
 51
270.0
  0
ARC
  5
75F4
330
DF
100
AcDbEntity
  8
JISSEN
100
AcDbCircle
 10
266.59138779
 20
513.3785715273607
 30
0.0
 40
2.5
100
AcDbArc
 50
270.0
 51
0.0
  0
ARC
  5
75F6
330
DF
100
AcDbEntity
  8
JISSEN
100
AcDbCircle
 10
356.5913877900001
 20
593.3785715273607
 30
0.0
 40
2.5
100
AcDbArc
 50
0.0
 51
90.0
  0
ARC
  5
75F7
330
DF
100
AcDbEntity
  8
JISSEN
100
AcDbCircle
 10
356.5913877900001
 20
533.3785715273608
 30
0.0
 40
2.5
100
AcDbArc
 50
270.0
 51
0.0
  0
ARC
  5
75F9
330
DF
100
AcDbEntity
  8
JISSEN
100
AcDbCircle
 10
324.09138779
 20
610.8785715273608
 30
0.0
 40
10.0
100
AcDbArc
 50
90.0
 51
180.0
  0
ARC
  5
75FA
330
DF
100
AcDbEntity
  8
JISSEN
100
AcDbCircle
 10
344.0913877899999
 20
610.8785715273608
 30
0.0
 40
10.0
100
AcDbArc
 50
0.0
 51
90.0
  0
ARC
  5
75FC
330
DF
100
AcDbEntity
  8
JISSEN
100
AcDbCircle
 10
316.59138779
 20
598.3785715273608
 30
0.0
 40
2.5
100
AcDbArc
 50
180.0
 51
270.0
  0
ARC
  5
75FD
330
DF
100
AcDbEntity
  8
JISSEN
100
AcDbCircle
 10
351.59138779
 20
598.3785715273608
 30
0.0
 40
2.5
100
AcDbArc
 50
270.0
 51
0.0
  0
ARC
  5
7603
330
DF
100
AcDbEntity
  8
NITEN
100
AcDbCircle
 10
351.59138779
 20
715.3785715273608
 30
0.0
 40
2.5
100
AcDbArc
 50
270.0
 51
0.0
  0
ARC
  5
7604
330
DF
100
AcDbEntity
  8
NITEN
100
AcDbCircle
 10
316.59138779
 20
715.3785715273608
 30
0.0
 40
2.5
100
AcDbArc
 50
180.0
 51
270.0
  0
ARC
  5
7605
330
DF
100
AcDbEntity
  8
NITEN
100
AcDbCircle
 10
344.0913877899999
 20
727.8785715273608
 30
0.0
 40
10.0
100
AcDbArc
 50
0.0
 51
90.0
  0
ARC
  5
7606
330
DF
100
AcDbEntity
  8
NITEN
100
AcDbCircle
 10
324.09138779
 20
727.8785715273608
 30
0.0
 40
10.0
100
AcDbArc
 50
90.0
 51
180.0
  0
LINE
  5
7607
330
DF
100
AcDbEntity
  8
NITEN
100
AcDbLine
 10
324.09138779
 20
737.8785715273608
 30
0.0
 11
344.0913877899999
 21
737.8785715273608
 31
0.0
  0
LINE
  5
7608
330
DF
100
AcDbEntity
  8
NITEN
100
AcDbLine
 10
314.09138779
 20
715.3785715273608
 30
0.0
 11
314.09138779
 21
727.8785715273608
 31
0.0
  0
LINE
  5
7609
330
DF
100
AcDbEntity
  8
NITEN
100
AcDbLine
 10
354.09138779
 20
715.3785715273608
 30
0.0
 11
354.09138779
 21
727.8785715273608
 31
0.0
  0
LINE
  5
760A
330
DF
100
AcDbEntity
  8
NITEN
100
AcDbLine
 10
343.09138779
 20
712.8785715273608
 30
0.0
 11
343.09138779
 21
620.8785715273608
 31
0.0
  0
LINE
  5
760B
330
DF
100
AcDbEntity
  8
NITEN
100
AcDbLine
 10
325.0913877899999
 20
620.8785715273608
 30
0.0
 11
325.0913877899999
 21
712.8785715273608
 31
0.0
  0
LINE
  5
760C
330
DF
100
AcDbEntity
  8
NITEN
100
AcDbLine
 10
316.59138779
 20
712.8785715273608
 30
0.0
 11
351.59138779
 21
712.8785715273608
 31
0.0
  0
ARC
  5
760D
330
DF
100
AcDbEntity
  8
JISSEN
100
AcDbCircle
 10
239.09138779
 20
590.8785715273607
 30
0.0
 40
5.0
100
AcDbArc
 50
90.0
 51
180.0
  0
ARC
  5
7611
330
DF
100
AcDbEntity
  8
JISSEN
100
AcDbCircle
 10
424.5913877899999
 20
121.8785715273608
 30
0.0
 40
1.0
100
AcDbArc
 50
270.0
 51
0.0
  0
ARC
  5
7612
330
DF
100
AcDbEntity
  8
JISSEN
100
AcDbCircle
 10
408.59138779
 20
121.8785715273608
 30
0.0
 40
1.0
100
AcDbArc
 50
180.0
 51
270.0000000000001
  0
ARC
  5
7613
330
DF
100
AcDbEntity
  8
JISSEN
100
AcDbCircle
 10
234.59138779
 20
121.8785715273608
 30
0.0
 40
1.0
100
AcDbArc
 50
270.0
 51
0.0
  0
ARC
  5
7614
330
DF
100
AcDbEntity
  8
JISSEN
100
AcDbCircle
 10
218.59138779
 20
121.8785715273608
 30
0.0
 40
1.0
100
AcDbArc
 50
180.0
 51
270.0000000000001
  0
ARC
  5
7615
330
DF
100
AcDbEntity
  8
JISSEN
100
AcDbCircle
 10
347.09138779
 20
291.8785715273608
 30
0.0
 40
2.0
100
AcDbArc
 50
270.0
 51
0.0
  0
ARC
  5
7616
330
DF
100
AcDbEntity
  8
JISSEN
100
AcDbCircle
 10
321.0913877899999
 20
291.8785715273607
 30
0.0
 40
2.0
100
AcDbArc
 50
180.0
 51
270.0
  0
DIMENSION
  5
7623
330
DF
100
AcDbEntity
  8
SUNPOU
100
AcDbDimension
  2
*D3
 10
492.0654494773584
 20
120.8785715273608
 30
0.0
 11
492.0654494773584
 21
209.3710451939796
 31
0.0
 70
   160
  3
IMCADLT
100
AcDbAlignedDimension
 13
347.09138779
 23
289.8785715273607
 33
0.0
 14
424.5913877899999
 24
120.8785715273608
 34
0.0
 50
90.0
100
AcDbRotatedDimension
1001
ACAD
1000
DSTYLE
1002
{
1070
    40
1040
5.0
1002
}
  0
DIMENSION
  5
763B
330
DF
100
AcDbEntity
  8
SUNPOU
100
AcDbDimension
  2
*D4
 10
550.7558331772643
 20
620.8785715273608
 30
0.0
 11
535.7558331772643
 21
370.8785715273607
 31
0.0
 70
    32
  3
IMCADLT
100
AcDbAlignedDimension
 13
429.59138779
 23
120.8785715273608
 33
0.0
 14
344.0913877899999
 24
620.8785715273608
 34
0.0
 50
90.0
100
AcDbRotatedDimension
1001
ACAD
1000
DSTYLE
1002
{
1070
    40
1040
5.0
1002
}
  0
DIMENSION
  5
7652
330
DF
100
AcDbEntity
  8
SUNPOU
100
AcDbDimension
  2
*D5
 10
550.7558331772643
 20
737.8785715273608
 30
0.0
 11
535.7558331772642
 21
679.3785715273608
 31
0.0
 70
    32
  3
IMCADLT
100
AcDbAlignedDimension
 13
344.0913877899999
 23
620.8785715273608
 33
0.0
 14
344.0913877899999
 24
737.8785715273608
 34
0.0
 50
90.0
100
AcDbRotatedDimension
1001
ACAD
1000
DSTYLE
1002
{
1070
   287
1070
     4
1070
    75
1070
     1
1070
   279
1070
     1
1002
}
  0
ARC
  5
767C
330
DF
100
AcDbEntity
  8
JISSEN
100
AcDbCircle
 10
279.0913877900001
 20
520.8785715273608
 30
0.0
 40
10.0
100
AcDbArc
 50
90.0
 51
180.0
  0
ARC
  5
767D
330
DF
100
AcDbEntity
  8
NITEN
100
AcDbCircle
 10
319.0913877899999
 20
563.3785715273607
 30
0.0
 40
190.0
100
AcDbArc
 50
286.6628958859761
 51
237.362437626447
  0
DIMENSION
  5
768B
330
DF
100
AcDbEntity
  8
SUNPOU
100
AcDbDimension
  2
*D6
 10
99.78318691889946
 20
753.3785715273608
 30
0.0
 11
99.78318691889946
 21
419.3605535378314
 31
0.0
 70
   160
  1
640
  3
IMCADLT
100
AcDbAlignedDimension
 13
218.59138779
 23
120.8785715273608
 33
0.0
 14
319.0913877899999
 24
753.3785715273608
 34
0.0
 50
90.0
100
AcDbRotatedDimension
1001
ACAD
1000
DSTYLE
1002
{
1070
    40
1040
5.0
1002
}
  0
DIMENSION
  5
76B7
330
DF
100
AcDbEntity
  8
SUNPOU
100
AcDbDimension
  2
*D7
 10
129.09138779
 20
804.7388573686967
 30
0.0
 11
318.8455624495886
 21
804.7388573686967
 31
0.0
 70
   160
  1
%%c<>
  3
IMCADLT
100
AcDbAlignedDimension
 13
509.09138779
 23
563.3785715273607
 33
0.0
 14
129.09138779
 24
563.3785715273607
 34
0.0
100
AcDbRotatedDimension
1001
ACAD
1000
DSTYLE
1002
{
1070
    40
1040
5.0
1002
}
  0
LINE
  5
76D2
330
DF
100
AcDbEntity
  8
JISSEN
100
AcDbLine
 10
833.47502473
 20
394.0484445084388
 30
0.0
 11
833.47502473
 21
415.8785715273607
 31
0.0
  0
LINE
  5
76D3
330
DF
100
AcDbEntity
  8
JISSEN
100
AcDbLine
 10
805.97502473
 20
418.3785715273609
 30
0.0
 11
830.97502473
 21
418.3785715273607
 31
0.0
  0
LINE
  5
76D4
330
DF
100
AcDbEntity
  8
JISSEN
100
AcDbLine
 10
827.47502473
 20
530.8785715273607
 30
0.0
 11
827.47502473
 21
418.3785715273607
 31
0.0
  0
LINE
  5
76D5
330
DF
100
AcDbEntity
  8
JISSEN
100
AcDbLine
 10
803.4750247299999
 20
394.0484445084386
 30
0.0
 11
803.4750247299999
 21
415.8785715273609
 31
0.0
  0
LINE
  5
76D6
330
DF
100
AcDbEntity
  8
JISSEN
100
AcDbLine
 10
809.47502473
 20
418.3785715273609
 30
0.0
 11
809.47502473
 21
595.8785715273608
 31
0.0
  0
LINE
  5
76D7
330
DF
100
AcDbEntity
  8
JISSEN
100
AcDbLine
 10
791.9280193462074
 20
373.3785715273608
 30
0.0
 11
803.140088239461
 21
392.7984445084386
 31
0.0
  0
LINE
  5
76D8
330
DF
100
AcDbEntity
  8
JISSEN
100
AcDbLine
 10
845.0220301137925
 20
373.3785715273609
 30
0.0
 11
833.809961220539
 21
392.7984445084388
 31
0.0
  0
ARC
  5
76D9
330
DF
100
AcDbEntity
  8
JISSEN
100
AcDbCircle
 10
755.97502473
 20
370.8785715273608
 30
0.0
 40
2.5
100
AcDbArc
 50
90.00000000000003
 51
180.0
  0
ARC
  5
76DA
330
DF
100
AcDbEntity
  8
JISSEN
100
AcDbCircle
 10
880.97502473
 20
370.8785715273609
 30
0.0
 40
2.5
100
AcDbArc
 50
0.0
 51
90.0
  0
LINE
  5
76DB
330
DF
100
AcDbEntity
  8
JISSEN
100
AcDbLine
 10
755.97502473
 20
373.3785715273608
 30
0.0
 11
880.97502473
 21
373.3785715273609
 31
0.0
  0
LINE
  5
76DC
330
DF
100
AcDbEntity
  8
JISSEN
100
AcDbLine
 10
883.47502473
 20
324.5904214337339
 30
0.0
 11
883.47502473
 21
370.8785715273609
 31
0.0
  0
LINE
  5
76DD
330
DF
100
AcDbEntity
  8
JISSEN
100
AcDbLine
 10
753.4750247299999
 20
324.5904214337338
 30
0.0
 11
753.4750247299999
 21
370.8785715273608
 31
0.0
  0
LINE
  5
76E0
330
DF
100
AcDbEntity
  8
JISSEN
100
AcDbLine
 10
833.47502473
 20
299.8785715273608
 30
0.0
 11
833.47502473
 21
291.8785715273608
 31
0.0
  0
LINE
  5
76E1
330
DF
100
AcDbEntity
  8
JISSEN
100
AcDbLine
 10
838.4750247299999
 20
299.8785715273608
 30
0.0
 11
818.47502473
 21
299.8785715273608
 31
0.0
  0
LINE
  5
76E2
330
DF
100
AcDbEntity
  8
JISSEN
100
AcDbLine
 10
838.4750247299999
 20
299.8785715273608
 30
0.0
 11
882.4008298618226
 21
322.8176030962015
 31
0.0
  0
ARC
  5
76E3
330
DF
100
AcDbEntity
  8
JISSEN
100
AcDbCircle
 10
805.4750247299999
 20
291.8785715273607
 30
0.0
 40
2.0
100
AcDbArc
 50
180.0
 51
270.0
  0
LINE
  5
76E4
330
DF
100
AcDbEntity
  8
JISSEN
100
AcDbLine
 10
805.4750247299999
 20
289.8785715273607
 30
0.0
 11
831.4750247299999
 21
289.8785715273607
 31
0.0
  0
LINE
  5
76E5
330
DF
100
AcDbEntity
  8
JISSEN
100
AcDbLine
 10
798.47502473
 20
299.8785715273608
 30
0.0
 11
818.47502473
 21
299.8785715273608
 31
0.0
  0
LINE
  5
76E6
330
DF
100
AcDbEntity
  8
JISSEN
100
AcDbLine
 10
803.4750247299999
 20
299.8785715273608
 30
0.0
 11
803.4750247299999
 21
291.8785715273607
 31
0.0
  0
ARC
  5
76E7
330
DF
100
AcDbEntity
  8
JISSEN
100
AcDbCircle
 10
831.4750247299999
 20
291.8785715273608
 30
0.0
 40
2.0
100
AcDbArc
 50
270.0
 51
0.0
  0
LINE
  5
76E8
330
DF
100
AcDbEntity
  8
JISSEN
100
AcDbLine
 10
798.47502473
 20
299.8785715273608
 30
0.0
 11
754.5492195981775
 21
322.8176030962014
 31
0.0
  0
LINE
  5
76E9
330
DF
100
AcDbEntity
  8
JISSEN
100
AcDbLine
 10
753.8839811088433
 20
323.3785715273608
 30
0.0
 11
883.0660683511567
 21
323.3785715273608
 31
0.0
  0
ARC
  5
76EA
330
DF
100
AcDbEntity
  8
JISSEN
100
AcDbCircle
 10
881.4750247300001
 20
324.5904214337339
 30
0.0
 40
2.0
100
AcDbArc
 50
297.5745639596943
 51
0.0
  0
ARC
  5
76EB
330
DF
100
AcDbEntity
  8
JISSEN
100
AcDbCircle
 10
755.4750247299999
 20
324.5904214337338
 30
0.0
 40
2.0
100
AcDbArc
 50
180.0
 51
242.4254360403056
  0
LINE
  5
76ED
330
DF
100
AcDbEntity
  8
JISSEN
100
AcDbLine
 10
753.4750247299999
 20
330.8785715273608
 30
0.0
 11
883.47502473
 21
330.8785715273608
 31
0.0
  0
LINE
  5
76F3
330
DF
100
AcDbEntity
  8
JISSEN
100
AcDbLine
 10
800.9750247300001
 20
595.8785715273608
 30
0.0
 11
800.9750247300001
 21
513.8785715273607
 31
0.0
  0
LINE
  5
76F4
330
DF
100
AcDbEntity
  8
JISSEN
100
AcDbLine
 10
835.97502473
 20
595.8785715273608
 30
0.0
 11
835.97502473
 21
513.8785715273607
 31
0.0
  0
LINE
  5
76F5
330
DF
100
AcDbEntity
  8
JISSEN
100
AcDbLine
 10
803.9750247300002
 20
530.8785715273607
 30
0.0
 11
832.9750247300001
 21
530.8785715273607
 31
0.0
  0
LINE
  5
76F6
330
DF
100
AcDbEntity
  8
JISSEN
100
AcDbLine
 10
800.9750247300001
 20
595.8785715273608
 30
0.0
 11
835.97502473
 21
595.8785715273608
 31
0.0
  0
LINE
  5
76F7
330
DF
100
AcDbEntity
  8
JISSEN
100
AcDbLine
 10
803.9750247300002
 20
510.8785715273608
 30
0.0
 11
809.47502473
 21
510.8785715273608
 31
0.0
  0
ARC
  5
76FA
330
DF
100
AcDbEntity
  8
JISSEN
100
AcDbCircle
 10
803.9750247300002
 20
533.8785715273608
 30
0.0
 40
3.0
100
AcDbArc
 50
180.0
 51
270.0
  0
ARC
  5
76FB
330
DF
100
AcDbEntity
  8
JISSEN
100
AcDbCircle
 10
832.9750247300001
 20
533.8785715273608
 30
0.0
 40
3.0
100
AcDbArc
 50
270.0
 51
0.0
  0
ARC
  5
76FC
330
DF
100
AcDbEntity
  8
JISSEN
100
AcDbCircle
 10
803.9750247300002
 20
513.8785715273607
 30
0.0
 40
3.0
100
AcDbArc
 50
180.0000000000001
 51
270.0
  0
ARC
  5
76FD
330
DF
100
AcDbEntity
  8
JISSEN
100
AcDbCircle
 10
832.9750247300001
 20
513.8785715273607
 30
0.0
 40
3.0
100
AcDbArc
 50
270.0
 51
0.0
  0
LINE
  5
76FE
330
DF
100
AcDbEntity
  8
JISSEN
100
AcDbLine
 10
827.47502473
 20
510.8785715273608
 30
0.0
 11
832.9750247300001
 21
510.8785715273608
 31
0.0
  0
ARC
  5
76FF
330
DF
100
AcDbEntity
  8
JISSEN
100
AcDbCircle
 10
835.97502473
 20
598.3785715273608
 30
0.0
 40
2.5
100
AcDbArc
 50
270.0
 51
0.0
  0
ARC
  5
7700
330
DF
100
AcDbEntity
  8
JISSEN
100
AcDbCircle
 10
800.9750247300001
 20
598.3785715273608
 30
0.0
 40
2.5
100
AcDbArc
 50
180.0
 51
270.0
  0
ARC
  5
7701
330
DF
100
AcDbEntity
  8
JISSEN
100
AcDbCircle
 10
828.4750247300001
 20
610.8785715273608
 30
0.0
 40
10.0
100
AcDbArc
 50
0.0
 51
90.0
  0
ARC
  5
7702
330
DF
100
AcDbEntity
  8
JISSEN
100
AcDbCircle
 10
808.47502473
 20
610.8785715273608
 30
0.0
 40
10.0
100
AcDbArc
 50
90.0
 51
180.0
  0
LINE
  5
7703
330
DF
100
AcDbEntity
  8
JISSEN
100
AcDbLine
 10
808.47502473
 20
620.8785715273608
 30
0.0
 11
828.4750247300001
 21
620.8785715273608
 31
0.0
  0
LINE
  5
7704
330
DF
100
AcDbEntity
  8
JISSEN
100
AcDbLine
 10
798.47502473
 20
598.3785715273608
 30
0.0
 11
798.47502473
 21
610.8785715273608
 31
0.0
  0
LINE
  5
7705
330
DF
100
AcDbEntity
  8
JISSEN
100
AcDbLine
 10
838.4750247300001
 20
598.3785715273608
 30
0.0
 11
838.4750247300001
 21
610.8785715273608
 31
0.0
  0
LINE
  5
7706
330
DF
100
AcDbEntity
  8
JISSEN
100
AcDbLine
 10
829.7250247299999
 20
280.8785715273608
 30
0.0
 11
829.7250247299999
 21
190.8785715273608
 31
0.0
  0
LINE
  5
7707
330
DF
100
AcDbEntity
  8
JISSEN
100
AcDbLine
 10
807.2250247299999
 20
190.8785715273608
 30
0.0
 11
807.2250247299999
 21
280.8785715273608
 31
0.0
  0
LINE
  5
770C
330
DF
100
AcDbEntity
  8
JISSEN
100
AcDbLine
 10
798.47502473
 20
299.8785715273607
 30
0.0
 11
798.4750247299999
 21
283.8785715273608
 31
0.0
  0
LINE
  5
770D
330
DF
100
AcDbEntity
  8
JISSEN
100
AcDbLine
 10
801.4750247299998
 20
280.8785715273608
 30
0.0
 11
835.4750247299998
 21
280.8785715273608
 31
0.0
  0
LINE
  5
770E
330
DF
100
AcDbEntity
  8
JISSEN
100
AcDbLine
 10
838.4750247299999
 20
283.8785715273608
 30
0.0
 11
838.4750247299999
 21
299.8785715273608
 31
0.0
  0
ARC
  5
770F
330
DF
100
AcDbEntity
  8
JISSEN
100
AcDbCircle
 10
835.4750247299998
 20
283.8785715273608
 30
0.0
 40
3.0
100
AcDbArc
 50
270.0
 51
0.0
  0
ARC
  5
7710
330
DF
100
AcDbEntity
  8
JISSEN
100
AcDbCircle
 10
801.4750247299998
 20
283.8785715273608
 30
0.0
 40
3.0
100
AcDbArc
 50
180.0
 51
270.0
  0
LINE
  5
7712
330
DF
100
AcDbEntity
  8
JISSEN
100
AcDbLine
 10
838.4750247299999
 20
175.8785715273608
 30
0.0
 11
838.4750247299999
 21
187.8785715273609
 31
0.0
  0
LINE
  5
7713
330
DF
100
AcDbEntity
  8
JISSEN
100
AcDbLine
 10
798.47502473
 20
187.8785715273608
 30
0.0
 11
798.4750247299999
 21
175.8785715273608
 31
0.0
  0
LINE
  5
7718
330
DF
100
AcDbEntity
  8
JISSEN
100
AcDbLine
 10
722.4750247299998
 20
141.3263497178825
 30
0.0
 11
722.4750247300001
 21
130.8785715273607
 31
0.0
  0
LINE
  5
771D
330
DF
100
AcDbEntity
  8
JISSEN
100
AcDbLine
 10
912.9529220775975
 20
144.9185955390332
 30
0.0
 11
881.8474482481361
 21
175.0339190200508
 31
0.0
  0
LINE
  5
771E
330
DF
100
AcDbEntity
  8
JISSEN
100
AcDbLine
 10
879.7607098395772
 20
175.8785715273608
 30
0.0
 11
838.4750247299999
 21
175.8785715273608
 31
0.0
  0
LINE
  5
771F
330
DF
100
AcDbEntity
  8
JISSEN
100
AcDbLine
 10
757.9988828807048
 20
175.8785715273608
 30
0.0
 11
798.47502473
 21
175.8785715273608
 31
0.0
  0
LINE
  5
7720
330
DF
100
AcDbEntity
  8
JISSEN
100
AcDbLine
 10
723.9971273824017
 20
144.9185955390325
 30
0.0
 11
754.5209855331068
 21
174.4708173485108
 31
0.0
  0
LINE
  5
7721
330
DF
100
AcDbEntity
  8
JISSEN
100
AcDbLine
 10
801.47502473
 20
190.8785715273608
 30
0.0
 11
835.47502473
 21
190.8785715273609
 31
0.0
  0
ARC
  5
7722
330
DF
100
AcDbEntity
  8
JISSEN
100
AcDbCircle
 10
801.47502473
 20
187.8785715273608
 30
0.0
 40
3.0
100
AcDbArc
 50
90.00000000000007
 51
179.9999999999995
  0
ARC
  5
7723
330
DF
100
AcDbEntity
  8
JISSEN
100
AcDbCircle
 10
835.47502473
 20
187.8785715273609
 30
0.0
 40
3.0
100
AcDbArc
 50
359.9999999999996
 51
90.0000000000001
  0
ARC
  5
7724
330
DF
100
AcDbEntity
  8
JISSEN
100
AcDbCircle
 10
879.7607098395772
 20
172.8785715273608
 30
0.0
 40
3.0
100
AcDbArc
 50
45.92658855677954
 51
90.0
  0
LINE
  5
7726
330
DF
100
AcDbEntity
  8
JISSEN
100
AcDbLine
 10
724.97502473
 20
128.3785715273608
 30
0.0
 11
818.47502473
 21
128.3785715273608
 31
0.0
  0
ARC
  5
7729
330
DF
100
AcDbEntity
  8
JISSEN
100
AcDbCircle
 10
728.4750247299999
 20
121.8785715273608
 30
0.0
 40
1.0
100
AcDbArc
 50
180.0
 51
270.0000000000001
  0
ARC
  5
772A
330
DF
100
AcDbEntity
  8
JISSEN
100
AcDbCircle
 10
744.47502473
 20
121.8785715273608
 30
0.0
 40
1.0
100
AcDbArc
 50
270.0
 51
0.0
  0
LINE
  5
772B
330
DF
100
AcDbEntity
  8
JISSEN
100
AcDbLine
 10
745.4750247299999
 20
121.8785715273608
 30
0.0
 11
745.4750247299999
 21
128.3785715273608
 31
0.0
  0
LINE
  5
772C
330
DF
100
AcDbEntity
  8
JISSEN
100
AcDbLine
 10
728.4750247299999
 20
120.8785715273608
 30
0.0
 11
744.47502473
 21
120.8785715273608
 31
0.0
  0
LINE
  5
772D
330
DF
100
AcDbEntity
  8
JISSEN
100
AcDbLine
 10
727.47502473
 20
128.3785715273608
 30
0.0
 11
727.47502473
 21
121.8785715273608
 31
0.0
  0
LINE
  5
772E
330
DF
100
AcDbEntity
  8
JISSEN
100
AcDbLine
 10
909.47502473
 20
128.3785715273608
 30
0.0
 11
909.47502473
 21
121.8785715273608
 31
0.0
  0
LINE
  5
772F
330
DF
100
AcDbEntity
  8
JISSEN
100
AcDbLine
 10
908.47502473
 20
120.8785715273608
 30
0.0
 11
892.47502473
 21
120.8785715273608
 31
0.0
  0
LINE
  5
7730
330
DF
100
AcDbEntity
  8
JISSEN
100
AcDbLine
 10
891.47502473
 20
121.8785715273608
 30
0.0
 11
891.47502473
 21
128.3785715273608
 31
0.0
  0
ARC
  5
7731
330
DF
100
AcDbEntity
  8
JISSEN
100
AcDbCircle
 10
892.47502473
 20
121.8785715273608
 30
0.0
 40
1.0
100
AcDbArc
 50
180.0
 51
270.0
  0
ARC
  5
7732
330
DF
100
AcDbEntity
  8
JISSEN
100
AcDbCircle
 10
908.47502473
 20
121.8785715273608
 30
0.0
 40
1.0
100
AcDbArc
 50
269.9999999999998
 51
0.000000000000007
  0
LINE
  5
7736
330
DF
100
AcDbEntity
  8
JISSEN
100
AcDbLine
 10
750.4750247299998
 20
130.8785715273608
 30
0.0
 11
750.4750247299998
 21
140.5142322217374
 31
0.0
  0
LINE
  5
7738
330
DF
100
AcDbEntity
  8
JISSEN
100
AcDbLine
 10
747.9179210798763
 20
144.8768297763784
 30
0.0
 11
735.9823391555944
 21
151.5603226155154
 31
0.0
  0
ARC
  5
773A
330
DF
100
AcDbEntity
  8
JISSEN
100
AcDbCircle
 10
745.4750247299998
 20
140.5142322217374
 30
0.0
 40
5.0
100
AcDbArc
 50
0.0
 51
60.7527561829971
  0
ARC
  5
773B
330
DF
100
AcDbEntity
  8
JISSEN
100
AcDbCircle
 10
727.4750247299998
 20
141.3263497178825
 30
0.0
 40
5.0
100
AcDbArc
 50
134.0734114432203
 51
180.0
  0
ARC
  5
773C
330
DF
100
AcDbEntity
  8
JISSEN
100
AcDbCircle
 10
733.5394428057179
 20
147.1977250608744
 30
0.0
 40
5.0
100
AcDbArc
 50
60.75275618299705
 51
134.0734114432202
  0
ARC
  5
773D
330
DF
100
AcDbEntity
  8
JISSEN
100
AcDbCircle
 10
757.9988828807048
 20
170.8785715273608
 30
0.0
 40
5.0
100
AcDbArc
 50
90.00000000000005
 51
134.0734114432199
  0
ARC
  5
773E
330
DF
100
AcDbEntity
  8
JISSEN
100
AcDbCircle
 10
724.97502473
 20
130.8785715273607
 30
0.0
 40
2.5
100
AcDbArc
 50
180.0000000000005
 51
270.0
  0
ARC
  5
773F
330
DF
100
AcDbEntity
  8
JISSEN
100
AcDbCircle
 10
747.9750247299998
 20
130.8785715273607
 30
0.0
 40
2.5
100
AcDbArc
 50
270.0
 51
0.0000000000005343
  0
ARC
  5
7740
330
DF
100
AcDbEntity
  8
JISSEN
100
AcDbCircle
 10
888.97502473
 20
130.8785715273607
 30
0.0
 40
2.5
100
AcDbArc
 50
179.9999999999994
 51
270.0
  0
ARC
  5
7741
330
DF
100
AcDbEntity
  8
JISSEN
100
AcDbCircle
 10
911.9750247299998
 20
130.8785715273607
 30
0.0
 40
2.5
100
AcDbArc
 50
270.0
 51
359.9999999999994
  0
ARC
  5
7742
330
DF
100
AcDbEntity
  8
JISSEN
100
AcDbCircle
 10
903.410606654282
 20
147.1977250608744
 30
0.0
 40
5.0
100
AcDbArc
 50
45.92658855677978
 51
119.2472438170029
  0
ARC
  5
7743
330
DF
100
AcDbEntity
  8
JISSEN
100
AcDbCircle
 10
909.47502473
 20
141.3263497178825
 30
0.0
 40
5.0
100
AcDbArc
 50
0.000000000000007
 51
45.92658855677965
  0
ARC
  5
7744
330
DF
100
AcDbEntity
  8
JISSEN
100
AcDbCircle
 10
891.47502473
 20
140.5142322217374
 30
0.0
 40
5.0
100
AcDbArc
 50
119.2472438170028
 51
180.0
  0
LINE
  5
7745
330
DF
100
AcDbEntity
  8
JISSEN
100
AcDbLine
 10
889.0321283801236
 20
144.8768297763784
 30
0.0
 11
900.9677103044055
 21
151.5603226155154
 31
0.0
  0
LINE
  5
7746
330
DF
100
AcDbEntity
  8
JISSEN
100
AcDbLine
 10
886.4750247300001
 20
130.8785715273608
 30
0.0
 11
886.4750247300001
 21
140.5142322217374
 31
0.0
  0
LINE
  5
7747
330
DF
100
AcDbEntity
  8
JISSEN
100
AcDbLine
 10
911.9750247299998
 20
128.3785715273608
 30
0.0
 11
818.47502473
 21
128.3785715273608
 31
0.0
  0
LINE
  5
7748
330
DF
100
AcDbEntity
  8
JISSEN
100
AcDbLine
 10
914.4750247300001
 20
141.3263497178825
 30
0.0
 11
914.4750247299999
 21
130.8785715273607
 31
0.0
  0
ARC
  5
7751
330
DF
100
AcDbEntity
  8
JISSEN
100
AcDbCircle
 10
823.47502473
 20
175.8785715273609
 30
0.0
 40
25.0
100
AcDbArc
 50
180.0000000000001
 51
258.4630409671847
  0
ARC
  5
7752
330
DF
100
AcDbEntity
  8
JISSEN
100
AcDbCircle
 10
813.4750247299999
 20
175.8785715273609
 30
0.0
 40
25.0
100
AcDbArc
 50
281.5369590328159
 51
359.9999999999999
  0
ARC
  5
7753
330
DF
100
AcDbEntity
  8
JISSEN
100
AcDbCircle
 10
818.47502473
 20
-66.75746047076484
 30
0.0
 40
218.1411345702939
100
AcDbArc
 50
71.8367946935699
 51
108.16320530643
  0
LINE
  5
775C
330
DF
100
AcDbEntity
  8
JISSEN
100
AcDbLine
 10
800.9750247300001
 20
575.87857153
 30
0.0
 11
731.4750247300001
 21
575.87857153
 31
0.0
  0
LINE
  5
775D
330
DF
100
AcDbEntity
  8
JISSEN
100
AcDbLine
 10
728.47502473
 20
572.87857153
 30
0.0
 11
728.47502473
 21
553.87857153
 31
0.0
  0
LINE
  5
775E
330
DF
100
AcDbEntity
  8
JISSEN
100
AcDbLine
 10
731.4750247300001
 20
550.87857153
 30
0.0
 11
800.9750247300001
 21
550.87857153
 31
0.0
  0
LINE
  5
775F
330
DF
100
AcDbEntity
  8
JISSEN
100
AcDbLine
 10
835.97502473
 20
578.37857153
 30
0.0
 11
855.97502473
 21
578.37857153
 31
0.0
  0
LINE
  5
7760
330
DF
100
AcDbEntity
  8
JISSEN
100
AcDbLine
 10
923.47502473
 20
577.3785715299998
 30
0.0
 11
923.47502473
 21
549.37857153
 31
0.0
  0
LINE
  5
7761
330
DF
100
AcDbEntity
  8
JISSEN
100
AcDbLine
 10
922.4750247300001
 20
548.37857153
 30
0.0
 11
913.9750247299998
 21
548.37857153
 31
0.0
  0
LINE
  5
7766
330
DF
100
AcDbEntity
  8
JISSEN
100
AcDbLine
 10
919.9750247299997
 20
518.5773013399999
 30
0.0
 11
919.9750247299997
 21
505.8323428666312
 31
0.0
  0
LINE
  5
7767
330
DF
100
AcDbEntity
  8
JISSEN
100
AcDbLine
 10
921.9750247299996
 20
502.06679326
 30
0.0
 11
921.9750247299998
 21
400.6283542499999
 31
0.0
  0
LINE
  5
7769
330
DF
100
AcDbEntity
  8
JISSEN
100
AcDbLine
 10
913.9750247299998
 20
550.87857153
 30
0.0
 11
913.9750247299998
 21
523.7724717817052
 31
0.0
  0
LINE
  5
776C
330
DF
100
AcDbEntity
  8
ITTEN
100
AcDbLine
 10
909.47502473
 20
364.19272865694
 30
0.0
 11
909.47502473
 21
610.0696763653036
 31
0.0
  0
LINE
  5
7770
330
DF
100
AcDbEntity
  8
JISSEN
100
AcDbLine
 10
904.9750247300003
 20
550.87857153
 30
0.0
 11
904.9750247300002
 21
523.7724717817051
 31
0.0
  0
LINE
  5
7772
330
DF
100
AcDbEntity
  8
JISSEN
100
AcDbLine
 10
896.9750247300002
 20
502.06679326
 30
0.0
 11
896.9750247300003
 21
400.6283542500013
 31
0.0
  0
LINE
  5
7773
330
DF
100
AcDbEntity
  8
JISSEN
100
AcDbLine
 10
898.9750247300001
 20
518.5773013399999
 30
0.0
 11
898.9750247300001
 21
505.8323428666311
 31
0.0
  0
ELLIPSE
  5
7774
330
DF
100
AcDbEntity
  8
JISSEN
100
AcDbEllipse
 10
909.47502473
 20
550.87857153
 30
0.0
 11
-4.499999999999772
 21
0.0
 31
0.0
210
0.0
220
0.0
230
1.0
 40
0.5555555555555837
 41
3.141592653589793
 42
6.283185307179586
  0
LINE
  5
7777
330
DF
100
AcDbEntity
  8
JISSEN
100
AcDbLine
 10
904.9750247300003
 20
548.37857153
 30
0.0
 11
861.9750247300002
 21
548.37857153
 31
0.0
  0
ELLIPSE
  5
7779
330
DF
100
AcDbEntity
  8
JISSEN
100
AcDbEllipse
 10
909.47502473
 20
518.5773013399999
 30
0.0
 11
10.49999999999965
 21
0.0
 31
0.0
210
0.0
220
0.0
230
1.0
 40
0.5476190476190654
 41
0.0
 42
3.141592653589793
  0
ELLIPSE
  5
777B
330
DF
100
AcDbEntity
  8
JISSEN
100
AcDbEllipse
 10
909.47502473
 20
502.06679326
 30
0.0
 11
12.49999999999977
 21
0.0
 31
0.0
210
0.0
220
0.0
230
1.0
 40
0.5552000000000099
 41
6.283185307179586
 42
9.424777960769379
  0
ELLIPSE
  5
777C
330
DF
100
AcDbEntity
  8
JISSEN
100
AcDbEllipse
 10
909.47502473
 20
400.6283542499999
 30
0.0
 11
12.49999999999977
 21
0.0
 31
0.0
210
0.0
220
0.0
230
-1.0
 40
0.5552000000000099
 41
6.283185307179586
 42
9.424777960769379
  0
ELLIPSE
  5
777D
330
DF
100
AcDbEntity
  8
JISSEN
100
AcDbEllipse
 10
909.47502473
 20
400.6283542499999
 30
0.0
 11
12.49999999999977
 21
0.0
 31
0.0
210
0.0
220
0.0
230
1.0
 40
0.5552000000000099
 41
6.283185307179586
 42
9.424777960769379
  0
LINE
  5
7783
330
DF
100
AcDbEntity
  8
JISSEN
100
AcDbLine
 10
855.97502473
 20
578.37857153
 30
0.0
 11
855.97502473
 21
548.37857153
 31
0.0
  0
LINE
  5
7784
330
DF
100
AcDbEntity
  8
JISSEN
100
AcDbLine
 10
858.47502473
 20
575.87857153
 30
0.0
 11
858.47502473
 21
550.87857153
 31
0.0
  0
LINE
  5
7785
330
DF
100
AcDbEntity
  8
JISSEN
100
AcDbLine
 10
858.47502473
 20
568.37857153
 30
0.0
 11
860.97502473
 21
568.37857153
 31
0.0
  0
LINE
  5
7786
330
DF
100
AcDbEntity
  8
JISSEN
100
AcDbLine
 10
860.97502473
 20
558.37857153
 30
0.0
 11
858.47502473
 21
558.37857153
 31
0.0
  0
LINE
  5
7787
330
DF
100
AcDbEntity
  8
JISSEN
100
AcDbLine
 10
861.9750247300002
 20
578.3785715300001
 30
0.0
 11
922.4750247300001
 21
578.3785715299997
 31
0.0
  0
LINE
  5
7788
330
DF
100
AcDbEntity
  8
JISSEN
100
AcDbLine
 10
855.97502473
 20
548.37857153
 30
0.0
 11
835.97502473
 21
548.37857153
 31
0.0
  0
ARC
  5
7789
330
DF
100
AcDbEntity
  8
JISSEN
100
AcDbCircle
 10
855.97502473
 20
575.87857153
 30
0.0
 40
2.5
100
AcDbArc
 50
0.0
 51
90.0
  0
ARC
  5
778A
330
DF
100
AcDbEntity
  8
JISSEN
100
AcDbCircle
 10
855.97502473
 20
550.87857153
 30
0.0
 40
2.5
100
AcDbArc
 50
270.0
 51
0.0
  0
LINE
  5
778B
330
DF
100
AcDbEntity
  8
JISSEN
100
AcDbLine
 10
860.9750247300002
 20
577.3785715300001
 30
0.0
 11
860.9750247300002
 21
549.37857153
 31
0.0
  0
ARC
  5
778C
330
DF
100
AcDbEntity
  8
JISSEN
100
AcDbCircle
 10
861.9750247300002
 20
577.3785715300001
 30
0.0
 40
1.0
100
AcDbArc
 50
90.0
 51
180.0
  0
ARC
  5
778D
330
DF
100
AcDbEntity
  8
JISSEN
100
AcDbCircle
 10
861.9750247300002
 20
549.37857153
 30
0.0
 40
1.0
100
AcDbArc
 50
179.9999999999998
 51
270.0
  0
ARC
  5
778E
330
DF
100
AcDbEntity
  8
JISSEN
100
AcDbCircle
 10
922.4750247300001
 20
577.3785715299998
 30
0.0
 40
1.0
100
AcDbArc
 50
0.0
 51
89.99999999999991
  0
ARC
  5
778F
330
DF
100
AcDbEntity
  8
JISSEN
100
AcDbCircle
 10
922.4750247300001
 20
549.37857153
 30
0.0
 40
1.0
100
AcDbArc
 50
270.0
 51
0.0
  0
ARC
  5
7790
330
DF
100
AcDbEntity
  8
JISSEN
100
AcDbCircle
 10
731.4750247300001
 20
553.87857153
 30
0.0
 40
3.0
100
AcDbArc
 50
180.0
 51
270.0
  0
ARC
  5
7791
330
DF
100
AcDbEntity
  8
JISSEN
100
AcDbCircle
 10
731.4750247300001
 20
572.87857153
 30
0.0
 40
3.0
100
AcDbArc
 50
90.0
 51
180.0
  0
ARC
  5
7792
330
DF
100
AcDbEntity
  8
JISSEN
100
AcDbCircle
 10
805.97502473
 20
415.8785715273609
 30
0.0
 40
2.5
100
AcDbArc
 50
89.99999999999978
 51
180.0
  0
ARC
  5
7793
330
DF
100
AcDbEntity
  8
JISSEN
100
AcDbCircle
 10
830.97502473
 20
415.8785715273607
 30
0.0
 40
2.5
100
AcDbArc
 50
0.0
 51
89.99999999999976
  0
ARC
  5
7794
330
DF
100
AcDbEntity
  8
JISSEN
100
AcDbCircle
 10
800.9750247299999
 20
394.0484445084386
 30
0.0
 40
2.5
100
AcDbArc
 50
330.0
 51
0.0
  0
ARC
  5
7795
330
DF
100
AcDbEntity
  8
JISSEN
100
AcDbCircle
 10
835.97502473
 20
394.0484445084388
 30
0.0
 40
2.5
100
AcDbArc
 50
179.9999999999997
 51
210.0
  0
ARC
  5
7796
330
DF
100
AcDbEntity
  8
JISSEN
100
AcDbCircle
 10
316.59138779
 20
394.0484445084387
 30
0.0
 40
2.5
100
AcDbArc
 50
330.0
 51
0.0
  0
ARC
  5
7797
330
DF
100
AcDbEntity
  8
JISSEN
100
AcDbCircle
 10
351.59138779
 20
394.0484445084385
 30
0.0
 40
2.5
100
AcDbArc
 50
180.0
 51
210.0
  0
ARC
  5
7798
330
DF
100
AcDbEntity
  8
JISSEN
100
AcDbCircle
 10
346.59138779
 20
415.8785715273607
 30
0.0
 40
2.5
100
AcDbArc
 50
0.0
 51
89.99999999999976
  0
ARC
  5
7799
330
DF
100
AcDbEntity
  8
JISSEN
100
AcDbCircle
 10
321.59138779
 20
415.8785715273609
 30
0.0
 40
2.5
100
AcDbArc
 50
89.99999999999964
 51
180.0
  0
ARC
  5
78D2
330
DF
100
AcDbEntity
  8
JISSEN
100
AcDbCircle
 10
727.47502473
 20
848.4905192477311
 30
0.0
 40
5.0
100
AcDbArc
 50
164.4758890032456
 51
180.0
  0
ARC
  5
78D3
330
DF
100
AcDbEntity
  8
JISSEN
100
AcDbCircle
 10
751.2754529778528
 20
934.1720609400001
 30
0.0
 40
5.0
100
AcDbArc
 50
90.0
 51
164.4758890032457
  0
ARC
  5
78D4
330
DF
100
AcDbEntity
  8
JISSEN
100
AcDbCircle
 10
885.6745964821474
 20
934.1720609400001
 30
0.0
 40
5.0
100
AcDbArc
 50
15.5241109967542
 51
90.0
  0
LINE
  5
78D5
330
DF
100
AcDbEntity
  8
JISSEN
100
AcDbLine
 10
890.4921860302971
 20
935.5102802589305
 30
0.0
 11
914.4750247300001
 21
849.1720609399997
 31
0.0
  0
LINE
  5
78D6
330
DF
100
AcDbEntity
  8
JISSEN
100
AcDbLine
 10
746.4578634297031
 20
935.5102802589305
 30
0.0
 11
722.6574351818503
 21
849.8287385666616
 31
0.0
  0
LWPOLYLINE
  5
78D7
330
DF
100
AcDbEntity
  8
JISSEN
100
AcDbPolyline
 90
        2
 70
     0
 43
0.0
 10
914.4750247299999
 20
805.8071166770274
 10
914.4750247299999
 20
819.17206094
  0
LWPOLYLINE
  5
78D8
330
DF
100
AcDbEntity
  8
JISSEN
100
AcDbPolyline
 90
        2
 70
     0
 43
0.0
 10
914.4750247300001
 20
805.8071166770274
 10
914.4750247300001
 20
819.17206094
  0
ARC
  5
78D9
330
DF
100
AcDbEntity
  8
JISSEN
100
AcDbCircle
 10
738.4750247300001
 20
738.2770846799999
 30
0.0
 40
12.0
100
AcDbArc
 50
270.0000000000004
 51
0.0
  0
ARC
  5
78DA
330
DF
100
AcDbEntity
  8
JISSEN
100
AcDbCircle
 10
734.4750247300001
 20
738.2770846799999
 30
0.0
 40
12.0
100
AcDbArc
 50
180.0
 51
270.0
  0
LINE
  5
78DB
330
DF
100
AcDbEntity
  8
JISSEN
100
AcDbLine
 10
734.4750247300001
 20
726.2770846799999
 30
0.0
 11
738.4750247300002
 21
726.2770846799999
 31
0.0
  0
LINE
  5
78DC
330
DF
100
AcDbEntity
  8
JISSEN
100
AcDbLine
 10
722.4750247300001
 20
848.4905192477311
 30
0.0
 11
722.4750247300001
 21
738.2770846799999
 31
0.0
  0
LINE
  5
78DD
330
DF
100
AcDbEntity
  8
JISSEN
100
AcDbLine
 10
885.6745964821474
 20
939.17206094
 30
0.0
 11
751.2754529778528
 21
939.17206094
 31
0.0
  0
LWPOLYLINE
  5
78DE
330
DF
100
AcDbEntity
  8
JISSEN
100
AcDbPolyline
 90
        2
 70
     0
 43
0.0
 10
914.4750247300001
 20
795.6946818629741
 10
914.4750247300001
 20
795.8145733429727
  0
ELLIPSE
  5
78DF
330
DF
100
AcDbEntity
  8
JISSEN
100
AcDbEllipse
 10
909.47502473
 20
788.4666348699997
 30
0.0
 11
10.49999999999965
 21
0.0
 31
0.0
210
0.0
220
0.0
230
-1.0
 40
0.5476190476190654
 41
0.0
 42
3.141592653589793
  0
ELLIPSE
  5
78E0
330
DF
100
AcDbEntity
  8
JISSEN
100
AcDbEllipse
 10
909.47502473
 20
788.3467433900029
 30
0.0
 11
12.49999999999977
 21
0.0
 31
0.0
210
0.0
220
0.0
230
1.0
 40
0.5552000000000099
 41
8.851264856346292
 42
9.424777960769379
  0
ELLIPSE
  5
78E1
330
DF
100
AcDbEntity
  8
JISSEN
100
AcDbEllipse
 10
909.47502473
 20
788.3467433900086
 30
0.0
 11
12.49999999999977
 21
0.0
 31
0.0
210
0.0
220
0.0
230
-1.0
 40
0.5552000000000099
 41
6.283185307179586
 42
9.424777960769379
  0
ELLIPSE
  5
78E2
330
DF
100
AcDbEntity
  8
JISSEN
100
AcDbEllipse
 10
909.47502473
 20
800.8108450100001
 30
0.0
 11
-4.499999999999772
 21
-0.0000000000020464
 31
0.0
210
0.0
220
0.0
230
-1.0
 40
0.5555555555555837
 41
3.141592653589793
 42
6.283185307179586
  0
ELLIPSE
  5
78E3
330
DF
100
AcDbEntity
  8
JISSEN
100
AcDbEllipse
 10
909.47502473
 20
800.7508992700001
 30
0.0
 11
10.49999999999965
 21
0.0
 31
0.0
210
0.0
220
0.0
230
1.0
 40
0.5476190476190654
 41
2.013707370868539
 42
3.141592653589793
  0
ELLIPSE
  5
78E4
330
DF
100
AcDbEntity
  8
JISSEN
100
AcDbEllipse
 10
909.47502473
 20
800.7508992700001
 30
0.0
 11
10.49999999999965
 21
0.0
 31
0.0
210
0.0
220
0.0
230
1.0
 40
0.5476190476190654
 41
0.0
 42
1.127885282721278
  0
ELLIPSE
  5
78E5
330
DF
100
AcDbEntity
  8
JISSEN
100
AcDbEllipse
 10
909.47502473
 20
800.8707907499999
 30
0.0
 11
10.49999999999965
 21
0.0
 31
0.0
210
0.0
220
0.0
230
-1.0
 40
0.5476190476190654
 41
0.0
 42
3.141592653589793
  0
LINE
  5
78E6
330
DF
100
AcDbEntity
  8
JISSEN
100
AcDbLine
 10
750.4750247300001
 20
846.6720609400001
 30
0.0
 11
750.4750247300001
 21
874.1720609400001
 31
0.0
  0
LINE
  5
78E7
330
DF
100
AcDbEntity
  8
JISSEN
100
AcDbLine
 10
853.1160408813777
 20
874.1720609400001
 30
0.0
 11
886.4750247300001
 21
874.1720609400001
 31
0.0
  0
ARC
  5
78E8
330
DF
100
AcDbEntity
  8
JISSEN
100
AcDbCircle
 10
830.97502473
 20
914.17206094
 30
0.0
 40
5.0
100
AcDbArc
 50
0.0
 51
90.0
  0
ARC
  5
78E9
330
DF
100
AcDbEntity
  8
JISSEN
100
AcDbCircle
 10
805.9750247300002
 20
914.17206094
 30
0.0
 40
5.0
100
AcDbArc
 50
90.0
 51
180.0
  0
ARC
  5
78EA
330
DF
100
AcDbEntity
  8
JISSEN
100
AcDbCircle
 10
805.9750247300002
 20
799.1720609399999
 30
0.0
 40
5.0
100
AcDbArc
 50
180.0
 51
270.0
  0
ARC
  5
78EB
330
DF
100
AcDbEntity
  8
JISSEN
100
AcDbCircle
 10
830.97502473
 20
799.17206094
 30
0.0
 40
5.0
100
AcDbArc
 50
270.0
 51
0.0
  0
LINE
  5
78EC
330
DF
100
AcDbEntity
  8
JISSEN
100
AcDbLine
 10
835.97502473
 20
828.8545193055222
 30
0.0
 11
835.97502473
 21
914.17206094
 31
0.0
  0
LINE
  5
78ED
330
DF
100
AcDbEntity
  8
JISSEN
100
AcDbLine
 10
800.9750247300001
 20
809.4896025744814
 30
0.0
 11
800.9750247300001
 21
799.1720609399999
 31
0.0
  0
LINE
  5
78EE
330
DF
100
AcDbEntity
  8
JISSEN
100
AcDbLine
 10
800.9750247300001
 20
914.17206094
 30
0.0
 11
800.9750247300001
 21
828.8545193055185
 31
0.0
  0
LINE
  5
78EF
330
DF
100
AcDbEntity
  8
JISSEN
100
AcDbLine
 10
830.97502473
 20
919.1720609399999
 30
0.0
 11
805.9750247300002
 21
919.17206094
 31
0.0
  0
LINE
  5
78F0
330
DF
100
AcDbEntity
  8
JISSEN
100
AcDbLine
 10
835.97502473
 20
799.17206094
 30
0.0
 11
835.97502473
 21
809.4896025744851
 31
0.0
  0
LINE
  5
78F1
330
DF
100
AcDbEntity
  8
JISSEN
100
AcDbLine
 10
805.9750247300002
 20
794.1720609399999
 30
0.0
 11
830.97502473
 21
794.17206094
 31
0.0
  0
CIRCLE
  5
78F2
330
DF
100
AcDbEntity
  8
JISSEN
100
AcDbCircle
 10
818.47502473
 20
819.17206094
 30
0.0
 40
20.0
  0
LINE
  5
78F3
330
DF
100
AcDbEntity
  8
JISSEN
100
AcDbLine
 10
886.4750247300001
 20
874.1720609400001
 30
0.0
 11
886.4750247300001
 21
849.1720609400001
 31
0.0
  0
LINE
  5
78F4
330
DF
100
AcDbEntity
  8
JISSEN
100
AcDbLine
 10
750.4750247300001
 20
874.1720609400001
 30
0.0
 11
783.8340085786224
 21
874.1720609400001
 31
0.0
  0
LINE
  5
78F5
330
DF
100
AcDbEntity
  8
JISSEN
100
AcDbLine
 10
750.4750247300001
 20
738.2770846799999
 30
0.0
 11
750.4750247300001
 21
821.6720609400001
 31
0.0
  0
LWPOLYLINE
  5
78F6
330
DF
100
AcDbEntity
  8
JISSEN
100
AcDbPolyline
 90
        5
 70
     0
 43
0.0
 10
886.4750247300001
 20
819.17206094
 10
886.4750247299999
 20
738.27708468
 42
0.4142135623730951
 10
898.4750247299999
 20
726.27708468
 10
902.47502473
 20
726.27708468
 42
0.2023139100461867
 10
911.0705625367595
 20
729.9035113798749
 42
0.2023139100461867
  0
ARC
  5
78F7
330
DF
100
AcDbEntity
  8
JISSEN
100
AcDbCircle
 10
731.4750247300001
 20
843.67206094
 30
0.0
 40
3.0
100
AcDbArc
 50
90.0
 51
180.0
  0
ARC
  5
78F8
330
DF
100
AcDbEntity
  8
JISSEN
100
AcDbCircle
 10
731.4750247300001
 20
824.67206094
 30
0.0
 40
3.0
100
AcDbArc
 50
180.0
 51
270.0
  0
ARC
  5
78F9
330
DF
100
AcDbEntity
  8
JISSEN
100
AcDbCircle
 10
922.4750247300001
 20
820.17206094
 30
0.0
 40
1.0
100
AcDbArc
 50
270.0
 51
0.0
  0
ARC
  5
78FA
330
DF
100
AcDbEntity
  8
JISSEN
100
AcDbCircle
 10
922.4750247300001
 20
848.1720609399998
 30
0.0
 40
1.0
100
AcDbArc
 50
0.0
 51
89.99999999999991
  0
ARC
  5
78FB
330
DF
100
AcDbEntity
  8
JISSEN
100
AcDbCircle
 10
861.9750247300002
 20
820.17206094
 30
0.0
 40
1.0
100
AcDbArc
 50
179.9999999999998
 51
270.0
  0
ARC
  5
78FC
330
DF
100
AcDbEntity
  8
JISSEN
100
AcDbCircle
 10
861.9750247300002
 20
848.1720609400001
 30
0.0
 40
1.0
100
AcDbArc
 50
90.0
 51
180.0
  0
LINE
  5
78FD
330
DF
100
AcDbEntity
  8
JISSEN
100
AcDbLine
 10
860.9750247300002
 20
848.1720609400001
 30
0.0
 11
860.9750247300002
 21
820.17206094
 31
0.0
  0
ARC
  5
78FE
330
DF
100
AcDbEntity
  8
JISSEN
100
AcDbCircle
 10
855.97502473
 20
821.6720609400001
 30
0.0
 40
2.5
100
AcDbArc
 50
270.0
 51
0.0
  0
ARC
  5
78FF
330
DF
100
AcDbEntity
  8
JISSEN
100
AcDbCircle
 10
855.97502473
 20
846.6720609400001
 30
0.0
 40
2.5
100
AcDbArc
 50
0.0
 51
90.0
  0
LINE
  5
7900
330
DF
100
AcDbEntity
  8
JISSEN
100
AcDbLine
 10
855.97502473
 20
819.17206094
 30
0.0
 11
838.4750247300001
 21
819.17206094
 31
0.0
  0
LINE
  5
7901
330
DF
100
AcDbEntity
  8
JISSEN
100
AcDbLine
 10
861.9750247300002
 20
849.1720609400001
 30
0.0
 11
922.4750247300001
 21
849.1720609399997
 31
0.0
  0
LINE
  5
7902
330
DF
100
AcDbEntity
  8
JISSEN
100
AcDbLine
 10
860.97502473
 20
829.17206094
 30
0.0
 11
858.47502473
 21
829.17206094
 31
0.0
  0
LINE
  5
7903
330
DF
100
AcDbEntity
  8
JISSEN
100
AcDbLine
 10
858.47502473
 20
839.17206094
 30
0.0
 11
860.97502473
 21
839.17206094
 31
0.0
  0
LINE
  5
7904
330
DF
100
AcDbEntity
  8
JISSEN
100
AcDbLine
 10
858.47502473
 20
846.6720609400001
 30
0.0
 11
858.47502473
 21
821.6720609400001
 31
0.0
  0
LINE
  5
7905
330
DF
100
AcDbEntity
  8
JISSEN
100
AcDbLine
 10
855.97502473
 20
849.1720609400001
 30
0.0
 11
855.97502473
 21
819.17206094
 31
0.0
  0
ELLIPSE
  5
7906
330
DF
100
AcDbEntity
  8
JISSEN
100
AcDbEllipse
 10
909.47502473
 20
736.78674339
 30
0.0
 11
-12.49999999999977
 21
0.0
 31
0.0
210
0.0
220
0.0
230
-1.0
 40
0.5552000000000145
 41
3.141592653589793
 42
6.283185307179586
  0
ELLIPSE
  5
7907
330
DF
100
AcDbEntity
  8
JISSEN
100
AcDbEllipse
 10
909.47502473
 20
788.3467433900029
 30
0.0
 11
12.49999999999977
 21
0.0
 31
0.0
210
0.0
220
0.0
230
1.0
 40
0.5552000000000099
 41
6.283185307179586
 42
6.856698411602701
  0
LINE
  5
7908
330
DF
100
AcDbEntity
  8
JISSEN
100
AcDbLine
 10
904.9750247300003
 20
819.17206094
 30
0.0
 11
861.9750247300002
 21
819.17206094
 31
0.0
  0
ELLIPSE
  5
7909
330
DF
100
AcDbEntity
  8
JISSEN
100
AcDbEllipse
 10
909.47502473
 20
821.6720609400001
 30
0.0
 11
-4.499999999999772
 21
0.0
 31
0.0
210
0.0
220
0.0
230
1.0
 40
0.5555555555555837
 41
3.141592653589793
 42
6.283185307179586
  0
LINE
  5
790A
330
DF
100
AcDbEntity
  8
JISSEN
100
AcDbLine
 10
898.9750247300001
 20
800.8108450100001
 30
0.0
 11
898.9750247300001
 21
788.34674339
 31
0.0
  0
LINE
  5
790B
330
DF
100
AcDbEntity
  8
JISSEN
100
AcDbLine
 10
896.9750247300003
 20
788.3467433900086
 30
0.0
 11
896.9750247300003
 21
736.7867433900015
 31
0.0
  0
LINE
  5
790C
330
DF
100
AcDbEntity
  8
JISSEN
100
AcDbLine
 10
904.9750247300003
 20
821.6720609400001
 30
0.0
 11
904.9750247300002
 21
800.8108450100001
 31
0.0
  0
LINE
  5
790D
330
DF
100
AcDbEntity
  8
JISSEN
100
AcDbLine
 10
913.9750247299998
 20
821.6720609400001
 30
0.0
 11
913.9750247299998
 21
800.8108450100001
 31
0.0
  0
LINE
  5
790E
330
DF
100
AcDbEntity
  8
JISSEN
100
AcDbLine
 10
921.9750247299998
 20
788.3467433900086
 30
0.0
 11
921.97502473
 21
736.78674339
 31
0.0
  0
LINE
  5
790F
330
DF
100
AcDbEntity
  8
JISSEN
100
AcDbLine
 10
919.9750247299997
 20
800.8108450100001
 30
0.0
 11
919.9750247299997
 21
788.34674339
 31
0.0
  0
LINE
  5
7910
330
DF
100
AcDbEntity
  8
JISSEN
100
AcDbLine
 10
922.4750247300001
 20
819.17206094
 30
0.0
 11
913.9750247299998
 21
819.17206094
 31
0.0
  0
LINE
  5
7911
330
DF
100
AcDbEntity
  8
JISSEN
100
AcDbLine
 10
923.47502473
 20
848.1720609399998
 30
0.0
 11
923.47502473
 21
820.17206094
 31
0.0
  0
LINE
  5
7912
330
DF
100
AcDbEntity
  8
JISSEN
100
AcDbLine
 10
835.97502473
 20
849.1720609400001
 30
0.0
 11
855.97502473
 21
849.1720609400001
 31
0.0
  0
LINE
  5
7913
330
DF
100
AcDbEntity
  8
JISSEN
100
AcDbLine
 10
731.4750247300001
 20
821.6720609400001
 30
0.0
 11
798.6318898970156
 21
821.6720609400001
 31
0.0
  0
LINE
  5
7914
330
DF
100
AcDbEntity
  8
JISSEN
100
AcDbLine
 10
728.47502473
 20
843.67206094
 30
0.0
 11
728.47502473
 21
824.67206094
 31
0.0
  0
LINE
  5
7915
330
DF
100
AcDbEntity
  8
JISSEN
100
AcDbLine
 10
800.9750247300001
 20
846.6720609400001
 30
0.0
 11
731.4750247300001
 21
846.6720609400001
 31
0.0
  0
LINE
  5
7916
330
DF
100
AcDbEntity
  8
ITTEN
100
AcDbLine
 10
818.47502473
 20
90.30370158
 30
0.0
 11
818.47502473
 21
664.79715621
 31
0.0
  0
DIMENSION
  5
795B
330
DF
100
AcDbEntity
  8
SUNPOU
100
AcDbDimension
  2
*D8
 10
914.4750247299999
 20
48.99155880408944
 30
0.0
 11
816.3049582397439
 21
48.99155880408944
 31
0.0
 70
   160
  3
IMCADLT
100
AcDbAlignedDimension
 13
722.47502473
 23
130.8785715273607
 33
0.0
 14
914.4750247299999
 24
130.8785715273607
 34
0.0
100
AcDbRotatedDimension
  0
LINE
  5
795C
330
DF
100
AcDbEntity
  8
ITTEN
100
AcDbLine
 10
756.97502473
 20
336.8785715273608
 30
0.0
 11
756.97502473
 21
373.3785715273608
 31
0.0
  0
LINE
  5
795D
330
DF
100
AcDbEntity
  8
ITTEN
100
AcDbLine
 10
879.97502473
 20
336.8785715273608
 30
0.0
 11
879.97502473
 21
373.3785715273609
 31
0.0
  0
LINE
  5
795E
330
DF
100
AcDbEntity
  8
ITTEN
100
AcDbLine
 10
759.4750247300001
 20
334.3785715273607
 30
0.0
 11
877.4750247300001
 21
334.3785715273607
 31
0.0
  0
ARC
  5
7960
330
DF
100
AcDbEntity
  8
ITTEN
100
AcDbCircle
 10
877.4750247300001
 20
336.8785715273608
 30
0.0
 40
2.5
100
AcDbArc
 50
270.0
 51
360.0
  0
ARC
  5
7961
330
DF
100
AcDbEntity
  8
ITTEN
100
AcDbCircle
 10
759.4750247300001
 20
336.8785715273608
 30
0.0
 40
2.5
100
AcDbArc
 50
180.0
 51
270.0
  0
DIMENSION
  5
796F
330
DF
100
AcDbEntity
  8
SUNPOU
100
AcDbDimension
  2
*D9
 10
756.97502473
 20
443.7749745502115
 30
0.0
 11
708.4035961585715
 21
443.7749745502115
 31
0.0
 70
   160
  1
%%C<>
  3
IMCADLT
100
AcDbAlignedDimension
 13
879.97502473
 23
373.3785715273609
 33
0.0
 14
756.97502473
 24
373.3785715273608
 34
0.0
100
AcDbRotatedDimension
  0
DIMENSION
  5
7994
330
DF
100
AcDbEntity
  8
SUNPOU
100
AcDbDimension
  2
*D10
 10
923.47502473
 20
678.6432186736629
 30
0.0
 11
871.1374473854526
 21
678.6432186736629
 31
0.0
 70
   160
  3
IMCADLT
100
AcDbAlignedDimension
 13
818.47502473
 23
664.79715621
 33
0.0
 14
923.47502473
 24
577.3785715299998
 34
0.0
100
AcDbRotatedDimension
  0
DIMENSION
  5
7A9A
330
DF
100
AcDbEntity
  8
SUNPOU
100
AcDbDimension
  2
*D12
 10
429.0913877899998
 20
55.61745371553366
 30
0.0
 11
313.8144104355215
 21
55.61745371553366
 31
0.0
 70
   160
  3
IMCADLT
100
AcDbAlignedDimension
 13
214.09138779
 23
130.8785715273608
 33
0.0
 14
429.0913877899998
 24
130.8785715273607
 34
0.0
100
AcDbRotatedDimension
1001
ACAD
1000
DSTYLE
1002
{
1002
}
  0
ARC
  5
7AAB
330
DF
100
AcDbEntity
  8
JISSEN
100
AcDbCircle
 10
818.47502473
 20
819.17206094
 30
0.0
 40
45.0
100
AcDbArc
 50
112.8853804761585
 51
142.3301130356703
  0
ARC
  5
7AAD
330
DF
100
AcDbEntity
  8
JISSEN
100
AcDbCircle
 10
818.47502473
 20
819.17206094
 30
0.0
 40
61.5
100
AcDbArc
 50
106.5321218750285
 51
153.438736159846
  0
ARC
  5
7AAE
330
DF
100
AcDbEntity
  8
JISSEN
100
AcDbCircle
 10
818.47502473
 20
819.17206094
 30
0.0
 40
65.0
100
AcDbArc
 50
105.6184982756484
 51
154.9710005123849
  0
ARC
  5
7AAF
330
DF
100
AcDbEntity
  8
JISSEN
100
AcDbCircle
 10
818.47502473
 20
819.17206094
 30
0.0
 40
65.0
100
AcDbArc
 50
27.48642625038128
 51
74.38150172435232
  0
ARC
  5
7AB0
330
DF
100
AcDbEntity
  8
JISSEN
100
AcDbCircle
 10
818.47502473
 20
819.17206094
 30
0.0
 40
61.5
100
AcDbArc
 50
29.19640440963217
 51
73.46787812497227
  0
ARC
  5
7AB1
330
DF
100
AcDbEntity
  8
JISSEN
100
AcDbCircle
 10
818.47502473
 20
819.17206094
 30
0.0
 40
61.5
100
AcDbArc
 50
177.6702613395651
 51
0.0
  0
ARC
  5
7AB2
330
DF
100
AcDbEntity
  8
JISSEN
100
AcDbCircle
 10
818.47502473
 20
819.17206094
 30
0.0
 40
65.0
100
AcDbArc
 50
177.7957724960279
 51
0.0
  0
ARC
  5
7AB3
330
DF
100
AcDbEntity
  8
JISSEN
100
AcDbCircle
 10
818.47502473
 20
819.17206094
 30
0.0
 40
45.0
100
AcDbArc
 50
176.8152614632795
 51
0.0
  0
ARC
  5
7AB4
330
DF
100
AcDbEntity
  8
JISSEN
100
AcDbCircle
 10
818.47502473
 20
819.17206094
 30
0.0
 40
45.0
100
AcDbArc
 50
41.81031489577858
 51
67.11461952384323
  0
VIEWPORT
  5
4AEA
330
DC
100
AcDbEntity
 67
     1
  8
0
100
AcDbViewport
 10
212.9853333135566
 20
148.5200457310428
 30
0.0
 40
582.475873720577
 41
314.8684122430517
 68
     1
 69
     1
1001
ACAD
1000
MVIEW
1002
{
1070
    16
1010
0.0
1020
0.0
1030
0.0
1010
0.0
1020
0.0
1030
1.0
1040
0.0
1040
314.8684122430517
1040
212.9853333135566
1040
148.5200457310428
1040
50.0
1040
0.0
1040
0.0
1070
     0
1070
   500
1070
     1
1070
     1
1070
     0
1070
     0
1070
     0
1070
     0
1040
0.0
1040
0.0
1040
0.0
1040
1.0
1040
1.0
1040
10.0
1040
10.0
1070
     0
1002
{
1003
HIDDEN_L
1002
}
1002
}
  0
VIEWPORT
  5
7344
330
DC
100
AcDbEntity
 67
     1
  8
HIDDEN_L
100
AcDbViewport
 10
209.9999991599999
 20
148.4999999999999
 30
0.0
 40
419.9999983199999
 41
296.9999999999999
 68
     2
 69
     2
1001
ACAD
1000
MVIEW
1002
{
1070
    16
1010
0.0
1020
0.0
1030
0.0
1010
0.0
1020
0.0
1030
1.0
1040
0.0
1040
1485.000000284856
1040
1017.187869232498
1040
441.8910286943833
1040
50.0
1040
0.0
1040
0.0
1070
     0
1070
   500
1070
     1
1070
     0
1070
     0
1070
     0
1070
     0
1070
     0
1040
0.0
1040
0.0
1040
0.0
1040
1.0
1040
1.0
1040
10.0
1040
10.0
1070
     0
1002
{
1003
SUNPOU2
1002
}
1002
}
  0
VIEWPORT
  5
737B
330
DC
100
AcDbEntity
 67
     1
  8
HIDDEN_L
100
AcDbViewport
 10
327.1040277052861
 20
154.1844868709388
 30
0.0
 40
170.9996511590106
 41
170.9305203048966
 68
     3
 69
     3
1001
ACAD
1000
MVIEW
1002
{
1070
    16
1010
0.0
1020
0.0
1030
0.0
1010
0.0
1020
0.0
1030
1.0
1040
0.0
1040
85.46525970119278
1040
557.8554615693763
1040
254.7683962468561
1040
50.0
1040
0.0
1040
0.0
1070
     0
1070
   500
1070
     1
1070
     0
1070
     0
1070
     0
1070
     0
1070
     0
1040
0.0
1040
0.0
1040
0.0
1040
1.0
1040
1.0
1040
10.0
1040
10.0
1070
     0
1002
{
1003
SUNPOU
1002
}
1002
}
  0
INSERT
  5
7A7E
330
DC
100
AcDbEntity
 67
     1
  8
WAKU
100
AcDbBlockReference
  2
S3
 10
0.0
 20
0.0
 30
0.0
  0
MTEXT
  5
7A84
330
DC
100
AcDbEntity
 67
     1
  8
SUNPOU
100
AcDbMText
 10
260.4160524309887
 20
220.4871871175225
 30
0.0
 40
3.0
 41
0.0
 71
     1
 72
     1
  1
\fＭＳ 明朝|b0|i0|c128|p17;\L　仕様　\P\l外形寸法：巾201mm×奥行215mm×高さ500mm\P重量：7.5kg\Pハンドル長さ：190mm\Pピニオンギヤー：歯数12枚　ピッチ円直径φ18mm\P皿受け直径：φ123mm
1001
ACAD
1000
MTEXTBEGIN
1070
    73
1070
     1
1070
    44
1040
1.0
1070
    74
1070
     0
1000
MTEXTEND
  0
TEXT
  5
7A86
330
DC
100
AcDbEntity
 67
     1
  8
SUNPOU
100
AcDbText
 10
297.8589982715067
 20
46.07757244381502
 30
0.0
 40
3.0
  1
フレッシュジューサー外形図
  7
K
100
AcDbText
  0
TEXT
  5
7A87
330
DC
100
AcDbEntity
 67
     1
  8
SUNPOU
100
AcDbText
 10
337.4817332634112
 20
24.04802100568247
 30
0.0
 40
3.0
  1
HJ3A
  7
K
100
AcDbText
  0
TEXT
  5
7A88
330
DC
100
AcDbEntity
 67
     1
  8
SUNPOU
100
AcDbText
 10
298.7430643889803
 20
24.67077693501176
 30
0.0
 40
3.0
  1
江崎
  7
K
100
AcDbText
  0
TEXT
  5
7A89
330
DC
100
AcDbEntity
 67
     1
  8
SUNPOU
100
AcDbText
 10
308.8265561996821
 20
24.58922860490486
 30
0.0
 40
3.0
  1
01 5 11
 41
0.8
  7
K
100
AcDbText
  0
LINE
  5
7A8A
330
DC
100
AcDbEntity
 67
     1
  8
SUNPOU
100
AcDbLine
 10
367.6227675517831
 20
50.54386264888797
 30
0.0
 11
375.3654859685574
 21
50.54386264888797
 31
0.0
  0
LINE
  5
7A8B
330
DC
100
AcDbEntity
 67
     1
  8
SUNPOU
100
AcDbLine
 10
367.6227675517831
 20
42.54386264888796
 30
0.0
 11
375.3654859685574
 21
42.54386264888796
 31
0.0
  0
TEXT
  5
7A8C
330
DC
100
AcDbEntity
 67
     1
  8
SUNPOU
100
AcDbText
 10
357.9171060803147
 20
33.75658583635504
 30
0.0
 40
3.0
  1
1/5
  7
K
100
AcDbText
  0
TEXT
  5
7A8D
330
DC
100
AcDbEntity
 67
     1
  8
SUNPOU
100
AcDbText
 10
45.91253979508633
 20
275.3342060936349
 30
0.0
 40
3.0
  1
HJ3A
 50
180.0
  7
K
100
AcDbText
  0
ENDSEC
  0
SECTION
  2
OBJECTS
  0
DICTIONARY
  5
D3
330
0
100
AcDbDictionary
  3
ACAD_GROUP
350
D4
  3
ACAD_LAYOUT
350
7ABF
  3
ACAD_MLINESTYLE
350
D5
  3
ACAD_PLOTSETTINGS
350
7AC0
  3
ACAD_PLOTSTYLENAME
350
7ABD
  3
ACDBVARIABLEDICTIONARY
350
59C7
  3
CONTENTDICTIONARY
350
50D5
  3
ACDBHEADERROUNDTRIPXREC
350
7ACD
  0
DICTIONARY
  5
7AF0
330
DF
100
AcDbDictionary
280
     1
  3
ACAD_LAYOUTSELFREF
360
7AF1
  0
DICTIONARY
  5
7AEE
330
DC
100
AcDbDictionary
280
     1
  3
ACAD_LAYOUTSELFREF
360
7AEF
  0
DICTIONARY
  5
D4
102
{ACAD_REACTORS
330
D3
102
}
330
D3
100
AcDbDictionary
  0
DICTIONARY
  5
7ABF
102
{ACAD_REACTORS
330
D3
102
}
330
D3
100
AcDbDictionary
  0
DICTIONARY
  5
D5
102
{ACAD_REACTORS
330
D3
102
}
330
D3
100
AcDbDictionary
  3
STANDARD
350
E2
  0
DICTIONARY
  5
7AC0
102
{ACAD_REACTORS
330
D3
102
}
330
D3
100
AcDbDictionary
  0
ACDBDICTIONARYWDFLT
  5
7ABD
102
{ACAD_REACTORS
330
D3
102
}
330
D3
100
AcDbDictionary
281
     1
  3
Normal
350
7ABE
100
AcDbDictionaryWithDefault
340
7ABE
  0
DICTIONARY
  5
59C7
102
{ACAD_REACTORS
330
D3
102
}
330
D3
100
AcDbDictionary
  3
SORTENTS
350
59C8
  0
DICTIONARY
  5
50D5
102
{ACAD_REACTORS
330
D3
102
}
330
D3
100
AcDbDictionary
  0
DICTIONARY
  5
7ACD
102
{ACAD_REACTORS
330
D3
102
}
330
D3
100
AcDbDictionary
  3
TSTACKALIGN
350
7ACE
  3
TSTACKSIZE
350
7ACF
  3
HYPERLINKBASE
350
7AD0
  3
STYLESHEET
350
7AD1
  3
LAYOUTDICT
350
7AD2
  3
PLOTSETDICT
350
7AD3
  3
PLOTSTYLNAMDICT
350
7AD4
  3
LWETCUNION
350
7AD5
  3
INSUNITS
350
7AD6
  3
CEPSNTYPE
350
7AD7
  3
FINGERPRINTGUID
350
7AD8
  3
VERSIONGUID
350
7AD9
  3
PSVPSCALE
350
7ADA
  3
DIMSTYLEDATA
350
7ADB
  3
PUCSORTHOREF
350
7ADC
  3
PUCSORTHOVIEW
350
7ADD
  3
PUCSBASE
350
7ADE
  3
PUCSORGTOP
350
7ADF
  3
PUCSORGBOTTOM
350
7AE0
  3
PUCSORGLEFT
350
7AE1
  3
PUCSORGRIGHT
350
7AE2
  3
PUCSORGFRONT
350
7AE3
  3
PUCSORGBACK
350
7AE4
  3
UCSORTHOREF
350
7AE5
  3
UCSORTHOVIEW
350
7AE6
  3
UCSBASE
350
7AE7
  3
UCSORGTOP
350
7AE8
  3
UCSORGBOTTOM
350
7AE9
  3
UCSORGLEFT
350
7AEA
  3
UCSORGRIGHT
350
7AEB
  3
UCSORGFRONT
350
7AEC
  3
UCSORGBACK
350
7AED
  0
XRECORD
  5
7AF1
102
{ACAD_REACTORS
330
7AF0
102
}
330
7AF0
100
AcDbXrecord
340
DF
  0
XRECORD
  5
7AEF
102
{ACAD_REACTORS
330
7AEE
102
}
330
7AEE
100
AcDbXrecord
340
DC
  0
MLINESTYLE
  5
E2
102
{ACAD_REACTORS
330
D5
102
}
330
D5
100
AcDbMlineStyle
  2
STANDARD
 70
     0
  3

 62
     0
 51
90.0
 52
90.0
 71
     2
 49
0.5
 62
   256
  6
BYLAYER
 49
-0.5
 62
   256
  6
BYLAYER
  0
ACDBPLACEHOLDER
  5
7ABE
102
{ACAD_REACTORS
330
7ABD
102
}
330
7ABD
100
AcDbPlaceHolder
280
     0
  0
DICTIONARYVAR
  5
59C8
102
{ACAD_REACTORS
330
59C7
102
}
330
59C7
100
DictionaryVariables
280
     0
  1
96
  0
XRECORD
  5
7ACE
102
{ACAD_REACTORS
330
7ACD
102
}
330
7ACD
100
AcDbXrecord
 90
        1
  0
XRECORD
  5
7ACF
102
{ACAD_REACTORS
330
7ACD
102
}
330
7ACD
100
AcDbXrecord
 90
       70
  0
XRECORD
  5
7AD0
102
{ACAD_REACTORS
330
7ACD
102
}
330
7ACD
100
AcDbXrecord
  1

  0
XRECORD
  5
7AD1
102
{ACAD_REACTORS
330
7ACD
102
}
330
7ACD
100
AcDbXrecord
  1

  0
XRECORD
  5
7AD2
102
{ACAD_REACTORS
330
7ACD
102
}
330
7ACD
100
AcDbXrecord
340
7ABF
  0
XRECORD
  5
7AD3
102
{ACAD_REACTORS
330
7ACD
102
}
330
7ACD
100
AcDbXrecord
340
7AC0
  0
XRECORD
  5
7AD4
102
{ACAD_REACTORS
330
7ACD
102
}
330
7ACD
100
AcDbXrecord
340
7ABD
  0
XRECORD
  5
7AD5
102
{ACAD_REACTORS
330
7ACD
102
}
330
7ACD
100
AcDbXrecord
 90
    14877
  0
XRECORD
  5
7AD6
102
{ACAD_REACTORS
330
7ACD
102
}
330
7ACD
100
AcDbXrecord
 90
        0
  0
XRECORD
  5
7AD7
102
{ACAD_REACTORS
330
7ACD
102
}
330
7ACD
100
AcDbXrecord
 90
        0
  0
XRECORD
  5
7AD8
102
{ACAD_REACTORS
330
7ACD
102
}
330
7ACD
100
AcDbXrecord
  1
{B18CB006-4B68-4C30-8F1B-7EDE8990A69E}
  0
XRECORD
  5
7AD9
102
{ACAD_REACTORS
330
7ACD
102
}
330
7ACD
100
AcDbXrecord
  1
{859EED81-8B2D-4A22-A00C-F15D8E0D707A}
  0
XRECORD
  5
7ADA
102
{ACAD_REACTORS
330
7ACD
102
}
330
7ACD
100
AcDbXrecord
 40
0.0
  0
XRECORD
  5
7ADB
102
{ACAD_REACTORS
330
7ACD
102
}
330
7ACD
100
AcDbXrecord
1000
DSTYLE
1002
{
1070
   341
340
E3
1070
   342
340
E3
1070
   343
340
E3
1070
   344
340
E3
1002
}
  0
XRECORD
  5
7ADC
102
{ACAD_REACTORS
330
7ACD
102
}
330
7ACD
100
AcDbXrecord
340
0
  0
XRECORD
  5
7ADD
102
{ACAD_REACTORS
330
7ACD
102
}
330
7ACD
100
AcDbXrecord
 70
     0
  0
XRECORD
  5
7ADE
102
{ACAD_REACTORS
330
7ACD
102
}
330
7ACD
100
AcDbXrecord
340
0
  0
XRECORD
  5
7ADF
102
{ACAD_REACTORS
330
7ACD
102
}
330
7ACD
100
AcDbXrecord
 10
0.0
 20
0.0
 30
0.0
  0
XRECORD
  5
7AE0
102
{ACAD_REACTORS
330
7ACD
102
}
330
7ACD
100
AcDbXrecord
 10
0.0
 20
0.0
 30
0.0
  0
XRECORD
  5
7AE1
102
{ACAD_REACTORS
330
7ACD
102
}
330
7ACD
100
AcDbXrecord
 10
0.0
 20
0.0
 30
0.0
  0
XRECORD
  5
7AE2
102
{ACAD_REACTORS
330
7ACD
102
}
330
7ACD
100
AcDbXrecord
 10
0.0
 20
0.0
 30
0.0
  0
XRECORD
  5
7AE3
102
{ACAD_REACTORS
330
7ACD
102
}
330
7ACD
100
AcDbXrecord
 10
0.0
 20
0.0
 30
0.0
  0
XRECORD
  5
7AE4
102
{ACAD_REACTORS
330
7ACD
102
}
330
7ACD
100
AcDbXrecord
 10
0.0
 20
0.0
 30
0.0
  0
XRECORD
  5
7AE5
102
{ACAD_REACTORS
330
7ACD
102
}
330
7ACD
100
AcDbXrecord
340
0
  0
XRECORD
  5
7AE6
102
{ACAD_REACTORS
330
7ACD
102
}
330
7ACD
100
AcDbXrecord
 70
     0
  0
XRECORD
  5
7AE7
102
{ACAD_REACTORS
330
7ACD
102
}
330
7ACD
100
AcDbXrecord
340
0
  0
XRECORD
  5
7AE8
102
{ACAD_REACTORS
330
7ACD
102
}
330
7ACD
100
AcDbXrecord
 10
0.0
 20
0.0
 30
0.0
  0
XRECORD
  5
7AE9
102
{ACAD_REACTORS
330
7ACD
102
}
330
7ACD
100
AcDbXrecord
 10
0.0
 20
0.0
 30
0.0
  0
XRECORD
  5
7AEA
102
{ACAD_REACTORS
330
7ACD
102
}
330
7ACD
100
AcDbXrecord
 10
0.0
 20
0.0
 30
0.0
  0
XRECORD
  5
7AEB
102
{ACAD_REACTORS
330
7ACD
102
}
330
7ACD
100
AcDbXrecord
 10
0.0
 20
0.0
 30
0.0
  0
XRECORD
  5
7AEC
102
{ACAD_REACTORS
330
7ACD
102
}
330
7ACD
100
AcDbXrecord
 10
0.0
 20
0.0
 30
0.0
  0
XRECORD
  5
7AED
102
{ACAD_REACTORS
330
7ACD
102
}
330
7ACD
100
AcDbXrecord
 10
0.0
 20
0.0
 30
0.0
  0
ENDSEC
  0
EOF
