  0
SECTION
  2
HEADER
  9
$ACADVER
  1
AC1015
  9
$ACADMAINTVER
 70
    20
  9
$DWGCODEPAGE
  3
ANSI_932
  9
$INSBASE
 10
0.0
 20
0.0
 30
0.0
  9
$EXTMIN
 10
3564.66279209813
 20
-402.0604605950511
 30
-0.0000000100021362
  9
$EXTMAX
 10
5470.09713825626
 20
913.0263110434944
 30
0.0000000100021363
  9
$LIMMIN
 10
0.0
 20
0.0
  9
$LIMMAX
 10
1500.0
 20
1000.0
  9
$ORTHOMODE
 70
     0
  9
$REGENMODE
 70
     1
  9
$FILLMODE
 70
     1
  9
$QTEXTMODE
 70
     0
  9
$MIRRTEXT
 70
     0
  9
$LTSCALE
 40
25.0
  9
$ATTMODE
 70
     1
  9
$TEXTSIZE
 40
15.0
  9
$TRACEWID
 40
0.05
  9
$TEXTSTYLE
  7
K
  9
$CLAYER
  8
SUNPOU
  9
$CELTYPE
  6
BYLAYER
  9
$CECOLOR
 62
   256
  9
$CELTSCALE
 40
1.0
  9
$DISPSILH
 70
     0
  9
$DIMSCALE
 40
5.0
  9
$DIMASZ
 40
3.0
  9
$DIMEXO
 40
1.0
  9
$DIMDLI
 40
6.0
  9
$DIMRND
 40
0.0
  9
$DIMDLE
 40
0.0
  9
$DIMEXE
 40
1.0
  9
$DIMTP
 40
0.01
  9
$DIMTM
 40
0.02
  9
$DIMTXT
 40
3.0
  9
$DIMCEN
 40
0.0
  9
$DIMTSZ
 40
0.0
  9
$DIMTOL
 70
     0
  9
$DIMLIM
 70
     0
  9
$DIMTIH
 70
     0
  9
$DIMTOH
 70
     0
  9
$DIMSE1
 70
     0
  9
$DIMSE2
 70
     0
  9
$DIMTAD
 70
     3
  9
$DIMZIN
 70
     8
  9
$DIMBLK
  1
ARROW
  9
$DIMASO
 70
     1
  9
$DIMSHO
 70
     0
  9
$DIMPOST
  1

  9
$DIMAPOST
  1

  9
$DIMALT
 70
     0
  9
$DIMALTD
 70
     2
  9
$DIMALTF
 40
25.4
  9
$DIMLFAC
 40
1.0
  9
$DIMTOFL
 70
     1
  9
$DIMTVP
 40
0.0
  9
$DIMTIX
 70
     1
  9
$DIMSOXD
 70
     0
  9
$DIMSAH
 70
     0
  9
$DIMBLK1
  1
ARROW
  9
$DIMBLK2
  1
ARROW
  9
$DIMSTYLE
  2
IMCADLT
  9
$DIMCLRD
 70
     0
  9
$DIMCLRE
 70
     0
  9
$DIMCLRT
 70
     0
  9
$DIMTFAC
 40
0.45
  9
$DIMGAP
 40
1.5
  9
$DIMJUST
 70
     0
  9
$DIMSD1
 70
     0
  9
$DIMSD2
 70
     0
  9
$DIMTOLJ
 70
     1
  9
$DIMTZIN
 70
     8
  9
$DIMALTZ
 70
     0
  9
$DIMALTTZ
 70
     0
  9
$DIMUPT
 70
     1
  9
$DIMDEC
 70
     2
  9
$DIMTDEC
 70
     2
  9
$DIMALTU
 70
     2
  9
$DIMALTTD
 70
     2
  9
$DIMTXSTY
  7
STANDARD
  9
$DIMAUNIT
 70
     0
  9
$DIMADEC
 70
     0
  9
$DIMALTRND
 40
0.0
  9
$DIMAZIN
 70
     0
  9
$DIMDSEP
 70
    46
  9
$DIMATFIT
 70
     3
  9
$DIMFRAC
 70
     0
  9
$DIMLDRBLK
  1
ARROW
  9
$DIMLUNIT
 70
     2
  9
$DIMLWD
 70
    -2
  9
$DIMLWE
 70
    -2
  9
$DIMTMOVE
 70
     0
  9
$LUNITS
 70
     2
  9
$LUPREC
 70
     2
  9
$SKETCHINC
 40
0.1
  9
$FILLETRAD
 40
0.0
  9
$AUNITS
 70
     0
  9
$AUPREC
 70
     2
  9
$MENU
  1
STDR12J
  9
$ELEVATION
 40
0.0
  9
$PELEVATION
 40
0.0
  9
$THICKNESS
 40
0.0
  9
$LIMCHECK
 70
     0
  9
$CHAMFERA
 40
0.0
  9
$CHAMFERB
 40
0.0
  9
$CHAMFERC
 40
0.0
  9
$CHAMFERD
 40
0.0
  9
$SKPOLY
 70
     0
  9
$TDCREATE
 40
2452040.353372442
  9
$TDUCREATE
 40
2452039.978372442
  9
$TDUPDATE
 40
2460734.635089318
  9
$TDUUPDATE
 40
2460734.260089317
  9
$TDINDWG
 40
0.3000879051
  9
$TDUSRTIMER
 40
0.3000879051
  9
$USRTIMER
 70
     1
  9
$ANGBASE
 50
0.0
  9
$ANGDIR
 70
     0
  9
$PDMODE
 70
     3
  9
$PDSIZE
 40
0.0
  9
$PLINEWID
 40
0.0
  9
$SPLFRAME
 70
     0
  9
$SPLINETYPE
 70
     6
  9
$SPLINESEGS
 70
     8
  9
$HANDSEED
  5
8753
  9
$SURFTAB1
 70
     6
  9
$SURFTAB2
 70
     6
  9
$SURFTYPE
 70
     6
  9
$SURFU
 70
     6
  9
$SURFV
 70
     6
  9
$UCSBASE
  2

  9
$UCSNAME
  2

  9
$UCSORG
 10
0.0
 20
0.0
 30
0.0
  9
$UCSXDIR
 10
1.0
 20
0.0
 30
0.0
  9
$UCSYDIR
 10
0.0
 20
1.0
 30
0.0
  9
$UCSORTHOREF
  2

  9
$UCSORTHOVIEW
 70
     0
  9
$UCSORGTOP
 10
0.0
 20
0.0
 30
0.0
  9
$UCSORGBOTTOM
 10
0.0
 20
0.0
 30
0.0
  9
$UCSORGLEFT
 10
0.0
 20
0.0
 30
0.0
  9
$UCSORGRIGHT
 10
0.0
 20
0.0
 30
0.0
  9
$UCSORGFRONT
 10
0.0
 20
0.0
 30
0.0
  9
$UCSORGBACK
 10
0.0
 20
0.0
 30
0.0
  9
$PUCSBASE
  2

  9
$PUCSNAME
  2

  9
$PUCSORG
 10
0.0
 20
0.0
 30
0.0
  9
$PUCSXDIR
 10
1.0
 20
0.0
 30
0.0
  9
$PUCSYDIR
 10
0.0
 20
1.0
 30
0.0
  9
$PUCSORTHOREF
  2

  9
$PUCSORTHOVIEW
 70
     0
  9
$PUCSORGTOP
 10
0.0
 20
0.0
 30
0.0
  9
$PUCSORGBOTTOM
 10
0.0
 20
0.0
 30
0.0
  9
$PUCSORGLEFT
 10
0.0
 20
0.0
 30
0.0
  9
$PUCSORGRIGHT
 10
0.0
 20
0.0
 30
0.0
  9
$PUCSORGFRONT
 10
0.0
 20
0.0
 30
0.0
  9
$PUCSORGBACK
 10
0.0
 20
0.0
 30
0.0
  9
$USERI1
 70
     3
  9
$USERI2
 70
     1
  9
$USERI3
 70
     5
  9
$USERI4
 70
     1
  9
$USERI5
 70
     1
  9
$USERR1
 40
5.0
  9
$USERR2
 40
3.0
  9
$USERR3
 40
3.0
  9
$USERR4
 40
3.0
  9
$USERR5
 40
10.0
  9
$WORLDVIEW
 70
     1
  9
$SHADEDGE
 70
     3
  9
$SHADEDIF
 70
    70
  9
$TILEMODE
 70
     1
  9
$MAXACTVP
 70
    16
  9
$PINSBASE
 10
0.0
 20
0.0
 30
0.0
  9
$PLIMCHECK
 70
     0
  9
$PEXTMIN
 10
28.53478403091429
 20
19.82258291244505
 30
0.0
  9
$PEXTMAX
 10
256.8130562782288
 20
178.4032462120056
 30
0.0
  9
$PLIMMIN
 10
-5.873748779296875
 20
-5.873749732971191
  9
$PLIMMAX
 10
291.2215881347656
 20
204.2265768051148
  9
$UNITMODE
 70
     0
  9
$VISRETAIN
 70
     0
  9
$PLINEGEN
 70
     0
  9
$PSLTSCALE
 70
     1
  9
$TREEDEPTH
 70
     0
  9
$CMLSTYLE
  2
STANDARD
  9
$CMLJUST
 70
     0
  9
$CMLSCALE
 40
1.0
  9
$PROXYGRAPHICS
 70
     1
  9
$MEASUREMENT
 70
     1
  9
$CELWEIGHT
370
    -1
  9
$ENDCAPS
280
     0
  9
$JOINSTYLE
280
     0
  9
$LWDISPLAY
290
     0
  9
$INSUNITS
 70
     0
  9
$HYPERLINKBASE
  1

  9
$STYLESHEET
  1
yama1.ctb
  9
$XEDIT
290
     1
  9
$CEPSNTYPE
380
     0
  9
$PSTYLEMODE
290
     1
  9
$FINGERPRINTGUID
  2
{0CF6BE7D-48B8-4C1B-98E6-B951F2FF855A}
  9
$VERSIONGUID
  2
{8C68F7A7-9536-425F-AE41-591ABB301959}
  9
$EXTNAMES
290
     1
  9
$PSVPSCALE
 40
0.0
  9
$OLESTARTUP
290
     0
  0
ENDSEC
  0
SECTION
  2
CLASSES
  0
CLASS
  1
LWPOLYLINE
  2
AcDbPolyline
  3
ObjectDBX Classes
 90
    32768
280
     0
281
     1
  0
CLASS
  1
HATCH
  2
AcDbHatch
  3
ObjectDBX Classes
 90
    32768
280
     0
281
     1
  0
CLASS
  1
DICTIONARYVAR
  2
AcDbDictionaryVar
  3
ObjectDBX Classes
 90
        0
280
     0
281
     0
  0
CLASS
  1
ACDBDICTIONARYWDFLT
  2
AcDbDictionaryWithDefault
  3
ObjectDBX Classes
 90
        0
280
     0
281
     0
  0
CLASS
  1
ACDBPLACEHOLDER
  2
AcDbPlaceHolder
  3
ObjectDBX Classes
 90
        0
280
     0
281
     0
  0
CLASS
  1
LAYOUT
  2
AcDbLayout
  3
ObjectDBX Classes
 90
        0
280
     0
281
     0
  0
CLASS
  1
ACME_DOCUMENT
  2
AcMeDbDoc
  3
AcMeServices
 90
    32768
280
     0
281
     0
  0
CLASS
  1
ACMESCOPE
  2
AcMeScope
  3
AcMeServices
 90
        0
280
     0
281
     0
  0
CLASS
  1
ACMECOMMANDHISTORY
  2
AcMeCommandHistory
  3
AcMeServices
 90
        0
280
     0
281
     0
  0
CLASS
  1
ACIMSYSVARMAN
  2
AcImSysVarManager
  3
AcMeServices
 90
        0
280
     0
281
     0
  0
CLASS
  1
ACIMREALSYSVAR
  2
AcImRealSysVar
  3
AcMeServices
 90
        0
280
     0
281
     0
  0
CLASS
  1
ACIMINTSYSVAR
  2
AcImIntSysVar
  3
AcMeServices
 90
        0
280
     0
281
     0
  0
CLASS
  1
ACMEDRAWINGMAN
  2
AcMeDrawingMan
  3
AcMeServices
 90
        0
280
     0
281
     0
  0
CLASS
  1
ACMEVIEW
  2
AcMeView
  3
AcMeServices
 90
        0
280
     0
281
     0
  0
CLASS
  1
ACDBENTITYCACHE
  2
AcMeEntityCache
  3
AcMeServices
 90
    32768
280
     0
281
     0
  0
CLASS
  1
GSMANAGER
  2
AcMeGSManager
  3
AcMeServices
 90
    32768
280
     0
281
     0
  0
CLASS
  1
AMDTINTERNALREACTOR
  2
AmdtInternalReactor
  3
AcMeServices
 90
    32768
280
     0
281
     0
  0
CLASS
  1
ACMESTATEMGR
  2
AcMeStateMgr
  3
AcMeServices
 90
        0
280
     0
281
     0
  0
CLASS
  1
ACGREFMASTER
  2
AcGrefMaster
  3
AcAttribServices
 90
        0
280
     0
281
     0
  0
CLASS
  1
ACME_DATABASE
  2
AcMeDbDatabase
  3
AcMeServices
 90
    32768
280
     0
281
     0
  0
CLASS
  1
ACRFINSADJUSTERMGR
  2
AcRfInsAdjusterMgr
  3
AcMeServices
 90
    32768
280
     0
281
     0
  0
CLASS
  1
ACGREFACADMASTER
  2
AcGrefacadMaster
  3
AcGrefServices
 90
        0
280
     0
281
     0
  0
CLASS
  1
AMIMASTER
  2
AmiMaster
  3
AmiServices
 90
        0
280
     0
281
     0
  0
CLASS
  1
AMGSETTINGSOBJ
  2
AmgSettingsObj
  3
"AcadM|Product Description: AutoCAD Mechanical 2000|Company: Autodesk"
 90
        0
280
     0
281
     0
  0
CLASS
  1
ACMDATADICTIONARY
  2
AcmDataDictionary
  3
"AcmSymBB|Product Description: AutoCAD Mechanical 2000|Company: Autodesk"
 90
        0
280
     0
281
     0
  0
CLASS
  1
ACMDATAENTRYBLOCK
  2
AcmDataEntryBlock
  3
"AcmSymBB|Product Description: AutoCAD Mechanical 2000|Company: Autodesk"
 90
        0
280
     0
281
     0
  0
CLASS
  1
ACIMSTRSYSVAR
  2
AcImStrSysVar
  3
AcMeServices
 90
        0
280
     0
281
     0
  0
CLASS
  1
ACMSTANDARDISO
  2
AcmStandardISO
  3
"Amdt_StdImp|Product Description: AutoCAD Mechanical 2000|Company: Autodesk"
 90
        0
280
     0
281
     0
  0
CLASS
  1
AMGOBJPROPCFG
  2
AmgObjPropCfg
  3
"AmgLay|Product Description: AutoCAD Mechanical 2000|Company: Autodesk"
 90
        1
280
     0
281
     0
  0
CLASS
  1
AMDTEDGESTANDARDISO
  2
AmdtEdgeStdISO
  3
"Amdt_StdImp|Product Description: AutoCAD Mechanical 2000|Company: Autodesk"
 90
        0
280
     0
281
     0
  0
CLASS
  1
ACMSURFSTANDARDISO
  2
AcmSurfTextStdISO
  3
"Amdt_StdImp|Product Description: AutoCAD Mechanical 2000|Company: Autodesk"
 90
        0
280
     0
281
     0
  0
CLASS
  1
ACMFCFSTANDARDISO
  2
AcmFCFStdISO
  3
"Amdt_StdImp|Product Description: AutoCAD Mechanical 2000|Company: Autodesk"
 90
        0
280
     0
281
     0
  0
CLASS
  1
ACMWELDSTANDARDISO
  2
AcmWeldingStdISO
  3
"Amdt_StdImp|Product Description: AutoCAD Mechanical 2000|Company: Autodesk"
 90
        0
280
     0
281
     0
  0
CLASS
  1
ACMIDSTANDARDISO
  2
AcmIdStdISO
  3
"Amdt_StdImp|Product Description: AutoCAD Mechanical 2000|Company: Autodesk"
 90
        0
280
     0
281
     0
  0
CLASS
  1
ACMDATUMSTANDARDISO
  2
AcmDatumStdISO
  3
"Amdt_StdImp|Product Description: AutoCAD Mechanical 2000|Company: Autodesk"
 90
        0
280
     0
281
     0
  0
CLASS
  1
ACMBOMSTANDARDISO
  2
AcmBOMStdISO
  3
"Amdt_StdImp|Product Description: AutoCAD Mechanical 2000|Company: Autodesk"
 90
        0
280
     0
281
     0
  0
CLASS
  1
ACMDETAILSTANDARDISO
  2
AmdtDetailSymStdISO
  3
"Amdt_StdImp|Product Description: AutoCAD Mechanical 2000|Company: Autodesk"
 90
        0
280
     0
281
     0
  0
CLASS
  1
ACMSECTIONSTANDARDISO
  2
AmdtSectionSymStdISO
  3
"Amdt_StdImp|Product Description: AutoCAD Mechanical 2000|Company: Autodesk"
 90
        0
280
     0
281
     0
  0
CLASS
  1
ACMCENTERLINESTANDARDISO
  2
AmdtCenterLineStdISO
  3
"Amdt_StdImp|Product Description: AutoCAD Mechanical 2000|Company: Autodesk"
 90
        0
280
     0
281
     0
  0
CLASS
  1
ACMNOTESTANDARDISO
  2
AmdtNoteStdISO
  3
"Amdt_StdImp|Product Description: AutoCAD Mechanical 2000|Company: Autodesk"
 90
        0
280
     0
281
     0
  0
CLASS
  1
ACAMGLAYSTD
  2
AcAmgLayStd
  3
"AcAmgLayStd|Product Description: AutoCAD Mechanical 2000|Company: Autodesk"
 90
        0
280
     0
281
     0
  0
CLASS
  1
ACAMGDIMSTD
  2
AcAmgDimStd
  3
"AcAmgDimStd|Product Description: AutoCAD Mechanical 2000|Company: Autodesk"
 90
        0
280
     0
281
     0
  0
CLASS
  1
ACAMGHOLECHARTSTDISO
  2
AcAmgHoleChartStdISO
  3
ACMSYMBB_MODULE_NAME
 90
        0
280
     0
281
     0
  0
CLASS
  1
ACAMGTITLESTD
  2
AcAmgTitleStd
  3
"TITLEAPP"
 90
        0
280
     0
281
     0
  0
CLASS
  1
ACAMGFILTERDAT
  2
AcAmgFilterDat
  3
"AcadM|Product Description: AutoCAD Mechanical 2000|Company: Autodesk"
 90
        0
280
     0
281
     0
  0
CLASS
  1
LAYER_INDEX
  2
AcDbLayerIndex
  3
ObjectDBX Classes
 90
        0
280
     0
281
     0
  0
CLASS
  1
IDBUFFER
  2
AcDbIdBuffer
  3
ObjectDBX Classes
 90
        0
280
     0
281
     0
  0
CLASS
  1
SCALE
  2
AcDbScale
  3
ObjectDBX Classes
 90
     1153
280
     0
281
     0
  0
CLASS
  1
MATERIAL
  2
AcDbMaterial
  3
ObjectDBX Classes
 90
     1153
280
     0
281
     0
  0
CLASS
  1
TABLESTYLE
  2
AcDbTableStyle
  3
ObjectDBX Classes
 90
     4095
280
     0
281
     0
  0
CLASS
  1
MLEADERSTYLE
  2
AcDbMLeaderStyle
  3
ACDB_MLEADERSTYLE_CLASS
 90
     4095
280
     0
281
     0
  0
ENDSEC
  0
SECTION
  2
TABLES
  0
TABLE
  2
VPORT
  5
CF
330
0
100
AcDbSymbolTable
 70
     9
  0
VPORT
  5
F5
330
CF
100
AcDbSymbolTableRecord
100
AcDbViewportTableRecord
  2
2
 70
     0
 10
0.5
 20
0.0
 11
1.0
 21
1.0
 12
0.9240312421264802
 22
1.052650975462766
 13
0.0
 23
0.0
 14
1.0
 24
1.0
 15
10.0
 25
10.0
 16
0.0
 26
0.0
 36
1.0
 17
0.0
 27
0.0
 37
0.0
 40
2.105301950925533
 41
0.8778135048231511
 42
50.0
 43
0.0
 44
0.0
 50
0.0
 51
0.0
 71
     0
 72
   500
 73
     1
 74
     1
 75
     0
 76
     0
 77
     0
 78
     0
281
     0
 65
     1
110
0.0
120
0.0
130
0.0
111
1.0
121
0.0
131
0.0
112
0.0
122
1.0
132
0.0
 79
     0
146
0.0
  0
VPORT
  5
F6
330
CF
100
AcDbSymbolTableRecord
100
AcDbViewportTableRecord
  2
2
 70
     0
 10
0.0
 20
0.0
 11
0.5
 21
1.0
 12
0.9240312421264802
 22
1.052650975462766
 13
0.0
 23
0.0
 14
1.0
 24
1.0
 15
10.0
 25
10.0
 16
0.0
 26
0.0
 36
1.0
 17
0.0
 27
0.0
 37
0.0
 40
2.105301950925533
 41
0.8778135048231511
 42
50.0
 43
0.0
 44
0.0
 50
0.0
 51
0.0
 71
     0
 72
   500
 73
     1
 74
     1
 75
     0
 76
     0
 77
     0
 78
     0
281
     0
 65
     1
110
0.0
120
0.0
130
0.0
111
1.0
121
0.0
131
0.0
112
0.0
122
1.0
132
0.0
 79
     0
146
0.0
  0
VPORT
  5
F7
330
CF
100
AcDbSymbolTableRecord
100
AcDbViewportTableRecord
  2
3
 70
     0
 10
0.0
 20
0.5
 11
1.0
 21
1.0
 12
2.832169994473273
 22
1.052650975462766
 13
0.0
 23
0.0
 14
1.0
 24
1.0
 15
10.0
 25
10.0
 16
0.0
 26
0.0
 36
1.0
 17
0.0
 27
0.0
 37
0.0
 40
2.105301950925533
 41
3.571428571428571
 42
50.0
 43
0.0
 44
0.0
 50
0.0
 51
0.0
 71
     0
 72
   500
 73
     1
 74
     1
 75
     0
 76
     0
 77
     0
 78
     0
281
     0
 65
     1
110
0.0
120
0.0
130
0.0
111
1.0
121
0.0
131
0.0
112
0.0
122
1.0
132
0.0
 79
     0
146
0.0
  0
VPORT
  5
F8
330
CF
100
AcDbSymbolTableRecord
100
AcDbViewportTableRecord
  2
3
 70
     0
 10
0.0
 20
0.0
 11
1.0
 21
0.5
 12
2.856741679241311
 22
1.052650975462766
 13
0.0
 23
0.0
 14
1.0
 24
1.0
 15
10.0
 25
10.0
 16
0.0
 26
0.0
 36
1.0
 17
0.0
 27
0.0
 37
0.0
 40
2.105301950925533
 41
3.594771241830065
 42
50.0
 43
0.0
 44
0.0
 50
0.0
 51
0.0
 71
     0
 72
   500
 73
     1
 74
     1
 75
     0
 76
     0
 77
     0
 78
     0
281
     0
 65
     1
110
0.0
120
0.0
130
0.0
111
1.0
121
0.0
131
0.0
112
0.0
122
1.0
132
0.0
 79
     0
146
0.0
  0
VPORT
  5
F9
330
CF
100
AcDbSymbolTableRecord
100
AcDbViewportTableRecord
  2
4
 70
     0
 10
0.5
 20
0.0
 11
1.0
 21
0.5
 12
2.886857516709719
 22
1.052650975462766
 13
0.0
 23
0.0
 14
1.0
 24
1.0
 15
10.0
 25
10.0
 16
0.0
 26
0.0
 36
1.0
 17
0.0
 27
0.0
 37
0.0
 40
4.27520703030907
 41
1.784313725490195
 42
50.0
 43
0.0
 44
0.0
 50
0.0
 51
0.0
 71
     0
 72
   500
 73
     1
 74
     1
 75
     0
 76
     0
 77
     0
 78
     0
281
     0
 65
     1
110
0.0
120
0.0
130
0.0
111
1.0
121
0.0
131
0.0
112
0.0
122
1.0
132
0.0
 79
     0
146
0.0
  0
VPORT
  5
FA
330
CF
100
AcDbSymbolTableRecord
100
AcDbViewportTableRecord
  2
4
 70
     0
 10
0.5
 20
0.5
 11
1.0
 21
1.0
 12
2.862090274555523
 22
1.052650975462766
 13
0.0
 23
0.0
 14
1.0
 24
1.0
 15
10.0
 25
10.0
 16
0.0
 26
0.0
 36
1.0
 17
0.0
 27
0.0
 37
0.0
 40
4.27520703030907
 41
1.772727272727272
 42
50.0
 43
0.0
 44
0.0
 50
0.0
 51
0.0
 71
     0
 72
   500
 73
     1
 74
     1
 75
     0
 76
     0
 77
     0
 78
     0
281
     0
 65
     1
110
0.0
120
0.0
130
0.0
111
1.0
121
0.0
131
0.0
112
0.0
122
1.0
132
0.0
 79
     0
146
0.0
  0
VPORT
  5
FB
330
CF
100
AcDbSymbolTableRecord
100
AcDbViewportTableRecord
  2
4
 70
     0
 10
0.0
 20
0.5
 11
0.5
 21
1.0
 12
2.862090274555523
 22
1.052650975462766
 13
0.0
 23
0.0
 14
1.0
 24
1.0
 15
10.0
 25
10.0
 16
0.0
 26
0.0
 36
1.0
 17
0.0
 27
0.0
 37
0.0
 40
4.27520703030907
 41
1.772727272727272
 42
50.0
 43
0.0
 44
0.0
 50
0.0
 51
0.0
 71
     0
 72
   500
 73
     1
 74
     1
 75
     0
 76
     0
 77
     0
 78
     0
281
     0
 65
     1
110
0.0
120
0.0
130
0.0
111
1.0
121
0.0
131
0.0
112
0.0
122
1.0
132
0.0
 79
     0
146
0.0
  0
VPORT
  5
FC
330
CF
100
AcDbSymbolTableRecord
100
AcDbViewportTableRecord
  2
4
 70
     0
 10
0.0
 20
0.0
 11
0.5
 21
0.5
 12
2.886857516709719
 22
1.052650975462766
 13
0.0
 23
0.0
 14
1.0
 24
1.0
 15
10.0
 25
10.0
 16
0.0
 26
0.0
 36
1.0
 17
0.0
 27
0.0
 37
0.0
 40
4.27520703030907
 41
1.784313725490195
 42
50.0
 43
0.0
 44
0.0
 50
0.0
 51
0.0
 71
     0
 72
   500
 73
     1
 74
     1
 75
     0
 76
     0
 77
     0
 78
     0
281
     0
 65
     1
110
0.0
120
0.0
130
0.0
111
1.0
121
0.0
131
0.0
112
0.0
122
1.0
132
0.0
 79
     0
146
0.0
  0
VPORT
  5
75D9
330
CF
100
AcDbSymbolTableRecord
100
AcDbViewportTableRecord
  2
*ACTIVE
 70
     0
 10
0.0
 20
0.0
 11
1.0
 21
1.0
 12
4517.379965177194
 22
255.4829252242216
 13
0.0
 23
0.0
 14
1.0
 24
1.0
 15
10.0
 25
10.0
 16
0.0
 26
0.0
 36
1.0
 17
0.0
 27
0.0
 37
0.0
 40
1353.87144916889
 41
2.257177033492823
 42
50.0
 43
0.0
 44
0.0
 50
0.0
 51
0.0
 71
     0
 72
   500
 73
     1
 74
     0
 75
     0
 76
     0
 77
     0
 78
     0
281
     0
 65
     1
110
0.0
120
0.0
130
0.0
111
1.0
121
0.0
131
0.0
112
0.0
122
1.0
132
0.0
 79
     0
146
0.0
  0
ENDTAB
  0
TABLE
  2
LTYPE
  5
CC
330
0
100
AcDbSymbolTable
 70
    15
  0
LTYPE
  5
D9
330
CC
100
AcDbSymbolTableRecord
100
AcDbLinetypeTableRecord
  2
BYBLOCK
 70
     0
  3

 72
    65
 73
     0
 40
0.0
  0
LTYPE
  5
DA
330
CC
100
AcDbSymbolTableRecord
100
AcDbLinetypeTableRecord
  2
BYLAYER
 70
     0
  3

 72
    65
 73
     0
 40
0.0
  0
LTYPE
  5
DB
330
CC
100
AcDbSymbolTableRecord
100
AcDbLinetypeTableRecord
  2
CONTINUOUS
 70
     0
  3
実線
 72
    65
 73
     0
 40
0.0
  0
LTYPE
  5
F1
330
CC
100
AcDbSymbolTableRecord
100
AcDbLinetypeTableRecord
  2
DASHED
 70
     0
  3
__ __ __ __ __ __ __ __ __ __ __ __ __ __ __
 72
    65
 73
     2
 40
0.75
 49
0.5
 74
     0
 49
-0.25
 74
     0
  0
LTYPE
  5
F2
330
CC
100
AcDbSymbolTableRecord
100
AcDbLinetypeTableRecord
  2
CENTER
 70
     0
  3
____ _ ____ _ ____ _ ____ _ ____ _ ____ _ ____
 72
    65
 73
     4
 40
2.0
 49
1.25
 74
     0
 49
-0.25
 74
     0
 49
0.25
 74
     0
 49
-0.25
 74
     0
  0
LTYPE
  5
F3
330
CC
100
AcDbSymbolTableRecord
100
AcDbLinetypeTableRecord
  2
PHANTOM
 70
     0
  3
_____ _ _ _____ _ _ _____ _ _ _____ _ _ ____
 72
    65
 73
     6
 40
2.5
 49
1.25
 74
     0
 49
-0.25
 74
     0
 49
0.25
 74
     0
 49
-0.25
 74
     0
 49
0.25
 74
     0
 49
-0.25
 74
     0
  0
LTYPE
  5
F4
330
CC
100
AcDbSymbolTableRecord
100
AcDbLinetypeTableRecord
  2
HIDDEN
 70
     0
  3
_ _ _ _ _ _ _ _ _ _ _ _ _ _ _ _ _ _ _ _ _ _ _
 72
    65
 73
     2
 40
0.375
 49
0.25
 74
     0
 49
-0.125
 74
     0
  0
LTYPE
  5
760D
330
CC
100
AcDbSymbolTableRecord
100
AcDbLinetypeTableRecord
  2
AM_ISO02W050
 70
     0
  3
__ __ __ __ __ __ __ __ __ __ __ __ __ __ __
 72
    65
 73
     2
 40
7.5
 49
6.0
 74
     0
 49
-1.5
 74
     0
  0
LTYPE
  5
760E
330
CC
100
AcDbSymbolTableRecord
100
AcDbLinetypeTableRecord
  2
AM_ISO08W050
 70
     0
  3
____ . ____ . ____ . ____ . ____ . ____ . ____
 72
    65
 73
     4
 40
18.0
 49
12.0
 74
     0
 49
-1.5
 74
     0
 49
3.0
 74
     0
 49
-1.5
 74
     0
  0
LTYPE
  5
760F
330
CC
100
AcDbSymbolTableRecord
100
AcDbLinetypeTableRecord
  2
AM_ISO09W050
 70
     0
  3
_____ . . _____ . . _____ . . ____ .. ____
 72
    65
 73
     6
 40
22.5
 49
12.0
 74
     0
 49
-1.5
 74
     0
 49
3.0
 74
     0
 49
-1.5
 74
     0
 49
3.0
 74
     0
 49
-1.5
 74
     0
  0
LTYPE
  5
7610
330
CC
100
AcDbSymbolTableRecord
100
AcDbLinetypeTableRecord
  2
Amconstr
 70
     0
  3
_______________________
 72
    65
 73
     2
 40
9999.0
 49
9999.0
 74
     0
 49
0.0
 74
     0
  0
LTYPE
  5
7611
330
CC
100
AcDbSymbolTableRecord
100
AcDbLinetypeTableRecord
  2
AM_ISO08W050x2
 70
     0
  3
__ . __ . __ . __ . __ . __
 72
    65
 73
     4
 40
9.0
 49
6.0
 74
     0
 49
-0.75
 74
     0
 49
1.5
 74
     0
 49
-0.75
 74
     0
  0
LTYPE
  5
7612
330
CC
100
AcDbSymbolTableRecord
100
AcDbLinetypeTableRecord
  2
AM_ISO02W050x2
 70
     0
  3
 _ _ _ _ _ _ _ _ _ _ _ _
 72
    65
 73
     2
 40
3.75
 49
3.0
 74
     0
 49
-0.75
 74
     0
  0
LTYPE
  5
7615
330
CC
100
AcDbSymbolTableRecord
100
AcDbLinetypeTableRecord
  2
Amzigzag
 70
     0
  3
/\/-/\/-/\/-/\/-/\/-/\/
 72
    65
 73
     2
 40
11.0001
 49
0.0001
 74
     4
 75
   135
340
7614
 46
0.04
 50
0.0
 44
0.0
 45
0.0
 49
-11.0
 74
     0
  0
LTYPE
  5
7623
330
CC
100
AcDbSymbolTableRecord
100
AcDbLinetypeTableRecord
  2
ACISOWELD
 70
     0
  3
_ _ _ _ _
 72
    65
 73
     2
 40
2.0
 49
2.0
 74
     0
 49
-1.0
 74
     0
  0
LTYPE
  5
7624
330
CC
100
AcDbSymbolTableRecord
100
AcDbLinetypeTableRecord
  2
ACISOTGB
 70
     0
  3
__ . . __ . .
 72
    65
 73
     6
 40
9.0
 49
4.0
 74
     0
 49
-1.0
 74
     0
 49
1.0
 74
     0
 49
-1.0
 74
     0
 49
1.0
 74
     0
 49
-1.0
 74
     0
  0
LTYPE
  5
7625
330
CC
100
AcDbSymbolTableRecord
100
AcDbLinetypeTableRecord
  2
ACISOTGL
 70
     0
  3
_ _ _ _ _
 72
    65
 73
     2
 40
3.0
 49
2.0
 74
     0
 49
-1.0
 74
     0
  0
ENDTAB
  0
TABLE
  2
LAYER
  5
C9
102
{ACAD_XDICTIONARY
360
76DF
102
}
330
0
100
AcDbSymbolTable
 70
    17
  0
LAYER
  5
D6
330
C9
100
AcDbSymbolTableRecord
100
AcDbLayerTableRecord
  2
0
 70
     0
 62
     7
  6
CONTINUOUS
370
    -3
390
75E1
  0
LAYER
  5
100
330
C9
100
AcDbSymbolTableRecord
100
AcDbLayerTableRecord
  2
HASEN
 70
     0
 62
     2
  6
DASHED
370
    -3
390
75E1
  0
LAYER
  5
101
330
C9
100
AcDbSymbolTableRecord
100
AcDbLayerTableRecord
  2
ITTEN
 70
     0
 62
     1
  6
CENTER
370
    -3
390
75E1
  0
LAYER
  5
102
330
C9
100
AcDbSymbolTableRecord
100
AcDbLayerTableRecord
  2
NITEN
 70
     0
 62
     2
  6
PHANTOM
370
    -3
390
75E1
  0
LAYER
  5
103
330
C9
100
AcDbSymbolTableRecord
100
AcDbLayerTableRecord
  2
HATCH
 70
     0
 62
     4
  6
CONTINUOUS
370
    -3
390
75E1
  0
LAYER
  5
104
330
C9
100
AcDbSymbolTableRecord
100
AcDbLayerTableRecord
  2
SUNPOU
 70
     0
 62
     3
  6
CONTINUOUS
370
    -3
390
75E1
  0
LAYER
  5
105
330
C9
100
AcDbSymbolTableRecord
100
AcDbLayerTableRecord
  2
TEXT
 70
     0
 62
     3
  6
CONTINUOUS
370
    -3
390
75E1
  0
LAYER
  5
106
330
C9
100
AcDbSymbolTableRecord
100
AcDbLayerTableRecord
  2
SAISEN
 70
     0
 62
     4
  6
CONTINUOUS
370
    -3
390
75E1
  0
LAYER
  5
107
330
C9
100
AcDbSymbolTableRecord
100
AcDbLayerTableRecord
  2
JISSEN
 70
     0
 62
     7
  6
CONTINUOUS
370
    -3
390
75E1
  0
LAYER
  5
108
330
C9
100
AcDbSymbolTableRecord
100
AcDbLayerTableRecord
  2
HOJO
 70
     0
 62
     6
  6
CONTINUOUS
370
    -3
390
75E1
  0
LAYER
  5
109
330
C9
100
AcDbSymbolTableRecord
100
AcDbLayerTableRecord
  2
TENSEN
 70
     0
 62
     2
  6
HIDDEN
370
    -3
390
75E1
  0
LAYER
  5
10A
330
C9
100
AcDbSymbolTableRecord
100
AcDbLayerTableRecord
  2
HOJOORG
 70
     0
 62
     1
  6
CONTINUOUS
370
    -3
390
75E1
  0
LAYER
  5
10B
330
C9
100
AcDbSymbolTableRecord
100
AcDbLayerTableRecord
  2
WAKU
 70
     0
 62
     5
  6
CONTINUOUS
370
    -3
390
75E1
  0
LAYER
  5
10C
330
C9
100
AcDbSymbolTableRecord
100
AcDbLayerTableRecord
  2
POINT
 70
     0
 62
     7
  6
CONTINUOUS
370
    -3
390
75E1
  0
LAYER
  5
6F31
330
C9
100
AcDbSymbolTableRecord
100
AcDbLayerTableRecord
  2
WINDOW
 70
     0
 62
    -7
  6
CONTINUOUS
370
    -3
390
75E1
  0
LAYER
  5
6F63
330
C9
100
AcDbSymbolTableRecord
100
AcDbLayerTableRecord
  2
DEFPOINTS
 70
     0
 62
     7
  6
CONTINUOUS
290
     0
370
    -3
390
75E1
  0
LAYER
  5
764F
330
C9
100
AcDbSymbolTableRecord
100
AcDbLayerTableRecord
  2
AM_CL
 70
     0
 62
     1
  6
Amconstr
370
    25
390
75E1
  0
ENDTAB
  0
TABLE
  2
STYLE
  5
CA
330
0
100
AcDbSymbolTable
 70
     6
  0
STYLE
  5
D7
330
CA
100
AcDbSymbolTableRecord
100
AcDbTextStyleTableRecord
  2
STANDARD
 70
     0
 40
0.0
 41
1.0
 50
0.0
 71
     0
 42
0.2
  3
ROMANS
  4
EXTFONT
  0
STYLE
  5
F0
330
CA
100
AcDbSymbolTableRecord
100
AcDbTextStyleTableRecord
  2
K
 70
     0
 40
0.0
 41
1.0
 50
0.0
 71
     0
 42
15.0
  3
ROMANS
  4
EXTFONT
  0
STYLE
  5
7614
330
CA
100
AcDbSymbolTableRecord
100
AcDbTextStyleTableRecord
  2

 70
     1
 40
0.0
 41
1.0
 50
0.0
 71
     0
 42
15.0
  3
ltypeshp.shx
  4

  0
STYLE
  5
7616
330
CA
100
AcDbSymbolTableRecord
100
AcDbTextStyleTableRecord
  2
ACISOTS
 70
     0
 40
1.0
 41
1.0
 50
0.0
 71
     0
 42
15.0
  3
isocp.shx
  4
extfont.shx
  0
STYLE
  5
7622
330
CA
100
AcDbSymbolTableRecord
100
AcDbTextStyleTableRecord
  2
ACISOGDT
 70
     0
 40
0.0
 41
1.0
 50
0.0
 71
     0
 42
15.0
  3
amgdt.shx
  4

  0
ENDTAB
  0
TABLE
  2
VIEW
  5
CD
330
0
100
AcDbSymbolTable
 70
     0
  0
ENDTAB
  0
TABLE
  2
UCS
  5
CE
330
0
100
AcDbSymbolTable
 70
     0
  0
ENDTAB
  0
TABLE
  2
APPID
  5
D0
330
0
100
AcDbSymbolTable
 70
    13
  0
APPID
  5
D8
330
D0
100
AcDbSymbolTableRecord
100
AcDbRegAppTableRecord
  2
ACAD
 70
     0
  0
APPID
  5
50D6
330
D0
100
AcDbSymbolTableRecord
100
AcDbRegAppTableRecord
  2
CONTENTTABDATA
 70
     0
  0
APPID
  5
50D7
330
D0
100
AcDbSymbolTableRecord
100
AcDbRegAppTableRecord
  2
CONTENTCURRENTTAB
 70
     0
  0
APPID
  5
75EB
330
D0
100
AcDbSymbolTableRecord
100
AcDbRegAppTableRecord
  2
MCAD_NO_VIS
 70
     0
  0
APPID
  5
75EC
330
D0
100
AcDbSymbolTableRecord
100
AcDbRegAppTableRecord
  2
ACAD_TEMP_GRAPHIC
 70
     0
  0
APPID
  5
75FD
330
D0
100
AcDbSymbolTableRecord
100
AcDbRegAppTableRecord
  2
ACATTRIBSERVICES
 70
     0
  0
APPID
  5
7636
330
D0
100
AcDbSymbolTableRecord
100
AcDbRegAppTableRecord
  2
GENIUS_GENSCREG_15
 70
     0
  0
APPID
  5
7637
330
D0
100
AcDbSymbolTableRecord
100
AcDbRegAppTableRecord
  2
GENIUS_GENOBJ-N-SDF_13
 70
     0
  0
APPID
  5
7638
330
D0
100
AcDbSymbolTableRecord
100
AcDbRegAppTableRecord
  2
GENIUS_GENODEF_13
 70
     0
  0
APPID
  5
775E
330
D0
100
AcDbSymbolTableRecord
100
AcDbRegAppTableRecord
  2
ACAD_PSEXT
 70
     0
  0
APPID
  5
779F
330
D0
100
AcDbSymbolTableRecord
100
AcDbRegAppTableRecord
  2
ACAD_OBJECT_CHANGE_GUID
 70
     0
  0
APPID
  5
85A4
330
D0
100
AcDbSymbolTableRecord
100
AcDbRegAppTableRecord
  2
___LIKI___
 70
     0
  0
APPID
  5
8736
330
D0
100
AcDbSymbolTableRecord
100
AcDbRegAppTableRecord
  2
ACAD_MLEADERVER
 70
     0
  0
ENDTAB
  0
TABLE
  2
DIMSTYLE
  5
D1
330
0
100
AcDbSymbolTable
 70
    20
100
AcDbDimStyleTable
 71
     1
340
402
  0
DIMSTYLE
105
FF
102
{ACAD_REACTORS
330
81A8
330
81C7
330
81C8
330
81DA
330
81DB
330
81DC
330
81DD
330
81DE
330
8213
330
8214
330
8239
102
}
330
D1
100
AcDbSymbolTableRecord
100
AcDbDimStyleTableRecord
  2
IMAO
 70
     0
 41
1.5
 42
1.0
 43
6.0
 44
1.0
 47
495.0
 73
     0
 74
     0
 77
     1
 78
     8
140
3.0
141
0.0
147
1.5
172
     1
174
     1
271
     2
272
     2
284
     8
285
     8
286
     8
340
F0
341
E3
342
E3
343
145
344
145
  0
DIMSTYLE
105
401
330
D1
100
AcDbSymbolTableRecord
100
AcDbDimStyleTableRecord
  2
STANDARD
 70
     0
 40
0.0
 41
6.0
 42
1.0
 43
6.0
 44
1.0
 47
0.5
 48
0.5
 71
     1
 73
     0
 74
     0
 77
     1
 78
     8
140
3.0
141
0.0
146
0.5
147
1.5
172
     1
173
     1
174
     1
271
     0
272
     0
340
D7
341
E3
343
E3
344
E3
  0
DIMSTYLE
105
402
330
D1
100
AcDbSymbolTableRecord
100
AcDbDimStyleTableRecord
  2
IMCADLT
 70
     0
 40
0.0
 41
1.5
 42
1.0
 43
6.0
 44
1.0
 47
0.01
 48
0.02
 73
     0
 74
     0
 77
     3
 78
     8
140
3.0
141
0.0
146
0.45
147
1.5
172
     1
173
     1
174
     1
271
     2
272
     2
284
     8
340
D7
341
E3
342
E3
343
E3
344
E3
  0
DIMSTYLE
105
F97
330
D1
100
AcDbSymbolTableRecord
100
AcDbDimStyleTableRecord
  2
IMAO_1
 70
     0
 40
0.0
 41
1.5
 42
1.0
 43
6.0
 44
1.0
 47
1.0
 71
     1
 73
     0
 74
     0
 77
     1
 78
     8
140
3.0
141
0.0
146
0.5
147
1.5
172
     1
173
     1
174
     1
271
     0
272
     0
340
D7
341
E3
342
E3
343
E3
344
E3
  0
DIMSTYLE
105
F98
330
D1
100
AcDbSymbolTableRecord
100
AcDbDimStyleTableRecord
  2
IMAO_05
 70
     0
 40
0.0
 41
1.5
 42
1.0
 43
6.0
 44
1.0
 47
0.5
 48
0.5
 71
     1
 73
     0
 74
     0
 77
     1
 78
     8
140
3.0
141
0.0
147
1.5
172
     1
173
     1
174
     1
271
     1
272
     1
340
D7
341
E3
342
E3
343
E3
344
E3
  0
DIMSTYLE
105
F99
330
D1
100
AcDbSymbolTableRecord
100
AcDbDimStyleTableRecord
  2
IMAO_NOMAL
 70
     0
 40
0.0
 41
1.5
 42
1.0
 43
6.0
 44
1.0
 47
1.0
 73
     0
 74
     0
 77
     1
 78
     8
140
3.0
141
0.0
146
0.5
147
1.5
172
     1
173
     1
174
     1
271
     1
272
     1
340
D7
341
E3
342
E3
343
E3
344
E3
  0
DIMSTYLE
105
12F0
330
D1
100
AcDbSymbolTableRecord
100
AcDbDimStyleTableRecord
  2
IMAO_07
 70
     0
 40
0.0
 41
1.5
 42
1.0
 43
6.0
 44
1.0
 47
0.7
 48
0.7
 71
     1
 73
     0
 74
     0
 77
     1
 78
     8
140
3.0
141
0.0
147
1.5
172
     1
173
     1
174
     1
271
     1
272
     1
279
     2
284
     8
285
     8
286
     8
340
D7
341
E3
342
E3
343
E3
344
E3
  0
DIMSTYLE
105
136D
330
D1
100
AcDbSymbolTableRecord
100
AcDbDimStyleTableRecord
  2
IMAO_M1
 70
     0
 40
0.0
 41
1.5
 42
1.0
 43
6.0
 44
1.0
 48
1.0
 71
     1
 73
     0
 74
     0
 77
     1
 78
     8
140
3.0
141
0.0
146
0.5
147
1.5
172
     1
173
     1
174
     1
271
     1
272
     1
284
     8
285
     8
286
     8
340
D7
341
E3
342
E3
343
E3
344
E3
  0
DIMSTYLE
105
13E1
330
D1
100
AcDbSymbolTableRecord
100
AcDbDimStyleTableRecord
  2
IMAO_NOMAL_W
 70
     0
 40
0.0
 41
3.0
 42
1.0
 43
6.0
 44
1.0
 47
1.0
 73
     0
 74
     0
 77
     1
 78
     8
140
6.0
141
0.0
146
0.5
147
3.0
172
     1
173
     1
174
     1
271
     1
272
     1
340
D7
341
E3
342
E3
343
E3
344
E3
  0
DIMSTYLE
105
140E
330
D1
100
AcDbSymbolTableRecord
100
AcDbDimStyleTableRecord
  2
IMAO_05_W
 70
     0
 40
0.0
 41
3.0
 42
1.0
 43
6.0
 44
1.0
 47
0.5
 48
0.5
 71
     1
 73
     0
 74
     0
 77
     1
 78
     8
140
6.0
141
0.0
147
3.0
172
     1
173
     1
174
     1
271
     1
272
     1
340
D7
341
E3
342
E3
343
E3
344
E3
  0
DIMSTYLE
105
140F
330
D1
100
AcDbSymbolTableRecord
100
AcDbDimStyleTableRecord
  2
IMAO_1_W
 70
     0
 40
0.0
 41
3.0
 42
1.0
 43
6.0
 44
1.0
 47
1.0
 71
     1
 73
     0
 74
     0
 77
     1
 78
     8
140
6.0
141
0.0
146
0.5
147
3.0
172
     1
173
     1
174
     1
271
     0
272
     0
340
D7
341
E3
342
E3
343
E3
344
E3
  0
DIMSTYLE
105
7441
330
D1
100
AcDbSymbolTableRecord
100
AcDbDimStyleTableRecord
  2
ITM
 70
     0
 41
1.5
 42
1.0
 43
6.0
 44
1.0
 47
495.0
 73
     0
 74
     0
 77
     3
 78
     8
140
3.0
141
0.0
147
0.5
172
     1
173
     1
174
     1
340
F0
  0
DIMSTYLE
105
7629
330
D1
100
AcDbSymbolTableRecord
100
AcDbDimStyleTableRecord
  2
AM_ISO
 70
     0
  4
"
 41
2.5
 42
1.0
 43
10.0
 44
1.0
 47
0.1
 48
0.1
 73
     0
 74
     0
 77
     1
 78
     8
 79
     2
140
3.5
141
0.0
143
0.0393701
146
0.71
147
1.5
172
     1
176
   256
177
   256
178
     2
271
     2
272
     3
274
     4
283
     0
284
     8
340
D7
371
    -1
372
    -1
  0
DIMSTYLE
105
762A
330
D1
100
AcDbSymbolTableRecord
100
AcDbDimStyleTableRecord
  2
AM_ISO$3
 70
     0
  4
"
 41
2.5
 42
1.0
 43
10.0
 44
1.0
 47
0.1
 48
0.1
 73
     0
 77
     1
 78
     8
 79
     2
140
3.5
141
0.0
143
0.0393701
146
0.71
147
1.5
176
   256
177
   256
178
     2
271
     2
272
     3
274
     4
283
     0
284
     8
289
     0
340
D7
371
    -1
372
    -1
  0
DIMSTYLE
105
762B
330
D1
100
AcDbSymbolTableRecord
100
AcDbDimStyleTableRecord
  2
AM_ISO$4
 70
     0
  4
"
 41
2.5
 42
1.0
 43
10.0
 44
1.0
 47
0.1
 48
0.1
 73
     0
 77
     1
 78
     8
 79
     2
140
3.5
141
0.0
143
0.0393701
146
0.71
147
1.5
176
   256
177
   256
178
     2
271
     2
272
     3
274
     4
283
     0
284
     8
289
     0
340
D7
371
    -1
372
    -1
  0
DIMSTYLE
105
762C
330
D1
100
AcDbSymbolTableRecord
100
AcDbDimStyleTableRecord
  2
AM_ISO$6
 70
     0
  4
"
 41
2.5
 42
1.0
 43
10.0
 44
1.0
 47
0.1
 48
0.1
 73
     0
 74
     0
 78
     8
 79
     2
140
3.5
141
0.0
143
0.0393701
146
0.71
147
1.5
172
     1
176
   256
177
   256
178
     2
271
     2
272
     3
274
     4
283
     0
284
     8
340
D7
371
    -1
372
    -1
  0
DIMSTYLE
105
762D
330
D1
100
AcDbSymbolTableRecord
100
AcDbDimStyleTableRecord
  2
AM_ISO$7
 70
     0
  4
"
 41
2.5
 42
1.0
 43
10.0
 44
1.0
 47
0.1
 48
0.1
 73
     0
 74
     0
 77
     1
 78
     8
 79
     2
140
5.0
141
0.0
143
0.0393701
146
0.71
147
1.5
172
     1
176
   256
177
   256
178
     2
271
     2
272
     3
274
     4
283
     0
284
     8
340
D7
371
    -1
372
    -1
  0
DIMSTYLE
105
762E
330
D1
100
AcDbSymbolTableRecord
100
AcDbDimStyleTableRecord
  2
AM_ISO$SF
 70
     0
  4
"
 41
2.5
 42
1.0
 43
10.0
 44
1.0
 47
0.1
 48
0.1
 73
     0
 74
     0
 75
     1
 76
     1
 77
     1
 78
     8
 79
     2
140
3.5
141
0.0
143
0.0393701
146
0.71
147
1.5
172
     1
176
   256
177
   256
178
     2
271
     2
272
     3
274
     4
283
     0
284
     8
340
D7
371
    -1
372
    -1
  0
DIMSTYLE
105
7633
330
D1
100
AcDbSymbolTableRecord
100
AcDbDimStyleTableRecord
  2
AM_ISO$SH
 70
     0
  4
"
 41
2.5
 42
1.0
 43
10.0
 44
1.0
 47
0.1
 48
0.1
 73
     0
 74
     0
 75
     1
 76
     1
 77
     1
 78
     8
 79
     2
140
3.5
141
0.0
143
0.0393701
144
2.0
146
0.71
147
1.5
172
     1
173
     1
176
   256
177
   256
178
     2
271
     2
272
     3
274
     4
283
     0
284
     8
340
D7
343
762F
371
    -1
372
    -1
  0
ENDTAB
  0
TABLE
  2
BLOCK_RECORD
  5
C8
330
0
100
AcDbSymbolTable
 70
    18
  0
BLOCK_RECORD
  5
DF
102
{ACAD_XDICTIONARY
360
7677
102
}
330
C8
100
AcDbSymbolTableRecord
100
AcDbBlockTableRecord
  2
*MODEL_SPACE
340
75E4
  0
BLOCK_RECORD
  5
7768
330
C8
100
AcDbSymbolTableRecord
100
AcDbBlockTableRecord
  2
*Paper_Space
340
7769
  0
BLOCK_RECORD
  5
E3
330
C8
100
AcDbSymbolTableRecord
100
AcDbBlockTableRecord
  2
ARROW
340
0
102
{BLKREFS
331
832C
331
832D
331
8333
331
8334
331
833E
331
833F
331
8393
331
8394
331
83B9
331
83BA
331
83D6
331
83D7
331
849F
331
84A0
331
84A8
331
84A9
331
84C3
331
84C4
331
84CC
331
84CD
331
84D5
331
84D6
102
}
  0
BLOCK_RECORD
  5
145
330
C8
100
AcDbSymbolTableRecord
100
AcDbBlockTableRecord
  2
_OPEN
340
0
  0
BLOCK_RECORD
  5
7442
330
C8
100
AcDbSymbolTableRecord
100
AcDbBlockTableRecord
  2
S3
340
0
  0
BLOCK_RECORD
  5
762F
330
C8
100
AcDbSymbolTableRecord
100
AcDbBlockTableRecord
  2
GENAXEH
340
0
  0
BLOCK_RECORD
  5
7665
330
C8
100
AcDbSymbolTableRecord
100
AcDbBlockTableRecord
  2
A$C133208E5
340
0
  0
BLOCK_RECORD
  5
77B7
330
C8
100
AcDbSymbolTableRecord
100
AcDbBlockTableRecord
  2
ARROWANG
340
0
  0
BLOCK_RECORD
  5
823A
330
C8
100
AcDbSymbolTableRecord
100
AcDbBlockTableRecord
  2
*D6
340
0
  0
BLOCK_RECORD
  5
8246
330
C8
100
AcDbSymbolTableRecord
100
AcDbBlockTableRecord
  2
*D7
340
0
  0
BLOCK_RECORD
  5
8252
330
C8
100
AcDbSymbolTableRecord
100
AcDbBlockTableRecord
  2
*D8
340
0
  0
BLOCK_RECORD
  5
825E
330
C8
100
AcDbSymbolTableRecord
100
AcDbBlockTableRecord
  2
*D9
340
0
  0
BLOCK_RECORD
  5
826A
330
C8
100
AcDbSymbolTableRecord
100
AcDbBlockTableRecord
  2
*D10
340
0
  0
BLOCK_RECORD
  5
8276
330
C8
100
AcDbSymbolTableRecord
100
AcDbBlockTableRecord
  2
*D11
340
0
  0
BLOCK_RECORD
  5
8282
330
C8
100
AcDbSymbolTableRecord
100
AcDbBlockTableRecord
  2
*D12
340
0
  0
BLOCK_RECORD
  5
8290
330
C8
100
AcDbSymbolTableRecord
100
AcDbBlockTableRecord
  2
*D13
340
0
  0
BLOCK_RECORD
  5
829C
330
C8
100
AcDbSymbolTableRecord
100
AcDbBlockTableRecord
  2
*D14
340
0
  0
BLOCK_RECORD
  5
82A8
330
C8
100
AcDbSymbolTableRecord
100
AcDbBlockTableRecord
  2
*D15
340
0
  0
BLOCK_RECORD
  5
82B4
330
C8
100
AcDbSymbolTableRecord
100
AcDbBlockTableRecord
  2
*D16
340
0
  0
ENDTAB
  0
ENDSEC
  0
SECTION
  2
BLOCKS
  0
BLOCK
  5
10F
330
DF
100
AcDbEntity
  8
0
100
AcDbBlockBegin
  2
*MODEL_SPACE
 70
     0
 10
0.0
 20
0.0
 30
0.0
  3
*MODEL_SPACE
  1

  0
ENDBLK
  5
110
330
DF
100
AcDbEntity
  8
0
100
AcDbBlockEnd
  0
BLOCK
  5
776A
330
7768
100
AcDbEntity
 67
     1
  8
0
100
AcDbBlockBegin
  2
*Paper_Space
 70
     0
 10
0.0
 20
0.0
 30
0.0
  3
*Paper_Space
  1

  0
ENDBLK
  5
776B
330
7768
100
AcDbEntity
 67
     1
  8
0
100
AcDbBlockEnd
  0
BLOCK
  5
1
330
E3
100
AcDbEntity
  8
0
100
AcDbBlockBegin
  2
ARROW
 70
     0
 10
1.0
 20
0.5
 30
0.0
  3
ARROW
  1

  0
LINE
  5
2
330
E3
100
AcDbEntity
  8
0
100
AcDbLine
 10
1.0
 20
0.5
 30
0.0
 11
-0.5000000000000214
 21
0.0980762113533018
 31
0.0
  0
LINE
  5
3
330
E3
100
AcDbEntity
  8
0
100
AcDbLine
 10
0.0
 20
0.5
 30
0.0
 11
1.0
 21
0.5
 31
0.0
  0
LINE
  5
4
330
E3
100
AcDbEntity
  8
0
100
AcDbLine
 10
1.0
 20
0.5
 30
0.0
 11
-0.4999999999999574
 21
0.9019237886467408
 31
0.0
  0
ENDBLK
  5
5
330
E3
100
AcDbEntity
  8
0
100
AcDbBlockEnd
  0
BLOCK
  5
149
330
145
100
AcDbEntity
  8
0
100
AcDbBlockBegin
  2
_OPEN
 70
     0
 10
0.0
 20
0.0
 30
0.0
  3
_OPEN
  1

  0
LINE
  5
146
330
145
100
AcDbEntity
  8
0
  6
ByBlock
 62
     0
100
AcDbLine
 10
-1.0
 20
0.1666666666666666
 30
0.0
 11
0.0
 21
0.0
 31
0.0
  0
LINE
  5
147
330
145
100
AcDbEntity
  8
0
  6
ByBlock
 62
     0
100
AcDbLine
 10
0.0
 20
0.0
 30
0.0
 11
-1.0
 21
-0.1666666666666666
 31
0.0
  0
LINE
  5
148
330
145
100
AcDbEntity
  8
0
  6
ByBlock
 62
     0
100
AcDbLine
 10
0.0
 20
0.0
 30
0.0
 11
-1.0
 21
0.0
 31
0.0
  0
ENDBLK
  5
14A
330
145
100
AcDbEntity
  8
0
100
AcDbBlockEnd
  0
BLOCK
  5
750E
330
7442
100
AcDbEntity
  8
0
100
AcDbBlockBegin
  2
S3
 70
     0
 10
0.0
 20
0.0
 30
0.0
  3
S3
  1

  0
LINE
  5
7443
330
7442
100
AcDbEntity
  8
WAKU
100
AcDbLine
 10
3.0
 20
269.0
 30
0.0
 11
384.0
 21
269.0
 31
0.0
  0
LINE
  5
7444
330
7442
100
AcDbEntity
  8
WAKU
100
AcDbLine
 10
384.0
 20
6.0
 30
0.0
 11
3.0
 21
6.0
 31
0.0
  0
LINE
  5
7445
330
7442
100
AcDbEntity
  8
WAKU
100
AcDbLine
 10
3.0
 20
6.0
 30
0.0
 11
3.0
 21
269.0
 31
0.0
  0
TEXT
  5
7446
330
7442
100
AcDbEntity
  8
TEXT
100
AcDbText
 10
72.09999999999999
 20
7.5
 30
0.0
 40
3.0
  1
 年 月 日
  7
K
 72
     4
 11
80.5
 21
9.0
 31
0.0
100
AcDbText
  0
LINE
  5
7447
330
7442
100
AcDbEntity
  8
SUNPOU
100
AcDbLine
 10
106.0
 20
12.0
 30
0.0
 11
13.0
 21
12.0
 31
0.0
  0
LINE
  5
7448
330
7442
100
AcDbEntity
  8
SUNPOU
100
AcDbLine
 10
13.0
 20
18.0
 30
0.0
 11
106.0
 21
18.0
 31
0.0
  0
LINE
  5
7449
330
7442
100
AcDbEntity
  8
SUNPOU
100
AcDbLine
 10
106.0
 20
24.0
 30
0.0
 11
13.0
 21
24.0
 31
0.0
  0
LINE
  5
744A
330
7442
100
AcDbEntity
  8
SUNPOU
100
AcDbLine
 10
13.0
 20
12.0
 30
0.0
 11
106.0
 21
12.0
 31
0.0
  0
LINE
  5
744B
330
7442
100
AcDbEntity
  8
SUNPOU
100
AcDbLine
 10
106.0
 20
18.0
 30
0.0
 11
13.0
 21
18.0
 31
0.0
  0
LINE
  5
744C
330
7442
100
AcDbEntity
  8
SUNPOU
100
AcDbLine
 10
13.0
 20
24.0
 30
0.0
 11
106.0
 21
24.0
 31
0.0
  0
LINE
  5
744D
330
7442
100
AcDbEntity
  8
SUNPOU
100
AcDbLine
 10
106.0
 20
30.0
 30
0.0
 11
3.0
 21
30.0
 31
0.0
  0
TEXT
  5
744E
330
7442
100
AcDbEntity
  8
TEXT
100
AcDbText
 10
4.299999999999999
 20
7.5
 30
0.0
 40
3.0
  1
記号
  7
K
 72
     4
 11
7.5
 21
9.0
 31
0.0
100
AcDbText
  0
LINE
  5
744F
330
7442
100
AcDbEntity
  8
SUNPOU
100
AcDbLine
 10
13.0
 20
6.0
 30
0.0
 11
13.0
 21
30.0
 31
0.0
  0
LINE
  5
7450
330
7442
100
AcDbEntity
  8
SUNPOU
100
AcDbLine
 10
12.0
 20
30.0
 30
0.0
 11
12.0
 21
6.0
 31
0.0
  0
LINE
  5
7451
330
7442
100
AcDbEntity
  8
SUNPOU
100
AcDbLine
 10
12.0
 20
6.0
 30
0.0
 11
12.0
 21
30.0
 31
0.0
  0
LINE
  5
7452
330
7442
100
AcDbEntity
  8
SUNPOU
100
AcDbLine
 10
13.0
 20
30.0
 30
0.0
 11
13.0
 21
6.0
 31
0.0
  0
LINE
  5
7453
330
7442
100
AcDbEntity
  8
SUNPOU
100
AcDbLine
 10
7.5
 20
24.0
 30
0.0
 11
3.0
 21
18.0
 31
0.0
  0
LINE
  5
7454
330
7442
100
AcDbEntity
  8
SUNPOU
100
AcDbLine
 10
7.5
 20
24.0
 30
0.0
 11
12.0
 21
18.0
 31
0.0
  0
LINE
  5
7455
330
7442
100
AcDbEntity
  8
SUNPOU
100
AcDbLine
 10
7.5
 20
18.0
 30
0.0
 11
3.0
 21
12.0
 31
0.0
  0
LINE
  5
7456
330
7442
100
AcDbEntity
  8
SUNPOU
100
AcDbLine
 10
3.0
 20
18.0
 30
0.0
 11
12.0
 21
18.0
 31
0.0
  0
LINE
  5
7457
330
7442
100
AcDbEntity
  8
SUNPOU
100
AcDbLine
 10
12.0
 20
12.0
 30
0.0
 11
3.0
 21
12.0
 31
0.0
  0
LINE
  5
7458
330
7442
100
AcDbEntity
  8
SUNPOU
100
AcDbLine
 10
12.0
 20
12.0
 30
0.0
 11
3.0
 21
12.0
 31
0.0
  0
LINE
  5
7459
330
7442
100
AcDbEntity
  8
SUNPOU
100
AcDbLine
 10
12.0
 20
18.0
 30
0.0
 11
3.0
 21
18.0
 31
0.0
  0
LINE
  5
745A
330
7442
100
AcDbEntity
  8
SUNPOU
100
AcDbLine
 10
7.5
 20
18.0
 30
0.0
 11
12.0
 21
12.0
 31
0.0
  0
LINE
  5
745B
330
7442
100
AcDbEntity
  8
SUNPOU
100
AcDbLine
 10
7.5
 20
30.0
 30
0.0
 11
3.0
 21
24.0
 31
0.0
  0
LINE
  5
745C
330
7442
100
AcDbEntity
  8
SUNPOU
100
AcDbLine
 10
12.0
 20
24.0
 30
0.0
 11
3.0
 21
24.0
 31
0.0
  0
LINE
  5
745D
330
7442
100
AcDbEntity
  8
SUNPOU
100
AcDbLine
 10
12.0
 20
24.0
 30
0.0
 11
3.0
 21
24.0
 31
0.0
  0
LINE
  5
745E
330
7442
100
AcDbEntity
  8
SUNPOU
100
AcDbLine
 10
12.0
 20
24.0
 30
0.0
 11
7.5
 21
30.0
 31
0.0
  0
TEXT
  5
745F
330
7442
100
AcDbEntity
  8
TEXT
100
AcDbText
 10
56.2
 20
7.5
 30
0.0
 40
3.0
  1
設変番号
  7
K
 72
     4
 11
63.0
 21
9.0
 31
0.0
100
AcDbText
  0
TEXT
  5
7460
330
7442
100
AcDbEntity
  8
TEXT
100
AcDbText
 10
20.9
 20
7.5
 30
0.0
 40
3.0
  1
変更内容・理由
  7
K
 72
     4
 11
33.0
 21
9.0
 31
0.0
100
AcDbText
  0
LINE
  5
7461
330
7442
100
AcDbEntity
  8
SUNPOU
100
AcDbLine
 10
73.0
 20
6.0
 30
0.0
 11
73.0
 21
30.0
 31
0.0
  0
LINE
  5
7462
330
7442
100
AcDbEntity
  8
SUNPOU
100
AcDbLine
 10
53.0
 20
30.0
 30
0.0
 11
53.0
 21
6.0
 31
0.0
  0
LINE
  5
7463
330
7442
100
AcDbEntity
  8
WAKU
100
AcDbLine
 10
3.0
 20
139.0
 30
0.0
 11
0.0
 21
139.0
 31
0.0
  0
TEXT
  5
7464
330
7442
100
AcDbEntity
  8
TEXT
100
AcDbText
 10
98.40000000000001
 20
7.5
 30
0.0
 40
3.0
  1
検図
  7
K
 72
     4
 11
101.5
 21
9.0
 31
0.0
100
AcDbText
  0
TEXT
  5
7465
330
7442
100
AcDbEntity
  8
TEXT
100
AcDbText
 10
89.36428571428571
 20
7.5
 30
0.0
 40
3.0
  1
担当
  7
K
 72
     4
 11
92.5
 21
9.0
 31
0.0
100
AcDbText
  0
LINE
  5
7466
330
7442
100
AcDbEntity
  8
SUNPOU
100
AcDbLine
 10
106.0
 20
30.0
 30
0.0
 11
106.0
 21
6.0
 31
0.0
  0
LINE
  5
7467
330
7442
100
AcDbEntity
  8
SUNPOU
100
AcDbLine
 10
97.0
 20
6.0
 30
0.0
 11
97.0
 21
30.0
 31
0.0
  0
LINE
  5
7468
330
7442
100
AcDbEntity
  8
SUNPOU
100
AcDbLine
 10
88.0
 20
30.0
 30
0.0
 11
88.0
 21
6.0
 31
0.0
  0
LINE
  5
7469
330
7442
100
AcDbEntity
  8
WAKU
100
AcDbLine
 10
63.0
 20
279.0
 30
0.0
 11
3.0
 21
279.0
 31
0.0
  0
LINE
  5
746A
330
7442
100
AcDbEntity
  8
WAKU
100
AcDbLine
 10
3.0
 20
269.0
 30
0.0
 11
3.0
 21
279.0
 31
0.0
  0
LINE
  5
746B
330
7442
100
AcDbEntity
  8
SUNPOU
100
AcDbLine
 10
51.0
 20
269.0
 30
0.0
 11
51.0
 21
279.0
 31
0.0
  0
TEXT
  5
746C
330
7442
100
AcDbEntity
  8
TEXT
100
AcDbText
 10
60.1842957707867
 20
275.4965050308843
 30
0.0
 40
3.0
  1
図番
 50
180.0
  7
K
 72
     4
 11
56.88429577078671
 21
273.9965050308843
 31
0.0
100
AcDbText
  0
LINE
  5
746D
330
7442
100
AcDbEntity
  8
WAKU
100
AcDbLine
 10
63.0
 20
279.0
 30
0.0
 11
63.0
 21
269.0
 31
0.0
  0
LINE
  5
746E
330
7442
100
AcDbEntity
  8
WAKU
100
AcDbLine
 10
384.0
 20
269.0
 30
0.0
 11
384.0
 21
6.0
 31
0.0
  0
TEXT
  5
746F
330
7442
100
AcDbEntity
  8
TEXT
100
AcDbText
 10
385.1333333333333
 20
144.6013421640234
 30
0.0
 40
4.0
  1
本
  7
K
 72
     1
 11
387.0
 21
146.6013421640234
 31
0.0
100
AcDbText
 73
     2
  0
TEXT
  5
7470
330
7442
100
AcDbEntity
  8
TEXT
100
AcDbText
 10
329.1072754745071
 20
34.0
 30
0.0
 40
3.0
  1
三 角 法
  7
K
100
AcDbText
  0
LINE
  5
7471
330
7442
100
AcDbEntity
  8
WAKU
100
AcDbLine
 10
324.0
 20
19.0
 30
0.0
 11
384.0
 21
19.0
 31
0.0
  0
LINE
  5
7472
330
7442
100
AcDbEntity
  8
WAKU
100
AcDbLine
 10
384.0
 20
32.0
 30
0.0
 11
324.0
 21
32.0
 31
0.0
  0
LINE
  5
7473
330
7442
100
AcDbEntity
  8
WAKU
100
AcDbLine
 10
324.0
 20
39.0
 30
0.0
 11
384.0
 21
39.0
 31
0.0
  0
TEXT
  5
7474
330
7442
100
AcDbEntity
  8
TEXT
100
AcDbText
 10
338.4611183004224
 20
10.0
 30
0.0
 40
3.5
  1
中部コーポレーション
  7
K
100
AcDbText
  0
TEXT
  5
7475
330
7442
100
AcDbEntity
  8
TEXT
100
AcDbText
 10
326.5466508537902
 20
57.23202258979018
 30
0.0
 40
3.0
  1
備                    考
  7
K
 72
     1
 11
347.7466508537903
 21
58.73202258979017
 31
0.0
100
AcDbText
 73
     2
  0
LINE
  5
7476
330
7442
100
AcDbEntity
  8
WAKU
100
AcDbLine
 10
287.0
 20
55.0
 30
0.0
 11
349.0
 21
55.0
 31
0.0
  0
LINE
  5
7477
330
7442
100
AcDbEntity
  8
TEXT
100
AcDbLine
 10
211.0
 20
83.0
 30
0.0
 11
384.0
 21
83.0
 31
0.0
  0
LINE
  5
7478
330
7442
100
AcDbEntity
  8
SUNPOU
100
AcDbLine
 10
384.0
 20
69.0
 30
0.0
 11
211.0
 21
69.0
 31
0.0
  0
LINE
  5
7479
330
7442
100
AcDbEntity
  8
SUNPOU
100
AcDbLine
 10
211.0
 20
62.0
 30
0.0
 11
384.0
 21
62.0
 31
0.0
  0
LINE
  5
747A
330
7442
100
AcDbEntity
  8
TEXT
100
AcDbLine
 10
211.0
 20
76.00315013427092
 30
0.0
 11
384.0
 21
76.00315013427092
 31
0.0
  0
LINE
  5
747B
330
7442
100
AcDbEntity
  8
SUNPOU
100
AcDbLine
 10
308.0
 20
83.0
 30
0.0
 11
308.0
 21
55.0
 31
0.0
  0
LINE
  5
747C
330
7442
100
AcDbEntity
  8
SUNPOU
100
AcDbLine
 10
263.0
 20
83.0
 30
0.0
 11
263.0
 21
55.0
 31
0.0
  0
LINE
  5
747D
330
7442
100
AcDbEntity
  8
SUNPOU
100
AcDbLine
 10
218.0
 20
83.0
 30
0.0
 11
218.0
 21
55.0
 31
0.0
  0
LINE
  5
747E
330
7442
100
AcDbEntity
  8
SUNPOU
100
AcDbLine
 10
211.0
 20
83.0
 30
0.0
 11
211.0
 21
55.0
 31
0.0
  0
LINE
  5
747F
330
7442
100
AcDbEntity
  8
WAKU
100
AcDbLine
 10
287.0
 20
55.0
 30
0.0
 11
211.0
 21
55.0
 31
0.0
  0
TEXT
  5
7480
330
7442
100
AcDbEntity
  8
TEXT
100
AcDbText
 10
220.8767108238105
 20
3.0
 30
0.0
 40
2.6
  1
複写図面配布先： 購買  →発注先 フード生産技術 フード品質保証 開発部
  7
K
100
AcDbText
  0
TEXT
  5
7481
330
7442
100
AcDbEntity
  8
TEXT
100
AcDbText
 10
274.5
 20
30.16944230720361
 30
0.0
 40
2.0
  1
0.1
 41
0.8
  7
K
 11
274.5
 21
31.16944230720361
 31
0.0
100
AcDbText
 73
     2
  0
TEXT
  5
7482
330
7442
100
AcDbEntity
  8
TEXT
100
AcDbText
 10
274.5
 20
26.29722041378767
 30
0.0
 40
2.0
  1
0.1
 41
0.8
  7
K
 11
274.5
 21
27.29722041378767
 31
0.0
100
AcDbText
 73
     2
  0
TEXT
  5
7483
330
7442
100
AcDbEntity
  8
TEXT
100
AcDbText
 10
274.5
 20
22.42499852037173
 30
0.0
 40
2.0
  1
0.2
 41
0.8
  7
K
 11
274.5
 21
23.42499852037173
 31
0.0
100
AcDbText
 73
     2
  0
TEXT
  5
7484
330
7442
100
AcDbEntity
  8
TEXT
100
AcDbText
 10
274.5
 20
18.55277662695579
 30
0.0
 40
2.0
  1
0.3
 41
0.8
  7
K
 11
274.5
 21
19.55277662695579
 31
0.0
100
AcDbText
 73
     2
  0
TEXT
  5
7485
330
7442
100
AcDbEntity
  8
TEXT
100
AcDbText
 10
274.5
 20
14.68055473353985
 30
0.0
 40
2.0
  1
0.5
 41
0.8
  7
K
 11
274.5
 21
15.68055473353985
 31
0.0
100
AcDbText
 73
     2
  0
TEXT
  5
7486
330
7442
100
AcDbEntity
  8
TEXT
100
AcDbText
 10
274.5
 20
10.80833284012391
 30
0.0
 40
2.0
  1
0.8
 41
0.8
  7
K
 11
274.5
 21
11.80833284012391
 31
0.0
100
AcDbText
 73
     2
  0
TEXT
  5
7487
330
7442
100
AcDbEntity
  8
TEXT
100
AcDbText
 10
275.0857142857143
 20
33.50555325391158
 30
0.0
 40
2.7
  1
K
  7
K
 72
     1
 11
276.5
 21
34.85555325391158
 31
0.0
100
AcDbText
 73
     2
  0
TEXT
  5
7488
330
7442
100
AcDbEntity
  8
TEXT
100
AcDbText
 10
274.5
 20
6.93611094670797
 30
0.0
 40
2.0
  1
1.2
 41
0.8
  7
K
 11
274.5
 21
7.93611094670797
 31
0.0
100
AcDbText
 73
     2
  0
LINE
  5
7489
330
7442
100
AcDbEntity
  8
TEXT
100
AcDbLine
 10
245.0
 20
33.10555325391158
 30
0.0
 11
287.0
 21
33.10555325391158
 31
0.0
  0
LINE
  5
748A
330
7442
100
AcDbEntity
  8
TEXT
100
AcDbLine
 10
245.0
 20
29.23333136049564
 30
0.0
 11
287.0
 21
29.23333136049564
 31
0.0
  0
LINE
  5
748B
330
7442
100
AcDbEntity
  8
TEXT
100
AcDbLine
 10
287.0
 20
25.3611094670797
 30
0.0
 11
245.0
 21
25.3611094670797
 31
0.0
  0
LINE
  5
748C
330
7442
100
AcDbEntity
  8
TEXT
100
AcDbLine
 10
245.0
 20
21.48888757366376
 30
0.0
 11
287.0
 21
21.48888757366376
 31
0.0
  0
LINE
  5
748D
330
7442
100
AcDbEntity
  8
TEXT
100
AcDbLine
 10
287.0
 20
17.61666568024782
 30
0.0
 11
245.0
 21
17.61666568024782
 31
0.0
  0
LINE
  5
748E
330
7442
100
AcDbEntity
  8
TEXT
100
AcDbLine
 10
245.0
 20
13.74444378683188
 30
0.0
 11
287.0
 21
13.74444378683188
 31
0.0
  0
LINE
  5
748F
330
7442
100
AcDbEntity
  8
TEXT
100
AcDbLine
 10
287.0
 20
9.87222189341594
 30
0.0
 11
245.0
 21
9.87222189341594
 31
0.0
  0
LINE
  5
7490
330
7442
100
AcDbEntity
  8
WAKU
100
AcDbLine
 10
287.0
 20
36.60555325391158
 30
0.0
 11
211.0
 21
36.60555325391158
 31
0.0
  0
LINE
  5
7491
330
7442
100
AcDbEntity
  8
TEXT
100
AcDbLine
 10
211.0
 20
48.8685177513039
 30
0.0
 11
287.0
 21
48.8685177513039
 31
0.0
  0
LINE
  5
7492
330
7442
100
AcDbEntity
  8
TEXT
100
AcDbLine
 10
287.0
 20
42.73703550260768
 30
0.0
 11
211.0
 21
42.73703550260768
 31
0.0
  0
LINE
  5
7493
330
7442
100
AcDbEntity
  8
TEXT
100
AcDbLine
 10
273.0
 20
6.0
 30
0.0
 11
273.0
 21
36.60555325391158
 31
0.0
  0
LINE
  5
7494
330
7442
100
AcDbEntity
  8
SUNPOU
100
AcDbLine
 10
238.0
 20
30.75
 30
0.0
 11
238.0
 21
6.0
 31
0.0
  0
LINE
  5
7495
330
7442
100
AcDbEntity
  8
TEXT
100
AcDbLine
 10
245.0
 20
36.60555325391158
 30
0.0
 11
245.0
 21
6.0
 31
0.0
  0
LINE
  5
7496
330
7442
100
AcDbEntity
  8
TEXT
100
AcDbLine
 10
266.0
 20
36.60555325391158
 30
0.0
 11
266.0
 21
6.0
 31
0.0
  0
TEXT
  5
7497
330
7442
100
AcDbEntity
  8
TEXT
100
AcDbText
 10
220.8767108238105
 20
0.1999999999999886
 30
0.0
 40
2.399999999999999
  1
（必要に応じて追加・抹消）
  7
K
100
AcDbText
  0
TEXT
  5
7498
330
7442
100
AcDbEntity
  8
TEXT
100
AcDbText
 10
212.5
 20
6.887403254739353
 30
0.0
 40
2.0
  1
～
  7
K
 11
212.5
 21
7.887403254739353
 31
0.0
100
AcDbText
 73
     2
  0
TEXT
  5
7499
330
7442
100
AcDbEntity
  8
TEXT
100
AcDbText
 10
255.5587236705652
 20
6.93611094670797
 30
0.0
 40
2.0
  1
2000以下
 41
0.8
  7
K
 72
     2
 11
265.0672950991366
 21
7.93611094670797
 31
0.0
100
AcDbText
 73
     2
  0
TEXT
  5
749A
330
7442
100
AcDbEntity
  8
TEXT
100
AcDbText
 10
245.7760645443253
 20
6.93611094670797
 30
0.0
 40
2.0
  1
1000ｦｺｴ
 41
0.8
  7
K
 72
     2
 11
254.4313026395634
 21
7.93611094670797
 31
0.0
100
AcDbText
 73
     2
  0
TEXT
  5
749B
330
7442
100
AcDbEntity
  8
TEXT
100
AcDbText
 10
267.5
 20
6.93611094670797
 30
0.0
 40
2.0
  1
0.5
 41
0.8
  7
K
 11
267.5
 21
7.93611094670797
 31
0.0
100
AcDbText
 73
     2
  0
TEXT
  5
749C
330
7442
100
AcDbEntity
  8
TEXT
100
AcDbText
 10
239.3571428571429
 20
10.24345914221055
 30
0.0
 40
1.5
  1
mm
  7
K
 72
     1
 11
241.5
 21
10.24345914221055
 31
0.0
100
AcDbText
  0
TEXT
  5
749D
330
7442
100
AcDbEntity
  8
TEXT
100
AcDbText
 10
212.5
 20
32.14425883203126
 30
0.0
 40
3.0
  1
標準加工アラサ
  7
K
 72
     4
 11
224.5
 21
33.64425883203125
 31
0.0
100
AcDbText
  0
LINE
  5
749E
330
7442
100
AcDbEntity
  8
SUNPOU
100
AcDbLine
 10
238.0
 20
55.0
 30
0.0
 11
238.0
 21
30.75
 31
0.0
  0
LINE
  5
749F
330
7442
100
AcDbEntity
  8
TEXT
100
AcDbLine
 10
211.0
 20
30.68296441015093
 30
0.0
 11
238.0
 21
30.68296441015093
 31
0.0
  0
LINE
  5
74A0
330
7442
100
AcDbEntity
  8
TEXT
100
AcDbLine
 10
211.0
 20
24.87403254739343
 30
0.0
 11
238.0
 21
24.87403254739343
 31
0.0
  0
TEXT
  5
74A1
330
7442
100
AcDbEntity
  8
TEXT
100
AcDbText
 10
212.82
 20
26.52630198798243
 30
0.0
 40
3.0
  1
(標準外ﾊ指定ﾉｺﾄ)
 41
0.8
  7
K
 72
     4
 11
224.5
 21
27.81201627369672
 31
0.0
100
AcDbText
  0
TEXT
  5
74A2
330
7442
100
AcDbEntity
  8
TEXT
100
AcDbText
 10
212.5
 20
18.21182278317542
 30
0.0
 40
2.0
  1
▽▽▽
  7
K
 11
212.5
 21
19.21182278317542
 31
0.0
100
AcDbText
 73
     2
  0
TEXT
  5
74A3
330
7442
100
AcDbEntity
  8
TEXT
100
AcDbText
 10
212.5
 20
14.43701627369671
 30
0.0
 40
2.0
  1
▽▽
  7
K
 11
212.5
 21
15.43701627369671
 31
0.0
100
AcDbText
 73
     2
  0
TEXT
  5
74A4
330
7442
100
AcDbEntity
  8
TEXT
100
AcDbText
 10
212.5
 20
10.662209764218
 30
0.0
 40
2.0
  1
▽
  7
K
 11
212.5
 21
11.662209764218
 31
0.0
100
AcDbText
 73
     2
  0
TEXT
  5
74A5
330
7442
100
AcDbEntity
  8
TEXT
100
AcDbText
 10
212.5
 20
21.98662929265407
 30
0.0
 40
2.0
  1
▽▽▽▽
  7
K
 11
212.5
 21
22.98662929265407
 31
0.0
100
AcDbText
 73
     2
  0
TEXT
  5
74A6
330
7442
100
AcDbEntity
  8
TEXT
100
AcDbText
 10
240.24
 20
18.90873700804877
 30
0.0
 40
2.7
  1
法
  7
K
 72
     1
 11
241.5
 21
18.90873700804877
 31
0.0
100
AcDbText
  0
TEXT
  5
74A7
330
7442
100
AcDbEntity
  8
TEXT
100
AcDbText
 10
229.1666666666666
 20
10.662209764218
 30
0.0
 40
2.0
  1
100Z
  7
K
 72
     2
 11
236.5
 21
11.662209764218
 31
0.0
100
AcDbText
 73
     2
  0
TEXT
  5
74A8
330
7442
100
AcDbEntity
  8
TEXT
100
AcDbText
 10
231.0714285714286
 20
14.43701627369671
 30
0.0
 40
2.0
  1
25Z
  7
K
 72
     2
 11
236.5
 21
15.43701627369671
 31
0.0
100
AcDbText
 73
     2
  0
TEXT
  5
74A9
330
7442
100
AcDbEntity
  8
TEXT
100
AcDbText
 10
230.1190476190476
 20
18.21182278317542
 30
0.0
 40
2.0
  1
6.3Z
  7
K
 72
     2
 11
236.5
 21
19.21182278317542
 31
0.0
100
AcDbText
 73
     2
  0
TEXT
  5
74AA
330
7442
100
AcDbEntity
  8
TEXT
100
AcDbText
 10
237.952380952381
 20
11.16190406596939
 30
0.0
 40
2.0
  1
(
  7
K
 72
     2
 11
239.0
 21
12.16190406596939
 31
0.0
100
AcDbText
 73
     2
  0
TEXT
  5
74AB
330
7442
100
AcDbEntity
  8
TEXT
100
AcDbText
 10
240.5666666666667
 20
12.16190406596939
 30
0.0
 40
2.0
  1
±
  7
K
 72
     1
 11
241.5
 21
12.16190406596939
 31
0.0
100
AcDbText
  0
TEXT
  5
74AC
330
7442
100
AcDbEntity
  8
TEXT
100
AcDbText
 10
240.24
 20
15.80873700804875
 30
0.0
 40
2.7
  1
差
  7
K
 72
     1
 11
241.5
 21
15.80873700804875
 31
0.0
100
AcDbText
  0
TEXT
  5
74AD
330
7442
100
AcDbEntity
  8
TEXT
100
AcDbText
 10
230.1190476190476
 20
21.98662929265407
 30
0.0
 40
2.0
  1
0.8Z
  7
K
 72
     2
 11
236.5
 21
22.98662929265407
 31
0.0
100
AcDbText
 73
     2
  0
TEXT
  5
74AE
330
7442
100
AcDbEntity
  8
TEXT
100
AcDbText
 10
240.24
 20
25.10873700804876
 30
0.0
 40
2.7
  1
通
  7
K
 72
     1
 11
241.5
 21
25.10873700804876
 31
0.0
100
AcDbText
  0
TEXT
  5
74AF
330
7442
100
AcDbEntity
  8
TEXT
100
AcDbText
 10
240.24
 20
22.00873700804874
 30
0.0
 40
2.7
  1
寸
  7
K
 72
     1
 11
241.5
 21
22.00873700804874
 31
0.0
100
AcDbText
  0
TEXT
  5
74B0
330
7442
100
AcDbEntity
  8
TEXT
100
AcDbText
 10
240.24
 20
28.20873700804873
 30
0.0
 40
2.7
  1
普
  7
K
 72
     1
 11
241.5
 21
28.20873700804873
 31
0.0
100
AcDbText
  0
TEXT
  5
74B1
330
7442
100
AcDbEntity
  8
TEXT
100
AcDbText
 10
214.0657864606292
 20
50.43425887565195
 30
0.0
 40
3.0
  1
表面処理
  7
K
 11
214.0657864606292
 21
51.93425887565195
 31
0.0
100
AcDbText
 73
     2
  0
TEXT
  5
74B2
330
7442
100
AcDbEntity
  8
TEXT
100
AcDbText
 10
214.0657864606292
 20
38.17129437825963
 30
0.0
 40
3.0
  1
適用規格など
  7
K
 11
214.0657864606292
 21
39.67129437825963
 31
0.0
100
AcDbText
 73
     2
  0
TEXT
  5
74B3
330
7442
100
AcDbEntity
  8
TEXT
100
AcDbText
 10
214.0657864606292
 20
44.30277662695579
 30
0.0
 40
3.0
  1
色調
  7
K
 11
214.0657864606292
 21
45.80277662695579
 31
0.0
100
AcDbText
 73
     2
  0
TEXT
  5
74B4
330
7442
100
AcDbEntity
  8
TEXT
100
AcDbText
 10
258.6063427181842
 20
22.42499852037173
 30
0.0
 40
2.0
  1
30以下
 41
0.8
  7
K
 72
     2
 11
265.0672950991366
 21
23.42499852037173
 31
0.0
100
AcDbText
 73
     2
  0
TEXT
  5
74B5
330
7442
100
AcDbEntity
  8
TEXT
100
AcDbText
 10
257.0825331943747
 20
18.55277662695579
 30
0.0
 40
2.0
  1
120以下
 41
0.8
  7
K
 72
     2
 11
265.0672950991366
 21
19.55277662695579
 31
0.0
100
AcDbText
 73
     2
  0
TEXT
  5
74B6
330
7442
100
AcDbEntity
  8
TEXT
100
AcDbText
 10
255.5587236705652
 20
10.80833284012391
 30
0.0
 40
2.0
  1
1000以下
 41
0.8
  7
K
 72
     2
 11
265.0672950991366
 21
11.80833284012391
 31
0.0
100
AcDbText
 73
     2
  0
TEXT
  5
74B7
330
7442
100
AcDbEntity
  8
TEXT
100
AcDbText
 10
257.0825331943747
 20
14.68055473353985
 30
0.0
 40
2.0
  1
315以下
 41
0.8
  7
K
 72
     2
 11
265.0672950991366
 21
15.68055473353985
 31
0.0
100
AcDbText
 73
     2
  0
TEXT
  5
74B8
330
7442
100
AcDbEntity
  8
TEXT
100
AcDbText
 10
247.2998740681349
 20
10.80833284012391
 30
0.0
 40
2.0
  1
315ｦｺｴ
 41
0.8
  7
K
 72
     2
 11
254.4313026395634
 21
11.80833284012391
 31
0.0
100
AcDbText
 73
     2
  0
TEXT
  5
74B9
330
7442
100
AcDbEntity
  8
TEXT
100
AcDbText
 10
247.2998740681349
 20
14.68055473353985
 30
0.0
 40
2.0
  1
120ｦｺｴ
 41
0.8
  7
K
 72
     2
 11
254.4313026395634
 21
15.68055473353985
 31
0.0
100
AcDbText
 73
     2
  0
TEXT
  5
74BA
330
7442
100
AcDbEntity
  8
TEXT
100
AcDbText
 10
248.8236835919444
 20
18.55277662695579
 30
0.0
 40
2.0
  1
30ｦｺｴ
 41
0.8
  7
K
 72
     2
 11
254.4313026395634
 21
19.55277662695579
 31
0.0
100
AcDbText
 73
     2
  0
TEXT
  5
74BB
330
7442
100
AcDbEntity
  8
TEXT
100
AcDbText
 10
243.6235286514975
 20
11.16190406596939
 30
0.0
 40
2.0
  1
)
  7
K
 11
243.6235286514975
 21
12.16190406596939
 31
0.0
100
AcDbText
 73
     2
  0
TEXT
  5
74BC
330
7442
100
AcDbEntity
  8
TEXT
100
AcDbText
 10
250.3474931157539
 20
22.42499852037173
 30
0.0
 40
2.0
  1
6ｦｺｴ
 41
0.8
  7
K
 72
     2
 11
254.4313026395634
 21
23.42499852037173
 31
0.0
100
AcDbText
 73
     2
  0
TEXT
  5
74BD
330
7442
100
AcDbEntity
  8
TEXT
100
AcDbText
 10
250.3474931157539
 20
26.29722041378767
 30
0.0
 40
2.0
  1
3ｦｺｴ
 41
0.8
  7
K
 72
     2
 11
254.4313026395634
 21
27.29722041378767
 31
0.0
100
AcDbText
 73
     2
  0
TEXT
  5
74BE
330
7442
100
AcDbEntity
  8
TEXT
100
AcDbText
 10
247.2084454967063
 20
30.16944230720361
 30
0.0
 40
2.0
  1
0.5以上
 41
0.8
  7
K
 72
     2
 11
254.4313026395634
 21
31.16944230720361
 31
0.0
100
AcDbText
 73
     2
  0
TEXT
  5
74BF
330
7442
100
AcDbEntity
  8
TEXT
100
AcDbText
 10
267.5
 20
14.68055473353985
 30
0.0
 40
2.0
  1
0.2
 41
0.8
  7
K
 11
267.5
 21
15.68055473353985
 31
0.0
100
AcDbText
 73
     2
  0
TEXT
  5
74C0
330
7442
100
AcDbEntity
  8
TEXT
100
AcDbText
 10
267.5
 20
10.80833284012391
 30
0.0
 40
2.0
  1
0.3
 41
0.8
  7
K
 11
267.5
 21
11.80833284012391
 31
0.0
100
AcDbText
 73
     2
  0
TEXT
  5
74C1
330
7442
100
AcDbEntity
  8
TEXT
100
AcDbText
 10
267.5
 20
18.55277662695579
 30
0.0
 40
2.0
  1
0.15
 41
0.8
  7
K
 11
267.5
 21
19.55277662695579
 31
0.0
100
AcDbText
 73
     2
  0
TEXT
  5
74C2
330
7442
100
AcDbEntity
  8
TEXT
100
AcDbText
 10
260.1301522419937
 20
26.29722041378767
 30
0.0
 40
2.0
  1
6以下
 41
0.8
  7
K
 72
     2
 11
265.0672950991366
 21
27.29722041378767
 31
0.0
100
AcDbText
 73
     2
  0
TEXT
  5
74C3
330
7442
100
AcDbEntity
  8
TEXT
100
AcDbText
 10
260.1301522419937
 20
30.16944230720361
 30
0.0
 40
2.0
  1
3以下
 41
0.8
  7
K
 72
     2
 11
265.0672950991366
 21
31.16944230720361
 31
0.0
100
AcDbText
 73
     2
  0
TEXT
  5
74C4
330
7442
100
AcDbEntity
  8
TEXT
100
AcDbText
 10
267.5
 20
26.29722041378767
 30
0.0
 40
2.0
  1
0.05
 41
0.8
  7
K
 11
267.5
 21
27.29722041378767
 31
0.0
100
AcDbText
 73
     2
  0
TEXT
  5
74C5
330
7442
100
AcDbEntity
  8
TEXT
100
AcDbText
 10
267.5
 20
22.42499852037173
 30
0.0
 40
2.0
  1
0.1
 41
0.8
  7
K
 11
267.5
 21
23.42499852037173
 31
0.0
100
AcDbText
 73
     2
  0
TEXT
  5
74C6
330
7442
100
AcDbEntity
  8
TEXT
100
AcDbText
 10
267.5
 20
30.16944230720361
 30
0.0
 40
2.0
  1
0.05
 41
0.8
  7
K
 11
267.5
 21
31.16944230720361
 31
0.0
100
AcDbText
 73
     2
  0
TEXT
  5
74C7
330
7442
100
AcDbEntity
  8
TEXT
100
AcDbText
 10
246.95
 20
33.50555325391158
 30
0.0
 40
2.7
  1
呼 ビ 寸 法
  7
K
 72
     1
 11
255.5
 21
34.85555325391158
 31
0.0
100
AcDbText
 73
     2
  0
TEXT
  5
74C8
330
7442
100
AcDbEntity
  8
TEXT
100
AcDbText
 10
268.6
 20
33.50555325391158
 30
0.0
 40
2.7
  1
J
  7
K
 72
     1
 11
269.5
 21
34.85555325391158
 31
0.0
100
AcDbText
 73
     2
  0
TEXT
  5
74C9
330
7442
100
AcDbEntity
  8
TEXT
100
AcDbText
 10
288.0
 20
8.0
 30
0.0
 40
3.0
  1
承認
  7
K
100
AcDbText
  0
LINE
  5
74CA
330
7442
100
AcDbEntity
  8
WAKU
100
AcDbLine
 10
324.0
 20
6.0
 30
0.0
 11
324.0
 21
19.0
 31
0.0
  0
LINE
  5
74CB
330
7442
100
AcDbEntity
  8
SUNPOU
100
AcDbLine
 10
308.0
 20
39.0
 30
0.0
 11
308.0
 21
6.0
 31
0.0
  0
LINE
  5
74CC
330
7442
100
AcDbEntity
  8
WAKU
100
AcDbLine
 10
287.0
 20
6.0
 30
0.0
 11
287.0
 21
39.0
 31
0.0
  0
LINE
  5
74CD
330
7442
100
AcDbEntity
  8
SUNPOU
100
AcDbLine
 10
296.0
 20
39.0
 30
0.0
 11
296.0
 21
6.0
 31
0.0
  0
LINE
  5
74CE
330
7442
100
AcDbEntity
  8
TEXT
100
AcDbLine
 10
280.0
 20
36.60555325391158
 30
0.0
 11
280.0
 21
6.0
 31
0.0
  0
TEXT
  5
74CF
330
7442
100
AcDbEntity
  8
TEXT
100
AcDbText
 10
281.5
 20
6.93611094670797
 30
0.0
 40
2.0
  1
3
 41
0.8
  7
K
 11
281.5
 21
7.93611094670797
 31
0.0
100
AcDbText
 73
     2
  0
CIRCLE
  5
74D0
330
7442
100
AcDbEntity
  8
JISSEN
100
AcDbCircle
 10
313.3333333333333
 20
7.0
 30
0.0
 40
0.2
  0
CIRCLE
  5
74D1
330
7442
100
AcDbEntity
  8
JISSEN
100
AcDbCircle
 10
318.6666666666667
 20
7.0
 30
0.0
 40
0.2
  0
LINE
  5
74D2
330
7442
100
AcDbEntity
  8
WAKU
100
AcDbLine
 10
287.0
 20
39.0
 30
0.0
 11
324.0
 21
39.0
 31
0.0
  0
LINE
  5
74D3
330
7442
100
AcDbEntity
  8
SUNPOU
100
AcDbLine
 10
287.0
 20
22.5
 30
0.0
 11
324.0
 21
22.5
 31
0.0
  0
LINE
  5
74D4
330
7442
100
AcDbEntity
  8
SUNPOU
100
AcDbLine
 10
324.0
 20
14.25
 30
0.0
 11
287.0
 21
14.25
 31
0.0
  0
LINE
  5
74D5
330
7442
100
AcDbEntity
  8
SUNPOU
100
AcDbLine
 10
324.0
 20
30.75
 30
0.0
 11
287.0
 21
30.75
 31
0.0
  0
TEXT
  5
74D6
330
7442
100
AcDbEntity
  8
TEXT
100
AcDbText
 10
288.0
 20
16.25
 30
0.0
 40
3.0
  1
検図
  7
K
100
AcDbText
  0
TEXT
  5
74D7
330
7442
100
AcDbEntity
  8
TEXT
100
AcDbText
 10
288.0
 20
24.5
 30
0.0
 40
3.0
  1
製図
  7
K
100
AcDbText
  0
TEXT
  5
74D8
330
7442
100
AcDbEntity
  8
TEXT
100
AcDbText
 10
281.5
 20
14.68055473353985
 30
0.0
 40
2.0
  1
1.2
 41
0.8
  7
K
 11
281.5
 21
15.68055473353985
 31
0.0
100
AcDbText
 73
     2
  0
TEXT
  5
74D9
330
7442
100
AcDbEntity
  8
TEXT
100
AcDbText
 10
281.5
 20
18.55277662695579
 30
0.0
 40
2.0
  1
0.8
 41
0.8
  7
K
 11
281.5
 21
19.55277662695579
 31
0.0
100
AcDbText
 73
     2
  0
TEXT
  5
74DA
330
7442
100
AcDbEntity
  8
TEXT
100
AcDbText
 10
281.5
 20
10.80833284012391
 30
0.0
 40
2.0
  1
2
 41
0.8
  7
K
 11
281.5
 21
11.80833284012391
 31
0.0
100
AcDbText
 73
     2
  0
LINE
  5
74DB
330
7442
100
AcDbEntity
  8
TEXT
100
AcDbLine
 10
281.5
 20
31.16944230720361
 30
0.0
 11
285.1060332593609
 21
31.16944230720361
 31
0.0
  0
TEXT
  5
74DC
330
7442
100
AcDbEntity
  8
TEXT
100
AcDbText
 10
281.5
 20
26.29722041378767
 30
0.0
 40
2.0
  1
0.2
 41
0.8
  7
K
 11
281.5
 21
27.29722041378767
 31
0.0
100
AcDbText
 73
     2
  0
TEXT
  5
74DD
330
7442
100
AcDbEntity
  8
TEXT
100
AcDbText
 10
281.5
 20
22.42499852037173
 30
0.0
 40
2.0
  1
0.5
 41
0.8
  7
K
 11
281.5
 21
23.42499852037173
 31
0.0
100
AcDbText
 73
     2
  0
TEXT
  5
74DE
330
7442
100
AcDbEntity
  8
TEXT
100
AcDbText
 10
288.0
 20
45.0
 30
0.0
 40
3.0
  1
品名
  7
K
100
AcDbText
  0
TEXT
  5
74DF
330
7442
100
AcDbEntity
  8
TEXT
100
AcDbText
 10
288.0
 20
32.75
 30
0.0
 40
3.0
  1
設計
  7
K
100
AcDbText
  0
LINE
  5
74E0
330
7442
100
AcDbEntity
  8
WAKU
100
AcDbLine
 10
287.0
 20
39.0
 30
0.0
 11
287.0
 21
55.0
 31
0.0
  0
TEXT
  5
74E1
330
7442
100
AcDbEntity
  8
TEXT
100
AcDbText
 10
282.2142857142857
 20
33.50555325391158
 30
0.0
 40
2.7
  1
L
  7
K
 72
     1
 11
283.5
 21
34.85555325391158
 31
0.0
100
AcDbText
 73
     2
  0
LINE
  5
74E2
330
7442
100
AcDbEntity
  8
SUNPOU
100
AcDbLine
 10
296.0
 20
55.0
 30
0.0
 11
296.0
 21
39.0
 31
0.0
  0
LINE
  5
74E3
330
7442
100
AcDbEntity
  8
WAKU
100
AcDbLine
 10
324.0
 20
32.0
 30
0.0
 11
324.0
 21
39.0
 31
0.0
  0
LINE
  5
74E4
330
7442
100
AcDbEntity
  8
WAKU
100
AcDbLine
 10
324.0
 20
19.0
 30
0.0
 11
324.0
 21
32.0
 31
0.0
  0
CIRCLE
  5
74E5
330
7442
100
AcDbEntity
  8
JISSEN
100
AcDbCircle
 10
313.3333333333333
 20
15.25
 30
0.0
 40
0.2
  0
CIRCLE
  5
74E6
330
7442
100
AcDbEntity
  8
JISSEN
100
AcDbCircle
 10
318.6666666666667
 20
15.25
 30
0.0
 40
0.2
  0
CIRCLE
  5
74E7
330
7442
100
AcDbEntity
  8
JISSEN
100
AcDbCircle
 10
313.3333333333333
 20
23.5
 30
0.0
 40
0.2
  0
CIRCLE
  5
74E8
330
7442
100
AcDbEntity
  8
JISSEN
100
AcDbCircle
 10
313.3333333333333
 20
31.75
 30
0.0
 40
0.2
  0
CIRCLE
  5
74E9
330
7442
100
AcDbEntity
  8
JISSEN
100
AcDbCircle
 10
318.6666666666667
 20
23.5
 30
0.0
 40
0.2
  0
CIRCLE
  5
74EA
330
7442
100
AcDbEntity
  8
JISSEN
100
AcDbCircle
 10
318.6666666666667
 20
31.75
 30
0.0
 40
0.2
  0
LINE
  5
74EB
330
7442
100
AcDbEntity
  8
SUNPOU
100
AcDbLine
 10
336.0
 20
32.0
 30
0.0
 11
336.0
 21
19.0
 31
0.0
  0
TEXT
  5
74EC
330
7442
100
AcDbEntity
  8
TEXT
100
AcDbText
 10
328.4851672235041
 20
10.0
 30
0.0
 40
2.0
  1
株式会社
  7
K
100
AcDbText
  0
TEXT
  5
74ED
330
7442
100
AcDbEntity
  8
TEXT
100
AcDbText
 10
326.7
 20
24.0
 30
0.0
 40
3.0
  1
図番
  7
K
 72
     4
 11
330.0
 21
25.5
 31
0.0
100
AcDbText
  0
TEXT
  5
74EE
330
7442
100
AcDbEntity
  8
TEXT
100
AcDbText
 10
274.3
 20
57.23202258979018
 30
0.0
 40
3.0
  1
品         名
  7
K
 72
     1
 11
285.5
 21
58.73202258979017
 31
0.0
100
AcDbText
 73
     2
  0
TEXT
  5
74EF
330
7442
100
AcDbEntity
  8
TEXT
100
AcDbText
 10
229.1
 20
57.23202258979018
 30
0.0
 40
3.0
  1
図         番
  7
K
 72
     1
 11
240.5
 21
58.73202258979017
 31
0.0
100
AcDbText
 73
     2
  0
TEXT
  5
74F0
330
7442
100
AcDbEntity
  8
TEXT
100
AcDbText
 10
212.0714285714286
 20
57.73202258979018
 30
0.0
 40
2.0
  1
No.
  7
K
 72
     1
 11
214.5
 21
58.73202258979017
 31
0.0
100
AcDbText
 73
     2
  0
LINE
  5
74F1
330
7442
100
AcDbEntity
  8
WAKU
100
AcDbLine
 10
384.0
 20
55.0
 30
0.0
 11
349.0
 21
55.0
 31
0.0
  0
TEXT
  5
74F2
330
7442
100
AcDbEntity
  8
TEXT
100
AcDbText
 10
367.0633115578712
 20
33.41726061251677
 30
0.0
 40
2.5
  1
(単位mm)
  7
K
100
AcDbText
  0
LINE
  5
74F3
330
7442
100
AcDbEntity
  8
SUNPOU
100
AcDbLine
 10
349.0
 20
47.0
 30
0.0
 11
384.0
 21
47.0
 31
0.0
  0
LINE
  5
74F4
330
7442
100
AcDbEntity
  8
SUNPOU
100
AcDbLine
 10
356.0
 20
32.0
 30
0.0
 11
356.0
 21
39.0
 31
0.0
  0
LINE
  5
74F5
330
7442
100
AcDbEntity
  8
SUNPOU
100
AcDbLine
 10
347.0
 20
39.0
 30
0.0
 11
347.0
 21
32.0
 31
0.0
  0
TEXT
  5
74F6
330
7442
100
AcDbEntity
  8
TEXT
100
AcDbText
 10
350.0
 20
49.0
 30
0.0
 40
3.0
  1
材 質
  7
K
100
AcDbText
  0
TEXT
  5
74F7
330
7442
100
AcDbEntity
  8
TEXT
100
AcDbText
 10
350.0
 20
41.0
 30
0.0
 40
3.0
  1
板 厚
  7
K
100
AcDbText
  0
LINE
  5
74F8
330
7442
100
AcDbEntity
  8
WAKU
100
AcDbLine
 10
349.0
 20
55.0
 30
0.0
 11
349.0
 21
39.0
 31
0.0
  0
TEXT
  5
74F9
330
7442
100
AcDbEntity
  8
TEXT
100
AcDbText
 10
348.0
 20
34.0
 30
0.0
 40
3.0
  1
尺度
  7
K
100
AcDbText
  0
LINE
  5
74FA
330
7442
100
AcDbEntity
  8
SUNPOU
100
AcDbLine
 10
360.0
 20
55.0
 30
0.0
 11
360.0
 21
39.0
 31
0.0
  0
TEXT
  5
74FB
330
7442
100
AcDbEntity
  8
TEXT
100
AcDbText
 10
385.1333333333333
 20
99.60134216402344
 30
0.0
 40
4.0
  1
ず
  7
K
 72
     1
 11
387.0
 21
101.6013421640234
 31
0.0
100
AcDbText
 73
     2
  0
TEXT
  5
74FC
330
7442
100
AcDbEntity
  8
TEXT
100
AcDbText
 10
385.0346249501075
 20
64.86078937622085
 30
0.0
 40
4.0
  1
の
  7
K
 72
     4
 11
386.9012916167742
 21
66.86078937622085
 31
0.0
100
AcDbText
  0
TEXT
  5
74FD
330
7442
100
AcDbEntity
  8
TEXT
100
AcDbText
 10
385.1333333333333
 20
60.60134216402343
 30
0.0
 40
4.0
  1
こ
  7
K
 72
     1
 11
387.0
 21
62.60134216402343
 31
0.0
100
AcDbText
 73
     2
  0
TEXT
  5
74FE
330
7442
100
AcDbEntity
  8
TEXT
100
AcDbText
 10
385.1333333333333
 20
55.60134216402343
 30
0.0
 40
4.0
  1
と
  7
K
 72
     1
 11
387.0
 21
57.60134216402343
 31
0.0
100
AcDbText
 73
     2
  0
TEXT
  5
74FF
330
7442
100
AcDbEntity
  8
TEXT
100
AcDbText
 10
385.1333333333333
 20
69.60134216402344
 30
0.0
 40
4.0
  1
却
  7
K
 72
     1
 11
387.0
 21
71.60134216402344
 31
0.0
100
AcDbText
 73
     2
  0
TEXT
  5
7500
330
7442
100
AcDbEntity
  8
TEXT
100
AcDbText
 10
385.1333333333333
 20
74.60134216402344
 30
0.0
 40
4.0
  1
返
  7
K
 72
     1
 11
387.0
 21
76.60134216402344
 31
0.0
100
AcDbText
 73
     2
  0
TEXT
  5
7501
330
7442
100
AcDbEntity
  8
TEXT
100
AcDbText
 10
385.1333333333333
 20
89.60134216402343
 30
0.0
 40
4.0
  1
行
  7
K
 72
     1
 11
387.0
 21
91.60134216402344
 31
0.0
100
AcDbText
 73
     2
  0
TEXT
  5
7502
330
7442
100
AcDbEntity
  8
TEXT
100
AcDbText
 10
385.1333333333333
 20
84.60134216402343
 30
0.0
 40
4.0
  1
元
  7
K
 72
     1
 11
387.0
 21
86.60134216402344
 31
0.0
100
AcDbText
 73
     2
  0
TEXT
  5
7503
330
7442
100
AcDbEntity
  8
TEXT
100
AcDbText
 10
385.2666666666666
 20
79.60134216402344
 30
0.0
 40
4.0
  1
へ
  7
K
 72
     1
 11
387.0
 21
81.60134216402344
 31
0.0
100
AcDbText
 73
     2
  0
TEXT
  5
7504
330
7442
100
AcDbEntity
  8
TEXT
100
AcDbText
 10
385.1333333333333
 20
94.60134216402343
 30
0.0
 40
4.0
  1
発
  7
K
 72
     1
 11
387.0
 21
96.60134216402344
 31
0.0
100
AcDbText
 73
     2
  0
TEXT
  5
7505
330
7442
100
AcDbEntity
  8
TEXT
100
AcDbText
 10
385.1333333333333
 20
124.6013421640234
 30
0.0
 40
4.0
  1
済
  7
K
 72
     1
 11
387.0
 21
126.6013421640234
 31
0.0
100
AcDbText
 73
     2
  0
TEXT
  5
7506
330
7442
100
AcDbEntity
  8
TEXT
100
AcDbText
 10
385.1333333333333
 20
104.6013421640234
 30
0.0
 40
4.0
  1
必
  7
K
 72
     1
 11
387.0
 21
106.6013421640234
 31
0.0
100
AcDbText
 73
     2
  0
TEXT
  5
7507
330
7442
100
AcDbEntity
  8
TEXT
100
AcDbText
 10
387.9256954922052
 20
111.2049702787619
 30
0.0
 40
4.0
  1
、
  7
K
 72
     1
 11
388.4590288255385
 21
113.2049702787619
 31
0.0
100
AcDbText
 73
     2
  0
TEXT
  5
7508
330
7442
100
AcDbEntity
  8
TEXT
100
AcDbText
 10
385.1333333333333
 20
114.6013421640234
 30
0.0
 40
4.0
  1
後
  7
K
 72
     1
 11
387.0
 21
116.6013421640234
 31
0.0
100
AcDbText
 73
     2
  0
TEXT
  5
7509
330
7442
100
AcDbEntity
  8
TEXT
100
AcDbText
 10
385.2666666666666
 20
119.6013421640234
 30
0.0
 40
4.0
  1
み
  7
K
 72
     1
 11
387.0
 21
121.6013421640234
 31
0.0
100
AcDbText
 73
     2
  0
TEXT
  5
750A
330
7442
100
AcDbEntity
  8
TEXT
100
AcDbText
 10
385.1333333333333
 20
134.6013421640234
 30
0.0
 40
4.0
  1
は
  7
K
 72
     1
 11
387.0
 21
136.6013421640234
 31
0.0
100
AcDbText
 73
     2
  0
TEXT
  5
750B
330
7442
100
AcDbEntity
  8
TEXT
100
AcDbText
 10
385.2666666666666
 20
129.6013421640234
 30
0.0
 40
4.0
  1
用
  7
K
 72
     1
 11
387.0
 21
131.6013421640234
 31
0.0
100
AcDbText
 73
     2
  0
TEXT
  5
750C
330
7442
100
AcDbEntity
  8
TEXT
100
AcDbText
 10
385.1333333333333
 20
139.6013421640234
 30
0.0
 40
4.0
  1
図
  7
K
 72
     1
 11
387.0
 21
141.6013421640234
 31
0.0
100
AcDbText
 73
     2
  0
LINE
  5
750D
330
7442
100
AcDbEntity
  8
WAKU
100
AcDbLine
 10
211.0
 20
55.0
 30
0.0
 11
211.0
 21
6.0
 31
0.0
  0
ENDBLK
  5
750F
330
7442
100
AcDbEntity
  8
0
100
AcDbBlockEnd
  0
BLOCK
  5
7631
330
762F
100
AcDbEntity
  8
0
100
AcDbBlockBegin
  2
GENAXEH
 70
     0
 10
0.0
 20
0.0
 30
0.0
  3
GENAXEH
  1

  0
LINE
  5
7630
330
762F
100
AcDbEntity
  8
0
100
AcDbLine
 10
-1.0
 20
0.0
 30
0.0
 11
1.0
 21
0.0
 31
0.0
  0
ENDBLK
  5
7632
330
762F
100
AcDbEntity
  8
0
100
AcDbBlockEnd
  0
BLOCK
  5
766A
330
7665
100
AcDbEntity
  8
0
100
AcDbBlockBegin
  2
A$C133208E5
 70
     0
 10
0.0
 20
0.0
 30
0.0
  3
A$C133208E5
  1

  0
MTEXT
  5
7666
330
7665
100
AcDbEntity
  8
SUNPOU
100
AcDbMText
 10
7.841833113468055
 20
13.16671319761485
 30
0.0
 40
12.0
 41
28.16000000000001
 71
     1
 72
     5
  1
1
  7
K
 73
     1
 44
1.0
1001
ACAD
1000
MTEXTBEGIN
1070
    73
1070
     1
1070
    44
1040
1.0
1070
    74
1070
     0
1000
MTEXTEND
  0
LINE
  5
7667
330
7665
100
AcDbEntity
  8
SUNPOU
100
AcDbLine
 10
20.9578167755044
 20
0.0
 30
0.0
 11
0.000002003921054
 21
0.0
 31
0.0
  0
LINE
  5
7668
330
7665
100
AcDbEntity
  8
SUNPOU
100
AcDbLine
 10
10.4789093897125
 20
18.15000000000009
 30
0.0
 11
20.9578167755044
 21
0.0
 31
0.0
  0
LINE
  5
7669
330
7665
100
AcDbEntity
  8
SUNPOU
100
AcDbLine
 10
0.000002003921054
 20
0.0
 30
0.0
 11
10.4789093897125
 21
18.15000000000009
 31
0.0
  0
ENDBLK
  5
766B
330
7665
100
AcDbEntity
  8
0
100
AcDbBlockEnd
  0
BLOCK
  5
77B8
330
77B7
100
AcDbEntity
  8
0
100
AcDbBlockBegin
  2
ARROWANG
 70
     0
 10
0.0
 20
0.0
 30
0.0
  3
ARROWANG
  1

  0
LINE
  5
77B9
330
77B7
100
AcDbEntity
  8
SUNPOU
100
AcDbLine
 10
0.0
 20
0.0
 30
0.0
 11
-1.499999999999957
 21
0.4019237886467409
 31
0.0
  0
LINE
  5
77BA
330
77B7
100
AcDbEntity
  8
SUNPOU
100
AcDbLine
 10
0.0
 20
0.0
 30
0.0
 11
-1.500000000000028
 21
-0.4019237886467124
 31
0.0
  0
ENDBLK
  5
77BB
330
77B7
100
AcDbEntity
  8
0
100
AcDbBlockEnd
  0
BLOCK
  5
8244
330
823A
100
AcDbEntity
  8
0
100
AcDbBlockBegin
  2
*D6
 70
     1
 10
0.0
 20
0.0
 30
0.0
  3
*D6
  1

  0
LINE
  5
8329
330
823A
100
AcDbEntity
  8
SUNPOU
 62
     0
370
    -2
100
AcDbLine
 10
3642.337969896639
 20
662.1701269404647
 30
0.0
 11
3642.337969896639
 21
890.7838111718261
 31
0.0
  0
LINE
  5
832A
330
823A
100
AcDbEntity
  8
SUNPOU
 62
     0
370
    -2
100
AcDbLine
 10
4067.337969896638
 20
662.1701269404734
 30
0.0
 11
4067.337969896638
 21
890.7838111718261
 31
0.0
  0
LINE
  5
832B
330
823A
100
AcDbEntity
  8
SUNPOU
 62
     0
370
    -2
100
AcDbLine
 10
3649.837969896639
 20
885.783811171826
 30
0.0
 11
4059.837969896638
 21
885.783811171826
 31
0.0
  0
INSERT
  5
832C
330
823A
100
AcDbEntity
  8
SUNPOU
 62
     0
370
    -2
100
AcDbBlockReference
  2
ARROW
 10
3642.337969896639
 20
885.783811171826
 30
0.0
 41
7.5
 42
7.5
 43
7.5
 50
180.0
  0
INSERT
  5
832D
330
823A
100
AcDbEntity
  8
SUNPOU
 62
     0
370
    -2
100
AcDbBlockReference
  2
ARROW
 10
4067.337969896638
 20
885.783811171826
 30
0.0
 41
7.5
 42
7.5
 43
7.5
  0
MTEXT
  5
832E
330
823A
100
AcDbEntity
  8
SUNPOU
 62
     0
100
AcDbMText
 10
3854.837969896639
 20
900.783811171826
 30
0.0
 40
15.0
 41
0.0
 71
     5
 72
     5
  1
\A1;500
 73
     1
 44
1.0
1001
ACAD
1000
MTEXTBEGIN
1070
    73
1070
     1
1070
    44
1040
1.0
1070
    74
1070
     0
1000
MTEXTEND
  0
POINT
  5
832F
330
823A
100
AcDbEntity
  8
DEFPOINTS
 62
     0
100
AcDbPoint
 10
3642.337969896639
 20
657.1701269404647
 30
0.0
  0
POINT
  5
8330
330
823A
100
AcDbEntity
  8
DEFPOINTS
 62
     0
100
AcDbPoint
 10
4067.337969896638
 20
657.1701269404734
 30
0.0
  0
POINT
  5
8331
330
823A
100
AcDbEntity
  8
DEFPOINTS
 62
     0
100
AcDbPoint
 10
4067.337969896638
 20
885.783811171826
 30
0.0
  0
ENDBLK
  5
8245
330
823A
100
AcDbEntity
  8
0
100
AcDbBlockEnd
  0
BLOCK
  5
8250
330
8246
100
AcDbEntity
  8
0
100
AcDbBlockBegin
  2
*D7
 70
     1
 10
0.0
 20
0.0
 30
0.0
  3
*D7
  1

  0
ARC
  5
8332
330
8246
100
AcDbEntity
  8
SUNPOU
 62
     0
370
    -2
100
AcDbCircle
 10
3854.837969896639
 20
657.1701269404647
 30
0.0
 40
208.4149102700117
100
AcDbArc
 50
317.0619519774224
 51
357.9380480225777
  0
INSERT
  5
8333
330
8246
100
AcDbEntity
  8
SUNPOU
 62
     0
370
    -2
100
AcDbBlockReference
  2
ARROW
 10
4002.209566248949
 20
509.798530588154
 30
0.0
 41
7.5
 42
7.5
 43
7.5
 50
226.0309759887113
  0
INSERT
  5
8334
330
8246
100
AcDbEntity
  8
SUNPOU
 62
     0
370
    -2
100
AcDbBlockReference
  2
ARROW
 10
4063.25288016665
 20
657.1701269404647
 30
0.0
 41
7.5
 42
7.5
 43
7.5
 50
88.96902401128889
  0
MTEXT
  5
8335
330
8246
100
AcDbEntity
  8
SUNPOU
 62
     0
100
AcDbMText
 10
4033.53004677761
 20
583.153445207751
 30
0.0
 40
15.0
 41
0.0
 71
     5
 72
     5
  1
\A1;45%%d
 11
0.3826834323650885
 21
0.9238795325112874
 31
0.0
 73
     1
 44
1.0
1001
ACAD
1000
MTEXTBEGIN
1070
    73
1070
     1
1070
    44
1040
1.0
1070
    74
1070
     0
1000
MTEXTEND
  0
POINT
  5
8336
330
8246
100
AcDbEntity
  8
DEFPOINTS
 62
     0
100
AcDbPoint
 10
4035.330576717923
 20
552.9626718054588
 30
0.0
  0
POINT
  5
8337
330
8246
100
AcDbEntity
  8
DEFPOINTS
 62
     0
100
AcDbPoint
 10
4067.337969896638
 20
657.1701269404647
 30
0.0
  0
POINT
  5
8338
330
8246
100
AcDbEntity
  8
DEFPOINTS
 62
     0
100
AcDbPoint
 10
4005.09816089878
 20
506.9099359383232
 30
0.0
  0
POINT
  5
8339
330
8246
100
AcDbEntity
  8
DEFPOINTS
 62
     0
100
AcDbPoint
 10
3854.837969896639
 20
657.1701269404643
 30
0.0
  0
POINT
  5
833A
330
8246
100
AcDbEntity
  8
DEFPOINTS
 62
     0
100
AcDbPoint
 10
3642.337969896639
 20
657.1701269404647
 30
0.0
  0
ENDBLK
  5
8251
330
8246
100
AcDbEntity
  8
0
100
AcDbBlockEnd
  0
BLOCK
  5
825C
330
8252
100
AcDbEntity
  8
0
100
AcDbBlockBegin
  2
*D8
 70
     1
 10
0.0
 20
0.0
 30
0.0
  3
*D8
  1

  0
LINE
  5
833B
330
8252
100
AcDbEntity
  8
SUNPOU
 62
     0
370
    -2
100
AcDbLine
 10
4034.08796989663
 20
699.6701269404647
 30
0.0
 11
4112.476878656119
 21
699.6701269404647
 31
0.0
  0
LINE
  5
833C
330
8252
100
AcDbEntity
  8
SUNPOU
 62
     0
370
    -2
100
AcDbLine
 10
4072.337969896638
 20
657.1701269404734
 30
0.0
 11
4112.476878656119
 21
657.1701269404734
 31
0.0
  0
LINE
  5
833D
330
8252
100
AcDbEntity
  8
SUNPOU
 62
     0
370
    -2
100
AcDbLine
 10
4107.476878656119
 20
692.1701269404648
 30
0.0
 11
4107.476878656119
 21
664.6701269404734
 31
0.0
  0
INSERT
  5
833E
330
8252
100
AcDbEntity
  8
SUNPOU
 62
     0
370
    -2
100
AcDbBlockReference
  2
ARROW
 10
4107.476878656119
 20
699.6701269404647
 30
0.0
 41
7.5
 42
7.5
 43
7.5
 50
90.0
  0
INSERT
  5
833F
330
8252
100
AcDbEntity
  8
SUNPOU
 62
     0
370
    -2
100
AcDbBlockReference
  2
ARROW
 10
4107.476878656119
 20
657.1701269404734
 30
0.0
 41
7.5
 42
7.5
 43
7.5
 50
270.0
  0
MTEXT
  5
8340
330
8252
100
AcDbEntity
  8
SUNPOU
 62
     0
100
AcDbMText
 10
4092.476878656118
 20
678.420126940469
 30
0.0
 40
15.0
 41
0.0
 71
     5
 72
     5
  1
\A1;50
 11
0.0
 21
1.0
 31
0.0
 73
     1
 44
1.0
1001
ACAD
1000
MTEXTBEGIN
1070
    73
1070
     1
1070
    44
1040
1.0
1070
    74
1070
     0
1000
MTEXTEND
  0
POINT
  5
8341
330
8252
100
AcDbEntity
  8
DEFPOINTS
 62
     0
100
AcDbPoint
 10
4029.087969896631
 20
699.6701269404647
 30
0.0
  0
POINT
  5
8342
330
8252
100
AcDbEntity
  8
DEFPOINTS
 62
     0
100
AcDbPoint
 10
4067.337969896638
 20
657.1701269404734
 30
0.0
  0
POINT
  5
8343
330
8252
100
AcDbEntity
  8
DEFPOINTS
 62
     0
100
AcDbPoint
 10
4107.476878656119
 20
657.1701269404734
 30
0.0
  0
ENDBLK
  5
825D
330
8252
100
AcDbEntity
  8
0
100
AcDbBlockEnd
  0
BLOCK
  5
8268
330
825E
100
AcDbEntity
  8
0
100
AcDbBlockBegin
  2
*D9
 70
     1
 10
0.0
 20
0.0
 30
0.0
  3
*D9
  1

  0
LINE
  5
8390
330
825E
100
AcDbEntity
  8
SUNPOU
 62
     0
370
    -2
100
AcDbLine
 10
4380.011016906586
 20
389.0154397371464
 30
0.0
 11
4380.011016906586
 21
484.1842937083036
 31
0.0
  0
LINE
  5
8391
330
825E
100
AcDbEntity
  8
SUNPOU
 62
     0
370
    -2
100
AcDbLine
 10
4142.011016906585
 20
82.16543973714612
 30
0.0
 11
4142.011016906585
 21
484.1842937083036
 31
0.0
  0
LINE
  5
8392
330
825E
100
AcDbEntity
  8
SUNPOU
 62
     0
370
    -2
100
AcDbLine
 10
4372.511016906585
 20
479.1842937083036
 30
0.0
 11
4149.511016906585
 21
479.1842937083036
 31
0.0
  0
INSERT
  5
8393
330
825E
100
AcDbEntity
  8
SUNPOU
 62
     0
370
    -2
100
AcDbBlockReference
  2
ARROW
 10
4380.011016906586
 20
479.1842937083036
 30
0.0
 41
7.5
 42
7.5
 43
7.5
  0
INSERT
  5
8394
330
825E
100
AcDbEntity
  8
SUNPOU
 62
     0
370
    -2
100
AcDbBlockReference
  2
ARROW
 10
4142.011016906585
 20
479.1842937083036
 30
0.0
 41
7.5
 42
7.5
 43
7.5
 50
180.0
  0
MTEXT
  5
8395
330
825E
100
AcDbEntity
  8
SUNPOU
 62
     0
100
AcDbMText
 10
4261.011016906585
 20
494.1842937083037
 30
0.0
 40
15.0
 41
0.0
 71
     5
 72
     5
  1
\A1;280
 73
     1
 44
1.0
1001
ACAD
1000
MTEXTBEGIN
1070
    73
1070
     1
1070
    44
1040
1.0
1070
    74
1070
     0
1000
MTEXTEND
  0
POINT
  5
8396
330
825E
100
AcDbEntity
  8
DEFPOINTS
 62
     0
100
AcDbPoint
 10
4380.011016906586
 20
384.0154397371464
 30
0.0
  0
POINT
  5
8397
330
825E
100
AcDbEntity
  8
DEFPOINTS
 62
     0
100
AcDbPoint
 10
4142.011016906585
 20
77.16543973714613
 30
0.0
  0
POINT
  5
8398
330
825E
100
AcDbEntity
  8
DEFPOINTS
 62
     0
100
AcDbPoint
 10
4142.011016906585
 20
479.1842937083036
 30
0.0
  0
ENDBLK
  5
8269
330
825E
100
AcDbEntity
  8
0
100
AcDbBlockEnd
  0
BLOCK
  5
8274
330
826A
100
AcDbEntity
  8
0
100
AcDbBlockBegin
  2
*D10
 70
     1
 10
0.0
 20
0.0
 30
0.0
  3
*D10
  1

  0
LINE
  5
84C9
330
826A
100
AcDbEntity
  8
SUNPOU
 62
     0
370
    -2
100
AcDbLine
 10
4548.211016906585
 20
-144.6845602628537
 30
0.0
 11
4620.866892030288
 21
-144.6845602628537
 31
0.0
  0
LINE
  5
84CA
330
826A
100
AcDbEntity
  8
SUNPOU
 62
     0
370
    -2
100
AcDbLine
 10
4478.511016906586
 20
384.0154397371464
 30
0.0
 11
4620.866892030288
 21
384.0154397371464
 31
0.0
  0
LINE
  5
84CB
330
826A
100
AcDbEntity
  8
SUNPOU
 62
     0
370
    -2
100
AcDbLine
 10
4615.866892030288
 20
-137.1845602628536
 30
0.0
 11
4615.866892030288
 21
376.5154397371464
 31
0.0
  0
INSERT
  5
84CC
330
826A
100
AcDbEntity
  8
SUNPOU
 62
     0
370
    -2
100
AcDbBlockReference
  2
ARROW
 10
4615.866892030288
 20
-144.6845602628537
 30
0.0
 41
7.5
 42
7.5
 43
7.5
 50
270.0
  0
INSERT
  5
84CD
330
826A
100
AcDbEntity
  8
SUNPOU
 62
     0
370
    -2
100
AcDbBlockReference
  2
ARROW
 10
4615.866892030288
 20
384.0154397371464
 30
0.0
 41
7.5
 42
7.5
 43
7.5
 50
90.0
  0
MTEXT
  5
84CE
330
826A
100
AcDbEntity
  8
SUNPOU
 62
     0
100
AcDbMText
 10
4600.866892030288
 20
119.6654397371463
 30
0.0
 40
15.0
 41
0.0
 71
     5
 72
     5
  1
\A1;622
 11
0.0
 21
1.0
 31
0.0
 73
     1
 44
1.0
1001
ACAD
1000
MTEXTBEGIN
1070
    73
1070
     1
1070
    44
1040
1.0
1070
    74
1070
     0
1000
MTEXTEND
  0
POINT
  5
84CF
330
826A
100
AcDbEntity
  8
DEFPOINTS
 62
     0
100
AcDbPoint
 10
4543.211016906585
 20
-144.6845602628537
 30
0.0
  0
POINT
  5
84D0
330
826A
100
AcDbEntity
  8
DEFPOINTS
 62
     0
100
AcDbPoint
 10
4473.511016906585
 20
384.0154397371464
 30
0.0
  0
POINT
  5
84D1
330
826A
100
AcDbEntity
  8
DEFPOINTS
 62
     0
100
AcDbPoint
 10
4615.866892030288
 20
384.0154397371464
 30
0.0
  0
ENDBLK
  5
8275
330
826A
100
AcDbEntity
  8
0
100
AcDbBlockEnd
  0
BLOCK
  5
8280
330
8276
100
AcDbEntity
  8
0
100
AcDbBlockBegin
  2
*D11
 70
     1
 10
0.0
 20
0.0
 30
0.0
  3
*D11
  1

  0
LINE
  5
84C0
330
8276
100
AcDbEntity
  8
SUNPOU
 62
     0
370
    -2
100
AcDbLine
 10
4491.0147461687
 20
358.5154397371463
 30
0.0
 11
4590.254824458181
 21
358.5154397371463
 31
0.0
  0
LINE
  5
84C1
330
8276
100
AcDbEntity
  8
SUNPOU
 62
     0
370
    -2
100
AcDbLine
 10
4548.211016906585
 20
-144.6845602628537
 30
0.0
 11
4590.254824458181
 21
-144.6845602628537
 31
0.0
  0
LINE
  5
84C2
330
8276
100
AcDbEntity
  8
SUNPOU
 62
     0
370
    -2
100
AcDbLine
 10
4585.254824458181
 20
351.0154397371463
 30
0.0
 11
4585.254824458181
 21
-137.1845602628536
 31
0.0
  0
INSERT
  5
84C3
330
8276
100
AcDbEntity
  8
SUNPOU
 62
     0
370
    -2
100
AcDbBlockReference
  2
ARROW
 10
4585.254824458181
 20
358.5154397371463
 30
0.0
 41
7.5
 42
7.5
 43
7.5
 50
90.0
  0
INSERT
  5
84C4
330
8276
100
AcDbEntity
  8
SUNPOU
 62
     0
370
    -2
100
AcDbBlockReference
  2
ARROW
 10
4585.254824458181
 20
-144.6845602628537
 30
0.0
 41
7.5
 42
7.5
 43
7.5
 50
270.0
  0
MTEXT
  5
84C5
330
8276
100
AcDbEntity
  8
SUNPOU
 62
     0
100
AcDbMText
 10
4570.254824458181
 20
106.9154397371463
 30
0.0
 40
15.0
 41
0.0
 71
     5
 72
     5
  1
\A1;592
 11
0.0
 21
1.0
 31
0.0
 73
     1
 44
1.0
1001
ACAD
1000
MTEXTBEGIN
1070
    73
1070
     1
1070
    44
1040
1.0
1070
    74
1070
     0
1000
MTEXTEND
  0
POINT
  5
84C6
330
8276
100
AcDbEntity
  8
DEFPOINTS
 62
     0
100
AcDbPoint
 10
4486.014746168701
 20
358.5154397371463
 30
0.0
  0
POINT
  5
84C7
330
8276
100
AcDbEntity
  8
DEFPOINTS
 62
     0
100
AcDbPoint
 10
4543.211016906585
 20
-144.6845602628537
 30
0.0
  0
POINT
  5
84C8
330
8276
100
AcDbEntity
  8
DEFPOINTS
 62
     0
100
AcDbPoint
 10
4585.254824458181
 20
-144.6845602628537
 30
0.0
  0
ENDBLK
  5
8281
330
8276
100
AcDbEntity
  8
0
100
AcDbBlockEnd
  0
BLOCK
  5
828E
330
8282
100
AcDbEntity
  8
0
100
AcDbBlockBegin
  2
*D12
 70
     1
 10
0.0
 20
0.0
 30
0.0
  3
*D12
  1

  0
LINE
  5
849A
330
8282
100
AcDbEntity
  8
SUNPOU
 62
     0
370
    -2
100
AcDbLine
 10
4521.211016906585
 20
-127.6845602628536
 30
0.0
 11
4473.23522362394
 21
-127.6845602628536
 31
0.0
  0
LINE
  5
849B
330
8282
100
AcDbEntity
  8
SUNPOU
 62
     0
370
    -2
100
AcDbLine
 10
4521.211016906585
 20
-144.6845602628537
 30
0.0
 11
4473.23522362394
 21
-144.6845602628537
 31
0.0
  0
LINE
  5
849C
330
8282
100
AcDbEntity
  8
SUNPOU
 62
     0
370
    -2
100
AcDbLine
 10
4478.23522362394
 20
-152.1845602628537
 30
0.0
 11
4478.23522362394
 21
-198.9702745485683
 31
0.0
  0
LINE
  5
849D
330
8282
100
AcDbEntity
  8
SUNPOU
 62
     0
370
    -2
100
AcDbLine
 10
4478.23522362394
 20
-127.6845602628536
 30
0.0
 11
4478.23522362394
 21
-144.6845602628537
 31
0.0
  0
LINE
  5
849E
330
8282
100
AcDbEntity
  8
SUNPOU
 62
     0
370
    -2
100
AcDbLine
 10
4478.23522362394
 20
-120.1845602628536
 30
0.0
 11
4478.23522362394
 21
-112.6845602628536
 31
0.0
  0
INSERT
  5
849F
330
8282
100
AcDbEntity
  8
SUNPOU
 62
     0
370
    -2
100
AcDbBlockReference
  2
ARROW
 10
4478.23522362394
 20
-127.6845602628536
 30
0.0
 41
7.5
 42
7.5
 43
7.5
 50
270.0
  0
INSERT
  5
84A0
330
8282
100
AcDbEntity
  8
SUNPOU
 62
     0
370
    -2
100
AcDbBlockReference
  2
ARROW
 10
4478.23522362394
 20
-144.6845602628537
 30
0.0
 41
7.5
 42
7.5
 43
7.5
 50
90.0
  0
MTEXT
  5
84A1
330
8282
100
AcDbEntity
  8
SUNPOU
 62
     0
100
AcDbMText
 10
4463.23522362394
 20
-179.327417405711
 30
0.0
 40
15.0
 41
0.0
 71
     5
 72
     5
  1
\A1;20
 11
0.0
 21
1.0
 31
0.0
 73
     1
 44
1.0
1001
ACAD
1000
MTEXTBEGIN
1070
    73
1070
     1
1070
    44
1040
1.0
1070
    74
1070
     0
1000
MTEXTEND
  0
POINT
  5
84A2
330
8282
100
AcDbEntity
  8
DEFPOINTS
 62
     0
100
AcDbPoint
 10
4526.211016906585
 20
-127.6845602628536
 30
0.0
  0
POINT
  5
84A3
330
8282
100
AcDbEntity
  8
DEFPOINTS
 62
     0
100
AcDbPoint
 10
4526.211016906585
 20
-144.6845602628537
 30
0.0
  0
POINT
  5
84A4
330
8282
100
AcDbEntity
  8
DEFPOINTS
 62
     0
100
AcDbPoint
 10
4478.23522362394
 20
-144.6845602628537
 30
0.0
  0
ENDBLK
  5
828F
330
8282
100
AcDbEntity
  8
0
100
AcDbBlockEnd
  0
BLOCK
  5
829A
330
8290
100
AcDbEntity
  8
0
100
AcDbBlockBegin
  2
*D13
 70
     1
 10
0.0
 20
0.0
 30
0.0
  3
*D13
  1

  0
LINE
  5
83B6
330
8290
100
AcDbEntity
  8
SUNPOU
 62
     0
370
    -2
100
AcDbLine
 10
4207.561016906586
 20
16.81543973714633
 30
0.0
 11
4167.384010891065
 21
16.81543973714633
 31
0.0
  0
LINE
  5
83B7
330
8290
100
AcDbEntity
  8
SUNPOU
 62
     0
370
    -2
100
AcDbLine
 10
4211.811016906586
 20
-144.6845602628537
 30
0.0
 11
4167.384010891065
 21
-144.6845602628537
 31
0.0
  0
LINE
  5
83B8
330
8290
100
AcDbEntity
  8
SUNPOU
 62
     0
370
    -2
100
AcDbLine
 10
4172.384010891064
 20
9.315439737146338
 30
0.0
 11
4172.384010891064
 21
-137.1845602628536
 31
0.0
  0
INSERT
  5
83B9
330
8290
100
AcDbEntity
  8
SUNPOU
 62
     0
370
    -2
100
AcDbBlockReference
  2
ARROW
 10
4172.384010891064
 20
16.81543973714633
 30
0.0
 41
7.5
 42
7.5
 43
7.5
 50
90.0
  0
INSERT
  5
83BA
330
8290
100
AcDbEntity
  8
SUNPOU
 62
     0
370
    -2
100
AcDbBlockReference
  2
ARROW
 10
4172.384010891064
 20
-144.6845602628537
 30
0.0
 41
7.5
 42
7.5
 43
7.5
 50
270.0
  0
MTEXT
  5
83BB
330
8290
100
AcDbEntity
  8
SUNPOU
 62
     0
100
AcDbMText
 10
4157.384010891064
 20
-63.93456026285367
 30
0.0
 40
15.0
 41
0.0
 71
     5
 72
     5
  1
\A1;190
 11
0.0
 21
1.0
 31
0.0
 73
     1
 44
1.0
1001
ACAD
1000
MTEXTBEGIN
1070
    73
1070
     1
1070
    44
1040
1.0
1070
    74
1070
     0
1000
MTEXTEND
  0
POINT
  5
83BC
330
8290
100
AcDbEntity
  8
DEFPOINTS
 62
     0
100
AcDbPoint
 10
4212.561016906586
 20
16.81543973714633
 30
0.0
  0
POINT
  5
83BD
330
8290
100
AcDbEntity
  8
DEFPOINTS
 62
     0
100
AcDbPoint
 10
4216.811016906586
 20
-144.6845602628537
 30
0.0
  0
POINT
  5
83BE
330
8290
100
AcDbEntity
  8
DEFPOINTS
 62
     0
100
AcDbPoint
 10
4172.384010891064
 20
-144.6845602628537
 30
0.0
  0
ENDBLK
  5
829B
330
8290
100
AcDbEntity
  8
0
100
AcDbBlockEnd
  0
BLOCK
  5
82A6
330
829C
100
AcDbEntity
  8
0
100
AcDbBlockBegin
  2
*D14
 70
     1
 10
0.0
 20
0.0
 30
0.0
  3
*D14
  1

  0
LINE
  5
84A5
330
829C
100
AcDbEntity
  8
SUNPOU
 62
     0
370
    -2
100
AcDbLine
 10
4547.461016906585
 20
-132.6845602628536
 30
0.0
 11
4547.461016906585
 21
-223.0984112174383
 31
0.0
  0
LINE
  5
84A6
330
829C
100
AcDbEntity
  8
SUNPOU
 62
     0
370
    -2
100
AcDbLine
 10
4212.561016906586
 20
-132.6845602628536
 30
0.0
 11
4212.561016906586
 21
-223.0984112174383
 31
0.0
  0
LINE
  5
84A7
330
829C
100
AcDbEntity
  8
SUNPOU
 62
     0
370
    -2
100
AcDbLine
 10
4539.961016906585
 20
-218.0984112174383
 30
0.0
 11
4220.061016906586
 21
-218.0984112174383
 31
0.0
  0
INSERT
  5
84A8
330
829C
100
AcDbEntity
  8
SUNPOU
 62
     0
370
    -2
100
AcDbBlockReference
  2
ARROW
 10
4547.461016906585
 20
-218.0984112174383
 30
0.0
 41
7.5
 42
7.5
 43
7.5
  0
INSERT
  5
84A9
330
829C
100
AcDbEntity
  8
SUNPOU
 62
     0
370
    -2
100
AcDbBlockReference
  2
ARROW
 10
4212.561016906586
 20
-218.0984112174383
 30
0.0
 41
7.5
 42
7.5
 43
7.5
 50
180.0
  0
MTEXT
  5
84AA
330
829C
100
AcDbEntity
  8
SUNPOU
 62
     0
100
AcDbMText
 10
4380.011016906586
 20
-203.0984112174383
 30
0.0
 40
15.0
 41
0.0
 71
     5
 72
     5
  1
\A1;394
 73
     1
 44
1.0
1001
ACAD
1000
MTEXTBEGIN
1070
    73
1070
     1
1070
    44
1040
1.0
1070
    74
1070
     0
1000
MTEXTEND
  0
POINT
  5
84AB
330
829C
100
AcDbEntity
  8
DEFPOINTS
 62
     0
100
AcDbPoint
 10
4547.461016906585
 20
-127.6845602628536
 30
0.0
  0
POINT
  5
84AC
330
829C
100
AcDbEntity
  8
DEFPOINTS
 62
     0
100
AcDbPoint
 10
4212.561016906586
 20
-127.6845602628536
 30
0.0
  0
POINT
  5
84AD
330
829C
100
AcDbEntity
  8
DEFPOINTS
 62
     0
100
AcDbPoint
 10
4212.561016906586
 20
-218.0984112174383
 30
0.0
  0
ENDBLK
  5
82A7
330
829C
100
AcDbEntity
  8
0
100
AcDbBlockEnd
  0
BLOCK
  5
82B2
330
82A8
100
AcDbEntity
  8
0
100
AcDbBlockBegin
  2
*D15
 70
     1
 10
0.0
 20
0.0
 30
0.0
  3
*D15
  1

  0
LINE
  5
84D2
330
82A8
100
AcDbEntity
  8
SUNPOU
 62
     0
370
    -2
100
AcDbLine
 10
4554.261016906585
 20
343.5404397371462
 30
0.0
 11
4554.261016906585
 21
440.1693714442027
 31
0.0
  0
LINE
  5
84D3
330
82A8
100
AcDbEntity
  8
SUNPOU
 62
     0
370
    -2
100
AcDbLine
 10
4205.761016906586
 20
343.5404397371462
 30
0.0
 11
4205.761016906586
 21
440.1693714442027
 31
0.0
  0
LINE
  5
84D4
330
82A8
100
AcDbEntity
  8
SUNPOU
 62
     0
370
    -2
100
AcDbLine
 10
4546.761016906585
 20
435.1693714442027
 30
0.0
 11
4213.261016906585
 21
435.1693714442027
 31
0.0
  0
INSERT
  5
84D5
330
82A8
100
AcDbEntity
  8
SUNPOU
 62
     0
370
    -2
100
AcDbBlockReference
  2
ARROW
 10
4554.261016906585
 20
435.1693714442027
 30
0.0
 41
7.5
 42
7.5
 43
7.5
  0
INSERT
  5
84D6
330
82A8
100
AcDbEntity
  8
SUNPOU
 62
     0
370
    -2
100
AcDbBlockReference
  2
ARROW
 10
4205.761016906586
 20
435.1693714442027
 30
0.0
 41
7.5
 42
7.5
 43
7.5
 50
180.0
  0
MTEXT
  5
84D7
330
82A8
100
AcDbEntity
  8
SUNPOU
 62
     0
100
AcDbMText
 10
4405.180367757943
 20
450.1693714442027
 30
0.0
 40
15.0
 41
0.0
 71
     5
 72
     5
  1
\A1;410
 73
     1
 44
1.0
1001
ACAD
1000
MTEXTBEGIN
1070
    73
1070
     1
1070
    44
1040
1.0
1070
    74
1070
     0
1000
MTEXTEND
  0
POINT
  5
84D8
330
82A8
100
AcDbEntity
  8
DEFPOINTS
 62
     0
100
AcDbPoint
 10
4554.261016906585
 20
338.5404397371463
 30
0.0
  0
POINT
  5
84D9
330
82A8
100
AcDbEntity
  8
DEFPOINTS
 62
     0
100
AcDbPoint
 10
4205.761016906586
 20
338.5404397371463
 30
0.0
  0
POINT
  5
84DA
330
82A8
100
AcDbEntity
  8
DEFPOINTS
 62
     0
100
AcDbPoint
 10
4205.761016906586
 20
435.1693714442027
 30
0.0
  0
ENDBLK
  5
82B3
330
82A8
100
AcDbEntity
  8
0
100
AcDbBlockEnd
  0
BLOCK
  5
82C0
330
82B4
100
AcDbEntity
  8
0
100
AcDbBlockBegin
  2
*D16
 70
     1
 10
0.0
 20
0.0
 30
0.0
  3
*D16
  1

  0
LINE
  5
83D1
330
82B4
100
AcDbEntity
  8
SUNPOU
 62
     0
370
    -2
100
AcDbLine
 10
4487.011016906586
 20
365.3154397371464
 30
0.0
 11
4496.735550307025
 21
365.3154397371464
 31
0.0
  0
LINE
  5
83D2
330
82B4
100
AcDbEntity
  8
SUNPOU
 62
     0
370
    -2
100
AcDbLine
 10
4487.011016906586
 20
351.7154397371462
 30
0.0
 11
4496.735550307025
 21
351.7154397371462
 31
0.0
  0
LINE
  5
83D3
330
82B4
100
AcDbEntity
  8
SUNPOU
 62
     0
370
    -2
100
AcDbLine
 10
4491.735550307025
 20
372.8154397371465
 30
0.0
 11
4491.735550307025
 21
429.6011540228611
 31
0.0
  0
LINE
  5
83D4
330
82B4
100
AcDbEntity
  8
SUNPOU
 62
     0
370
    -2
100
AcDbLine
 10
4491.735550307025
 20
365.3154397371464
 30
0.0
 11
4491.735550307025
 21
351.7154397371462
 31
0.0
  0
LINE
  5
83D5
330
82B4
100
AcDbEntity
  8
SUNPOU
 62
     0
370
    -2
100
AcDbLine
 10
4491.735550307025
 20
344.2154397371462
 30
0.0
 11
4491.735550307025
 21
336.7154397371462
 31
0.0
  0
INSERT
  5
83D6
330
82B4
100
AcDbEntity
  8
SUNPOU
 62
     0
370
    -2
100
AcDbBlockReference
  2
ARROW
 10
4491.735550307025
 20
365.3154397371464
 30
0.0
 41
7.5
 42
7.5
 43
7.5
 50
270.0
  0
INSERT
  5
83D7
330
82B4
100
AcDbEntity
  8
SUNPOU
 62
     0
370
    -2
100
AcDbBlockReference
  2
ARROW
 10
4491.735550307025
 20
351.7154397371462
 30
0.0
 41
7.5
 42
7.5
 43
7.5
 50
90.0
  0
MTEXT
  5
83D8
330
82B4
100
AcDbEntity
  8
SUNPOU
 62
     0
100
AcDbMText
 10
4476.735550307025
 20
404.9582968800037
 30
0.0
 40
15.0
 41
0.0
 71
     5
 72
     5
  1
\A1;%%c16
 11
0.0
 21
1.0
 31
0.0
 73
     1
 44
1.0
1001
ACAD
1000
MTEXTBEGIN
1070
    73
1070
     1
1070
    44
1040
1.0
1070
    74
1070
     0
1000
MTEXTEND
  0
POINT
  5
83D9
330
82B4
100
AcDbEntity
  8
DEFPOINTS
 62
     0
100
AcDbPoint
 10
4482.011016906585
 20
365.3154397371464
 30
0.0
  0
POINT
  5
83DA
330
82B4
100
AcDbEntity
  8
DEFPOINTS
 62
     0
100
AcDbPoint
 10
4482.011016906585
 20
351.7154397371462
 30
0.0
  0
POINT
  5
83DB
330
82B4
100
AcDbEntity
  8
DEFPOINTS
 62
     0
100
AcDbPoint
 10
4491.735550307025
 20
351.7154397371462
 30
0.0
  0
ENDBLK
  5
82C1
330
82B4
100
AcDbEntity
  8
0
100
AcDbBlockEnd
  0
ENDSEC
  0
SECTION
  2
ENTITIES
  0
MTEXT
  5
67D
330
DF
100
AcDbEntity
  8
SUNPOU
100
AcDbMText
 10
5227.136216033687
 20
-13932.05408441242
 30
0.0
 40
6.0
 41
0.0
 71
     6
 72
     1
  1
\A1;
 73
     1
 44
1.0
1001
ACAD
1000
MTEXTBEGIN
1070
    73
1070
     1
1070
    44
1040
1.0
1070
    74
1070
     0
1000
MTEXTEND
  0
LINE
  5
7E71
330
DF
100
AcDbEntity
  8
WAKU
 62
     3
100
AcDbLine
 10
5469.820747188354
 20
912.9410265678425
 30
0.0
 11
5469.820747188354
 21
-402.0589734321574
 31
0.0
  0
LINE
  5
7E72
330
DF
100
AcDbEntity
  8
WAKU
 62
     3
100
AcDbLine
 10
3564.820747188355
 20
-402.0589734321574
 30
0.0
 11
3564.820747188355
 21
912.9410265678425
 31
0.0
  0
LINE
  5
7E73
330
DF
100
AcDbEntity
  8
WAKU
 62
     3
100
AcDbLine
 10
4963.002747188353
 20
-249.0312071625996
 30
0.0
 11
4583.002747188353
 21
-249.0312071625996
 31
0.0
  0
LINE
  5
7E74
330
DF
100
AcDbEntity
  8
WAKU
 62
     3
100
AcDbLine
 10
4583.002747188353
 20
-187.716384675638
 30
0.0
 11
4963.002747188353
 21
-187.716384675638
 31
0.0
  0
LINE
  5
7E75
330
DF
100
AcDbEntity
  8
WAKU
 62
     3
100
AcDbLine
 10
4963.002747188353
 20
-218.3737959191191
 30
0.0
 11
4583.002747188353
 21
-218.3737959191191
 31
0.0
  0
LINE
  5
7E76
330
DF
100
AcDbEntity
  8
WAKU
 62
     3
100
AcDbLine
 10
4583.002747188353
 20
-278.6441513814028
 30
0.0
 11
4715.316348219168
 21
-278.6441513814028
 31
0.0
  0
LINE
  5
7E77
330
DF
100
AcDbEntity
  8
WAKU
 62
     3
100
AcDbLine
 10
4583.002747188353
 20
-307.6888106951904
 30
0.0
 11
4715.316348219168
 21
-307.6888106951904
 31
0.0
  0
TEXT
  5
7E78
330
DF
100
AcDbEntity
  8
WAKU
 62
     3
100
AcDbText
 10
4592.102747188353
 20
-299.4274634922454
 30
0.0
 40
15.0
  1
(標準外ﾊ指定ﾉｺﾄ)
 41
0.8
  7
K
 72
     4
 11
4650.502747188353
 21
-292.9988920636739
 31
0.0
100
AcDbText
  0
TEXT
  5
7E79
330
DF
100
AcDbEntity
  8
WAKU
 62
     3
100
AcDbText
 10
4590.554396121182
 20
-263.8413346217385
 30
0.0
 40
12.0
  1
標準加工アラサ
  7
K
 72
     4
 11
4638.554396121182
 21
-257.8413346217385
 31
0.0
100
AcDbText
  0
LINE
  5
7E7A
330
DF
100
AcDbEntity
  8
WAKU
 62
     3
100
AcDbLine
 10
5469.820747188354
 20
-157.0589734321574
 30
0.0
 11
4583.002747188351
 21
-157.0589734321574
 31
0.0
  0
LINE
  5
7E7B
330
DF
100
AcDbEntity
  8
WAKU
 62
     3
100
AcDbLine
 10
5469.820747188354
 20
-402.0589734321574
 30
0.0
 11
3564.820747188355
 21
-402.0589734321574
 31
0.0
  0
LINE
  5
7E95
330
DF
100
AcDbEntity
  8
WAKU
 62
     3
100
AcDbLine
 10
4583.002747188351
 20
-157.0589734321574
 30
0.0
 11
4583.002747188351
 21
-402.0589734321574
 31
0.0
  0
TEXT
  5
7E9B
330
DF
100
AcDbEntity
  8
WAKU
 62
     3
100
AcDbText
 10
4590.502747188353
 20
-397.6219571584607
 30
0.0
 40
10.0
  1
～
  7
K
 11
4590.502747188353
 21
-392.6219571584607
 31
0.0
100
AcDbText
 73
     2
  0
TEXT
  5
7EA0
330
DF
100
AcDbEntity
  8
WAKU
 62
     3
100
AcDbText
 10
4590.445012271215
 20
-276.0141389092896
 30
0.0
 40
6.0
  1
ROUGHNESS
  7
K
100
AcDbText
  0
TEXT
  5
7EA1
330
DF
100
AcDbEntity
  8
WAKU
 62
     3
100
AcDbText
 10
4590.502747188353
 20
-378.7479246110674
 30
0.0
 40
10.0
  1
▽
  7
K
 11
4590.502747188353
 21
-373.7479246110674
 31
0.0
100
AcDbText
 73
     2
  0
TEXT
  5
7EA2
330
DF
100
AcDbEntity
  8
WAKU
 62
     3
100
AcDbText
 10
4590.502747188353
 20
-359.8738920636739
 30
0.0
 40
10.0
  1
▽▽
  7
K
 11
4590.502747188353
 21
-354.8738920636739
 31
0.0
100
AcDbText
 73
     2
  0
TEXT
  5
7EA3
330
DF
100
AcDbEntity
  8
WAKU
 62
     3
100
AcDbText
 10
4590.502747188353
 20
-340.9998595162804
 30
0.0
 40
10.0
  1
▽▽▽
  7
K
 11
4590.502747188353
 21
-335.9998595162803
 31
0.0
100
AcDbText
 73
     2
  0
TEXT
  5
7EA4
330
DF
100
AcDbEntity
  8
WAKU
 62
     3
100
AcDbText
 10
4590.502747188353
 20
-322.1258269688871
 30
0.0
 40
10.0
  1
▽▽▽▽
  7
K
 11
4590.502747188353
 21
-317.1258269688871
 31
0.0
100
AcDbText
 73
     2
  0
TEXT
  5
7EA5
330
DF
100
AcDbEntity
  8
WAKU
 62
     3
100
AcDbText
 10
4600.171516249662
 20
-216.0020038060716
 30
0.0
 40
6.0
  1
COLOR
  7
K
100
AcDbText
  0
TEXT
  5
7EA6
330
DF
100
AcDbEntity
  8
WAKU
 62
     3
100
AcDbText
 10
4598.401115247145
 20
-203.6468079949139
 30
0.0
 40
12.0
  1
色調
  7
K
 11
4598.401115247145
 21
-197.6468079949139
 31
0.0
100
AcDbText
 73
     2
  0
TEXT
  5
7EA7
330
DF
100
AcDbEntity
  8
WAKU
 62
     3
100
AcDbText
 10
4598.962563163904
 20
-172.1191849851868
 30
0.0
 40
12.0
  1
表面処理
  7
K
 11
4598.962563163904
 21
-166.1191849851868
 31
0.0
100
AcDbText
 73
     2
  0
TEXT
  5
7EA8
330
DF
100
AcDbEntity
  8
WAKU
 62
     3
100
AcDbText
 10
4599.262296393848
 20
-184.5722369237253
 30
0.0
 40
6.0
  1
FINISH
  7
K
100
AcDbText
  0
LINE
  5
7EAA
330
DF
100
AcDbEntity
  8
WAKU
 62
     3
100
AcDbLine
 10
5294.820747188354
 20
-197.0589734321574
 30
0.0
 11
5469.820747188354
 21
-197.0589734321574
 31
0.0
  0
TEXT
  5
7EAB
330
DF
100
AcDbEntity
  8
WAKU
 62
     3
100
AcDbText
 10
5218.911221548775
 20
-369.361866462805
 30
0.0
 40
17.5
  1
中部コーポレーション
  7
K
100
AcDbText
  0
LINE
  5
7EAC
330
DF
100
AcDbEntity
  8
WAKU
 62
     3
100
AcDbLine
 10
4963.002747188353
 20
-237.0589734321575
 30
0.0
 11
5469.820747188354
 21
-237.0589734321575
 31
0.0
  0
LINE
  5
7EAD
330
DF
100
AcDbEntity
  8
WAKU
 62
     3
100
AcDbLine
 10
5148.002747188353
 20
-347.0589734321575
 30
0.0
 11
5469.820747188354
 21
-347.0589734321575
 31
0.0
  0
LINE
  5
7EAE
330
DF
100
AcDbEntity
  8
WAKU
 62
     3
100
AcDbLine
 10
5469.820747188354
 20
-272.0589734321575
 30
0.0
 11
5148.002747188353
 21
-272.0589734321575
 31
0.0
  0
MTEXT
  5
7EAF
330
DF
100
AcDbEntity
  8
WAKU
 62
     3
100
AcDbMText
 10
5169.071498569265
 20
-381.6310791523349
 30
0.0
 40
12.5
 41
285.042
 71
     1
 72
     5
  1
CHUBU CORPORATION
  7
K
 73
     1
 44
1.0
1001
ACAD
1000
MTEXTBEGIN
1070
    73
1070
     1
1070
    44
1040
1.0
1070
    74
1070
     0
1000
MTEXTEND
  0
TEXT
  5
7EB0
330
DF
100
AcDbEntity
  8
WAKU
 62
     3
100
AcDbText
 10
4935.502747188353
 20
-397.3784186986176
 30
0.0
 40
10.0
  1
3
 41
0.8
  7
K
 11
4935.502747188353
 21
-392.3784186986176
 31
0.0
100
AcDbText
 73
     2
  0
TEXT
  5
7EB1
330
DF
100
AcDbEntity
  8
WAKU
 62
     3
100
AcDbText
 10
4965.329728324161
 20
-391.8220649233964
 30
0.0
 40
5.400000000000001
  1
APPROVED
  7
K
100
AcDbText
  0
TEXT
  5
7EB2
330
DF
100
AcDbEntity
  8
WAKU
 62
     3
100
AcDbText
 10
4808.538313368437
 20
-397.3784186986176
 30
0.0
 40
10.0
  1
2000以下
 41
0.8
  7
K
 72
     2
 11
4856.081170511294
 21
-392.3784186986176
 31
0.0
100
AcDbText
 73
     2
  0
TEXT
  5
7EB3
330
DF
100
AcDbEntity
  8
WAKU
 62
     3
100
AcDbText
 10
4865.502747188354
 20
-397.3784186986176
 30
0.0
 40
10.0
  1
0.5
 41
0.8
  7
K
 11
4865.502747188354
 21
-392.3784186986176
 31
0.0
100
AcDbText
 73
     2
  0
TEXT
  5
7EB4
330
DF
100
AcDbEntity
  8
WAKU
 62
     3
100
AcDbText
 10
4900.502747188353
 20
-397.3784186986176
 30
0.0
 40
10.0
  1
1.2
 41
0.8
  7
K
 11
4900.502747188353
 21
-392.3784186986176
 31
0.0
100
AcDbText
 73
     2
  0
TEXT
  5
7EB5
330
DF
100
AcDbEntity
  8
WAKU
 62
     3
100
AcDbText
 10
4759.625017737238
 20
-397.3784186986176
 30
0.0
 40
10.0
  1
1000ｦｺｴ
 41
0.8
  7
K
 72
     2
 11
4802.901208213429
 21
-392.3784186986176
 31
0.0
100
AcDbText
 73
     2
  0
LINE
  5
7EB6
330
DF
100
AcDbEntity
  8
WAKU
 62
     3
100
AcDbLine
 10
4893.002747188353
 20
-402.0589734321574
 30
0.0
 11
4893.002747188353
 21
-249.0312071625996
 31
0.0
  0
LINE
  5
7EB7
330
DF
100
AcDbEntity
  8
WAKU
 62
     3
100
AcDbLine
 10
4928.002747188354
 20
-249.0312071625996
 30
0.0
 11
4928.002747188354
 21
-402.0589734321574
 31
0.0
  0
LINE
  5
7EB8
330
DF
100
AcDbEntity
  8
WAKU
 62
     3
100
AcDbLine
 10
4858.002747188353
 20
-249.0312071625996
 30
0.0
 11
4858.002747188353
 21
-402.0589734321574
 31
0.0
  0
LINE
  5
7EB9
330
DF
100
AcDbEntity
  8
WAKU
 62
     3
100
AcDbLine
 10
4715.316348219168
 20
-249.0312071625996
 30
0.0
 11
4715.316348219168
 21
-402.0589734321574
 31
0.0
  0
LINE
  5
7EBA
330
DF
100
AcDbEntity
  8
WAKU
 62
     3
100
AcDbLine
 10
4760.362789427437
 20
-249.0312071625996
 30
0.0
 11
4760.362789427437
 21
-402.0589734321574
 31
0.0
  0
LINE
  5
7EBB
330
DF
100
AcDbEntity
  8
WAKU
 62
     3
100
AcDbLine
 10
5148.002747188353
 20
-402.0589734321574
 30
0.0
 11
5148.002747188353
 21
-237.0589734321575
 31
0.0
  0
LINE
  5
7EBC
330
DF
100
AcDbEntity
  8
WAKU
 62
     3
100
AcDbLine
 10
5068.002747188353
 20
-237.0589734321575
 30
0.0
 11
5068.002747188353
 21
-402.0589734321574
 31
0.0
  0
LINE
  5
7EBD
330
DF
100
AcDbEntity
  8
WAKU
 62
     3
100
AcDbLine
 10
4963.002747188353
 20
-402.0589734321574
 30
0.0
 11
4963.002747188353
 21
-157.0589734321574
 31
0.0
  0
LINE
  5
7EBE
330
DF
100
AcDbEntity
  8
WAKU
 62
     3
100
AcDbLine
 10
5008.002747188353
 20
-237.0589734321575
 30
0.0
 11
5008.002747188353
 21
-402.0589734321574
 31
0.0
  0
TEXT
  5
7EBF
330
DF
100
AcDbEntity
  8
WAKU
 62
     3
100
AcDbText
 10
4964.962542858286
 20
-399.4175469756348
 30
0.0
 40
5.400000000000001
  1
BY
  7
K
100
AcDbText
  0
LINE
  5
7EC2
330
DF
100
AcDbEntity
  8
WAKU
 62
     3
100
AcDbLine
 10
4963.002747188353
 20
-319.5589734321575
 30
0.0
 11
5148.002747188353
 21
-319.5589734321575
 31
0.0
  0
LINE
  5
7EC3
330
DF
100
AcDbEntity
  8
WAKU
 62
     3
100
AcDbLine
 10
5148.002747188353
 20
-278.3089734321575
 30
0.0
 11
4963.002747188353
 21
-278.3089734321575
 31
0.0
  0
LINE
  5
7EC4
330
DF
100
AcDbEntity
  8
WAKU
 62
     3
100
AcDbLine
 10
5148.002747188353
 20
-360.8089734321575
 30
0.0
 11
4963.002747188353
 21
-360.8089734321575
 31
0.0
  0
TEXT
  5
7EC5
330
DF
100
AcDbEntity
  8
WAKU
 62
     3
100
AcDbText
 10
4964.118893061917
 20
-276.3020895544835
 30
0.0
 40
6.0
  1
BY
  7
K
100
AcDbText
  0
TEXT
  5
7EC6
330
DF
100
AcDbEntity
  8
WAKU
 62
     3
100
AcDbText
 10
4828.653508398322
 20
-281.2117618961394
 30
0.0
 40
10.0
  1
3以下
 41
0.8
  7
K
 72
     2
 11
4853.339222684037
 21
-276.2117618961394
 31
0.0
100
AcDbText
 73
     2
  0
TEXT
  5
7EC7
330
DF
100
AcDbEntity
  8
WAKU
 62
     3
100
AcDbText
 10
4865.502747188354
 20
-281.2117618961394
 30
0.0
 40
10.0
  1
0.05
 41
0.8
  7
K
 11
4865.502747188354
 21
-276.2117618961394
 31
0.0
100
AcDbText
 73
     2
  0
TEXT
  5
7EC8
330
DF
100
AcDbEntity
  8
WAKU
 62
     3
100
AcDbText
 10
4900.502747188353
 20
-281.2117618961394
 30
0.0
 40
10.0
  1
0.1
 41
0.8
  7
K
 11
4900.502747188353
 21
-276.2117618961394
 31
0.0
100
AcDbText
 73
     2
  0
TEXT
  5
7EC9
330
DF
100
AcDbEntity
  8
WAKU
 62
     3
100
AcDbText
 10
4731.946856816187
 20
-278.6526167188264
 30
0.0
 40
13.5
  1
普
  7
K
 72
     1
 11
4738.246856816187
 21
-278.6526167188264
 31
0.0
100
AcDbText
  0
TEXT
  5
7ECA
330
DF
100
AcDbEntity
  8
WAKU
 62
     3
100
AcDbText
 10
4764.044974671885
 20
-281.2117618961394
 30
0.0
 40
10.0
  1
0.5以上
 41
0.8
  7
K
 72
     2
 11
4800.159260386171
 21
-276.2117618961394
 31
0.0
100
AcDbText
 73
     2
  0
TEXT
  5
7ECB
330
DF
100
AcDbEntity
  8
WAKU
 62
     3
100
AcDbText
 10
4805.79636554118
 20
-378.0173092315379
 30
0.0
 40
10.0
  1
1000以下
 41
0.8
  7
K
 72
     2
 11
4853.339222684037
 21
-373.0173092315379
 31
0.0
100
AcDbText
 73
     2
  0
TEXT
  5
7ECC
330
DF
100
AcDbEntity
  8
WAKU
 62
     3
100
AcDbText
 10
4813.415413160227
 20
-358.6561997644582
 30
0.0
 40
10.0
  1
315以下
 41
0.8
  7
K
 72
     2
 11
4853.339222684037
 21
-353.6561997644582
 31
0.0
100
AcDbText
 73
     2
  0
TEXT
  5
7ECD
330
DF
100
AcDbEntity
  8
WAKU
 62
     3
100
AcDbText
 10
4828.653508398322
 20
-300.5728713632191
 30
0.0
 40
10.0
  1
6以下
 41
0.8
  7
K
 72
     2
 11
4853.339222684037
 21
-295.5728713632191
 31
0.0
100
AcDbText
 73
     2
  0
TEXT
  5
7ECE
330
DF
100
AcDbEntity
  8
WAKU
 62
     3
100
AcDbText
 10
4821.034460779275
 20
-319.9339808302988
 30
0.0
 40
10.0
  1
30以下
 41
0.8
  7
K
 72
     2
 11
4853.339222684037
 21
-314.9339808302988
 31
0.0
100
AcDbText
 73
     2
  0
TEXT
  5
7ECF
330
DF
100
AcDbEntity
  8
WAKU
 62
     3
100
AcDbText
 10
4813.415413160227
 20
-339.2950902973785
 30
0.0
 40
10.0
  1
120以下
 41
0.8
  7
K
 72
     2
 11
4853.339222684037
 21
-334.2950902973785
 31
0.0
100
AcDbText
 73
     2
  0
LINE
  5
7ED0
330
DF
100
AcDbEntity
  8
WAKU
 62
     3
100
AcDbLine
 10
4760.362789427437
 20
-285.8923166296793
 30
0.0
 11
4963.002747188353
 21
-285.8923166296793
 31
0.0
  0
LINE
  5
7ED1
330
DF
100
AcDbEntity
  8
WAKU
 62
     3
100
AcDbLine
 10
4963.002747188353
 20
-305.253426096759
 30
0.0
 11
4760.362789427437
 21
-305.253426096759
 31
0.0
  0
LINE
  5
7ED2
330
DF
100
AcDbEntity
  8
WAKU
 62
     3
100
AcDbLine
 10
4760.362789427437
 20
-324.6145355638387
 30
0.0
 11
4963.002747188353
 21
-324.6145355638387
 31
0.0
  0
LINE
  5
7ED3
330
DF
100
AcDbEntity
  8
WAKU
 62
     3
100
AcDbLine
 10
4963.002747188353
 20
-343.9756450309184
 30
0.0
 11
4760.362789427437
 21
-343.9756450309184
 31
0.0
  0
LINE
  5
7ED4
330
DF
100
AcDbEntity
  8
WAKU
 62
     3
100
AcDbLine
 10
4760.362789427437
 20
-363.3367544979981
 30
0.0
 11
4963.002747188353
 21
-363.3367544979981
 31
0.0
  0
LINE
  5
7ED5
330
DF
100
AcDbEntity
  8
WAKU
 62
     3
100
AcDbLine
 10
4963.002747188353
 20
-382.6978639650778
 30
0.0
 11
4760.362789427437
 21
-382.6978639650778
 31
0.0
  0
TEXT
  5
7ED6
330
DF
100
AcDbEntity
  8
WAKU
 62
     3
100
AcDbText
 10
4731.946856816187
 20
-340.6526167188263
 30
0.0
 40
13.5
  1
差
  7
K
 72
     1
 11
4738.246856816187
 21
-340.6526167188263
 31
0.0
100
AcDbText
  0
TEXT
  5
7ED7
330
DF
100
AcDbEntity
  8
WAKU
 62
     3
100
AcDbText
 10
4772.121165148075
 20
-339.2950902973785
 30
0.0
 40
10.0
  1
30ｦｺｴ
 41
0.8
  7
K
 72
     2
 11
4800.159260386171
 21
-334.2950902973785
 31
0.0
100
AcDbText
 73
     2
  0
TEXT
  5
7ED8
330
DF
100
AcDbEntity
  8
WAKU
 62
     3
100
AcDbText
 10
4716.485007591613
 20
-352.5169446340413
 30
0.0
 40
5.16199068
  1
TOLERANCE
  7
K
100
AcDbText
  0
TEXT
  5
7ED9
330
DF
100
AcDbEntity
  8
WAKU
 62
     3
100
AcDbText
 10
4673.836080521686
 20
-378.7479246110674
 30
0.0
 40
10.0
  1
100Z
  7
K
 72
     2
 11
4710.502747188352
 21
-373.7479246110674
 31
0.0
100
AcDbText
 73
     2
  0
TEXT
  5
7EDA
330
DF
100
AcDbEntity
  8
WAKU
 62
     3
100
AcDbText
 10
4732.281748324995
 20
-376.4563419531947
 30
0.0
 40
10.0
  1
±
  7
K
 72
     1
 11
4738.47222451547
 21
-376.4563419531947
 31
0.0
100
AcDbText
  0
TEXT
  5
7EDB
330
DF
100
AcDbEntity
  8
WAKU
 62
     3
100
AcDbText
 10
4749.089867772958
 20
-381.4563419531947
 30
0.0
 40
10.0
  1
)
  7
K
 11
4749.089867772958
 21
-376.4563419531947
 31
0.0
100
AcDbText
 73
     2
  0
TEXT
  5
7EDC
330
DF
100
AcDbEntity
  8
WAKU
 62
     3
100
AcDbText
 10
4720.734129277375
 20
-381.4563419531947
 30
0.0
 40
10.0
  1
(
  7
K
 72
     2
 11
4725.97222451547
 21
-376.4563419531947
 31
0.0
100
AcDbText
 73
     2
  0
TEXT
  5
7EDD
330
DF
100
AcDbEntity
  8
WAKU
 62
     3
100
AcDbText
 10
4727.757938801185
 20
-386.0485665719892
 30
0.0
 40
7.5
  1
mm
  7
K
 72
     1
 11
4738.47222451547
 21
-386.0485665719892
 31
0.0
100
AcDbText
  0
TEXT
  5
7EDE
330
DF
100
AcDbEntity
  8
WAKU
 62
     3
100
AcDbText
 10
4678.597985283591
 20
-340.9998595162804
 30
0.0
 40
10.0
  1
6.3Z
  7
K
 72
     2
 11
4710.502747188352
 21
-335.9998595162803
 31
0.0
100
AcDbText
 73
     2
  0
TEXT
  5
7EDF
330
DF
100
AcDbEntity
  8
WAKU
 62
     3
100
AcDbText
 10
4683.359890045497
 20
-359.8738920636739
 30
0.0
 40
10.0
  1
25Z
  7
K
 72
     2
 11
4710.502747188352
 21
-354.8738920636739
 31
0.0
100
AcDbText
 73
     2
  0
TEXT
  5
7EE0
330
DF
100
AcDbEntity
  8
WAKU
 62
     3
100
AcDbText
 10
4764.502117529027
 20
-378.0173092315379
 30
0.0
 40
10.0
  1
315ｦｺｴ
 41
0.8
  7
K
 72
     2
 11
4800.159260386171
 21
-373.0173092315379
 31
0.0
100
AcDbText
 73
     2
  0
TEXT
  5
7EE1
330
DF
100
AcDbEntity
  8
WAKU
 62
     3
100
AcDbText
 10
4764.502117529027
 20
-358.6561997644582
 30
0.0
 40
10.0
  1
120ｦｺｴ
 41
0.8
  7
K
 72
     2
 11
4800.159260386171
 21
-353.6561997644582
 31
0.0
100
AcDbText
 73
     2
  0
TEXT
  5
7EE2
330
DF
100
AcDbEntity
  8
WAKU
 62
     3
100
AcDbText
 10
4731.946856816187
 20
-309.6526167188261
 30
0.0
 40
13.5
  1
寸
  7
K
 72
     1
 11
4738.246856816187
 21
-309.6526167188261
 31
0.0
100
AcDbText
  0
TEXT
  5
7EE3
330
DF
100
AcDbEntity
  8
WAKU
 62
     3
100
AcDbText
 10
4678.597985283591
 20
-322.1258269688871
 30
0.0
 40
10.0
  1
0.8Z
  7
K
 72
     2
 11
4710.502747188352
 21
-317.1258269688871
 31
0.0
100
AcDbText
 73
     2
  0
TEXT
  5
7EE4
330
DF
100
AcDbEntity
  8
WAKU
 62
     3
100
AcDbText
 10
4731.946856816187
 20
-325.1526167188262
 30
0.0
 40
13.5
  1
法
  7
K
 72
     1
 11
4738.246856816187
 21
-325.1526167188262
 31
0.0
100
AcDbText
  0
TEXT
  5
7EE5
330
DF
100
AcDbEntity
  8
WAKU
 62
     3
100
AcDbText
 10
4731.946856816187
 20
-294.152616718826
 30
0.0
 40
13.5
  1
通
  7
K
 72
     1
 11
4738.246856816187
 21
-294.152616718826
 31
0.0
100
AcDbText
  0
TEXT
  5
7EE6
330
DF
100
AcDbEntity
  8
WAKU
 62
     3
100
AcDbText
 10
4779.740212767123
 20
-319.9339808302988
 30
0.0
 40
10.0
  1
6ｦｺｴ
 41
0.8
  7
K
 72
     2
 11
4800.159260386171
 21
-314.9339808302988
 31
0.0
100
AcDbText
 73
     2
  0
TEXT
  5
7EE7
330
DF
100
AcDbEntity
  8
WAKU
 62
     3
100
AcDbText
 10
4779.740212767123
 20
-300.5728713632191
 30
0.0
 40
10.0
  1
3ｦｺｴ
 41
0.8
  7
K
 72
     2
 11
4800.159260386171
 21
-295.5728713632191
 31
0.0
100
AcDbText
 73
     2
  0
TEXT
  5
7EE8
330
DF
100
AcDbEntity
  8
WAKU
 62
     3
100
AcDbText
 10
4935.502747188353
 20
-339.2950902973785
 30
0.0
 40
10.0
  1
0.8
 41
0.8
  7
K
 11
4935.502747188353
 21
-334.2950902973785
 31
0.0
100
AcDbText
 73
     2
  0
TEXT
  5
7EE9
330
DF
100
AcDbEntity
  8
WAKU
 62
     3
100
AcDbText
 10
4965.311349056859
 20
-338.2012567080724
 30
0.0
 40
12.0
  1
検図
  7
K
100
AcDbText
  0
TEXT
  5
7EEA
330
DF
100
AcDbEntity
  8
WAKU
 62
     3
100
AcDbText
 10
4865.502747188354
 20
-339.2950902973785
 30
0.0
 40
10.0
  1
0.15
 41
0.8
  7
K
 11
4865.502747188354
 21
-334.2950902973785
 31
0.0
100
AcDbText
 73
     2
  0
TEXT
  5
7EEB
330
DF
100
AcDbEntity
  8
WAKU
 62
     3
100
AcDbText
 10
4900.502747188353
 20
-339.2950902973785
 30
0.0
 40
10.0
  1
0.3
 41
0.8
  7
K
 11
4900.502747188353
 21
-334.2950902973785
 31
0.0
100
AcDbText
 73
     2
  0
TEXT
  5
7EEC
330
DF
100
AcDbEntity
  8
WAKU
 62
     3
100
AcDbText
 10
4865.502747188354
 20
-378.0173092315379
 30
0.0
 40
10.0
  1
0.3
 41
0.8
  7
K
 11
4865.502747188354
 21
-373.0173092315379
 31
0.0
100
AcDbText
 73
     2
  0
TEXT
  5
7EED
330
DF
100
AcDbEntity
  8
WAKU
 62
     3
100
AcDbText
 10
4900.502747188353
 20
-378.0173092315379
 30
0.0
 40
10.0
  1
0.8
 41
0.8
  7
K
 11
4900.502747188353
 21
-373.0173092315379
 31
0.0
100
AcDbText
 73
     2
  0
TEXT
  5
7EEE
330
DF
100
AcDbEntity
  8
WAKU
 62
     3
100
AcDbText
 10
4865.502747188354
 20
-358.6561997644582
 30
0.0
 40
10.0
  1
0.2
 41
0.8
  7
K
 11
4865.502747188354
 21
-353.6561997644582
 31
0.0
100
AcDbText
 73
     2
  0
TEXT
  5
7EEF
330
DF
100
AcDbEntity
  8
WAKU
 62
     3
100
AcDbText
 10
4900.502747188353
 20
-358.6561997644582
 30
0.0
 40
10.0
  1
0.5
 41
0.8
  7
K
 11
4900.502747188353
 21
-353.6561997644582
 31
0.0
100
AcDbText
 73
     2
  0
TEXT
  5
7EF0
330
DF
100
AcDbEntity
  8
WAKU
 62
     3
100
AcDbText
 10
4965.713397110718
 20
-379.3179943233363
 30
0.0
 40
12.0
  1
承認
  7
K
100
AcDbText
  0
TEXT
  5
7EF1
330
DF
100
AcDbEntity
  8
WAKU
 62
     3
100
AcDbText
 10
4935.502747188353
 20
-378.0173092315379
 30
0.0
 40
10.0
  1
2
 41
0.8
  7
K
 11
4935.502747188353
 21
-373.0173092315379
 31
0.0
100
AcDbText
 73
     2
  0
TEXT
  5
7EF2
330
DF
100
AcDbEntity
  8
WAKU
 62
     3
100
AcDbText
 10
4964.821690894713
 20
-358.440589343115
 30
0.0
 40
6.0
  1
BY
  7
K
100
AcDbText
  0
TEXT
  5
7EF3
330
DF
100
AcDbEntity
  8
WAKU
 62
     3
100
AcDbText
 10
4964.439852167836
 20
-350.1462558544389
 30
0.0
 40
6.0
  1
CHECKED
  7
K
100
AcDbText
  0
TEXT
  5
7EF4
330
DF
100
AcDbEntity
  8
WAKU
 62
     3
100
AcDbText
 10
4935.502747188353
 20
-358.6561997644582
 30
0.0
 40
10.0
  1
1.2
 41
0.8
  7
K
 11
4935.502747188353
 21
-353.6561997644582
 31
0.0
100
AcDbText
 73
     2
  0
TEXT
  5
7EF5
330
DF
100
AcDbEntity
  8
WAKU
 62
     3
100
AcDbText
 10
4865.502747188354
 20
-319.9339808302988
 30
0.0
 40
10.0
  1
0.1
 41
0.8
  7
K
 11
4865.502747188354
 21
-314.9339808302988
 31
0.0
100
AcDbText
 73
     2
  0
TEXT
  5
7EF6
330
DF
100
AcDbEntity
  8
WAKU
 62
     3
100
AcDbText
 10
4900.502747188353
 20
-319.9339808302988
 30
0.0
 40
10.0
  1
0.2
 41
0.8
  7
K
 11
4900.502747188353
 21
-314.9339808302988
 31
0.0
100
AcDbText
 73
     2
  0
TEXT
  5
7EF7
330
DF
100
AcDbEntity
  8
WAKU
 62
     3
100
AcDbText
 10
4865.502747188354
 20
-300.5728713632191
 30
0.0
 40
10.0
  1
0.05
 41
0.8
  7
K
 11
4865.502747188354
 21
-295.5728713632191
 31
0.0
100
AcDbText
 73
     2
  0
TEXT
  5
7EF8
330
DF
100
AcDbEntity
  8
WAKU
 62
     3
100
AcDbText
 10
4900.502747188353
 20
-300.5728713632191
 30
0.0
 40
10.0
  1
0.1
 41
0.8
  7
K
 11
4900.502747188353
 21
-295.5728713632191
 31
0.0
100
AcDbText
 73
     2
  0
TEXT
  5
7EF9
330
DF
100
AcDbEntity
  8
WAKU
 62
     3
100
AcDbText
 10
4964.224132182861
 20
-317.2937323760694
 30
0.0
 40
6.0
  1
BY
  7
K
100
AcDbText
  0
TEXT
  5
7EFA
330
DF
100
AcDbEntity
  8
WAKU
 62
     3
100
AcDbText
 10
4964.322108264643
 20
-309.6557614894797
 30
0.0
 40
6.0
  1
DRAWN
  7
K
100
AcDbText
  0
TEXT
  5
7EFB
330
DF
100
AcDbEntity
  8
WAKU
 62
     3
100
AcDbText
 10
4935.502747188353
 20
-319.9339808302988
 30
0.0
 40
10.0
  1
0.5
 41
0.8
  7
K
 11
4935.502747188353
 21
-314.9339808302988
 31
0.0
100
AcDbText
 73
     2
  0
TEXT
  5
7EFC
330
DF
100
AcDbEntity
  8
WAKU
 62
     3
100
AcDbText
 10
4964.952405028292
 20
-295.7600216890827
 30
0.0
 40
12.0
  1
製図
  7
K
100
AcDbText
  0
TEXT
  5
7EFD
330
DF
100
AcDbEntity
  8
WAKU
 62
     3
100
AcDbText
 10
4935.502747188353
 20
-300.5728713632191
 30
0.0
 40
10.0
  1
0.2
 41
0.8
  7
K
 11
4935.502747188353
 21
-295.5728713632191
 31
0.0
100
AcDbText
 73
     2
  0
LINE
  5
7EFE
330
DF
100
AcDbEntity
  8
WAKU
 62
     3
100
AcDbLine
 10
4935.502747188353
 20
-276.2117618961394
 30
0.0
 11
4953.532913485156
 21
-276.2117618961394
 31
0.0
  0
TEXT
  5
7EFF
330
DF
100
AcDbEntity
  8
WAKU
 62
     3
100
AcDbText
 10
4832.786427055067
 20
-262.3469672147638
 30
0.0
 40
5.46
  1
SIZE
  7
K
100
AcDbText
  0
LINE
  5
7F00
330
DF
100
AcDbEntity
  8
WAKU
 62
     3
100
AcDbLine
 10
4760.362789427437
 20
-266.5312071625996
 30
0.0
 11
4963.002747188353
 21
-266.5312071625996
 31
0.0
  0
LINE
  5
7F01
330
DF
100
AcDbEntity
  8
WAKU
 62
     3
100
AcDbLine
 10
4739.820747188354
 20
-157.0589734321574
 30
0.0
 11
4739.820747188354
 21
-249.0312071625996
 31
0.0
  0
TEXT
  5
7F02
330
DF
100
AcDbEntity
  8
WAKU
 62
     3
100
AcDbText
 10
4767.560544264237
 20
-262.4236603972143
 30
0.0
 40
8.910000000000001
  1
呼 ビ 寸 法
  7
K
 72
     1
 11
4795.775544264237
 21
-257.9686603972143
 31
0.0
100
AcDbText
 73
     2
  0
LINE
  5
7F03
330
DF
100
AcDbEntity
  8
WAKU
 62
     3
100
AcDbLine
 10
5008.002747188353
 20
-157.0589734321574
 30
0.0
 11
5008.002747188353
 21
-237.0589734321575
 31
0.0
  0
TEXT
  5
7F04
330
DF
100
AcDbEntity
  8
WAKU
 62
     3
100
AcDbText
 10
4871.002747188353
 20
-264.5312071625996
 30
0.0
 40
13.5
  1
J
  7
K
 72
     1
 11
4875.502747188352
 21
-257.7812071625996
 31
0.0
100
AcDbText
 73
     2
  0
TEXT
  5
7F05
330
DF
100
AcDbEntity
  8
WAKU
 62
     3
100
AcDbText
 10
4903.431318616925
 20
-264.5312071625996
 30
0.0
 40
13.5
  1
K
  7
K
 72
     1
 11
4910.502747188353
 21
-257.7812071625996
 31
0.0
100
AcDbText
 73
     2
  0
TEXT
  5
7F06
330
DF
100
AcDbEntity
  8
WAKU
 62
     3
100
AcDbText
 10
4964.872552477635
 20
-254.2499323250578
 30
0.0
 40
12.0
  1
設計
  7
K
100
AcDbText
  0
TEXT
  5
7F07
330
DF
100
AcDbEntity
  8
WAKU
 62
     3
100
AcDbText
 10
4964.081919241533
 20
-267.7937717286081
 30
0.0
 40
6.0
  1
DESIGNED
  7
K
100
AcDbText
  0
TEXT
  5
7F08
330
DF
100
AcDbEntity
  8
WAKU
 62
     3
100
AcDbText
 10
4939.074175759781
 20
-264.5312071625996
 30
0.0
 40
13.5
  1
L
  7
K
 72
     1
 11
4945.502747188353
 21
-257.7812071625996
 31
0.0
100
AcDbText
 73
     2
  0
TEXT
  5
7F09
330
DF
100
AcDbEntity
  8
WAKU
 62
     3
100
AcDbText
 10
4968.187401968429
 20
-223.3396129114797
 30
0.0
 40
6.0
  1
NAME
  7
K
100
AcDbText
  0
TEXT
  5
7F0A
330
DF
100
AcDbEntity
  8
WAKU
 62
     3
100
AcDbText
 10
4968.869887747846
 20
-195.5752807072806
 30
0.0
 40
15.0
  1
品名
  7
K
100
AcDbText
  0
TEXT
  5
7F0B
330
DF
100
AcDbEntity
  8
WAKU
 62
     3
100
AcDbText
 10
4968.187401968429
 20
-214.0458655238526
 30
0.0
 40
6.0
  1
PART
  7
K
100
AcDbText
  0
LINE
  5
7F0C
330
DF
100
AcDbEntity
  8
WAKU
 62
     3
100
AcDbLine
 10
5208.020747188353
 20
-272.0589734321575
 30
0.0
 11
5208.020747188353
 21
-347.0589734321575
 31
0.0
  0
TEXT
  5
7F0F
330
DF
100
AcDbEntity
  8
WAKU
 62
     3
100
AcDbText
 10
5161.900240786242
 20
-308.9350545457054
 30
0.0
 40
15.0
  1
図番
  7
K
 72
     4
 11
5178.400240786243
 21
-301.4350545457054
 31
0.0
100
AcDbText
  0
TEXT
  5
7F10
330
DF
100
AcDbEntity
  8
WAKU
 62
     3
100
AcDbText
 10
5169.031466164182
 20
-369.361866462805
 30
0.0
 40
10.0
  1
株式会社
  7
K
100
AcDbText
  0
TEXT
  5
7F11
330
DF
100
AcDbEntity
  8
WAKU
 62
     3
100
AcDbText
 10
5150.111748057618
 20
-326.9571726976809
 30
0.0
 40
5.928
  1
DRAWING NO.
  7
K
100
AcDbText
  0
LINE
  5
7F16
330
DF
100
AcDbEntity
  8
WAKU
 62
     3
100
AcDbLine
 10
5294.820747188354
 20
-157.0589734321574
 30
0.0
 11
5294.820747188354
 21
-237.0589734321575
 31
0.0
  0
LINE
  5
7F17
330
DF
100
AcDbEntity
  8
WAKU
 62
     3
100
AcDbLine
 10
5349.820747188354
 20
-157.0589734321574
 30
0.0
 11
5349.820747188354
 21
-237.0589734321575
 31
0.0
  0
TEXT
  5
7F18
330
DF
100
AcDbEntity
  8
WAKU
 62
     3
100
AcDbText
 10
5301.732234936206
 20
-219.3935401435837
 30
0.0
 40
15.0
  1
板 厚
  7
K
100
AcDbText
  0
LINE
  5
7F19
330
DF
100
AcDbEntity
  8
WAKU
 62
     3
100
AcDbLine
 10
5329.820747188354
 20
-272.0589734321575
 30
0.0
 11
5329.820747188354
 21
-237.0589734321575
 31
0.0
  0
LINE
  5
7F1A
330
DF
100
AcDbEntity
  8
WAKU
 62
     3
100
AcDbLine
 10
5284.820747188354
 20
-237.0589734321575
 30
0.0
 11
5284.820747188354
 21
-272.0589734321575
 31
0.0
  0
TEXT
  5
7F1B
330
DF
100
AcDbEntity
  8
WAKU
 62
     3
100
AcDbText
 10
5293.591369538204
 20
-252.1241029763277
 30
0.0
 40
10.368
  1
尺度
  7
K
100
AcDbText
  0
TEXT
  5
7F1C
330
DF
100
AcDbEntity
  8
WAKU
 62
     3
100
AcDbText
 10
5293.446586775743
 20
-265.4186260173329
 30
0.0
 40
6.048
  1
SCALE
  7
K
100
AcDbText
  0
TEXT
  5
7F1D
330
DF
100
AcDbEntity
  8
WAKU
 62
     3
100
AcDbText
 10
5298.002074081962
 20
-231.3065923358428
 30
0.0
 40
6.0
  1
THICKNESS
  7
K
100
AcDbText
  0
TEXT
  5
7F1E
330
DF
100
AcDbEntity
  8
WAKU
 62
     3
100
AcDbText
 10
5301.72133133989
 20
-192.066087007316
 30
0.0
 40
6.0
  1
MATERIAL
  7
K
100
AcDbText
  0
TEXT
  5
7F1F
330
DF
100
AcDbEntity
  8
WAKU
 62
     3
100
AcDbText
 10
5301.248559154191
 20
-178.6724188789341
 30
0.0
 40
15.0
  1
材 質
  7
K
100
AcDbText
  0
LINE
  5
7F32
330
DF
100
AcDbEntity
  8
WAKU
 62
     3
100
AcDbLine
 10
3564.820747188355
 20
912.9410265678425
 30
0.0
 11
5469.820747188354
 21
912.9410265678425
 31
0.0
  0
TEXT
  5
7F33
330
DF
100
AcDbEntity
  8
WAKU
 62
     3
100
AcDbText
 10
5186.393569853131
 20
-260.660661483275
 30
0.0
 40
12.0
  1
三角法
  7
K
100
AcDbText
  0
TEXT
  5
7F34
330
DF
100
AcDbEntity
  8
WAKU
 62
     3
100
AcDbText
 10
5408.883455714725
 20
-266.5356434520285
 30
0.0
 40
6.0
  1
UNITS 
  7
K
100
AcDbText
  0
TEXT
  5
7F35
330
DF
100
AcDbEntity
  8
WAKU
 62
     3
100
AcDbText
 10
5388.024471344624
 20
-254.1332287033426
 30
0.0
 40
12.0
  1
（単位ｍｍ） 
  7
K
100
AcDbText
  0
MTEXT
  5
7F36
330
DF
100
AcDbEntity
  8
TEXT
 62
     3
100
AcDbMText
 10
5361.767090938636
 20
-244.6040168806396
 30
0.0
 40
15.0
 41
89.6
 71
     1
 72
     5
  1
/
  7
K
 73
     1
 44
1.0
1001
ACAD
1000
MTEXTBEGIN
1070
    73
1070
     1
1070
    44
1040
1.0
1070
    74
1070
     0
1000
MTEXTEND
  0
TEXT
  5
7F39
330
DF
100
AcDbEntity
  8
WAKU
 62
     3
100
AcDbText
 10
4600.193891315904
 20
-246.2318447890677
 30
0.0
 40
6.0
  1
REMARKS
  7
K
100
AcDbText
  0
TEXT
  5
7F3A
330
DF
100
AcDbEntity
  8
WAKU
 62
     3
100
AcDbText
 10
4598.941423586501
 20
-234.4228072520377
 30
0.0
 40
12.0
  1
備考
  7
K
 11
4598.941423586501
 21
-228.4228072520377
 31
0.0
100
AcDbText
 73
     2
  0
LINE
  5
7F3B
330
DF
100
AcDbEntity
  8
WAKU
 62
     3
370
    18
100
AcDbLine
 10
5394.820747188354
 20
-272.0589734321575
 30
0.0
 11
5394.820747188354
 21
-347.0589734321575
 31
0.0
  0
LINE
  5
8123
330
DF
100
AcDbEntity
  8
TEXT
100
AcDbLine
 10
4877.816167874275
 20
475.9511190617695
 30
0.0
 11
5429.498213342982
 21
475.9511190617695
 31
0.0
  0
LINE
  5
8126
330
DF
100
AcDbEntity
  8
0
100
AcDbLine
 10
3831.617463561511
 20
257.0631846871065
 30
0.0
 11
3797.617463561511
 21
257.0631846871065
 31
0.0
  0
LINE
  5
8127
330
DF
100
AcDbEntity
  8
0
100
AcDbLine
 10
3856.196883074059
 20
96.74484689569386
 30
0.0
 11
3942.967463561512
 21
96.74484689569386
 31
0.0
  0
LINE
  5
8128
330
DF
100
AcDbEntity
  8
0
100
AcDbLine
 10
3797.617463561512
 20
221.2255404753687
 30
0.0
 11
3737.267463561511
 21
221.2255404753687
 31
0.0
  0
LINE
  5
8129
330
DF
100
AcDbEntity
  8
0
100
AcDbLine
 10
3797.617463561512
 20
228.6042176206961
 30
0.0
 11
3721.117463561512
 21
228.6042176206961
 31
0.0
  0
LINE
  5
812A
330
DF
100
AcDbEntity
  8
0
100
AcDbLine
 10
3942.967463561512
 20
221.2255404753687
 30
0.0
 11
3882.617463561512
 21
221.2255404753687
 31
0.0
  0
LINE
  5
812B
330
DF
100
AcDbEntity
  8
0
100
AcDbLine
 10
3737.267463561511
 20
96.74484689569396
 30
0.0
 11
3824.021425681706
 21
96.74484689569396
 31
0.0
  0
LINE
  5
812C
330
DF
100
AcDbEntity
  8
0
100
AcDbLine
 10
3737.267463561511
 20
221.2255404753687
 30
0.0
 11
3737.267463561511
 21
96.74484689569396
 31
0.0
  0
LINE
  5
812D
330
DF
100
AcDbEntity
  8
0
100
AcDbLine
 10
3942.967463561512
 20
221.2255404753687
 30
0.0
 11
3942.967463561512
 21
96.74484689569396
 31
0.0
  0
LINE
  5
812E
330
DF
100
AcDbEntity
  8
0
100
AcDbLine
 10
3772.117463561512
 20
210.6154397371463
 30
0.0
 11
3908.117463561512
 21
210.6154397371463
 31
0.0
  0
LINE
  5
812F
330
DF
100
AcDbEntity
  8
0
100
AcDbLine
 10
3951.467463561512
 20
228.6042176206961
 30
0.0
 11
3959.117463561512
 21
228.6042176206961
 31
0.0
  0
LINE
  5
8130
330
DF
100
AcDbEntity
  8
0
100
AcDbLine
 10
3959.117463561512
 20
228.6042176206961
 30
0.0
 11
3882.617463561512
 21
228.6042176206961
 31
0.0
  0
LINE
  5
8131
330
DF
100
AcDbEntity
  8
0
100
AcDbLine
 10
3853.399680538628
 20
107.165170299962
 30
0.0
 11
3908.117463561512
 21
107.165170299962
 31
0.0
  0
LINE
  5
8132
330
DF
100
AcDbEntity
  8
0
100
AcDbLine
 10
3772.117463561512
 20
107.165170299962
 30
0.0
 11
3826.768132970211
 21
107.165170299962
 31
0.0
  0
LINE
  5
8133
330
DF
100
AcDbEntity
  8
0
100
AcDbLine
 10
3772.117463561512
 20
210.6154397371463
 30
0.0
 11
3772.117463561512
 21
107.165170299962
 31
0.0
  0
LINE
  5
8134
330
DF
100
AcDbEntity
  8
0
100
AcDbLine
 10
3908.117463561512
 20
210.6154397371463
 30
0.0
 11
3908.117463561512
 21
107.165170299962
 31
0.0
  0
LINE
  5
8135
330
DF
100
AcDbEntity
  8
0
100
AcDbLine
 10
3831.617463561512
 20
239.0107185127674
 30
0.0
 11
3814.617463561511
 21
239.0107185127674
 31
0.0
  0
LINE
  5
8136
330
DF
100
AcDbEntity
  8
0
100
AcDbLine
 10
3865.617463561512
 20
239.0107185127678
 30
0.0
 11
3848.617463561512
 21
239.0107185127678
 31
0.0
  0
LINE
  5
8137
330
DF
100
AcDbEntity
  8
0
100
AcDbLine
 10
3865.617463561512
 20
257.0631846871068
 30
0.0
 11
3865.617463561512
 21
210.6154397371464
 31
0.0
  0
LINE
  5
8138
330
DF
100
AcDbEntity
  8
0
100
AcDbLine
 10
3814.617463561511
 20
257.0631846871068
 30
0.0
 11
3814.617463561511
 21
210.6154397371464
 31
0.0
  0
LINE
  5
8139
330
DF
100
AcDbEntity
  8
0
100
AcDbLine
 10
3797.617463561511
 20
257.0631846871068
 30
0.0
 11
3797.617463561511
 21
210.6154397371464
 31
0.0
  0
LINE
  5
813A
330
DF
100
AcDbEntity
  8
0
100
AcDbLine
 10
3882.617463561512
 20
257.0631846871068
 30
0.0
 11
3882.617463561512
 21
210.6154397371464
 31
0.0
  0
LINE
  5
813B
330
DF
100
AcDbEntity
  8
0
100
AcDbLine
 10
3882.617463561512
 20
257.0631846871068
 30
0.0
 11
3848.617463561512
 21
257.0631846871068
 31
0.0
  0
ARC
  5
813C
330
DF
100
AcDbEntity
  8
0
100
AcDbCircle
 10
3845.217463561511
 20
285.6538178110295
 30
0.0
 40
3.399999999999999
100
AcDbArc
 50
0.0
 51
90.0
  0
ARC
  5
813D
330
DF
100
AcDbEntity
  8
0
100
AcDbCircle
 10
3835.017463561511
 20
285.6538178110295
 30
0.0
 40
3.399999999999999
100
AcDbArc
 50
90.0
 51
180.0
  0
LINE
  5
813E
330
DF
100
AcDbEntity
  8
0
100
AcDbLine
 10
3845.217463561511
 20
289.0538178110296
 30
0.0
 11
3835.017463561511
 21
289.0538178110296
 31
0.0
  0
LINE
  5
813F
330
DF
100
AcDbEntity
  8
0
100
AcDbLine
 10
3831.617463561512
 20
135.8154397371445
 30
0.0
 11
3831.617463561512
 21
285.6538178110295
 31
0.0
  0
LINE
  5
8140
330
DF
100
AcDbEntity
  8
0
100
AcDbLine
 10
3848.617463561512
 20
135.8154397371497
 30
0.0
 11
3848.617463561512
 21
285.6538178110295
 31
0.0
  0
LINE
  5
8141
330
DF
100
AcDbEntity
  8
ITTEN
100
AcDbLine
 10
3826.517463561511
 20
135.8154397371497
 30
0.0
 11
3852.017463561511
 21
135.8154397371497
 31
0.0
  0
LINE
  5
8142
330
DF
100
AcDbEntity
  8
0
100
AcDbLine
 10
3858.817463561512
 20
93.31543973714634
 30
0.0
 11
3858.817463561512
 21
80.56543973714633
 31
0.0
  0
LINE
  5
8143
330
DF
100
AcDbEntity
  8
0
100
AcDbLine
 10
3821.417463561512
 20
93.31543973714634
 30
0.0
 11
3821.417463561512
 21
80.56543973714633
 31
0.0
  0
LINE
  5
8144
330
DF
100
AcDbEntity
  8
0
100
AcDbLine
 10
3858.817463561512
 20
80.56543973714644
 30
0.0
 11
3821.417463561512
 21
80.56543973714644
 31
0.0
  0
LINE
  5
8145
330
DF
100
AcDbEntity
  8
0
100
AcDbLine
 10
3847.034855649661
 20
130.875835836143
 30
0.0
 11
3857.117463561511
 21
93.31543973714634
 31
0.0
  0
LINE
  5
8146
330
DF
100
AcDbEntity
  8
0
100
AcDbLine
 10
3833.068175390815
 20
131.0659622620464
 30
0.0
 11
3823.117463561511
 21
93.31543973714634
 31
0.0
  0
LINE
  5
8147
330
DF
100
AcDbEntity
  8
0
100
AcDbLine
 10
3858.817463561512
 20
93.31543973714634
 30
0.0
 11
3821.417463561512
 21
93.31543973714634
 31
0.0
  0
CIRCLE
  5
8148
330
DF
100
AcDbEntity
  8
0
100
AcDbCircle
 10
3840.117463561512
 20
135.8154397371463
 30
0.0
 40
8.5
  0
LINE
  5
8149
330
DF
100
AcDbEntity
  8
0
100
AcDbLine
 10
3728.767463561511
 20
228.6042176206961
 30
0.0
 11
3728.767463561511
 21
76.31543973714633
 31
0.0
  0
LINE
  5
814A
330
DF
100
AcDbEntity
  8
0
100
AcDbLine
 10
3951.467463561511
 20
228.6042176206961
 30
0.0
 11
3951.467463561511
 21
76.31543973714622
 31
0.0
  0
LINE
  5
814B
330
DF
100
AcDbEntity
  8
0
100
AcDbLine
 10
3721.117463561512
 20
72.06543973714622
 30
0.0
 11
3672.667463561511
 21
72.06543973714622
 31
0.0
  0
LINE
  5
814C
330
DF
100
AcDbEntity
  8
0
100
AcDbLine
 10
3721.117463561512
 20
77.16543973714625
 30
0.0
 11
3672.667463561511
 21
77.16543973714625
 31
0.0
  0
LINE
  5
814D
330
DF
100
AcDbEntity
  8
0
100
AcDbLine
 10
3728.767463561511
 20
76.31543973714633
 30
0.0
 11
3951.467463561511
 21
76.31543973714633
 31
0.0
  0
LINE
  5
814E
330
DF
100
AcDbEntity
  8
0
100
AcDbLine
 10
3726.217463561511
 20
71.21543973714631
 30
0.0
 11
3954.017463561512
 21
71.21543973714631
 31
0.0
  0
LINE
  5
814F
330
DF
100
AcDbEntity
  8
0
100
AcDbLine
 10
3954.017463561512
 20
228.6042176206961
 30
0.0
 11
3954.017463561512
 21
71.2154397371462
 31
0.0
  0
LINE
  5
8150
330
DF
100
AcDbEntity
  8
0
100
AcDbLine
 10
3726.217463561511
 20
228.6042176206961
 30
0.0
 11
3726.217463561511
 21
71.21543973714631
 31
0.0
  0
LINE
  5
8151
330
DF
100
AcDbEntity
  8
0
100
AcDbLine
 10
3721.117463561512
 20
66.11543973714629
 30
0.0
 11
3959.117463561512
 21
66.11543973714629
 31
0.0
  0
LINE
  5
8152
330
DF
100
AcDbEntity
  8
0
100
AcDbLine
 10
3959.117463561512
 20
228.6042176206961
 30
0.0
 11
3959.117463561512
 21
66.11543973714629
 31
0.0
  0
LINE
  5
8153
330
DF
100
AcDbEntity
  8
ITTEN
100
AcDbLine
 10
3840.117463561512
 20
322.8154397371463
 30
0.0
 11
3840.117463561512
 21
-144.6845602628537
 31
0.0
  0
LINE
  5
8154
330
DF
100
AcDbEntity
  8
0
100
AcDbLine
 10
3721.117463561512
 20
228.6042176206961
 30
0.0
 11
3721.117463561512
 21
66.11543973714629
 31
0.0
  0
LINE
  5
8155
330
DF
100
AcDbEntity
  8
0
100
AcDbLine
 10
3721.117463561512
 20
228.6042176206961
 30
0.0
 11
3728.767463561511
 21
228.6042176206961
 31
0.0
  0
LINE
  5
8156
330
DF
100
AcDbEntity
  8
0
100
AcDbLine
 10
3672.667463561511
 20
302.4154397371463
 30
0.0
 11
3672.667463561511
 21
-127.6845602628536
 31
0.0
  0
LINE
  5
8157
330
DF
100
AcDbEntity
  8
0
100
AcDbLine
 10
3672.667463561511
 20
302.4154397371463
 30
0.0
 11
3672.667463561511
 21
236.1154397371463
 31
0.0
  0
LINE
  5
8158
330
DF
100
AcDbEntity
  8
0
100
AcDbLine
 10
4007.567463561511
 20
310.9154397371463
 30
0.0
 11
4007.567463561511
 21
322.8154397371463
 31
0.0
  0
ARC
  5
8159
330
DF
100
AcDbEntity
  8
0
100
AcDbCircle
 10
4049.217463561511
 20
305.8154397371463
 30
0.0
 40
3.399999999999999
100
AcDbArc
 50
270.0
 51
0.0
  0
ARC
  5
815A
330
DF
100
AcDbEntity
  8
0
100
AcDbCircle
 10
4049.217463561511
 20
307.5154397371461
 30
0.0
 40
3.399999999999999
100
AcDbArc
 50
0.0
 51
90.0
  0
ARC
  5
815B
330
DF
100
AcDbEntity
  8
0
100
AcDbCircle
 10
3631.017463561511
 20
305.8154397371463
 30
0.0
 40
3.399999999999999
100
AcDbArc
 50
180.0
 51
270.0
  0
ARC
  5
815C
330
DF
100
AcDbEntity
  8
0
100
AcDbCircle
 10
3631.017463561511
 20
307.5154397371461
 30
0.0
 40
3.399999999999999
100
AcDbArc
 50
90.0
 51
180.0
  0
LINE
  5
815D
330
DF
100
AcDbEntity
  8
0
100
AcDbLine
 10
3990.567463561511
 20
310.9154397371461
 30
0.0
 11
4049.217463561511
 21
310.9154397371461
 31
0.0
  0
LINE
  5
815E
330
DF
100
AcDbEntity
  8
0
100
AcDbLine
 10
3990.567463561511
 20
302.4154397371463
 30
0.0
 11
4049.217463561511
 21
302.4154397371463
 31
0.0
  0
LINE
  5
815F
330
DF
100
AcDbEntity
  8
0
100
AcDbLine
 10
3689.667463561511
 20
310.9154397371461
 30
0.0
 11
3689.667463561511
 21
302.4154397371463
 31
0.0
  0
LINE
  5
8160
330
DF
100
AcDbEntity
  8
0
100
AcDbLine
 10
3990.567463561511
 20
302.4154397371463
 30
0.0
 11
3990.567463561511
 21
310.9154397371461
 31
0.0
  0
LINE
  5
8161
330
DF
100
AcDbEntity
  8
0
100
AcDbLine
 10
3689.667463561511
 20
310.9154397371461
 30
0.0
 11
3631.017463561511
 21
310.9154397371461
 31
0.0
  0
LINE
  5
8162
330
DF
100
AcDbEntity
  8
0
100
AcDbLine
 10
3689.667463561511
 20
302.4154397371463
 30
0.0
 11
3631.017463561511
 21
302.4154397371463
 31
0.0
  0
LINE
  5
8163
330
DF
100
AcDbEntity
  8
0
100
AcDbLine
 10
3627.617463561512
 20
307.5154397371461
 30
0.0
 11
3627.617463561512
 21
305.8154397371463
 31
0.0
  0
LINE
  5
8164
330
DF
100
AcDbEntity
  8
0
100
AcDbLine
 10
4052.617463561511
 20
307.5154397371461
 30
0.0
 11
4052.617463561511
 21
305.8154397371463
 31
0.0
  0
LINE
  5
8165
330
DF
100
AcDbEntity
  8
0
100
AcDbLine
 10
3981.603971759049
 20
68.58844068921143
 30
0.0
 11
3981.603971759049
 21
68.64433535647595
 31
0.0
  0
LINE
  5
8166
330
DF
100
AcDbEntity
  8
0
100
AcDbLine
 10
3984.153971759048
 20
67.18093505118247
 30
0.0
 11
3990.336987248118
 21
63.63261083379427
 31
0.0
  0
LINE
  5
8167
330
DF
100
AcDbEntity
  8
0
100
AcDbLine
 10
3981.603971759049
 20
67.18093505118247
 30
0.0
 11
3984.153971759049
 21
67.18093505118247
 31
0.0
  0
LINE
  5
8168
330
DF
100
AcDbEntity
  8
0
100
AcDbLine
 10
3987.786987248118
 20
63.63261083379427
 30
0.0
 11
3990.336987248118
 21
63.63261083379427
 31
0.0
  0
LINE
  5
8169
330
DF
100
AcDbEntity
  8
0
100
AcDbLine
 10
3981.603971759049
 20
67.18093505118247
 30
0.0
 11
3987.786987248118
 21
63.63261083379427
 31
0.0
  0
LINE
  5
816A
330
DF
100
AcDbEntity
  8
0
100
AcDbLine
 10
3981.603971759049
 20
40.26645043842222
 30
0.0
 11
3981.603971759049
 21
67.18093505118236
 31
0.0
  0
LINE
  5
816B
330
DF
100
AcDbEntity
  8
0
100
AcDbLine
 10
3990.336987248118
 20
45.0411428289932
 30
0.0
 11
3990.336987248118
 21
63.63261083379427
 31
0.0
  0
LINE
  5
816C
330
DF
100
AcDbEntity
  8
0
100
AcDbLine
 10
3987.786987248118
 20
43.64695480640285
 30
0.0
 11
3987.786987248118
 21
63.63261083379427
 31
0.0
  0
LINE
  5
816D
330
DF
100
AcDbEntity
  8
0
100
AcDbLine
 10
3981.603971759049
 20
68.64433535647595
 30
0.0
 11
3981.7058833128
 21
68.58585010201659
 31
0.0
  0
LINE
  5
816E
330
DF
100
AcDbEntity
  8
0
100
AcDbLine
 10
3981.603971759049
 20
40.26645043842222
 30
0.0
 11
3990.336987248118
 21
45.0411428289932
 31
0.0
  0
ELLIPSE
  5
816F
330
DF
100
AcDbEntity
  8
0
100
AcDbEllipse
 10
3981.75044942419
 20
52.8519985545513
 30
0.0
 11
-0.8097906781435309
 21
15.72600487363247
 31
0.0
210
0.0
220
0.0
230
1.0
 40
0.7678641535702465
 41
6.189455079097946
 42
8.636758086860075
1001
ACAD_OBJECT_CHANGE_GUID
1070
     0
1071
        0
1070
     0
1070
     0
1070
     0
1070
     0
1070
     0
1070
     0
1070
     0
1070
     0
1070
     0
1070
     0
1070
     0
1071
        0
1070
     0
1070
     0
1070
     0
1070
     0
1070
     0
1070
     0
1070
     0
1070
     0
1070
     0
1070
     0
1070
     0
1071
        0
1070
     0
1070
     0
1070
     0
1070
     0
1070
     0
1070
     0
1070
     0
1070
     0
1070
     0
1070
     0
1070
     0
1071
        0
1070
     0
1070
     0
1070
     0
1070
     0
1070
     0
1070
     0
1070
     0
1070
     0
1070
     0
1070
     0
1070
     0
1071
        0
1070
     0
1070
     0
1070
     0
1070
     0
1070
     0
1070
     0
1070
     0
1070
     0
1070
     0
1070
     0
1070
     0
1071
        0
1070
     0
1070
     0
1070
     0
1070
     0
1070
     0
1070
     0
1070
     0
1070
     0
1070
     0
1070
     0
1070
     0
1071
        0
1070
     0
1070
     0
1070
     0
1070
     0
1070
     0
1070
     0
1070
     0
1070
     0
1070
     0
1070
     0
1070
     0
1071
        0
1070
     0
1070
     0
1070
     0
1070
     0
1070
     0
1070
     0
1070
     0
1070
     0
1070
     0
1070
     0
1070
     0
1071
        0
1070
     0
1070
     0
1070
     0
1070
     0
1070
     0
1070
     0
1070
     0
1070
     0
1070
     0
1070
     0
1070
     0
1071
        0
1070
     0
1070
     0
1070
     0
1070
     0
1070
     0
1070
     0
1070
     0
1070
     0
1070
     0
1070
     0
  0
ELLIPSE
  5
8170
330
DF
100
AcDbEntity
  8
0
100
AcDbEllipse
 10
3981.75044942419
 20
52.8519985545513
 30
0.0
 11
-0.8097906781435309
 21
15.72600487363247
 31
0.0
210
0.0
220
0.0
230
1.0
 40
0.7678641535702465
 41
5.427462728861332
 42
5.594139082400647
1001
ACAD_OBJECT_CHANGE_GUID
1070
     0
1071
        0
1070
     0
1070
     0
1070
     0
1070
     0
1070
     0
1070
     0
1070
     0
1070
     0
1070
     0
1070
     0
1070
     0
1071
        0
1070
     0
1070
     0
1070
     0
1070
     0
1070
     0
1070
     0
1070
     0
1070
     0
1070
     0
1070
     0
1070
     0
1071
        0
1070
     0
1070
     0
1070
     0
1070
     0
1070
     0
1070
     0
1070
     0
1070
     0
1070
     0
1070
     0
1070
     0
1071
        0
1070
     0
1070
     0
1070
     0
1070
     0
1070
     0
1070
     0
1070
     0
1070
     0
1070
     0
1070
     0
1070
     0
1071
        0
1070
     0
1070
     0
1070
     0
1070
     0
1070
     0
1070
     0
1070
     0
1070
     0
1070
     0
1070
     0
1070
     0
1071
        0
1070
     0
1070
     0
1070
     0
1070
     0
1070
     0
1070
     0
1070
     0
1070
     0
1070
     0
1070
     0
1070
     0
1071
        0
1070
     0
1070
     0
1070
     0
1070
     0
1070
     0
1070
     0
1070
     0
1070
     0
1070
     0
1070
     0
1070
     0
1071
        0
1070
     0
1070
     0
1070
     0
1070
     0
1070
     0
1070
     0
1070
     0
1070
     0
1070
     0
1070
     0
1070
     0
1071
        0
1070
     0
1070
     0
1070
     0
1070
     0
1070
     0
1070
     0
1070
     0
1070
     0
1070
     0
1070
     0
1070
     0
1071
        0
1070
     0
1070
     0
1070
     0
1070
     0
1070
     0
1070
     0
1070
     0
1070
     0
1070
     0
1070
     0
  0
ARC
  5
8171
330
DF
100
AcDbEntity
  8
0
100
AcDbCircle
 10
3979.518070029721
 20
54.45539289744875
 30
0.0
 40
14.3414460264644
100
AcDbArc
 50
49.65274929918272
 51
318.9713294597896
  0
ELLIPSE
  5
8172
330
DF
100
AcDbEntity
  8
TENSEN
100
AcDbEllipse
 10
3956.567463561511
 20
16.81550588855055
 30
0.0
 11
0.0000000000011596
 21
19.54993384859581
 31
0.0
210
0.0
220
0.0
230
-1.0
 40
0.9130324137956906
 41
7.143534577975087
 42
8.564437617186886
1001
ACAD_OBJECT_CHANGE_GUID
1070
     0
1071
        0
1070
     0
1070
     0
1070
     0
1070
     0
1070
     0
1070
     0
1070
     0
1070
     0
1070
     0
1070
     0
1070
     0
1071
        0
1070
     0
1070
     0
1070
     0
1070
     0
1070
     0
1070
     0
1070
     0
1070
     0
1070
     0
1070
     0
1070
     0
1071
        0
1070
     0
1070
     0
1070
     0
1070
     0
1070
     0
1070
     0
1070
     0
1070
     0
1070
     0
1070
     0
1070
     0
1071
        0
1070
     0
1070
     0
1070
     0
1070
     0
1070
     0
1070
     0
1070
     0
1070
     0
1070
     0
1070
     0
1070
     0
1071
        0
1070
     0
1070
     0
1070
     0
1070
     0
1070
     0
1070
     0
1070
     0
1070
     0
1070
     0
1070
     0
1070
     0
1071
        0
1070
     0
1070
     0
1070
     0
1070
     0
1070
     0
1070
     0
1070
     0
1070
     0
1070
     0
1070
     0
1070
     0
1071
        0
1070
     0
1070
     0
1070
     0
1070
     0
1070
     0
1070
     0
1070
     0
1070
     0
1070
     0
1070
     0
1070
     0
1071
        0
1070
     0
1070
     0
1070
     0
1070
     0
1070
     0
1070
     0
1070
     0
1070
     0
1070
     0
1070
     0
1070
     0
1071
        0
1070
     0
1070
     0
1070
     0
1070
     0
1070
     0
1070
     0
1070
     0
1070
     0
1070
     0
1070
     0
1070
     0
1071
        0
1070
     0
1070
     0
1070
     0
1070
     0
1070
     0
1070
     0
1070
     0
1070
     0
1070
     0
1070
     0
  0
ELLIPSE
  5
8173
330
DF
100
AcDbEntity
  8
TENSEN
100
AcDbEllipse
 10
3956.567463561511
 20
16.81550588855055
 30
0.0
 11
0.0000000000011596
 21
19.54993384859581
 31
0.0
210
0.0
220
0.0
230
-1.0
 40
0.9130324137956906
 41
9.339239407932685
 42
9.424777960769379
1001
ACAD_OBJECT_CHANGE_GUID
1070
     0
1071
        0
1070
     0
1070
     0
1070
     0
1070
     0
1070
     0
1070
     0
1070
     0
1070
     0
1070
     0
1070
     0
1070
     0
1071
        0
1070
     0
1070
     0
1070
     0
1070
     0
1070
     0
1070
     0
1070
     0
1070
     0
1070
     0
1070
     0
1070
     0
1071
        0
1070
     0
1070
     0
1070
     0
1070
     0
1070
     0
1070
     0
1070
     0
1070
     0
1070
     0
1070
     0
1070
     0
1071
        0
1070
     0
1070
     0
1070
     0
1070
     0
1070
     0
1070
     0
1070
     0
1070
     0
1070
     0
1070
     0
1070
     0
1071
        0
1070
     0
1070
     0
1070
     0
1070
     0
1070
     0
1070
     0
1070
     0
1070
     0
1070
     0
1070
     0
1070
     0
1071
        0
1070
     0
1070
     0
1070
     0
1070
     0
1070
     0
1070
     0
1070
     0
1070
     0
1070
     0
1070
     0
1070
     0
1071
        0
1070
     0
1070
     0
1070
     0
1070
     0
1070
     0
1070
     0
1070
     0
1070
     0
1070
     0
1070
     0
1070
     0
1071
        0
1070
     0
1070
     0
1070
     0
1070
     0
1070
     0
1070
     0
1070
     0
1070
     0
1070
     0
1070
     0
1070
     0
1071
        0
1070
     0
1070
     0
1070
     0
1070
     0
1070
     0
1070
     0
1070
     0
1070
     0
1070
     0
1070
     0
1070
     0
1071
        0
1070
     0
1070
     0
1070
     0
1070
     0
1070
     0
1070
     0
1070
     0
1070
     0
1070
     0
1070
     0
  0
ELLIPSE
  5
8174
330
DF
100
AcDbEntity
  8
TENSEN
100
AcDbEllipse
 10
3956.567463561511
 20
16.81550588855055
 30
0.0
 11
0.0000000000011596
 21
19.54993384859581
 31
0.0
210
0.0
220
0.0
230
-1.0
 40
0.9130324137956906
 41
6.28312805952093
 42
6.285968948738251
1001
ACAD_OBJECT_CHANGE_GUID
1070
     0
1071
        0
1070
     0
1070
     0
1070
     0
1070
     0
1070
     0
1070
     0
1070
     0
1070
     0
1070
     0
1070
     0
1070
     0
1071
        0
1070
     0
1070
     0
1070
     0
1070
     0
1070
     0
1070
     0
1070
     0
1070
     0
1070
     0
1070
     0
1070
     0
1071
        0
1070
     0
1070
     0
1070
     0
1070
     0
1070
     0
1070
     0
1070
     0
1070
     0
1070
     0
1070
     0
1070
     0
1071
        0
1070
     0
1070
     0
1070
     0
1070
     0
1070
     0
1070
     0
1070
     0
1070
     0
1070
     0
1070
     0
1070
     0
1071
        0
1070
     0
1070
     0
1070
     0
1070
     0
1070
     0
1070
     0
1070
     0
1070
     0
1070
     0
1070
     0
1070
     0
1071
        0
1070
     0
1070
     0
1070
     0
1070
     0
1070
     0
1070
     0
1070
     0
1070
     0
1070
     0
1070
     0
1070
     0
1071
        0
1070
     0
1070
     0
1070
     0
1070
     0
1070
     0
1070
     0
1070
     0
1070
     0
1070
     0
1070
     0
1070
     0
1071
        0
1070
     0
1070
     0
1070
     0
1070
     0
1070
     0
1070
     0
1070
     0
1070
     0
1070
     0
1070
     0
1070
     0
1071
        0
1070
     0
1070
     0
1070
     0
1070
     0
1070
     0
1070
     0
1070
     0
1070
     0
1070
     0
1070
     0
1070
     0
1071
        0
1070
     0
1070
     0
1070
     0
1070
     0
1070
     0
1070
     0
1070
     0
1070
     0
1070
     0
1070
     0
  0
ELLIPSE
  5
8175
330
DF
100
AcDbEntity
  8
HOJO
100
AcDbEllipse
 10
3956.567463561511
 20
16.81550588855055
 30
0.0
 11
0.0000000000011596
 21
19.54993384859581
 31
0.0
210
0.0
220
0.0
230
-1.0
 40
0.9130324137956906
 41
4.653824270326261
 42
4.72990816217672
1001
ACAD_OBJECT_CHANGE_GUID
1070
     0
1071
        0
1070
     0
1070
     0
1070
     0
1070
     0
1070
     0
1070
     0
1070
     0
1070
     0
1070
     0
1070
     0
1070
     0
1071
        0
1070
     0
1070
     0
1070
     0
1070
     0
1070
     0
1070
     0
1070
     0
1070
     0
1070
     0
1070
     0
1070
     0
1071
        0
1070
     0
1070
     0
1070
     0
1070
     0
1070
     0
1070
     0
1070
     0
1070
     0
1070
     0
1070
     0
1070
     0
1071
        0
1070
     0
1070
     0
1070
     0
1070
     0
1070
     0
1070
     0
1070
     0
1070
     0
1070
     0
1070
     0
1070
     0
1071
        0
1070
     0
1070
     0
1070
     0
1070
     0
1070
     0
1070
     0
1070
     0
1070
     0
1070
     0
1070
     0
1070
     0
1071
        0
1070
     0
1070
     0
1070
     0
1070
     0
1070
     0
1070
     0
1070
     0
1070
     0
1070
     0
1070
     0
1070
     0
1071
        0
1070
     0
1070
     0
1070
     0
1070
     0
1070
     0
1070
     0
1070
     0
1070
     0
1070
     0
1070
     0
1070
     0
1071
        0
1070
     0
1070
     0
1070
     0
1070
     0
1070
     0
1070
     0
1070
     0
1070
     0
1070
     0
1070
     0
1070
     0
1071
        0
1070
     0
1070
     0
1070
     0
1070
     0
1070
     0
1070
     0
1070
     0
1070
     0
1070
     0
1070
     0
1070
     0
1071
        0
1070
     0
1070
     0
1070
     0
1070
     0
1070
     0
1070
     0
1070
     0
1070
     0
1070
     0
1070
     0
  0
ELLIPSE
  5
8176
330
DF
100
AcDbEntity
  8
TENSEN
100
AcDbEllipse
 10
3956.567463561512
 20
16.81543973714633
 30
0.0
 11
0.0
 21
-12.75
 31
0.0
210
0.0
220
0.0
230
-1.0
 40
0.8666666666666667
 41
3.141592653589793
 42
6.283185307179586
1001
ACAD_OBJECT_CHANGE_GUID
1070
     0
1071
        0
1070
     0
1070
     0
1070
     0
1070
     0
1070
     0
1070
     0
1070
     0
1070
     0
1070
     0
1070
     0
1070
     0
1071
        0
1070
     0
1070
     0
1070
     0
1070
     0
1070
     0
1070
     0
1070
     0
1070
     0
1070
     0
1070
     0
1070
     0
1071
        0
1070
     0
1070
     0
1070
     0
1070
     0
1070
     0
1070
     0
1070
     0
1070
     0
1070
     0
1070
     0
1070
     0
1071
        0
1070
     0
1070
     0
1070
     0
1070
     0
1070
     0
1070
     0
1070
     0
1070
     0
1070
     0
1070
     0
1070
     0
1071
        0
1070
     0
1070
     0
1070
     0
1070
     0
1070
     0
1070
     0
1070
     0
1070
     0
1070
     0
1070
     0
1070
     0
1071
        0
1070
     0
1070
     0
1070
     0
1070
     0
1070
     0
1070
     0
1070
     0
1070
     0
1070
     0
1070
     0
1070
     0
1071
        0
1070
     0
1070
     0
1070
     0
1070
     0
1070
     0
1070
     0
1070
     0
1070
     0
1070
     0
1070
     0
1070
     0
1071
        0
1070
     0
1070
     0
1070
     0
1070
     0
1070
     0
1070
     0
1070
     0
1070
     0
1070
     0
1070
     0
1070
     0
1071
        0
1070
     0
1070
     0
1070
     0
1070
     0
1070
     0
1070
     0
1070
     0
1070
     0
1070
     0
1070
     0
1070
     0
1071
        0
1070
     0
1070
     0
1070
     0
1070
     0
1070
     0
1070
     0
1070
     0
1070
     0
1070
     0
1070
     0
  0
LINE
  5
8177
330
DF
100
AcDbEntity
  8
ITTEN
100
AcDbLine
 10
3956.567463561509
 20
-21.43456026285367
 30
0.0
 11
3956.567463561509
 21
47.41530743433782
 31
0.0
  0
LINE
  5
8178
330
DF
100
AcDbEntity
  8
0
100
AcDbLine
 10
3996.054757882374
 20
4.065439737146334
 30
0.0
 11
3956.567463561509
 21
4.065439737146334
 31
0.0
  0
LINE
  5
8179
330
DF
100
AcDbEntity
  8
0
100
AcDbLine
 10
3996.054757882374
 20
29.56543973714634
 30
0.0
 11
3956.567463561512
 21
29.56543973714634
 31
0.0
  0
CIRCLE
  5
817A
330
DF
100
AcDbEntity
  8
0
100
AcDbCircle
 10
3993.70153469062
 20
16.81543973714633
 30
0.0
 40
10.41534455347046
  0
CIRCLE
  5
817B
330
DF
100
AcDbEntity
  8
0
100
AcDbCircle
 10
3993.70153469062
 20
16.81543973714633
 30
0.0
 40
12.96534455347046
  0
SPLINE
  5
817C
330
DF
100
AcDbEntity
  8
0
100
AcDbSpline
210
0.0
220
0.0
230
1.0
 70
     8
 71
     3
 72
    45
 73
    41
 74
     0
 42
0.0000000001
 43
0.0000000001
 40
2.306227421583527
 40
2.306227421583527
 40
2.306227421583527
 40
2.306227421583527
 40
2.363915844809297
 40
2.363915844809297
 40
2.682176616171325
 40
2.682176616171325
 40
2.9314237568572
 40
2.9314237568572
 40
3.180670897543074
 40
3.180670897543074
 40
3.429918038228949
 40
3.429918038228949
 40
3.679165178914823
 40
3.679165178914823
 40
3.928412319600698
 40
3.928412319600698
 40
4.177659460286572
 40
4.177659460286572
 40
4.426906600972446
 40
4.426906600972446
 40
4.855016457756462
 40
4.855016457756462
 40
5.283126314540479
 40
5.283126314540479
 40
5.58190875506254
 40
5.58190875506254
 40
5.880691195584602
 40
5.880691195584602
 40
6.127556924218256
 40
6.127556924218256
 40
6.283185307179586
 40
6.283185307179586
 40
6.283185307179586
 40
6.449659678172341
 40
6.449659678172341
 40
6.701098328328999
 40
6.701098328328999
 40
6.952536978485658
 40
6.952536978485658
 40
7.118549623311436
 40
7.118549623311436
 40
7.118549623311436
 40
7.118549623311436
 10
3970.112485533952
 20
4.065439737146334
 30
0.0
 10
3969.891248027843
 20
3.783227036364905
 30
0.0
 10
3969.661999537198
 20
3.507165101439795
 30
0.0
 10
3968.116784053729
 20
1.751547169869809
 30
0.0
 10
3966.567780292647
 20
0.4690856996256798
 30
0.0
 10
3963.484027335753
 20
-1.291221321537705
 30
0.0
 10
3962.019841975876
 20
-1.882349073647674
 30
0.0
 10
3958.976152890173
 20
-2.631514582304589
 30
0.0
 10
3957.397545470725
 20
-2.788665653551277
 30
0.0
 10
3954.261055467906
 20
-2.647168401867418
 30
0.0
 10
3952.704527720372
 20
-2.348717832495822
 30
0.0
 10
3949.742863079381
 20
-1.335179388974722
 30
0.0
 10
3948.338291115675
 20
-0.6211216494871224
 30
0.0
 10
3945.772840038348
 20
1.143518071004393
 30
0.0
 10
3944.611642619625
 20
2.193312608714563
 30
0.0
 10
3942.584134847886
 20
4.539405142948226
 30
0.0
 10
3941.717331702415
 20
5.835480922022611
 30
0.0
 10
3940.303530162767
 20
8.58973192666383
 30
0.0
 10
3939.756236337211
 20
10.04796776791113
 30
0.0
 10
3938.718985718864
 20
14.12575254887622
 30
0.0
 10
3938.553191291678
 20
16.82782997868037
 30
0.0
 10
3939.210259185936
 20
22.10736896978994
 30
0.0
 10
3940.033895750337
 20
24.68635052768792
 30
0.0
 10
3942.229028632129
 20
28.63153576710391
 30
0.0
 10
3943.359865262273
 20
30.12844459280223
 30
0.0
 10
3946.025160472323
 20
32.72548650954582
 30
0.0
 10
3947.560834144421
 20
33.82462410783455
 30
0.0
 10
3950.628933033327
 20
35.33177909028723
 30
0.0
 10
3952.11475124885
 20
35.82585207726152
 30
0.0
 10
3954.607012332964
 20
36.27703892471493
 30
0.0
 10
3955.587204272423
 20
36.36543973714629
 30
0.0
 10
3956.567463561512
 20
36.36543973714629
 30
0.0
 10
3957.616038670085
 20
36.36543973714629
 30
0.0
 10
3958.66451974163
 20
36.2642258495402
 30
0.0
 10
3961.245898907535
 20
35.7637475992201
 30
0.0
 10
3962.751651039925
 20
35.23802304384464
 30
0.0
 10
3965.554433086158
 20
33.80190438299917
 30
0.0
 10
3966.851430169809
 20
32.89256326505631
 30
0.0
 10
3968.772360555386
 20
31.13890279859868
 30
0.0
 10
3969.475478229037
 20
30.37767139341247
 30
0.0
 10
3970.112450209295
 20
29.56543973714634
 30
0.0
1001
ACAD_OBJECT_CHANGE_GUID
1070
     0
1071
        0
1070
     0
1070
     0
1070
     0
1070
     0
1070
     0
1070
     0
1070
     0
1070
     0
1070
     0
1070
     0
1070
     0
1071
        0
1070
     0
1070
     0
1070
     0
1070
     0
1070
     0
1070
     0
1070
     0
1070
     0
1070
     0
1070
     0
1070
     0
1071
        0
1070
     0
1070
     0
1070
     0
1070
     0
1070
     0
1070
     0
1070
     0
1070
     0
1070
     0
1070
     0
1070
     0
1071
        0
1070
     0
1070
     0
1070
     0
1070
     0
1070
     0
1070
     0
1070
     0
1070
     0
1070
     0
1070
     0
1070
     0
1071
        0
1070
     0
1070
     0
1070
     0
1070
     0
1070
     0
1070
     0
1070
     0
1070
     0
1070
     0
1070
     0
1070
     0
1071
        0
1070
     0
1070
     0
1070
     0
1070
     0
1070
     0
1070
     0
1070
     0
1070
     0
1070
     0
1070
     0
1070
     0
1071
        0
1070
     0
1070
     0
1070
     0
1070
     0
1070
     0
1070
     0
1070
     0
1070
     0
1070
     0
1070
     0
1070
     0
1071
        0
1070
     0
1070
     0
1070
     0
1070
     0
1070
     0
1070
     0
1070
     0
1070
     0
1070
     0
1070
     0
1070
     0
1071
        0
1070
     0
1070
     0
1070
     0
1070
     0
1070
     0
1070
     0
1070
     0
1070
     0
1070
     0
1070
     0
1070
     0
1071
        0
1070
     0
1070
     0
1070
     0
1070
     0
1070
     0
1070
     0
1070
     0
1070
     0
1070
     0
1070
     0
  0
ELLIPSE
  5
817D
330
DF
100
AcDbEntity
  8
0
100
AcDbEllipse
 10
3956.567463561512
 20
16.81543973714633
 30
0.0
 11
0.0
 21
12.75
 31
0.0
210
0.0
220
0.0
230
-1.0
 40
0.8666666666666666
 41
3.141592653589793
 42
6.283185307179586
1001
ACAD_OBJECT_CHANGE_GUID
1070
     0
1071
        0
1070
     0
1070
     0
1070
     0
1070
     0
1070
     0
1070
     0
1070
     0
1070
     0
1070
     0
1070
     0
1070
     0
1071
        0
1070
     0
1070
     0
1070
     0
1070
     0
1070
     0
1070
     0
1070
     0
1070
     0
1070
     0
1070
     0
1070
     0
1071
        0
1070
     0
1070
     0
1070
     0
1070
     0
1070
     0
1070
     0
1070
     0
1070
     0
1070
     0
1070
     0
1070
     0
1071
        0
1070
     0
1070
     0
1070
     0
1070
     0
1070
     0
1070
     0
1070
     0
1070
     0
1070
     0
1070
     0
1070
     0
1071
        0
1070
     0
1070
     0
1070
     0
1070
     0
1070
     0
1070
     0
1070
     0
1070
     0
1070
     0
1070
     0
1070
     0
1071
        0
1070
     0
1070
     0
1070
     0
1070
     0
1070
     0
1070
     0
1070
     0
1070
     0
1070
     0
1070
     0
1070
     0
1071
        0
1070
     0
1070
     0
1070
     0
1070
     0
1070
     0
1070
     0
1070
     0
1070
     0
1070
     0
1070
     0
1070
     0
1071
        0
1070
     0
1070
     0
1070
     0
1070
     0
1070
     0
1070
     0
1070
     0
1070
     0
1070
     0
1070
     0
1070
     0
1071
        0
1070
     0
1070
     0
1070
     0
1070
     0
1070
     0
1070
     0
1070
     0
1070
     0
1070
     0
1070
     0
1070
     0
1071
        0
1070
     0
1070
     0
1070
     0
1070
     0
1070
     0
1070
     0
1070
     0
1070
     0
1070
     0
1070
     0
  0
LINE
  5
817E
330
DF
100
AcDbEntity
  8
ITTEN
100
AcDbLine
 10
3938.717798688578
 20
16.81543973714633
 30
0.0
 11
4007.567463561511
 21
16.81543973714633
 31
0.0
  0
LINE
  5
817F
330
DF
100
AcDbEntity
  8
0
100
AcDbLine
 10
4007.567463561511
 20
-127.6845602628536
 30
0.0
 11
3672.667463561511
 21
-127.6845602628536
 31
0.0
  0
LINE
  5
8180
330
DF
100
AcDbEntity
  8
0
100
AcDbLine
 10
3848.617463561512
 20
-144.6845602628537
 30
0.0
 11
3848.617463561512
 21
-127.6845602628536
 31
0.0
  0
LINE
  5
8181
330
DF
100
AcDbEntity
  8
0
100
AcDbLine
 10
3831.617463561512
 20
-144.6845602628537
 30
0.0
 11
3831.617463561512
 21
-127.6845602628536
 31
0.0
  0
LINE
  5
8182
330
DF
100
AcDbEntity
  8
0
100
AcDbLine
 10
3676.917463561512
 20
-144.6845602628537
 30
0.0
 11
3676.917463561512
 21
-127.6845602628536
 31
0.0
  0
LINE
  5
8183
330
DF
100
AcDbEntity
  8
0
100
AcDbLine
 10
4003.317463561511
 20
-144.6845602628537
 30
0.0
 11
4003.317463561511
 21
-127.6845602628536
 31
0.0
  0
LINE
  5
8184
330
DF
100
AcDbEntity
  8
0
100
AcDbLine
 10
3676.917463561512
 20
-144.6845602628537
 30
0.0
 11
3676.917463561512
 21
-127.6845602628536
 31
0.0
  0
LINE
  5
8185
330
DF
100
AcDbEntity
  8
0
100
AcDbLine
 10
3693.917463561512
 20
-144.6845602628537
 30
0.0
 11
3693.917463561512
 21
-127.6845602628536
 31
0.0
  0
LINE
  5
8186
330
DF
100
AcDbEntity
  8
0
100
AcDbLine
 10
3986.317463561512
 20
-144.6845602628537
 30
0.0
 11
3986.317463561512
 21
-127.6845602628536
 31
0.0
  0
LINE
  5
8187
330
DF
100
AcDbEntity
  8
0
100
AcDbLine
 10
4003.317463561511
 20
-144.6845602628537
 30
0.0
 11
4003.317463561511
 21
-127.6845602628536
 31
0.0
  0
LINE
  5
8188
330
DF
100
AcDbEntity
  8
0
100
AcDbLine
 10
3676.917463561512
 20
-144.6845602628537
 30
0.0
 11
3693.917463561512
 21
-144.6845602628537
 31
0.0
  0
LINE
  5
8189
330
DF
100
AcDbEntity
  8
0
100
AcDbLine
 10
3831.617463561512
 20
-144.6845602628537
 30
0.0
 11
3848.617463561512
 21
-144.6845602628537
 31
0.0
  0
LINE
  5
818A
330
DF
100
AcDbEntity
  8
0
100
AcDbLine
 10
3986.317463561512
 20
-144.6845602628537
 30
0.0
 11
4003.317463561511
 21
-144.6845602628537
 31
0.0
  0
LINE
  5
818B
330
DF
100
AcDbEntity
  8
0
100
AcDbLine
 10
3668.842463561512
 20
341.5154397371464
 30
0.0
 11
4011.392463561511
 21
341.5154397371464
 31
0.0
  0
LINE
  5
818C
330
DF
100
AcDbEntity
  8
0
100
AcDbLine
 10
3984.617463561511
 20
358.5154397371464
 30
0.0
 11
3984.617463561511
 21
341.5154397371464
 31
0.0
  0
LINE
  5
818D
330
DF
100
AcDbEntity
  8
0
100
AcDbLine
 10
3695.617463561512
 20
358.5154397371464
 30
0.0
 11
3695.617463561512
 21
341.5154397371464
 31
0.0
  0
LINE
  5
818E
330
DF
100
AcDbEntity
  8
0
100
AcDbLine
 10
3721.117463561512
 20
384.0154397371464
 30
0.0
 11
3959.117463561512
 21
384.0154397371464
 31
0.0
  0
ARC
  5
818F
330
DF
100
AcDbEntity
  8
0
100
AcDbCircle
 10
3959.117463561512
 20
358.5154397371464
 30
0.0
 40
25.5
100
AcDbArc
 50
0.0
 51
90.0
  0
ARC
  5
8190
330
DF
100
AcDbEntity
  8
0
100
AcDbCircle
 10
3721.117463561512
 20
358.5154397371464
 30
0.0
 40
25.5
100
AcDbArc
 50
90.0
 51
180.0
  0
LINE
  5
8191
330
DF
100
AcDbEntity
  8
0
100
AcDbLine
 10
3668.842463561512
 20
335.5654397371463
 30
0.0
 11
4011.392463561511
 21
335.5654397371463
 31
0.0
  0
LINE
  5
8192
330
DF
100
AcDbEntity
  8
0
100
AcDbLine
 10
4014.367463561511
 20
338.5404397371463
 30
0.0
 11
4014.367463561511
 21
338.5404397371463
 31
0.0
  0
LINE
  5
8193
330
DF
100
AcDbEntity
  8
0
100
AcDbLine
 10
3665.867463561511
 20
338.5404397371463
 30
0.0
 11
3665.867463561511
 21
338.5404397371463
 31
0.0
  0
LINE
  5
8194
330
DF
100
AcDbEntity
  8
0
100
AcDbLine
 10
3671.817463561512
 20
322.8154397371463
 30
0.0
 11
4008.41746356151
 21
322.8154397371463
 31
0.0
  0
ARC
  5
8195
330
DF
100
AcDbEntity
  8
0
100
AcDbCircle
 10
4011.392463561511
 20
338.5404397371463
 30
0.0
 40
2.975
100
AcDbArc
 50
0.0
 51
90.0
  0
ARC
  5
8196
330
DF
100
AcDbEntity
  8
0
100
AcDbCircle
 10
4011.392463561511
 20
338.5404397371463
 30
0.0
 40
2.975
100
AcDbArc
 50
270.0
 51
0.0
  0
ARC
  5
8197
330
DF
100
AcDbEntity
  8
0
100
AcDbCircle
 10
3668.842463561512
 20
338.5404397371463
 30
0.0
 40
2.975
100
AcDbArc
 50
90.0
 51
180.0
  0
ARC
  5
8198
330
DF
100
AcDbEntity
  8
0
100
AcDbCircle
 10
3668.842463561512
 20
338.5404397371463
 30
0.0
 40
2.975
100
AcDbArc
 50
180.0
 51
270.0
  0
LINE
  5
8199
330
DF
100
AcDbEntity
  8
0
100
AcDbLine
 10
3665.867463561511
 20
329.6154397371463
 30
0.0
 11
3665.867463561511
 21
328.7654397371464
 31
0.0
  0
LINE
  5
819A
330
DF
100
AcDbEntity
  8
0
100
AcDbLine
 10
4014.367463561511
 20
329.6154397371463
 30
0.0
 11
4014.367463561511
 21
328.7654397371464
 31
0.0
  0
ARC
  5
819B
330
DF
100
AcDbEntity
  8
0
100
AcDbCircle
 10
4008.417463561512
 20
329.6154397371465
 30
0.0
 40
5.95
100
AcDbArc
 50
359.9999999999968
 51
90.00000000000325
  0
ARC
  5
819C
330
DF
100
AcDbEntity
  8
0
100
AcDbCircle
 10
4008.417463561512
 20
328.7654397371464
 30
0.0
 40
5.95
100
AcDbArc
 50
269.9999999999968
 51
0.0
  0
ARC
  5
819D
330
DF
100
AcDbEntity
  8
0
100
AcDbCircle
 10
3671.817463561512
 20
329.6154397371463
 30
0.0
 40
5.95
100
AcDbArc
 50
90.0
 51
180.0
  0
ARC
  5
819E
330
DF
100
AcDbEntity
  8
0
100
AcDbCircle
 10
3671.817463561512
 20
328.7654397371464
 30
0.0
 40
5.95
100
AcDbArc
 50
180.0
 51
270.0
  0
LINE
  5
819F
330
DF
100
AcDbEntity
  8
0
100
AcDbLine
 10
4007.567463561511
 20
-127.6845602628536
 30
0.0
 11
4007.567463561511
 21
72.06543973714634
 31
0.0
  0
LINE
  5
81A0
330
DF
100
AcDbEntity
  8
0
100
AcDbLine
 10
3672.667463561511
 20
322.8154397371462
 30
0.0
 11
3672.667463561511
 21
310.9154397371461
 31
0.0
  0
LINE
  5
81A1
330
DF
100
AcDbEntity
  8
0
100
AcDbLine
 10
4007.567463561511
 20
72.06543973714634
 30
0.0
 11
3959.117463561512
 21
72.06543973714634
 31
0.0
  0
LINE
  5
81A2
330
DF
100
AcDbEntity
  8
0
100
AcDbLine
 10
4007.567463561511
 20
77.16543973714635
 30
0.0
 11
3959.117463561512
 21
77.16543973714635
 31
0.0
  0
LINE
  5
81A3
330
DF
100
AcDbEntity
  8
0
100
AcDbLine
 10
4003.317463561511
 20
72.06543973714634
 30
0.0
 11
4003.317463561511
 21
77.16543973714647
 31
0.0
  0
LINE
  5
81A4
330
DF
100
AcDbEntity
  8
0
100
AcDbLine
 10
4007.567463561511
 20
77.16543973714635
 30
0.0
 11
4007.567463561511
 21
302.4154397371463
 31
0.0
  0
LINE
  5
81A5
330
DF
100
AcDbEntity
  8
0
100
AcDbLine
 10
3672.667463561511
 20
322.8154397371463
 30
0.0
 11
3672.667463561511
 21
310.915439737146
 31
0.0
  0
LINE
  5
81A6
330
DF
100
AcDbEntity
  8
0
100
AcDbLine
 10
4007.567463561511
 20
310.9154397371463
 30
0.0
 11
4008.41746356151
 21
310.9154397371463
 31
0.0
  0
LINE
  5
81A7
330
DF
100
AcDbEntity
  8
0
100
AcDbLine
 10
4007.567463561511
 20
302.4154397371463
 30
0.0
 11
4008.41746356151
 21
302.4154397371463
 31
0.0
  0
DIMENSION
  5
81A8
330
DF
100
AcDbEntity
  8
SUNPOU
100
AcDbDimension
  2
*D6
 10
4067.337969896638
 20
885.783811171826
 30
0.0
 11
3854.837969896639
 21
900.783811171826
 31
0.0
 70
    32
  1
500
 71
     5
 42
425.0
  3
IMAO
100
AcDbAlignedDimension
 13
3642.337969896639
 23
657.1701269404647
 33
0.0
 14
4067.337969896638
 24
657.1701269404734
 34
0.0
100
AcDbRotatedDimension
1001
ACAD
1000
DSTYLE
1002
{
1070
    40
1040
5.0
1070
   271
1070
     4
1070
   272
1070
     4
1070
   279
1070
     0
1070
   284
1070
     0
1070
   285
1070
     0
1070
   286
1070
     0
1070
   340
1005
D7
1070
   343
1005
E3
1070
   344
1005
E3
1002
}
  0
CIRCLE
  5
81A9
330
DF
100
AcDbEntity
  8
0
100
AcDbCircle
 10
3854.837969896639
 20
657.1701269404647
 30
0.0
 40
144.5
  0
CIRCLE
  5
81AA
330
DF
100
AcDbEntity
  8
0
100
AcDbCircle
 10
3854.837969896639
 20
657.1701269404647
 30
0.0
 40
174.2500000000003
  0
TEXT
  5
81AB
330
DF
100
AcDbEntity
  8
SUNPOU
100
AcDbText
 10
4078.633896213617
 20
531.9712789708482
 30
0.0
 40
12.75
  1
ホース長さ約1000
  7
K
100
AcDbText
  0
MTEXT
  5
81AC
102
{ACAD_REACTORS
330
81AD
102
}
330
DF
100
AcDbEntity
  8
SUNPOU
100
AcDbMText
 10
4079.390224136688
 20
566.4208079554246
 30
0.0
 40
12.75
 41
0.0
 71
     4
 72
     1
  1
排水口 外径φ60､内径φ56
 73
     1
 44
1.0
1001
ACAD
1000
MTEXTBEGIN
1070
    73
1070
     1
1070
    44
1040
1.0
1070
    74
1070
     0
1000
MTEXTEND
  0
LEADER
  5
81AD
330
DF
100
AcDbEntity
  8
SUNPOU
100
AcDbLeader
  3
IMAO
 73
     0
 74
     0
 75
     1
 41
197.8071428571429
 76
     3
 10
4005.09816089878
 20
506.9099359383232
 30
0.0
 10
4064.390224136689
 20
552.3333079554246
 30
0.0
 10
4071.890224136688
 20
552.3333079554246
 30
0.0
340
81AC
1001
ACAD
1000
DSTYLE
1002
{
1070
   284
1070
     0
1070
   340
1005
D7
1070
   272
1070
     4
1070
    40
1040
5.0
1070
   287
1070
     3
1070
   271
1070
     4
1070
     7
1000
ARROW
1070
     6
1000
ARROW
1070
   285
1070
     0
1070
   286
1070
     0
1002
}
  0
ARC
  5
81AE
330
DF
100
AcDbEntity
  8
0
100
AcDbCircle
 10
4005.322772364908
 20
506.6853853802822
 30
0.0
 40
12.96534455347046
100
AcDbArc
 50
214.5427981206843
 51
55.45720187931388
  0
LINE
  5
81AF
330
DF
100
AcDbEntity
  8
0
100
AcDbLine
 10
3997.971140981314
 20
496.0057938436194
 30
0.0
 11
3970.049407396322
 21
523.9275274286119
 31
0.0
  0
LINE
  5
81B0
330
DF
100
AcDbEntity
  8
ITTEN
100
AcDbLine
 10
4005.09816089878
 20
506.9099359383232
 30
0.0
 11
3854.837969896639
 21
657.1701269404643
 31
0.0
  0
ARC
  5
81B1
330
DF
100
AcDbEntity
  8
0
100
AcDbCircle
 10
3854.837969896639
 20
657.1701269404647
 30
0.0
 40
180.2000000000004
100
AcDbArc
 50
236.8269339778094
 51
303.1730660221906
  0
LINE
  5
81B2
330
DF
100
AcDbEntity
  8
0
100
AcDbLine
 10
3953.437969896639
 20
506.3388304532962
 30
0.0
 11
3953.437969896639
 21
513.5000100058699
 31
0.0
  0
LINE
  5
81B3
330
DF
100
AcDbEntity
  8
0
100
AcDbLine
 10
3880.33796989664
 20
484.7960787197417
 30
0.0
 11
3880.33796989664
 21
457.4201269404644
 31
0.0
  0
LINE
  5
81B4
330
DF
100
AcDbEntity
  8
0
100
AcDbLine
 10
3897.337969896639
 20
482.0536228638924
 30
0.0
 11
3897.337969896639
 21
457.4201269404644
 31
0.0
  0
LINE
  5
81B5
330
DF
100
AcDbEntity
  8
0
100
AcDbLine
 10
3897.337969896639
 20
457.4201269404643
 30
0.0
 11
3812.337969896639
 21
457.4201269404643
 31
0.0
  0
LINE
  5
81B6
330
DF
100
AcDbEntity
  8
0
100
AcDbLine
 10
3970.437969896638
 20
419.1701269404647
 30
0.0
 11
3970.437969896638
 21
523.538964928295
 31
0.0
  0
LINE
  5
81B7
330
DF
100
AcDbEntity
  8
0
100
AcDbLine
 10
3973.837969896639
 20
419.1701269404647
 30
0.0
 11
3973.837969896639
 21
520.138964928295
 31
0.0
  0
LINE
  5
81B8
330
DF
100
AcDbEntity
  8
0
100
AcDbLine
 10
3973.837969896639
 20
419.1701269404647
 30
0.0
 11
3735.837969896639
 21
419.1701269404647
 31
0.0
  0
LINE
  5
81B9
330
DF
100
AcDbEntity
  8
0
100
AcDbLine
 10
3812.337969896639
 20
482.0536228638924
 30
0.0
 11
3812.337969896639
 21
457.4201269404642
 31
0.0
  0
LINE
  5
81BA
330
DF
100
AcDbEntity
  8
0
100
AcDbLine
 10
3829.337969896639
 20
484.7960787197417
 30
0.0
 11
3829.337969896639
 21
457.4201269404642
 31
0.0
  0
LINE
  5
81BB
330
DF
100
AcDbEntity
  8
0
100
AcDbLine
 10
3846.337969896639
 20
436.1701269404643
 30
0.0
 11
3846.337969896639
 21
457.4201269404642
 31
0.0
  0
LINE
  5
81BC
330
DF
100
AcDbEntity
  8
0
100
AcDbLine
 10
3863.337969896639
 20
436.1701269404643
 30
0.0
 11
3863.337969896639
 21
457.4201269404643
 31
0.0
  0
LINE
  5
81BD
330
DF
100
AcDbEntity
  8
0
100
AcDbLine
 10
3863.337969896639
 20
444.6701269404643
 30
0.0
 11
3846.337969896639
 21
444.6701269404643
 31
0.0
  0
LINE
  5
81BE
330
DF
100
AcDbEntity
  8
0
100
AcDbLine
 10
3863.337969896639
 20
436.1701269404643
 30
0.0
 11
3846.337969896639
 21
436.1701269404643
 31
0.0
  0
LINE
  5
81BF
330
DF
100
AcDbEntity
  8
0
100
AcDbLine
 10
3739.237969896639
 20
419.1701269404647
 30
0.0
 11
3739.237969896639
 21
526.7872197017996
 31
0.0
  0
LINE
  5
81C0
330
DF
100
AcDbEntity
  8
0
100
AcDbLine
 10
3735.837969896639
 20
419.1701269404647
 30
0.0
 11
3735.837969896639
 21
529.882804319528
 31
0.0
  0
ELLIPSE
  5
81C1
330
DF
100
AcDbEntity
  8
0
100
AcDbEllipse
 10
3680.587969896639
 20
657.1701269404647
 30
0.0
 11
0.0
 21
-42.5
 31
0.0
210
0.0
220
0.0
230
-1.0
 40
0.8999999999999907
 41
6.147739623933635
 42
9.560223644015332
1001
ACAD_OBJECT_CHANGE_GUID
1070
     0
1071
        0
1070
     0
1070
     0
1070
     0
1070
     0
1070
     0
1070
     0
1070
     0
1070
     0
1070
     0
1070
     0
1070
     0
1071
        0
1070
     0
1070
     0
1070
     0
1070
     0
1070
     0
1070
     0
1070
     0
1070
     0
1070
     0
1070
     0
1070
     0
1071
        0
1070
     0
1070
     0
1070
     0
1070
     0
1070
     0
1070
     0
1070
     0
1070
     0
1070
     0
1070
     0
1070
     0
1071
        0
1070
     0
1070
     0
1070
     0
1070
     0
1070
     0
1070
     0
1070
     0
1070
     0
1070
     0
1070
     0
1070
     0
1071
        0
1070
     0
1070
     0
1070
     0
1070
     0
1070
     0
1070
     0
1070
     0
1070
     0
1070
     0
1070
     0
1070
     0
1071
        0
1070
     0
1070
     0
1070
     0
1070
     0
1070
     0
1070
     0
1070
     0
1070
     0
1070
     0
1070
     0
1070
     0
1071
        0
1070
     0
1070
     0
1070
     0
1070
     0
1070
     0
1070
     0
1070
     0
1070
     0
1070
     0
1070
     0
1070
     0
1071
        0
1070
     0
1070
     0
1070
     0
1070
     0
1070
     0
1070
     0
1070
     0
1070
     0
1070
     0
1070
     0
1070
     0
1071
        0
1070
     0
1070
     0
1070
     0
1070
     0
1070
     0
1070
     0
1070
     0
1070
     0
1070
     0
1070
     0
1070
     0
1071
        0
1070
     0
1070
     0
1070
     0
1070
     0
1070
     0
1070
     0
1070
     0
1070
     0
1070
     0
1070
     0
  0
SPLINE
  5
81C2
330
DF
100
AcDbEntity
  8
0
100
AcDbSpline
210
0.0
220
0.0
230
1.0
 70
     8
 71
     3
 72
    35
 73
    31
 74
     0
 42
0.0000000001
 43
0.0000000001
 40
6.168175449084206
 40
6.168175449084206
 40
6.168175449084206
 40
6.168175449084206
 40
6.283185307179586
 40
6.283185307179586
 40
6.283185307179586
 40
6.457084241854333
 40
6.457084241854333
 40
6.727874634765465
 40
6.727874634765465
 40
6.998665027676599
 40
6.998665027676599
 40
7.269455420587732
 40
7.269455420587732
 40
7.540245813498865
 40
7.540245813498865
 40
7.811036206409998
 40
7.811036206409998
 40
8.08182659932113
 40
8.08182659932113
 40
8.352616992232263
 40
8.352616992232263
 40
8.623407385143396
 40
8.623407385143396
 40
8.894197778054529
 40
8.894197778054529
 40
9.164988170965662
 40
9.164988170965662
 40
9.435778563876795
 40
9.435778563876795
 40
9.539783648466496
 40
9.539783648466496
 40
9.539783648466496
 40
9.539783648466496
 10
3683.895267874969
 20
623.3817395043804
 30
0.0
 10
3682.796600412331
 20
623.2407308088913
 30
0.0
 10
3681.692277515573
 20
623.1701269404648
 30
0.0
 10
3680.587969896639
 20
623.1701269404648
 30
0.0
 10
3678.918218088697
 20
623.1701269404648
 30
0.0
 10
3677.248414332817
 20
623.3315796690496
 30
0.0
 10
3673.028575095009
 20
624.1552611160186
 30
0.0
 10
3670.505799210872
 20
625.0475739992666
 30
0.0
 10
3665.716326296878
 20
627.5834503037169
 30
0.0
 10
3663.45020400308
 20
629.2279059754847
 30
0.0
 10
3659.352364287282
 20
633.1850619888252
 30
0.0
 10
3657.52181070853
 20
635.4978534048637
 30
0.0
 10
3654.461501793865
 20
640.6369877923229
 30
0.0
 10
3653.23270634136
 20
643.4626844449763
 30
0.0
 10
3651.495915093867
 20
649.4104682889274
 30
0.0
 10
3650.988419162214
 20
652.5315775032042
 30
0.0
 10
3650.745355180109
 20
658.8164151339826
 30
0.0
 10
3651.009852706894
 20
661.9790813672814
 30
0.0
 10
3652.284696823782
 20
668.0880448786333
 30
0.0
 10
3653.294686965356
 20
671.0333199153012
 30
0.0
 10
3655.9615600592
 20
676.475044001754
 30
0.0
 10
3657.617623102486
 20
678.9707018018507
 30
0.0
 10
3661.422321425705
 20
683.3353931601528
 30
0.0
 10
3663.569796010071
 20
685.2042430311846
 30
0.0
 10
3668.178221786979
 20
688.2084073673176
 30
0.0
 10
3670.638307848887
 20
689.3444116473965
 30
0.0
 10
3675.701518709933
 20
690.8397267184686
 30
0.0
 10
3678.30487525649
 20
691.1999707741324
 30
0.0
 10
3681.90343839362
 20
691.155984149987
 30
0.0
 10
3682.901666305691
 20
691.0859399034391
 30
0.0
 10
3683.895239935765
 20
690.9583730258041
 30
0.0
1001
ACAD_OBJECT_CHANGE_GUID
1070
     0
1071
        0
1070
     0
1070
     0
1070
     0
1070
     0
1070
     0
1070
     0
1070
     0
1070
     0
1070
     0
1070
     0
1070
     0
1071
        0
1070
     0
1070
     0
1070
     0
1070
     0
1070
     0
1070
     0
1070
     0
1070
     0
1070
     0
1070
     0
1070
     0
1071
        0
1070
     0
1070
     0
1070
     0
1070
     0
1070
     0
1070
     0
1070
     0
1070
     0
1070
     0
1070
     0
1070
     0
1071
        0
1070
     0
1070
     0
1070
     0
1070
     0
1070
     0
1070
     0
1070
     0
1070
     0
1070
     0
1070
     0
1070
     0
1071
        0
1070
     0
1070
     0
1070
     0
1070
     0
1070
     0
1070
     0
1070
     0
1070
     0
1070
     0
1070
     0
1070
     0
1071
        0
1070
     0
1070
     0
1070
     0
1070
     0
1070
     0
1070
     0
1070
     0
1070
     0
1070
     0
1070
     0
1070
     0
1071
        0
1070
     0
1070
     0
1070
     0
1070
     0
1070
     0
1070
     0
1070
     0
1070
     0
1070
     0
1070
     0
1070
     0
1071
        0
1070
     0
1070
     0
1070
     0
1070
     0
1070
     0
1070
     0
1070
     0
1070
     0
1070
     0
1070
     0
1070
     0
1071
        0
1070
     0
1070
     0
1070
     0
1070
     0
1070
     0
1070
     0
1070
     0
1070
     0
1070
     0
1070
     0
1070
     0
1071
        0
1070
     0
1070
     0
1070
     0
1070
     0
1070
     0
1070
     0
1070
     0
1070
     0
1070
     0
1070
     0
  0
LINE
  5
81C3
330
DF
100
AcDbEntity
  8
ITTEN
100
AcDbLine
 10
4067.337969896638
 20
657.1701269404647
 30
0.0
 11
3642.337969896639
 21
657.1701269404647
 31
0.0
  0
TEXT
  5
81C4
330
DF
100
AcDbEntity
  8
SUNPOU
100
AcDbText
 10
4193.177541362021
 20
771.168821646944
 30
0.0
 40
12.75
  1
立ち上がり100
  7
K
100
AcDbText
  0
MTEXT
  5
81C5
102
{ACAD_REACTORS
330
81C6
102
}
330
DF
100
AcDbEntity
  8
SUNPOU
100
AcDbMText
 10
4168.728188538336
 20
797.6884784527165
 30
0.0
 40
12.75
 41
0.0
 71
     4
 72
     1
  1
\A1;電源コード長さ約2300
 73
     1
 44
1.0
1001
ACAD
1000
MTEXTBEGIN
1070
    73
1070
     1
1070
    44
1040
1.0
1070
    74
1070
     0
1000
MTEXTEND
  0
LEADER
  5
81C6
330
DF
100
AcDbEntity
  8
SUNPOU
100
AcDbLeader
  3
IMAO
 73
     0
 74
     0
 75
     1
 41
169.15
 76
     3
 10
4023.922998736803
 20
699.2808799867004
 30
0.0
 10
4153.728188538337
 20
783.8134784527165
 30
0.0
 10
4161.228188538336
 20
783.8134784527165
 30
0.0
340
81C5
1001
ACAD
1000
DSTYLE
1002
{
1070
   284
1070
     0
1070
   340
1005
D7
1070
   272
1070
     4
1070
    40
1040
5.0
1070
   287
1070
     3
1070
   271
1070
     4
1070
     7
1000
ARROW
1070
     6
1000
ARROW
1070
   285
1070
     0
1070
   286
1070
     0
1002
}
  0
DIMENSION
  5
81C7
330
DF
100
AcDbEntity
  8
SUNPOU
100
AcDbDimension
  2
*D7
 10
3642.337969896639
 20
657.1701269404647
 30
0.0
 11
4033.53004677761
 21
583.153445207751
 31
0.0
 70
    34
 71
     5
 42
0.7853981633974461
  3
IMAO
100
AcDb2LineAngularDimension
 13
4005.09816089878
 23
506.9099359383232
 33
0.0
 14
3854.837969896639
 24
657.1701269404643
 34
0.0
 15
4067.337969896638
 25
657.1701269404647
 35
0.0
 16
4035.330576717923
 26
552.9626718054588
 36
0.0
1001
ACAD
1000
DSTYLE
1002
{
1070
    40
1040
5.0
1070
    79
1070
     2
1070
   179
1070
     4
1070
   271
1070
     4
1070
   272
1070
     4
1070
   279
1070
     0
1070
   284
1070
     0
1070
   285
1070
     0
1070
   286
1070
     0
1070
   340
1005
D7
1070
   343
1005
E3
1070
   344
1005
E3
1002
}
  0
DIMENSION
  5
81C8
330
DF
100
AcDbEntity
  8
SUNPOU
100
AcDbDimension
  2
*D8
 10
4107.476878656119
 20
657.1701269404734
 30
0.0
 11
4092.476878656118
 21
678.420126940469
 31
0.0
 70
    32
  1
50
 71
     5
 42
42.5
  3
IMAO
100
AcDbAlignedDimension
 13
4029.087969896631
 23
699.6701269404647
 33
0.0
 14
4067.337969896638
 24
657.1701269404734
 34
0.0
 50
90.0
100
AcDbRotatedDimension
1001
ACAD
1000
DSTYLE
1002
{
1070
    40
1040
5.0
1070
   271
1070
     4
1070
   272
1070
     4
1070
   279
1070
     0
1070
   284
1070
     0
1070
   285
1070
     0
1070
   286
1070
     0
1070
   340
1005
D7
1070
   343
1005
E3
1070
   344
1005
E3
1002
}
  0
SPLINE
  5
81C9
330
DF
100
AcDbEntity
  8
0
100
AcDbSpline
210
0.0
220
0.0
230
1.0
 70
     8
 71
     3
 72
    35
 73
    31
 74
     0
 42
0.0000000001
 43
0.0000000001
 40
6.168175449084206
 40
6.168175449084206
 40
6.168175449084206
 40
6.168175449084206
 40
6.283185307179586
 40
6.283185307179586
 40
6.283185307179586
 40
6.457084241854333
 40
6.457084241854333
 40
6.727874634765465
 40
6.727874634765465
 40
6.998665027676599
 40
6.998665027676599
 40
7.269455420587732
 40
7.269455420587732
 40
7.540245813498865
 40
7.540245813498865
 40
7.811036206409998
 40
7.811036206409998
 40
8.08182659932113
 40
8.08182659932113
 40
8.352616992232263
 40
8.352616992232263
 40
8.623407385143396
 40
8.623407385143396
 40
8.894197778054529
 40
8.894197778054529
 40
9.164988170965662
 40
9.164988170965662
 40
9.435778563876795
 40
9.435778563876795
 40
9.539783648466496
 40
9.539783648466496
 40
9.539783648466496
 40
9.539783648466496
 10
4025.780671918307
 20
623.3817395043804
 30
0.0
 10
4026.879339380946
 20
623.2407308088913
 30
0.0
 10
4027.983662277704
 20
623.1701269404648
 30
0.0
 10
4029.087969896639
 20
623.1701269404648
 30
0.0
 10
4030.75772170458
 20
623.1701269404648
 30
0.0
 10
4032.427525460462
 20
623.3315796690496
 30
0.0
 10
4036.647364698268
 20
624.1552611160186
 30
0.0
 10
4039.170140582405
 20
625.0475739992666
 30
0.0
 10
4043.9596134964
 20
627.5834503037169
 30
0.0
 10
4046.225735790197
 20
629.2279059754847
 30
0.0
 10
4050.323575505996
 20
633.1850619888252
 30
0.0
 10
4052.154129084747
 20
635.4978534048637
 30
0.0
 10
4055.214437999413
 20
640.6369877923229
 30
0.0
 10
4056.443233451918
 20
643.4626844449763
 30
0.0
 10
4058.180024699412
 20
649.4104682889274
 30
0.0
 10
4058.687520631064
 20
652.5315775032042
 30
0.0
 10
4058.930584613168
 20
658.8164151339826
 30
0.0
 10
4058.666087086383
 20
661.9790813672814
 30
0.0
 10
4057.391242969496
 20
668.0880448786333
 30
0.0
 10
4056.381252827922
 20
671.0333199153012
 30
0.0
 10
4053.714379734077
 20
676.475044001754
 30
0.0
 10
4052.058316690792
 20
678.9707018018507
 30
0.0
 10
4048.253618367573
 20
683.3353931601528
 30
0.0
 10
4046.106143783207
 20
685.2042430311846
 30
0.0
 10
4041.497718006299
 20
688.2084073673176
 30
0.0
 10
4039.03763194439
 20
689.3444116473965
 30
0.0
 10
4033.974421083345
 20
690.8397267184686
 30
0.0
 10
4031.371064536788
 20
691.1999707741324
 30
0.0
 10
4027.772501399658
 20
691.155984149987
 30
0.0
 10
4026.774273487586
 20
691.0859399034391
 30
0.0
 10
4025.780699857514
 20
690.9583730258041
 30
0.0
1001
ACAD_OBJECT_CHANGE_GUID
1070
     0
1071
        0
1070
     0
1070
     0
1070
     0
1070
     0
1070
     0
1070
     0
1070
     0
1070
     0
1070
     0
1070
     0
1070
     0
1071
        0
1070
     0
1070
     0
1070
     0
1070
     0
1070
     0
1070
     0
1070
     0
1070
     0
1070
     0
1070
     0
1070
     0
1071
        0
1070
     0
1070
     0
1070
     0
1070
     0
1070
     0
1070
     0
1070
     0
1070
     0
1070
     0
1070
     0
1070
     0
1071
        0
1070
     0
1070
     0
1070
     0
1070
     0
1070
     0
1070
     0
1070
     0
1070
     0
1070
     0
1070
     0
1070
     0
1071
        0
1070
     0
1070
     0
1070
     0
1070
     0
1070
     0
1070
     0
1070
     0
1070
     0
1070
     0
1070
     0
1070
     0
1071
        0
1070
     0
1070
     0
1070
     0
1070
     0
1070
     0
1070
     0
1070
     0
1070
     0
1070
     0
1070
     0
1070
     0
1071
        0
1070
     0
1070
     0
1070
     0
1070
     0
1070
     0
1070
     0
1070
     0
1070
     0
1070
     0
1070
     0
1070
     0
1071
        0
1070
     0
1070
     0
1070
     0
1070
     0
1070
     0
1070
     0
1070
     0
1070
     0
1070
     0
1070
     0
1070
     0
1071
        0
1070
     0
1070
     0
1070
     0
1070
     0
1070
     0
1070
     0
1070
     0
1070
     0
1070
     0
1070
     0
1070
     0
1071
        0
1070
     0
1070
     0
1070
     0
1070
     0
1070
     0
1070
     0
1070
     0
1070
     0
1070
     0
1070
     0
  0
ELLIPSE
  5
81CA
330
DF
100
AcDbEntity
  8
0
100
AcDbEllipse
 10
4029.087969896639
 20
657.1701269404647
 30
0.0
 11
0.0
 21
-42.5
 31
0.0
210
0.0
220
0.0
230
1.0
 40
0.8999999999999907
 41
6.147739623933635
 42
9.560223644015332
1001
ACAD_OBJECT_CHANGE_GUID
1070
     0
1071
        0
1070
     0
1070
     0
1070
     0
1070
     0
1070
     0
1070
     0
1070
     0
1070
     0
1070
     0
1070
     0
1070
     0
1071
        0
1070
     0
1070
     0
1070
     0
1070
     0
1070
     0
1070
     0
1070
     0
1070
     0
1070
     0
1070
     0
1070
     0
1071
        0
1070
     0
1070
     0
1070
     0
1070
     0
1070
     0
1070
     0
1070
     0
1070
     0
1070
     0
1070
     0
1070
     0
1071
        0
1070
     0
1070
     0
1070
     0
1070
     0
1070
     0
1070
     0
1070
     0
1070
     0
1070
     0
1070
     0
1070
     0
1071
        0
1070
     0
1070
     0
1070
     0
1070
     0
1070
     0
1070
     0
1070
     0
1070
     0
1070
     0
1070
     0
1070
     0
1071
        0
1070
     0
1070
     0
1070
     0
1070
     0
1070
     0
1070
     0
1070
     0
1070
     0
1070
     0
1070
     0
1070
     0
1071
        0
1070
     0
1070
     0
1070
     0
1070
     0
1070
     0
1070
     0
1070
     0
1070
     0
1070
     0
1070
     0
1070
     0
1071
        0
1070
     0
1070
     0
1070
     0
1070
     0
1070
     0
1070
     0
1070
     0
1070
     0
1070
     0
1070
     0
1070
     0
1071
        0
1070
     0
1070
     0
1070
     0
1070
     0
1070
     0
1070
     0
1070
     0
1070
     0
1070
     0
1070
     0
1070
     0
1071
        0
1070
     0
1070
     0
1070
     0
1070
     0
1070
     0
1070
     0
1070
     0
1070
     0
1070
     0
1070
     0
  0
CIRCLE
  5
81CB
330
DF
100
AcDbEntity
  8
0
100
AcDbCircle
 10
3854.837969896639
 20
657.1701269404647
 30
0.0
 40
80.44336586514825
  0
LINE
  5
81CC
330
DF
100
AcDbEntity
  8
0
100
AcDbLine
 10
4016.002363901572
 20
514.0370167638766
 30
0.0
 11
3986.736684082282
 21
543.3026965831662
 31
0.0
  0
ARC
  5
81CD
330
DF
100
AcDbEntity
  8
0
100
AcDbCircle
 10
4305.505919749169
 20
48.40106849441667
 30
0.0
 40
14.3414460264644
100
AcDbArc
 50
229.6527492991827
 51
138.9713294597896
  0
ELLIPSE
  5
81CE
330
DF
100
AcDbEntity
  8
0
100
AcDbEllipse
 10
4303.273540354701
 20
50.00446283731412
 30
0.0
 11
0.8097906781435289
 21
-15.72600487363247
 31
0.0
210
0.0
220
0.0
230
1.0
 40
0.7678641535702465
 41
5.427462728861332
 42
5.594139082400647
1001
ACAD_OBJECT_CHANGE_GUID
1070
     0
1071
        0
1070
     0
1070
     0
1070
     0
1070
     0
1070
     0
1070
     0
1070
     0
1070
     0
1070
     0
1070
     0
1070
     0
1071
        0
1070
     0
1070
     0
1070
     0
1070
     0
1070
     0
1070
     0
1070
     0
1070
     0
1070
     0
1070
     0
1070
     0
1071
        0
1070
     0
1070
     0
1070
     0
1070
     0
1070
     0
1070
     0
1070
     0
1070
     0
1070
     0
1070
     0
1070
     0
1071
        0
1070
     0
1070
     0
1070
     0
1070
     0
1070
     0
1070
     0
1070
     0
1070
     0
1070
     0
1070
     0
1070
     0
1071
        0
1070
     0
1070
     0
1070
     0
1070
     0
1070
     0
1070
     0
1070
     0
1070
     0
1070
     0
1070
     0
1070
     0
1071
        0
1070
     0
1070
     0
1070
     0
1070
     0
1070
     0
1070
     0
1070
     0
1070
     0
1070
     0
1070
     0
1070
     0
1071
        0
1070
     0
1070
     0
1070
     0
1070
     0
1070
     0
1070
     0
1070
     0
1070
     0
1070
     0
1070
     0
1070
     0
1071
        0
1070
     0
1070
     0
1070
     0
1070
     0
1070
     0
1070
     0
1070
     0
1070
     0
1070
     0
1070
     0
1070
     0
1071
        0
1070
     0
1070
     0
1070
     0
1070
     0
1070
     0
1070
     0
1070
     0
1070
     0
1070
     0
1070
     0
1070
     0
1071
        0
1070
     0
1070
     0
1070
     0
1070
     0
1070
     0
1070
     0
1070
     0
1070
     0
1070
     0
1070
     0
  0
ELLIPSE
  5
81CF
330
DF
100
AcDbEntity
  8
0
100
AcDbEllipse
 10
4303.273540354701
 20
50.00446283731412
 30
0.0
 11
0.8097906781435289
 21
-15.72600487363247
 31
0.0
210
0.0
220
0.0
230
1.0
 40
0.7678641535702465
 41
6.189455079097946
 42
8.636758086860075
1001
ACAD_OBJECT_CHANGE_GUID
1070
     0
1071
        0
1070
     0
1070
     0
1070
     0
1070
     0
1070
     0
1070
     0
1070
     0
1070
     0
1070
     0
1070
     0
1070
     0
1071
        0
1070
     0
1070
     0
1070
     0
1070
     0
1070
     0
1070
     0
1070
     0
1070
     0
1070
     0
1070
     0
1070
     0
1071
        0
1070
     0
1070
     0
1070
     0
1070
     0
1070
     0
1070
     0
1070
     0
1070
     0
1070
     0
1070
     0
1070
     0
1071
        0
1070
     0
1070
     0
1070
     0
1070
     0
1070
     0
1070
     0
1070
     0
1070
     0
1070
     0
1070
     0
1070
     0
1071
        0
1070
     0
1070
     0
1070
     0
1070
     0
1070
     0
1070
     0
1070
     0
1070
     0
1070
     0
1070
     0
1070
     0
1071
        0
1070
     0
1070
     0
1070
     0
1070
     0
1070
     0
1070
     0
1070
     0
1070
     0
1070
     0
1070
     0
1070
     0
1071
        0
1070
     0
1070
     0
1070
     0
1070
     0
1070
     0
1070
     0
1070
     0
1070
     0
1070
     0
1070
     0
1070
     0
1071
        0
1070
     0
1070
     0
1070
     0
1070
     0
1070
     0
1070
     0
1070
     0
1070
     0
1070
     0
1070
     0
1070
     0
1071
        0
1070
     0
1070
     0
1070
     0
1070
     0
1070
     0
1070
     0
1070
     0
1070
     0
1070
     0
1070
     0
1070
     0
1071
        0
1070
     0
1070
     0
1070
     0
1070
     0
1070
     0
1070
     0
1070
     0
1070
     0
1070
     0
1070
     0
  0
LINE
  5
81D0
330
DF
100
AcDbEntity
  8
0
100
AcDbLine
 10
4303.42001801984
 20
62.5900109534432
 30
0.0
 11
4294.687002530771
 21
57.81531856287222
 31
0.0
  0
LINE
  5
81D1
330
DF
100
AcDbEntity
  8
0
100
AcDbLine
 10
4303.42001801984
 20
34.21212603538936
 30
0.0
 11
4303.31810646609
 21
34.27061128984883
 31
0.0
  0
LINE
  5
81D2
330
DF
100
AcDbEntity
  8
0
100
AcDbLine
 10
4297.237002530772
 20
59.20950658546257
 30
0.0
 11
4297.237002530772
 21
39.22385055807115
 31
0.0
  0
LINE
  5
81D3
330
DF
100
AcDbEntity
  8
0
100
AcDbLine
 10
4294.687002530771
 20
57.81531856287222
 30
0.0
 11
4294.687002530771
 21
39.22385055807115
 31
0.0
  0
LINE
  5
81D4
330
DF
100
AcDbEntity
  8
0
100
AcDbLine
 10
4303.42001801984
 20
62.5900109534432
 30
0.0
 11
4303.42001801984
 21
35.67552634068306
 31
0.0
  0
LINE
  5
81D5
330
DF
100
AcDbEntity
  8
0
100
AcDbLine
 10
4303.42001801984
 20
35.67552634068284
 30
0.0
 11
4297.237002530772
 21
39.22385055807115
 31
0.0
  0
LINE
  5
81D6
330
DF
100
AcDbEntity
  8
0
100
AcDbLine
 10
4297.237002530772
 20
39.22385055807115
 30
0.0
 11
4294.687002530771
 21
39.22385055807115
 31
0.0
  0
LINE
  5
81D7
330
DF
100
AcDbEntity
  8
0
100
AcDbLine
 10
4303.42001801984
 20
35.67552634068284
 30
0.0
 11
4300.870018019841
 21
35.67552634068284
 31
0.0
  0
LINE
  5
81D8
330
DF
100
AcDbEntity
  8
0
100
AcDbLine
 10
4300.870018019841
 20
35.67552634068284
 30
0.0
 11
4294.687002530771
 21
39.22385055807115
 31
0.0
  0
LINE
  5
81D9
330
DF
100
AcDbEntity
  8
0
100
AcDbLine
 10
4303.42001801984
 20
34.26802070265399
 30
0.0
 11
4303.42001801984
 21
34.21212603538936
 31
0.0
  0
DIMENSION
  5
81DA
330
DF
100
AcDbEntity
  8
SUNPOU
100
AcDbDimension
  2
*D9
 10
4142.011016906585
 20
479.1842937083036
 30
0.0
 11
4261.011016906585
 21
494.1842937083037
 31
0.0
 70
    32
  1
280
 71
     5
 42
238.0
  3
IMAO
100
AcDbAlignedDimension
 13
4380.011016906586
 23
384.0154397371464
 33
0.0
 14
4142.011016906585
 24
77.16543973714613
 34
0.0
100
AcDbRotatedDimension
1001
ACAD
1000
DSTYLE
1002
{
1070
    40
1040
5.0
1070
   271
1070
     4
1070
   272
1070
     4
1070
   279
1070
     0
1070
   284
1070
     0
1070
   285
1070
     0
1070
   286
1070
     0
1070
   340
1005
D7
1070
   343
1005
E3
1070
   344
1005
E3
1002
}
  0
DIMENSION
  5
81DB
330
DF
100
AcDbEntity
  8
SUNPOU
100
AcDbDimension
  2
*D10
 10
4615.866892030288
 20
384.0154397371464
 30
0.0
 11
4600.866892030288
 21
119.6654397371463
 31
0.0
 70
    32
  1
622
 71
     5
 42
528.7
  3
IMAO
100
AcDbAlignedDimension
 13
4543.211016906585
 23
-144.6845602628537
 33
0.0
 14
4473.511016906585
 24
384.0154397371464
 34
0.0
 50
90.0
100
AcDbRotatedDimension
1001
ACAD
1000
DSTYLE
1002
{
1070
    40
1040
5.0
1070
   271
1070
     4
1070
   272
1070
     4
1070
   279
1070
     0
1070
   284
1070
     0
1070
   285
1070
     0
1070
   286
1070
     0
1070
   340
1005
D7
1070
   343
1005
E3
1070
   344
1005
E3
1002
}
  0
DIMENSION
  5
81DC
330
DF
100
AcDbEntity
  8
SUNPOU
100
AcDbDimension
  2
*D11
 10
4585.254824458181
 20
-144.6845602628537
 30
0.0
 11
4570.254824458181
 21
106.9154397371463
 31
0.0
 70
    32
  1
592
 71
     5
 42
503.2
  3
IMAO
100
AcDbAlignedDimension
 13
4486.014746168701
 23
358.5154397371463
 33
0.0
 14
4543.211016906585
 24
-144.6845602628537
 34
0.0
 50
90.0
100
AcDbRotatedDimension
1001
ACAD
1000
DSTYLE
1002
{
1070
    40
1040
5.0
1070
   271
1070
     4
1070
   272
1070
     4
1070
   279
1070
     0
1070
   284
1070
     0
1070
   285
1070
     0
1070
   286
1070
     0
1070
   340
1005
D7
1070
   343
1005
E3
1070
   344
1005
E3
1002
}
  0
DIMENSION
  5
81DD
330
DF
100
AcDbEntity
  8
SUNPOU
100
AcDbDimension
  2
*D12
 10
4478.23522362394
 20
-144.6845602628537
 30
0.0
 11
4478.23522362394
 21
-179.327417405711
 31
0.0
 70
   160
  1
20
 71
     5
 42
17.0
  3
IMAO
100
AcDbAlignedDimension
 13
4526.211016906585
 23
-127.6845602628536
 33
0.0
 14
4526.211016906585
 24
-144.6845602628537
 34
0.0
 50
90.0
100
AcDbRotatedDimension
1001
ACAD
1000
DSTYLE
1002
{
1070
    40
1040
5.0
1070
   271
1070
     4
1070
   272
1070
     4
1070
   279
1070
     0
1070
   284
1070
     0
1070
   285
1070
     0
1070
   286
1070
     0
1070
   340
1005
D7
1070
   343
1005
E3
1070
   344
1005
E3
1002
}
  0
DIMENSION
  5
81DE
330
DF
100
AcDbEntity
  8
SUNPOU
100
AcDbDimension
  2
*D13
 10
4172.384010891064
 20
-144.6845602628537
 30
0.0
 11
4157.384010891064
 21
-63.93456026285367
 31
0.0
 70
    32
  1
190
 71
     5
 42
161.5
  3
IMAO
100
AcDbAlignedDimension
 13
4212.561016906586
 23
16.81543973714633
 33
0.0
 14
4216.811016906586
 24
-144.6845602628537
 34
0.0
 50
90.0
100
AcDbRotatedDimension
1001
ACAD
1000
DSTYLE
1002
{
1070
    40
1040
5.0
1070
   271
1070
     4
1070
   272
1070
     4
1070
   279
1070
     0
1070
   284
1070
     0
1070
   285
1070
     0
1070
   286
1070
     0
1070
   340
1005
D7
1070
   343
1005
E3
1070
   344
1005
E3
1002
}
  0
CIRCLE
  5
81DF
330
DF
100
AcDbEntity
  8
0
100
AcDbCircle
 10
4197.950241264089
 20
250.5016439238632
 30
0.0
 40
4.924075458339315
  0
ARC
  5
81E0
330
DF
100
AcDbEntity
  8
0
100
AcDbCircle
 10
4198.578359618173
 20
251.6538178110297
 30
0.0
 40
7.649999999999999
100
AcDbArc
 50
0.0
 51
90.0
  0
ARC
  5
81E1
330
DF
100
AcDbEntity
  8
0
100
AcDbCircle
 10
4197.728359618174
 20
250.8038178110296
 30
0.0
 40
8.5
100
AcDbArc
 50
90.0
 51
180.0
  0
LINE
  5
81E2
330
DF
100
AcDbEntity
  8
0
100
AcDbLine
 10
4197.728359618174
 20
259.3038178110296
 30
0.0
 11
4198.578359618173
 21
259.3038178110296
 31
0.0
  0
LINE
  5
81E3
330
DF
100
AcDbEntity
  8
0
100
AcDbLine
 10
4189.228359618173
 20
250.8038178110296
 30
0.0
 11
4189.228359618173
 21
187.8084924632533
 31
0.0
  0
LINE
  5
81E4
330
DF
100
AcDbEntity
  8
0
100
AcDbLine
 10
4206.228359618173
 20
251.6538178110295
 30
0.0
 11
4206.228359618173
 21
196.166604742534
 31
0.0
  0
LINE
  5
81E5
330
DF
100
AcDbEntity
  8
0
100
AcDbLine
 10
4221.061016906586
 20
259.3038178110296
 30
0.0
 11
4221.061016906586
 21
210.6154397371464
 31
0.0
  0
LINE
  5
81E6
330
DF
100
AcDbEntity
  8
0
100
AcDbLine
 10
4221.061016906586
 20
259.3038178110296
 30
0.0
 11
4212.561016906586
 21
259.3038178110296
 31
0.0
  0
LINE
  5
81E7
330
DF
100
AcDbEntity
  8
0
100
AcDbLine
 10
4161.561016906586
 20
210.6154397371463
 30
0.0
 11
4188.722763487077
 21
179.3233684830916
 31
0.0
  0
LINE
  5
81E8
330
DF
100
AcDbEntity
  8
0
100
AcDbLine
 10
4167.511016906586
 20
210.6154397371463
 30
0.0
 11
4192.95905209493
 21
183.8906233324651
 31
0.0
  0
LINE
  5
81E9
330
DF
100
AcDbEntity
  8
0
100
AcDbLine
 10
4161.561016906586
 20
289.0538178110296
 30
0.0
 11
4167.511016906586
 21
289.0538178110296
 31
0.0
  0
LINE
  5
81EA
330
DF
100
AcDbEntity
  8
0
100
AcDbLine
 10
4161.561016906586
 20
289.0538178110296
 30
0.0
 11
4161.561016906586
 21
210.6154397371463
 31
0.0
  0
LINE
  5
81EB
330
DF
100
AcDbEntity
  8
0
100
AcDbLine
 10
4167.511016906586
 20
289.0538178110296
 30
0.0
 11
4167.511016906586
 21
210.6154397371463
 31
0.0
  0
CIRCLE
  5
81EC
330
DF
100
AcDbEntity
  8
0
100
AcDbCircle
 10
4343.228903039096
 20
46.42490156300095
 30
0.0
 40
8.5
  0
ELLIPSE
  5
81ED
330
DF
100
AcDbEntity
  8
TENSEN
100
AcDbEllipse
 10
4263.561016906587
 20
16.81550588855055
 30
0.0
 11
-0.0000000000011596
 21
19.54993384859581
 31
0.0
210
0.0
220
0.0
230
1.0
 40
0.9130324137956906
 41
7.143534577975087
 42
8.564437617186886
1001
ACAD_OBJECT_CHANGE_GUID
1070
     0
1071
        0
1070
     0
1070
     0
1070
     0
1070
     0
1070
     0
1070
     0
1070
     0
1070
     0
1070
     0
1070
     0
1070
     0
1071
        0
1070
     0
1070
     0
1070
     0
1070
     0
1070
     0
1070
     0
1070
     0
1070
     0
1070
     0
1070
     0
1070
     0
1071
        0
1070
     0
1070
     0
1070
     0
1070
     0
1070
     0
1070
     0
1070
     0
1070
     0
1070
     0
1070
     0
1070
     0
1071
        0
1070
     0
1070
     0
1070
     0
1070
     0
1070
     0
1070
     0
1070
     0
1070
     0
1070
     0
1070
     0
1070
     0
1071
        0
1070
     0
1070
     0
1070
     0
1070
     0
1070
     0
1070
     0
1070
     0
1070
     0
1070
     0
1070
     0
1070
     0
1071
        0
1070
     0
1070
     0
1070
     0
1070
     0
1070
     0
1070
     0
1070
     0
1070
     0
1070
     0
1070
     0
1070
     0
1071
        0
1070
     0
1070
     0
1070
     0
1070
     0
1070
     0
1070
     0
1070
     0
1070
     0
1070
     0
1070
     0
1070
     0
1071
        0
1070
     0
1070
     0
1070
     0
1070
     0
1070
     0
1070
     0
1070
     0
1070
     0
1070
     0
1070
     0
1070
     0
1071
        0
1070
     0
1070
     0
1070
     0
1070
     0
1070
     0
1070
     0
1070
     0
1070
     0
1070
     0
1070
     0
1070
     0
1071
        0
1070
     0
1070
     0
1070
     0
1070
     0
1070
     0
1070
     0
1070
     0
1070
     0
1070
     0
1070
     0
  0
ELLIPSE
  5
81EE
330
DF
100
AcDbEntity
  8
TENSEN
100
AcDbEllipse
 10
4263.561016906587
 20
16.81550588855055
 30
0.0
 11
-0.0000000000011596
 21
19.54993384859581
 31
0.0
210
0.0
220
0.0
230
1.0
 40
0.9130324137956906
 41
9.339239407932685
 42
9.424777960769379
1001
ACAD_OBJECT_CHANGE_GUID
1070
     0
1071
        0
1070
     0
1070
     0
1070
     0
1070
     0
1070
     0
1070
     0
1070
     0
1070
     0
1070
     0
1070
     0
1070
     0
1071
        0
1070
     0
1070
     0
1070
     0
1070
     0
1070
     0
1070
     0
1070
     0
1070
     0
1070
     0
1070
     0
1070
     0
1071
        0
1070
     0
1070
     0
1070
     0
1070
     0
1070
     0
1070
     0
1070
     0
1070
     0
1070
     0
1070
     0
1070
     0
1071
        0
1070
     0
1070
     0
1070
     0
1070
     0
1070
     0
1070
     0
1070
     0
1070
     0
1070
     0
1070
     0
1070
     0
1071
        0
1070
     0
1070
     0
1070
     0
1070
     0
1070
     0
1070
     0
1070
     0
1070
     0
1070
     0
1070
     0
1070
     0
1071
        0
1070
     0
1070
     0
1070
     0
1070
     0
1070
     0
1070
     0
1070
     0
1070
     0
1070
     0
1070
     0
1070
     0
1071
        0
1070
     0
1070
     0
1070
     0
1070
     0
1070
     0
1070
     0
1070
     0
1070
     0
1070
     0
1070
     0
1070
     0
1071
        0
1070
     0
1070
     0
1070
     0
1070
     0
1070
     0
1070
     0
1070
     0
1070
     0
1070
     0
1070
     0
1070
     0
1071
        0
1070
     0
1070
     0
1070
     0
1070
     0
1070
     0
1070
     0
1070
     0
1070
     0
1070
     0
1070
     0
1070
     0
1071
        0
1070
     0
1070
     0
1070
     0
1070
     0
1070
     0
1070
     0
1070
     0
1070
     0
1070
     0
1070
     0
  0
ELLIPSE
  5
81EF
330
DF
100
AcDbEntity
  8
TENSEN
100
AcDbEllipse
 10
4263.561016906587
 20
16.81550588855055
 30
0.0
 11
-0.0000000000011596
 21
19.54993384859581
 31
0.0
210
0.0
220
0.0
230
1.0
 40
0.9130324137956906
 41
6.28312805952093
 42
6.285968948738251
1001
ACAD_OBJECT_CHANGE_GUID
1070
     0
1071
        0
1070
     0
1070
     0
1070
     0
1070
     0
1070
     0
1070
     0
1070
     0
1070
     0
1070
     0
1070
     0
1070
     0
1071
        0
1070
     0
1070
     0
1070
     0
1070
     0
1070
     0
1070
     0
1070
     0
1070
     0
1070
     0
1070
     0
1070
     0
1071
        0
1070
     0
1070
     0
1070
     0
1070
     0
1070
     0
1070
     0
1070
     0
1070
     0
1070
     0
1070
     0
1070
     0
1071
        0
1070
     0
1070
     0
1070
     0
1070
     0
1070
     0
1070
     0
1070
     0
1070
     0
1070
     0
1070
     0
1070
     0
1071
        0
1070
     0
1070
     0
1070
     0
1070
     0
1070
     0
1070
     0
1070
     0
1070
     0
1070
     0
1070
     0
1070
     0
1071
        0
1070
     0
1070
     0
1070
     0
1070
     0
1070
     0
1070
     0
1070
     0
1070
     0
1070
     0
1070
     0
1070
     0
1071
        0
1070
     0
1070
     0
1070
     0
1070
     0
1070
     0
1070
     0
1070
     0
1070
     0
1070
     0
1070
     0
1070
     0
1071
        0
1070
     0
1070
     0
1070
     0
1070
     0
1070
     0
1070
     0
1070
     0
1070
     0
1070
     0
1070
     0
1070
     0
1071
        0
1070
     0
1070
     0
1070
     0
1070
     0
1070
     0
1070
     0
1070
     0
1070
     0
1070
     0
1070
     0
1070
     0
1071
        0
1070
     0
1070
     0
1070
     0
1070
     0
1070
     0
1070
     0
1070
     0
1070
     0
1070
     0
1070
     0
  0
ELLIPSE
  5
81F0
330
DF
100
AcDbEntity
  8
HOJO
100
AcDbEllipse
 10
4263.561016906587
 20
16.81550588855055
 30
0.0
 11
-0.0000000000011596
 21
19.54993384859581
 31
0.0
210
0.0
220
0.0
230
1.0
 40
0.9130324137956906
 41
4.653824270326261
 42
4.72990816217672
1001
ACAD_OBJECT_CHANGE_GUID
1070
     0
1071
        0
1070
     0
1070
     0
1070
     0
1070
     0
1070
     0
1070
     0
1070
     0
1070
     0
1070
     0
1070
     0
1070
     0
1071
        0
1070
     0
1070
     0
1070
     0
1070
     0
1070
     0
1070
     0
1070
     0
1070
     0
1070
     0
1070
     0
1070
     0
1071
        0
1070
     0
1070
     0
1070
     0
1070
     0
1070
     0
1070
     0
1070
     0
1070
     0
1070
     0
1070
     0
1070
     0
1071
        0
1070
     0
1070
     0
1070
     0
1070
     0
1070
     0
1070
     0
1070
     0
1070
     0
1070
     0
1070
     0
1070
     0
1071
        0
1070
     0
1070
     0
1070
     0
1070
     0
1070
     0
1070
     0
1070
     0
1070
     0
1070
     0
1070
     0
1070
     0
1071
        0
1070
     0
1070
     0
1070
     0
1070
     0
1070
     0
1070
     0
1070
     0
1070
     0
1070
     0
1070
     0
1070
     0
1071
        0
1070
     0
1070
     0
1070
     0
1070
     0
1070
     0
1070
     0
1070
     0
1070
     0
1070
     0
1070
     0
1070
     0
1071
        0
1070
     0
1070
     0
1070
     0
1070
     0
1070
     0
1070
     0
1070
     0
1070
     0
1070
     0
1070
     0
1070
     0
1071
        0
1070
     0
1070
     0
1070
     0
1070
     0
1070
     0
1070
     0
1070
     0
1070
     0
1070
     0
1070
     0
1070
     0
1071
        0
1070
     0
1070
     0
1070
     0
1070
     0
1070
     0
1070
     0
1070
     0
1070
     0
1070
     0
1070
     0
  0
ELLIPSE
  5
81F1
330
DF
100
AcDbEntity
  8
TENSEN
100
AcDbEllipse
 10
4263.561016906585
 20
16.81543973714633
 30
0.0
 11
0.0
 21
-12.75
 31
0.0
210
0.0
220
0.0
230
1.0
 40
0.8666666666666667
 41
3.141592653589793
 42
6.283185307179586
1001
ACAD_OBJECT_CHANGE_GUID
1070
     0
1071
        0
1070
     0
1070
     0
1070
     0
1070
     0
1070
     0
1070
     0
1070
     0
1070
     0
1070
     0
1070
     0
1070
     0
1071
        0
1070
     0
1070
     0
1070
     0
1070
     0
1070
     0
1070
     0
1070
     0
1070
     0
1070
     0
1070
     0
1070
     0
1071
        0
1070
     0
1070
     0
1070
     0
1070
     0
1070
     0
1070
     0
1070
     0
1070
     0
1070
     0
1070
     0
1070
     0
1071
        0
1070
     0
1070
     0
1070
     0
1070
     0
1070
     0
1070
     0
1070
     0
1070
     0
1070
     0
1070
     0
1070
     0
1071
        0
1070
     0
1070
     0
1070
     0
1070
     0
1070
     0
1070
     0
1070
     0
1070
     0
1070
     0
1070
     0
1070
     0
1071
        0
1070
     0
1070
     0
1070
     0
1070
     0
1070
     0
1070
     0
1070
     0
1070
     0
1070
     0
1070
     0
1070
     0
1071
        0
1070
     0
1070
     0
1070
     0
1070
     0
1070
     0
1070
     0
1070
     0
1070
     0
1070
     0
1070
     0
1070
     0
1071
        0
1070
     0
1070
     0
1070
     0
1070
     0
1070
     0
1070
     0
1070
     0
1070
     0
1070
     0
1070
     0
1070
     0
1071
        0
1070
     0
1070
     0
1070
     0
1070
     0
1070
     0
1070
     0
1070
     0
1070
     0
1070
     0
1070
     0
1070
     0
1071
        0
1070
     0
1070
     0
1070
     0
1070
     0
1070
     0
1070
     0
1070
     0
1070
     0
1070
     0
1070
     0
  0
LINE
  5
81F2
330
DF
100
AcDbEntity
  8
ITTEN
100
AcDbLine
 10
4263.561016906588
 20
-21.43456026285367
 30
0.0
 11
4263.561016906588
 21
47.41530743433782
 31
0.0
  0
LINE
  5
81F3
330
DF
100
AcDbEntity
  8
0
100
AcDbLine
 10
4224.073722585724
 20
4.065439737146334
 30
0.0
 11
4263.561016906588
 21
4.065439737146334
 31
0.0
  0
LINE
  5
81F4
330
DF
100
AcDbEntity
  8
0
100
AcDbLine
 10
4224.073722585724
 20
29.56543973714634
 30
0.0
 11
4263.561016906585
 21
29.56543973714634
 31
0.0
  0
CIRCLE
  5
81F5
330
DF
100
AcDbEntity
  8
0
100
AcDbCircle
 10
4226.426945777477
 20
16.81543973714633
 30
0.0
 40
10.41534455347046
  0
CIRCLE
  5
81F6
330
DF
100
AcDbEntity
  8
0
100
AcDbCircle
 10
4226.426945777477
 20
16.81543973714633
 30
0.0
 40
12.96534455347046
  0
SPLINE
  5
81F7
330
DF
100
AcDbEntity
  8
0
100
AcDbSpline
210
0.0
220
0.0
230
1.0
 70
     8
 71
     3
 72
    45
 73
    41
 74
     0
 42
0.0000000001
 43
0.0000000001
 40
2.306227421583527
 40
2.306227421583527
 40
2.306227421583527
 40
2.306227421583527
 40
2.363915844809297
 40
2.363915844809297
 40
2.682176616171325
 40
2.682176616171325
 40
2.9314237568572
 40
2.9314237568572
 40
3.180670897543074
 40
3.180670897543074
 40
3.429918038228949
 40
3.429918038228949
 40
3.679165178914823
 40
3.679165178914823
 40
3.928412319600698
 40
3.928412319600698
 40
4.177659460286572
 40
4.177659460286572
 40
4.426906600972446
 40
4.426906600972446
 40
4.855016457756462
 40
4.855016457756462
 40
5.283126314540479
 40
5.283126314540479
 40
5.58190875506254
 40
5.58190875506254
 40
5.880691195584602
 40
5.880691195584602
 40
6.127556924218256
 40
6.127556924218256
 40
6.283185307179586
 40
6.283185307179586
 40
6.283185307179586
 40
6.449659678172341
 40
6.449659678172341
 40
6.701098328328999
 40
6.701098328328999
 40
6.952536978485658
 40
6.952536978485658
 40
7.118549623311436
 40
7.118549623311436
 40
7.118549623311436
 40
7.118549623311436
 10
4250.015994934146
 20
4.065439737146334
 30
0.0
 10
4250.237232440254
 20
3.783227036364905
 30
0.0
 10
4250.466480930898
 20
3.507165101439795
 30
0.0
 10
4252.011696414368
 20
1.751547169869809
 30
0.0
 10
4253.560700175451
 20
0.4690856996256798
 30
0.0
 10
4256.644453132343
 20
-1.291221321537705
 30
0.0
 10
4258.108638492222
 20
-1.882349073647674
 30
0.0
 10
4261.152327577924
 20
-2.631514582304589
 30
0.0
 10
4262.730934997372
 20
-2.788665653551277
 30
0.0
 10
4265.867425000191
 20
-2.647168401867418
 30
0.0
 10
4267.423952747726
 20
-2.348717832495822
 30
0.0
 10
4270.385617388717
 20
-1.335179388974722
 30
0.0
 10
4271.790189352423
 20
-0.6211216494871224
 30
0.0
 10
4274.355640429749
 20
1.143518071004393
 30
0.0
 10
4275.516837848472
 20
2.193312608714563
 30
0.0
 10
4277.54434562021
 20
4.539405142948226
 30
0.0
 10
4278.411148765682
 20
5.835480922022611
 30
0.0
 10
4279.82495030533
 20
8.58973192666383
 30
0.0
 10
4280.372244130886
 20
10.04796776791113
 30
0.0
 10
4281.409494749232
 20
14.12575254887622
 30
0.0
 10
4281.57528917642
 20
16.82782997868037
 30
0.0
 10
4280.918221282162
 20
22.10736896978994
 30
0.0
 10
4280.094584717761
 20
24.68635052768792
 30
0.0
 10
4277.899451835969
 20
28.63153576710391
 30
0.0
 10
4276.768615205823
 20
30.12844459280223
 30
0.0
 10
4274.103319995774
 20
32.72548650954582
 30
0.0
 10
4272.567646323678
 20
33.82462410783455
 30
0.0
 10
4269.499547434771
 20
35.33177909028723
 30
0.0
 10
4268.013729219247
 20
35.82585207726152
 30
0.0
 10
4265.521468135133
 20
36.27703892471493
 30
0.0
 10
4264.541276195674
 20
36.36543973714629
 30
0.0
 10
4263.561016906585
 20
36.36543973714629
 30
0.0
 10
4262.512441798012
 20
36.36543973714629
 30
0.0
 10
4261.463960726468
 20
36.2642258495402
 30
0.0
 10
4258.882581560562
 20
35.7637475992201
 30
0.0
 10
4257.376829428173
 20
35.23802304384464
 30
0.0
 10
4254.57404738194
 20
33.80190438299917
 30
0.0
 10
4253.277050298289
 20
32.89256326505631
 30
0.0
 10
4251.356119912712
 20
31.13890279859868
 30
0.0
 10
4250.653002239061
 20
30.37767139341247
 30
0.0
 10
4250.016030258802
 20
29.56543973714634
 30
0.0
1001
ACAD_OBJECT_CHANGE_GUID
1070
     0
1071
        0
1070
     0
1070
     0
1070
     0
1070
     0
1070
     0
1070
     0
1070
     0
1070
     0
1070
     0
1070
     0
1070
     0
1071
        0
1070
     0
1070
     0
1070
     0
1070
     0
1070
     0
1070
     0
1070
     0
1070
     0
1070
     0
1070
     0
1070
     0
1071
        0
1070
     0
1070
     0
1070
     0
1070
     0
1070
     0
1070
     0
1070
     0
1070
     0
1070
     0
1070
     0
1070
     0
1071
        0
1070
     0
1070
     0
1070
     0
1070
     0
1070
     0
1070
     0
1070
     0
1070
     0
1070
     0
1070
     0
1070
     0
1071
        0
1070
     0
1070
     0
1070
     0
1070
     0
1070
     0
1070
     0
1070
     0
1070
     0
1070
     0
1070
     0
1070
     0
1071
        0
1070
     0
1070
     0
1070
     0
1070
     0
1070
     0
1070
     0
1070
     0
1070
     0
1070
     0
1070
     0
1070
     0
1071
        0
1070
     0
1070
     0
1070
     0
1070
     0
1070
     0
1070
     0
1070
     0
1070
     0
1070
     0
1070
     0
1070
     0
1071
        0
1070
     0
1070
     0
1070
     0
1070
     0
1070
     0
1070
     0
1070
     0
1070
     0
1070
     0
1070
     0
1070
     0
1071
        0
1070
     0
1070
     0
1070
     0
1070
     0
1070
     0
1070
     0
1070
     0
1070
     0
1070
     0
1070
     0
1070
     0
1071
        0
1070
     0
1070
     0
1070
     0
1070
     0
1070
     0
1070
     0
1070
     0
1070
     0
1070
     0
1070
     0
  0
ELLIPSE
  5
81F8
330
DF
100
AcDbEntity
  8
0
100
AcDbEllipse
 10
4263.561016906585
 20
16.81543973714633
 30
0.0
 11
0.0
 21
12.75
 31
0.0
210
0.0
220
0.0
230
1.0
 40
0.8666666666666666
 41
3.141592653589793
 42
6.283185307179586
1001
ACAD_OBJECT_CHANGE_GUID
1070
     0
1071
        0
1070
     0
1070
     0
1070
     0
1070
     0
1070
     0
1070
     0
1070
     0
1070
     0
1070
     0
1070
     0
1070
     0
1071
        0
1070
     0
1070
     0
1070
     0
1070
     0
1070
     0
1070
     0
1070
     0
1070
     0
1070
     0
1070
     0
1070
     0
1071
        0
1070
     0
1070
     0
1070
     0
1070
     0
1070
     0
1070
     0
1070
     0
1070
     0
1070
     0
1070
     0
1070
     0
1071
        0
1070
     0
1070
     0
1070
     0
1070
     0
1070
     0
1070
     0
1070
     0
1070
     0
1070
     0
1070
     0
1070
     0
1071
        0
1070
     0
1070
     0
1070
     0
1070
     0
1070
     0
1070
     0
1070
     0
1070
     0
1070
     0
1070
     0
1070
     0
1071
        0
1070
     0
1070
     0
1070
     0
1070
     0
1070
     0
1070
     0
1070
     0
1070
     0
1070
     0
1070
     0
1070
     0
1071
        0
1070
     0
1070
     0
1070
     0
1070
     0
1070
     0
1070
     0
1070
     0
1070
     0
1070
     0
1070
     0
1070
     0
1071
        0
1070
     0
1070
     0
1070
     0
1070
     0
1070
     0
1070
     0
1070
     0
1070
     0
1070
     0
1070
     0
1070
     0
1071
        0
1070
     0
1070
     0
1070
     0
1070
     0
1070
     0
1070
     0
1070
     0
1070
     0
1070
     0
1070
     0
1070
     0
1071
        0
1070
     0
1070
     0
1070
     0
1070
     0
1070
     0
1070
     0
1070
     0
1070
     0
1070
     0
1070
     0
  0
LINE
  5
81F9
330
DF
100
AcDbEntity
  8
ITTEN
100
AcDbLine
 10
4281.410681779519
 20
16.81543973714633
 30
0.0
 11
4212.561016906586
 21
16.81543973714633
 31
0.0
  0
LINE
  5
81FA
330
DF
100
AcDbEntity
  8
0
100
AcDbLine
 10
4212.561016906586
 20
66.11543973714629
 30
0.0
 11
4212.561016906586
 21
-127.6845602628536
 31
0.0
  0
ELLIPSE
  5
81FB
330
DF
100
AcDbEntity
  8
0
100
AcDbEllipse
 10
4263.561016906585
 20
66.11543973714623
 30
0.0
 11
37.04210537372654
 21
155.7095681812591
 31
0.0
210
0.0
220
0.0
230
1.0
 40
0.7592767636575945
 41
0.5983486202072808
 42
1.67960336799759
1001
ACAD_OBJECT_CHANGE_GUID
1070
     0
1071
        0
1070
     0
1070
     0
1070
     0
1070
     0
1070
     0
1070
     0
1070
     0
1070
     0
1070
     0
1070
     0
1070
     0
1071
        0
1070
     0
1070
     0
1070
     0
1070
     0
1070
     0
1070
     0
1070
     0
1070
     0
1070
     0
1070
     0
1070
     0
1071
        0
1070
     0
1070
     0
1070
     0
1070
     0
1070
     0
1070
     0
1070
     0
1070
     0
1070
     0
1070
     0
1070
     0
1071
        0
1070
     0
1070
     0
1070
     0
1070
     0
1070
     0
1070
     0
1070
     0
1070
     0
1070
     0
1070
     0
1070
     0
1071
        0
1070
     0
1070
     0
1070
     0
1070
     0
1070
     0
1070
     0
1070
     0
1070
     0
1070
     0
1070
     0
1070
     0
1071
        0
1070
     0
1070
     0
1070
     0
1070
     0
1070
     0
1070
     0
1070
     0
1070
     0
1070
     0
1070
     0
1070
     0
1071
        0
1070
     0
1070
     0
1070
     0
1070
     0
1070
     0
1070
     0
1070
     0
1070
     0
1070
     0
1070
     0
1070
     0
1071
        0
1070
     0
1070
     0
1070
     0
1070
     0
1070
     0
1070
     0
1070
     0
1070
     0
1070
     0
1070
     0
1070
     0
1071
        0
1070
     0
1070
     0
1070
     0
1070
     0
1070
     0
1070
     0
1070
     0
1070
     0
1070
     0
1070
     0
1070
     0
1071
        0
1070
     0
1070
     0
1070
     0
1070
     0
1070
     0
1070
     0
1070
     0
1070
     0
1070
     0
1070
     0
  0
LINE
  5
81FC
330
DF
100
AcDbEntity
  8
0
100
AcDbLine
 10
4263.561016906585
 20
210.6154397371463
 30
0.0
 11
4221.061016906586
 21
210.6154397371463
 31
0.0
  0
LINE
  5
81FD
330
DF
100
AcDbEntity
  8
0
100
AcDbLine
 10
4263.561016906585
 20
66.11543973714629
 30
0.0
 11
4142.011016906585
 21
66.11543973714629
 31
0.0
  0
LINE
  5
81FE
330
DF
100
AcDbEntity
  8
0
100
AcDbLine
 10
4263.561016906585
 20
322.8154397371462
 30
0.0
 11
4263.561016906585
 21
66.11543973714629
 31
0.0
  0
LINE
  5
81FF
330
DF
100
AcDbEntity
  8
0
100
AcDbLine
 10
4142.011016906585
 20
66.11543973714629
 30
0.0
 11
4142.011016906585
 21
77.16543973714647
 31
0.0
  0
LINE
  5
8200
330
DF
100
AcDbEntity
  8
0
100
AcDbLine
 10
4547.461016906585
 20
77.16543973714635
 30
0.0
 11
4547.461016906585
 21
322.8154397371463
 31
0.0
  0
LINE
  5
8201
330
DF
100
AcDbEntity
  8
0
100
AcDbLine
 10
4543.211016906585
 20
72.06543973714634
 30
0.0
 11
4543.211016906585
 21
77.16543973714647
 31
0.0
  0
LINE
  5
8202
330
DF
100
AcDbEntity
  8
0
100
AcDbLine
 10
4547.461016906585
 20
77.16543973714635
 30
0.0
 11
4263.561016906585
 21
77.16543973714635
 31
0.0
  0
LINE
  5
8203
330
DF
100
AcDbEntity
  8
0
100
AcDbLine
 10
4547.461016906585
 20
72.06543973714634
 30
0.0
 11
4263.561016906585
 21
72.06543973714634
 31
0.0
  0
LINE
  5
8204
330
DF
100
AcDbEntity
  8
0
100
AcDbLine
 10
4212.561016906586
 20
322.8154397371462
 30
0.0
 11
4212.561016906586
 21
259.3038178110296
 31
0.0
  0
LINE
  5
8205
330
DF
100
AcDbEntity
  8
0
100
AcDbLine
 10
4547.461016906585
 20
-127.6845602628536
 30
0.0
 11
4547.461016906585
 21
72.06543973714634
 31
0.0
  0
LINE
  5
8206
330
DF
100
AcDbEntity
  8
0
100
AcDbLine
 10
4526.211016906585
 20
-144.6845602628537
 30
0.0
 11
4543.211016906585
 21
-144.6845602628537
 31
0.0
  0
LINE
  5
8207
330
DF
100
AcDbEntity
  8
0
100
AcDbLine
 10
4371.511016906586
 20
-144.6845602628537
 30
0.0
 11
4388.511016906585
 21
-144.6845602628537
 31
0.0
  0
LINE
  5
8208
330
DF
100
AcDbEntity
  8
0
100
AcDbLine
 10
4216.811016906586
 20
-144.6845602628537
 30
0.0
 11
4233.811016906585
 21
-144.6845602628537
 31
0.0
  0
LINE
  5
8209
330
DF
100
AcDbEntity
  8
0
100
AcDbLine
 10
4543.211016906585
 20
-144.6845602628537
 30
0.0
 11
4543.211016906585
 21
-127.6845602628536
 31
0.0
  0
LINE
  5
820A
330
DF
100
AcDbEntity
  8
0
100
AcDbLine
 10
4526.211016906585
 20
-144.6845602628537
 30
0.0
 11
4526.211016906585
 21
-127.6845602628536
 31
0.0
  0
LINE
  5
820B
330
DF
100
AcDbEntity
  8
0
100
AcDbLine
 10
4233.811016906585
 20
-144.6845602628537
 30
0.0
 11
4233.811016906585
 21
-127.6845602628536
 31
0.0
  0
LINE
  5
820C
330
DF
100
AcDbEntity
  8
0
100
AcDbLine
 10
4216.811016906586
 20
-144.6845602628537
 30
0.0
 11
4216.811016906586
 21
-127.6845602628536
 31
0.0
  0
LINE
  5
820D
330
DF
100
AcDbEntity
  8
0
100
AcDbLine
 10
4543.211016906585
 20
-144.6845602628537
 30
0.0
 11
4543.211016906585
 21
-127.6845602628536
 31
0.0
  0
LINE
  5
820E
330
DF
100
AcDbEntity
  8
0
100
AcDbLine
 10
4216.811016906586
 20
-144.6845602628537
 30
0.0
 11
4216.811016906586
 21
-127.6845602628536
 31
0.0
  0
LINE
  5
820F
330
DF
100
AcDbEntity
  8
0
100
AcDbLine
 10
4371.511016906586
 20
-144.6845602628537
 30
0.0
 11
4371.511016906586
 21
-127.6845602628536
 31
0.0
  0
LINE
  5
8210
330
DF
100
AcDbEntity
  8
0
100
AcDbLine
 10
4388.511016906585
 20
-144.6845602628537
 30
0.0
 11
4388.511016906585
 21
-127.6845602628536
 31
0.0
  0
LINE
  5
8211
330
DF
100
AcDbEntity
  8
0
100
AcDbLine
 10
4547.461016906585
 20
-127.6845602628536
 30
0.0
 11
4212.561016906586
 21
-127.6845602628536
 31
0.0
  0
LINE
  5
8212
330
DF
100
AcDbEntity
  8
ITTEN
100
AcDbLine
 10
4380.011016906586
 20
384.0154397371464
 30
0.0
 11
4380.011016906586
 21
-144.6845602628537
 31
0.0
  0
DIMENSION
  5
8213
330
DF
100
AcDbEntity
  8
SUNPOU
100
AcDbDimension
  2
*D14
 10
4212.561016906586
 20
-218.0984112174383
 30
0.0
 11
4380.011016906586
 21
-203.0984112174383
 31
0.0
 70
    32
  1
394
 71
     5
 42
334.9
  3
IMAO
100
AcDbAlignedDimension
 13
4547.461016906585
 23
-127.6845602628536
 33
0.0
 14
4212.561016906586
 24
-127.6845602628536
 34
0.0
100
AcDbRotatedDimension
1001
ACAD
1000
DSTYLE
1002
{
1070
    40
1040
5.0
1070
   271
1070
     4
1070
   272
1070
     4
1070
   279
1070
     0
1070
   284
1070
     0
1070
   285
1070
     0
1070
   286
1070
     0
1070
   340
1005
D7
1070
   343
1005
E3
1070
   344
1005
E3
1002
}
  0
DIMENSION
  5
8214
330
DF
100
AcDbEntity
  8
SUNPOU
100
AcDbDimension
  2
*D15
 10
4205.761016906586
 20
435.1693714442027
 30
0.0
 11
4405.180367757943
 21
435.1693714442027
 31
0.0
 70
   160
  1
410
 71
     5
 42
348.5
  3
IMAO
100
AcDbAlignedDimension
 13
4554.261016906585
 23
338.5404397371463
 33
0.0
 14
4205.761016906586
 24
338.5404397371463
 34
0.0
100
AcDbRotatedDimension
1001
ACAD
1000
DSTYLE
1002
{
1070
    40
1040
5.0
1070
   271
1070
     4
1070
   272
1070
     4
1070
   279
1070
     0
1070
   284
1070
     0
1070
   285
1070
     0
1070
   286
1070
     0
1070
   340
1005
D7
1070
   343
1005
E3
1070
   344
1005
E3
1002
}
  0
CIRCLE
  5
8215
330
DF
100
AcDbEntity
  8
0
100
AcDbCircle
 10
4452.014746168701
 20
358.5154397371463
 30
0.0
 40
6.799999999999999
  0
LINE
  5
8216
330
DF
100
AcDbEntity
  8
ITTEN
100
AcDbLine
 10
4418.014746168701
 20
358.5154397371463
 30
0.0
 11
4486.014746168701
 21
358.5154397371463
 31
0.0
  0
ARC
  5
8217
330
DF
100
AcDbEntity
  8
0
100
AcDbCircle
 10
4437.811016906585
 20
358.5154397371463
 30
0.0
 40
6.799999999999999
100
AcDbArc
 50
180.0
 51
270.0
  0
ARC
  5
8218
330
DF
100
AcDbEntity
  8
0
100
AcDbCircle
 10
4437.811016906585
 20
358.5154397371463
 30
0.0
 40
6.799999999999999
100
AcDbArc
 50
90.0
 51
180.0
  0
LINE
  5
8219
330
DF
100
AcDbEntity
  8
ITTEN
100
AcDbLine
 10
4431.011016906586
 20
358.5154397371463
 30
0.0
 11
4431.011016906586
 21
358.5154397371463
 31
0.0
  0
LINE
  5
821A
330
DF
100
AcDbEntity
  8
0
100
AcDbLine
 10
4482.011016906585
 20
365.3154397371464
 30
0.0
 11
4482.011016906585
 21
351.7154397371462
 31
0.0
  0
LINE
  5
821B
330
DF
100
AcDbEntity
  8
0
100
AcDbLine
 10
4437.811016906585
 20
365.3154397371463
 30
0.0
 11
4482.011016906585
 21
365.3154397371463
 31
0.0
  0
LINE
  5
821C
330
DF
100
AcDbEntity
  8
0
100
AcDbLine
 10
4437.811016906585
 20
351.7154397371462
 30
0.0
 11
4482.011016906585
 21
351.7154397371462
 31
0.0
  0
LINE
  5
821D
330
DF
100
AcDbEntity
  8
0
100
AcDbLine
 10
4422.511016906585
 20
310.9154397371461
 30
0.0
 11
4422.511016906585
 21
302.4154397371463
 31
0.0
  0
LINE
  5
821E
330
DF
100
AcDbEntity
  8
0
100
AcDbLine
 10
4337.511016906585
 20
310.9154397371463
 30
0.0
 11
4337.511016906585
 21
302.4154397371463
 31
0.0
  0
LINE
  5
821F
330
DF
100
AcDbEntity
  8
0
100
AcDbLine
 10
4320.511016906585
 20
302.4154397371461
 30
0.0
 11
4439.511016906585
 21
302.4154397371461
 31
0.0
  0
LINE
  5
8220
330
DF
100
AcDbEntity
  8
0
100
AcDbLine
 10
4320.511016906585
 20
310.9154397371461
 30
0.0
 11
4439.511016906585
 21
310.9154397371461
 31
0.0
  0
LINE
  5
8221
330
DF
100
AcDbEntity
  8
0
100
AcDbLine
 10
4320.511016906585
 20
310.9154397371463
 30
0.0
 11
4320.511016906585
 21
302.4154397371463
 31
0.0
  0
LINE
  5
8222
330
DF
100
AcDbEntity
  8
0
100
AcDbLine
 10
4439.511016906585
 20
310.9154397371461
 30
0.0
 11
4439.511016906585
 21
302.4154397371463
 31
0.0
  0
LINE
  5
8223
330
DF
100
AcDbEntity
  8
0
100
AcDbLine
 10
4547.461016906585
 20
302.4154397371463
 30
0.0
 11
4548.311016906586
 21
302.4154397371463
 31
0.0
  0
LINE
  5
8224
330
DF
100
AcDbEntity
  8
0
100
AcDbLine
 10
4547.461016906585
 20
310.9154397371463
 30
0.0
 11
4548.311016906586
 21
310.9154397371463
 31
0.0
  0
ARC
  5
8225
330
DF
100
AcDbEntity
  8
0
100
AcDbCircle
 10
4211.711016906585
 20
328.7654397371464
 30
0.0
 40
5.95
100
AcDbArc
 50
180.0
 51
270.0
  0
ARC
  5
8226
330
DF
100
AcDbEntity
  8
0
100
AcDbCircle
 10
4211.711016906585
 20
329.6154397371463
 30
0.0
 40
5.95
100
AcDbArc
 50
90.0
 51
180.0
  0
ARC
  5
8227
330
DF
100
AcDbEntity
  8
0
100
AcDbCircle
 10
4548.311016906586
 20
328.7654397371464
 30
0.0
 40
5.95
100
AcDbArc
 50
269.9999999999968
 51
0.0
  0
ARC
  5
8228
330
DF
100
AcDbEntity
  8
0
100
AcDbCircle
 10
4548.311016906586
 20
329.6154397371465
 30
0.0
 40
5.95
100
AcDbArc
 50
359.9999999999968
 51
90.00000000000325
  0
LINE
  5
8229
330
DF
100
AcDbEntity
  8
0
100
AcDbLine
 10
4554.261016906585
 20
329.6154397371463
 30
0.0
 11
4554.261016906585
 21
328.7654397371464
 31
0.0
  0
LINE
  5
822A
330
DF
100
AcDbEntity
  8
0
100
AcDbLine
 10
4205.761016906586
 20
329.6154397371463
 30
0.0
 11
4205.761016906586
 21
328.7654397371464
 31
0.0
  0
ARC
  5
822B
330
DF
100
AcDbEntity
  8
0
100
AcDbCircle
 10
4208.736016906586
 20
338.5404397371463
 30
0.0
 40
2.975
100
AcDbArc
 50
180.0
 51
270.0
  0
ARC
  5
822C
330
DF
100
AcDbEntity
  8
0
100
AcDbCircle
 10
4208.736016906586
 20
338.5404397371463
 30
0.0
 40
2.975
100
AcDbArc
 50
90.0
 51
180.0
  0
ARC
  5
822D
330
DF
100
AcDbEntity
  8
0
100
AcDbCircle
 10
4551.286016906586
 20
338.5404397371463
 30
0.0
 40
2.975
100
AcDbArc
 50
270.0
 51
0.0
  0
ARC
  5
822E
330
DF
100
AcDbEntity
  8
0
100
AcDbCircle
 10
4551.286016906586
 20
338.5404397371463
 30
0.0
 40
2.975
100
AcDbArc
 50
0.0
 51
90.0
  0
LINE
  5
822F
330
DF
100
AcDbEntity
  8
0
100
AcDbLine
 10
4211.711016906585
 20
322.8154397371463
 30
0.0
 11
4548.311016906586
 21
322.8154397371463
 31
0.0
  0
LINE
  5
8230
330
DF
100
AcDbEntity
  8
0
100
AcDbLine
 10
4205.761016906586
 20
338.5404397371463
 30
0.0
 11
4205.761016906586
 21
338.5404397371463
 31
0.0
  0
LINE
  5
8231
330
DF
100
AcDbEntity
  8
0
100
AcDbLine
 10
4554.261016906585
 20
338.5404397371463
 30
0.0
 11
4554.261016906585
 21
338.5404397371463
 31
0.0
  0
LINE
  5
8232
330
DF
100
AcDbEntity
  8
0
100
AcDbLine
 10
4208.736016906586
 20
335.5654397371463
 30
0.0
 11
4551.286016906586
 21
335.5654397371463
 31
0.0
  0
ARC
  5
8233
330
DF
100
AcDbEntity
  8
0
100
AcDbCircle
 10
4261.011016906585
 20
358.5154397371464
 30
0.0
 40
25.5
100
AcDbArc
 50
90.0
 51
180.0
  0
ARC
  5
8234
330
DF
100
AcDbEntity
  8
0
100
AcDbCircle
 10
4499.011016906585
 20
358.5154397371463
 30
0.0
 40
25.5
100
AcDbArc
 50
0.0
 51
90.0
  0
LINE
  5
8235
330
DF
100
AcDbEntity
  8
0
100
AcDbLine
 10
4261.011016906585
 20
384.0154397371465
 30
0.0
 11
4499.011016906585
 21
384.0154397371465
 31
0.0
  0
LINE
  5
8236
330
DF
100
AcDbEntity
  8
0
100
AcDbLine
 10
4235.511016906586
 20
358.5154397371464
 30
0.0
 11
4235.511016906586
 21
341.5154397371463
 31
0.0
  0
LINE
  5
8237
330
DF
100
AcDbEntity
  8
0
100
AcDbLine
 10
4524.511016906585
 20
358.5154397371463
 30
0.0
 11
4524.511016906585
 21
341.5154397371463
 31
0.0
  0
LINE
  5
8238
330
DF
100
AcDbEntity
  8
0
100
AcDbLine
 10
4208.736016906586
 20
341.5154397371463
 30
0.0
 11
4551.286016906586
 21
341.5154397371463
 31
0.0
  0
DIMENSION
  5
8239
330
DF
100
AcDbEntity
  8
SUNPOU
100
AcDbDimension
  2
*D16
 10
4491.735550307025
 20
351.7154397371462
 30
0.0
 11
4491.735550307025
 21
404.9582968800037
 31
0.0
 70
   160
  1
%%c16
 71
     5
 42
13.6
  3
IMAO
100
AcDbAlignedDimension
 13
4482.011016906585
 23
365.3154397371464
 33
0.0
 14
4482.011016906585
 24
351.7154397371462
 34
0.0
 50
90.0
100
AcDbRotatedDimension
1001
ACAD
1000
DSTYLE
1002
{
1070
    40
1040
5.0
1070
   271
1070
     4
1070
   272
1070
     4
1070
   279
1070
     0
1070
   284
1070
     0
1070
   285
1070
     0
1070
   286
1070
     0
1070
   340
1005
D7
1070
   343
1005
E3
1070
   344
1005
E3
1002
}
  0
LINE
  5
8416
330
DF
100
AcDbEntity
  8
TEXT
100
AcDbLine
 10
5048.03326932798
 20
-200.5690486201761
 30
0.0
 11
5266.811856212256
 21
-200.5690486201761
 31
0.0
  0
TEXT
  5
8417
330
DF
100
AcDbEntity
  8
TEXT
100
AcDbText
 10
5111.41279889297
 20
-193.5651038330575
 30
0.0
 40
15.0
  1
ピーラー
  7
K
 72
     4
 11
5145.66279889297
 21
-186.0651038330575
 31
0.0
100
AcDbText
  0
TEXT
  5
8418
330
DF
100
AcDbEntity
  8
TEXT
100
AcDbText
 10
5072.643455854286
 20
-224.7625571764688
 30
0.0
 40
15.0
  1
HP-10N外観図
  7
K
 72
     4
 11
5143.00059871143
 21
-217.0125571764688
 31
0.0
100
AcDbText
  0
LINE
  5
8419
330
DF
100
AcDbEntity
  8
WAKU
 62
     3
100
AcDbLine
 10
5383.439360946716
 20
-219.4215178580253
 30
0.0
 11
5430.041220505485
 21
-219.4215178580253
 31
0.0
  0
LINE
  5
841A
330
DF
100
AcDbEntity
  8
WAKU
 62
     3
100
AcDbLine
 10
5383.439360946716
 20
-181.6155087174093
 30
0.0
 11
5430.041220505485
 21
-181.6155087174093
 31
0.0
  0
TEXT
  5
841B
330
DF
100
AcDbEntity
  8
TEXT
100
AcDbText
 10
5254.938805042625
 20
-319.5995448922145
 30
0.0
 40
15.0
  1
HP10N-1
  7
K
100
AcDbText
  0
TEXT
  5
841C
330
DF
100
AcDbEntity
  8
TEXT
100
AcDbText
 10
5413.674258830314
 20
-319.5995448922145
 30
0.0
 40
15.0
  1
-2
  7
K
100
AcDbText
  0
LINE
  5
844C
330
DF
100
AcDbEntity
  8
WAKU
 62
     3
100
AcDbLine
 10
4840.981691017133
 20
-234.7630973880346
 30
0.0
 11
4887.583550575903
 21
-234.7630973880346
 31
0.0
  0
LINE
  5
844D
330
DF
100
AcDbEntity
  8
WAKU
 62
     3
100
AcDbLine
 10
4841.979210218244
 20
-172.0080102370702
 30
0.0
 11
4888.581069777012
 21
-172.0080102370702
 31
0.0
  0
LINE
  5
844E
330
DF
100
AcDbEntity
  8
WAKU
 62
     3
100
AcDbLine
 10
4841.25835007839
 20
-204.3749384087787
 30
0.0
 11
4887.860209637159
 21
-204.3749384087787
 31
0.0
  0
TEXT
  5
85DC
330
DF
100
AcDbEntity
  8
TEXT
100
AcDbText
 10
4880.944228688655
 20
590.5201459320087
 30
0.0
 40
20.0
  1
定格時間：80分
  7
K
100
AcDbText
  0
LINE
  5
85DD
330
DF
100
AcDbEntity
  8
TEXT
100
AcDbLine
 10
4877.816167874275
 20
515.8766718815286
 30
0.0
 11
5429.498213342982
 21
515.8766718815286
 31
0.0
  0
TEXT
  5
85DE
330
DF
100
AcDbEntity
  8
TEXT
100
AcDbText
 10
4880.944228688655
 20
522.5201459320087
 30
0.0
 40
20.0
  1
モータ：コンデンサー起動誘導電動機（減速機付き）
  7
K
100
AcDbText
  0
LINE
  5
85DF
330
DF
100
AcDbEntity
  8
TEXT
100
AcDbLine
 10
4877.816167874275
 20
549.8766718815286
 30
0.0
 11
5429.498213342982
 21
549.8766718815286
 31
0.0
  0
LINE
  5
85E0
330
DF
100
AcDbEntity
  8
TEXT
100
AcDbLine
 10
4877.816167874275
 20
583.8766718815286
 30
0.0
 11
5429.498213342982
 21
583.8766718815286
 31
0.0
  0
LINE
  5
85E1
330
DF
100
AcDbEntity
  8
TEXT
100
AcDbLine
 10
4877.816167874275
 20
617.8766718815286
 30
0.0
 11
5429.498213342982
 21
617.8766718815286
 31
0.0
  0
LINE
  5
85E2
330
DF
100
AcDbEntity
  8
TEXT
100
AcDbLine
 10
4877.816167874275
 20
651.8766718815286
 30
0.0
 11
5429.498213342982
 21
651.8766718815286
 31
0.0
  0
LINE
  5
85E3
330
DF
100
AcDbEntity
  8
TEXT
100
AcDbLine
 10
4877.816167874275
 20
685.8766718815286
 30
0.0
 11
5429.498213342982
 21
685.8766718815286
 31
0.0
  0
TEXT
  5
85E6
330
DF
100
AcDbEntity
  8
TEXT
100
AcDbText
 10
4880.944228688655
 20
692.5201459320087
 30
0.0
 40
20.0
  1
定格消費電力：195/185W
  7
K
100
AcDbText
  0
LINE
  5
85E7
330
DF
100
AcDbEntity
  8
TEXT
100
AcDbLine
 10
4877.816167874275
 20
719.8766718815286
 30
0.0
 11
5429.498213342982
 21
719.8766718815286
 31
0.0
  0
TEXT
  5
85E8
330
DF
100
AcDbEntity
  8
TEXT
100
AcDbText
 10
4880.944228688655
 20
726.5201459320087
 30
0.0
 40
20.0
  1
電  源  ：単相100V  50/60 Hz
  7
K
100
AcDbText
  0
TEXT
  5
85E9
330
DF
100
AcDbEntity
  8
TEXT
100
AcDbText
 10
4880.944228688655
 20
828.5201459320088
 30
0.0
 40
20.0
  1
外形寸法：巾500×奥行485×高さ622
  7
K
100
AcDbText
  0
LINE
  5
85EA
330
DF
100
AcDbEntity
  8
TEXT
100
AcDbLine
 10
4877.816167874275
 20
821.8766718815286
 30
0.0
 11
5429.498213342982
 21
821.8766718815286
 31
0.0
  0
LINE
  5
85EB
330
DF
100
AcDbEntity
  8
TEXT
100
AcDbLine
 10
4877.816167874275
 20
787.8766718815286
 30
0.0
 11
5429.498213342982
 21
787.8766718815286
 31
0.0
  0
LINE
  5
85EC
330
DF
100
AcDbEntity
  8
TEXT
100
AcDbLine
 10
4877.816167874275
 20
753.8766718815286
 30
0.0
 11
5429.498213342982
 21
753.8766718815286
 31
0.0
  0
TEXT
  5
85ED
330
DF
100
AcDbEntity
  8
TEXT
100
AcDbText
 10
4880.944228688655
 20
794.5201459320087
 30
0.0
 40
20.0
  1
重量  ：28K
  7
K
100
AcDbText
  0
TEXT
  5
85EE
330
DF
100
AcDbEntity
  8
TEXT
100
AcDbText
 10
5039.221019579882
 20
796.1785826165887
 30
0.0
 40
20.0
  1
g
  7
K
100
AcDbText
  0
TEXT
  5
85EF
330
DF
100
AcDbEntity
  8
TEXT
100
AcDbText
 10
4880.944228688655
 20
624.5201459320087
 30
0.0
 40
20.0
  1
内容量：10kg
  7
K
100
AcDbText
  0
TEXT
  5
85F0
330
DF
100
AcDbEntity
  8
TEXT
100
AcDbText
 10
4880.944228688655
 20
658.5201459320087
 30
0.0
 40
20.0
  1
電源スイッチ：タイマー式（最大15分）
  7
K
100
AcDbText
  0
TEXT
  5
85F1
330
DF
100
AcDbEntity
  8
TEXT
100
AcDbText
 10
4880.944228688655
 20
760.5201459320087
 30
0.0
 40
20.0
  1
回 転 数：150/180rpm
  7
K
100
AcDbText
  0
LINE
  5
85F2
330
DF
100
AcDbEntity
  8
TEXT
100
AcDbLine
 10
4877.816167874275
 20
855.8766718815286
 30
0.0
 11
4946.516409553805
 21
855.8766718815286
 31
0.0
  0
TEXT
  5
85F3
330
DF
100
AcDbEntity
  8
TEXT
100
AcDbText
 10
4880.944228688655
 20
862.5201459320088
 30
0.0
 40
20.0
  1
仕 様
  7
K
100
AcDbText
  0
TEXT
  5
85F5
330
DF
100
AcDbEntity
  8
TEXT
100
AcDbText
 10
4878.959539639375
 20
557.298568193416
 30
0.0
 40
20.0
  1
プロテクター：手動復帰式 
  7
K
100
AcDbText
  0
TEXT
  5
85F6
330
DF
100
AcDbEntity
  8
TEXT
100
AcDbText
 10
4882.229714099704
 20
482.5945931122496
 30
0.0
 40
20.0
  1
             4P,200W,減速比1/10
  7
K
100
AcDbText
  0
VIEWPORT
  5
776F
102
{ACAD_XDICTIONARY
360
8738
102
}
330
7768
100
AcDbEntity
 67
     1
  8
0
100
AcDbViewport
 10
143.0062380565491
 20
99.17641353607178
 30
0.0
 40
314.9915032127077
 41
234.9259338701948
 68
     1
 69
     1
 12
143.0062380565491
 22
99.17641353607178
 13
0.0
 23
0.0
 14
10.0
 24
10.0
 15
10.0
 25
10.0
 16
0.0
 26
0.0
 36
1.0
 17
0.0
 27
0.0
 37
0.0
 42
50.0
 43
0.0
 44
0.0
 45
234.9259338701948
 50
0.0
 51
0.0
 72
   500
 90
    32800
  1

281
     0
 71
     1
 74
     0
110
0.0
120
0.0
130
0.0
111
1.0
121
0.0
131
0.0
112
0.0
122
1.0
132
0.0
 79
     0
146
0.0
  0
VIEWPORT
  5
7771
102
{ACAD_XDICTIONARY
360
873A
102
}
330
7768
100
AcDbEntity
 67
     1
  8
SUNPOU
100
AcDbViewport
 10
142.6739201545715
 20
99.11291456222535
 30
0.0
 40
228.2782722473145
 41
158.5806632995605
 68
     2
 69
     2
 12
1039.058791906506
 22
499.819444821596
 13
0.0
 23
0.0
 14
10.0
 24
10.0
 15
10.0
 25
10.0
 16
0.0
 26
0.0
 36
1.0
 17
0.0
 27
0.0
 37
0.0
 42
50.0
 43
0.0
 44
0.0
 45
1406.914649681529
 50
0.0
 51
0.0
 72
   500
 90
    32800
  1

281
     0
 71
     1
 74
     0
110
0.0
120
0.0
130
0.0
111
1.0
121
0.0
131
0.0
112
0.0
122
1.0
132
0.0
 79
     0
146
0.0
  0
ENDSEC
  0
SECTION
  2
OBJECTS
  0
DICTIONARY
  5
D3
330
0
100
AcDbDictionary
281
     1
  3
ACAD_COLOR
350
76D3
  3
ACAD_GROUP
350
D4
  3
ACAD_LAYOUT
350
75E2
  3
ACAD_MATERIAL
350
76CF
  3
ACAD_MLEADERSTYLE
350
76D6
  3
ACAD_MLINESTYLE
350
D5
  3
ACAD_PLOTSETTINGS
350
75E3
  3
ACAD_PLOTSTYLENAME
350
75E0
  3
ACAD_SCALELIST
350
76AD
  3
ACAD_TABLESTYLE
350
76D4
  3
ACDBHEADERROUNDTRIPXREC
350
8733
  3
ACDBVARIABLEDICTIONARY
350
59C7
  3
ACGREF_MASTER
350
75FA
  3
ACGREFACAD_MASTER
350
75FE
  3
AcmDictionary
350
7604
  3
ACME_BOM_MANAGER_NAME
350
75F3
  3
ACME_COMMAND_HISTORY
350
75EE
  3
ACME_SCOPE_NAME
350
75ED
  3
ACMESTATEMGR
350
75F8
  3
AcmeSysVarManager
350
75EF
  3
AcmSystemVariableManager
350
7608
  3
AMG
350
7600
  3
AMGSNAPSETTINGS
350
7648
  3
AMI_MASTER
350
75FF
  3
CONTENTDICTIONARY
350
50D5
  3
DWGPROPS
350
8732
  0
DICTIONARY
  5
76DF
330
C9
100
AcDbDictionary
280
     1
281
     1
  3
ACAD_LAYERSTATES
360
76E0
  0
DICTIONARY
  5
7677
330
DF
100
AcDbDictionary
280
     1
281
     1
  3
ACAD_INDEX
360
7678
  0
DICTIONARY
  5
8738
330
776F
100
AcDbDictionary
280
     1
281
     1
  3
ACAD_XREC_ROUNDTRIP
360
8739
  0
DICTIONARY
  5
873A
330
7771
100
AcDbDictionary
280
     1
281
     1
  3
ACAD_XREC_ROUNDTRIP
360
873B
  0
DICTIONARY
  5
76D3
102
{ACAD_REACTORS
330
D3
102
}
330
D3
100
AcDbDictionary
281
     1
  0
DICTIONARY
  5
D4
102
{ACAD_REACTORS
330
D3
102
}
330
D3
100
AcDbDictionary
281
     1
  0
DICTIONARY
  5
75E2
102
{ACAD_REACTORS
330
D3
102
}
330
D3
100
AcDbDictionary
281
     1
  3
Model
350
75E4
  3
レイアウト1
350
7769
  0
DICTIONARY
  5
76CF
102
{ACAD_REACTORS
330
D3
102
}
330
D3
100
AcDbDictionary
281
     1
  3
ByBlock
350
76D1
  3
ByLayer
350
76D0
  3
Global
350
76D2
  0
DICTIONARY
  5
76D6
102
{ACAD_REACTORS
330
D3
102
}
330
D3
100
AcDbDictionary
281
     1
  3
Standard
350
76D7
  0
DICTIONARY
  5
D5
102
{ACAD_REACTORS
330
D3
102
}
330
D3
100
AcDbDictionary
281
     1
  3
STANDARD
350
E2
  0
DICTIONARY
  5
75E3
102
{ACAD_REACTORS
330
D3
102
}
330
D3
100
AcDbDictionary
281
     1
  0
ACDBDICTIONARYWDFLT
  5
75E0
102
{ACAD_REACTORS
330
D3
102
}
330
D3
100
AcDbDictionary
281
     1
  3
Normal
350
75E1
100
AcDbDictionaryWithDefault
340
75E1
  0
DICTIONARY
  5
76AD
102
{ACAD_REACTORS
330
D3
102
}
330
D3
100
AcDbDictionary
281
     1
  3
A0
350
76AE
  3
A1
350
76AF
  3
A2
350
76B0
  3
A3
350
76B1
  3
A4
350
76B2
  3
A5
350
76B3
  3
A6
350
76B4
  3
A7
350
76B5
  3
A8
350
76B6
  3
A9
350
76B7
  3
B0
350
76B8
  3
B1
350
76B9
  3
B2
350
76BA
  3
B3
350
76BB
  3
B4
350
76BC
  3
B5
350
76BD
  3
B6
350
76BE
  3
B7
350
76BF
  3
B8
350
76C0
  3
B9
350
76C1
  3
C0
350
76C2
  3
C1
350
76C3
  3
C2
350
76C4
  3
C3
350
76C5
  3
C4
350
76C6
  3
C5
350
76C7
  3
C6
350
76C8
  3
C7
350
76C9
  3
C8
350
76CA
  3
C9
350
76CB
  3
D0
350
76CC
  3
D1
350
76CD
  3
D2
350
76CE
  0
DICTIONARY
  5
76D4
102
{ACAD_REACTORS
330
D3
102
}
330
D3
100
AcDbDictionary
281
     1
  3
Standard
350
76D5
  0
DICTIONARY
  5
8733
102
{ACAD_REACTORS
330
D3
102
}
330
D3
100
AcDbDictionary
281
     1
  0
DICTIONARY
  5
59C7
102
{ACAD_REACTORS
330
D3
102
}
330
D3
100
AcDbDictionary
281
     1
  3
CMLEADERSTYLE
350
77AE
  3
CTABLESTYLE
350
77AD
  3
DIMASSOC
350
768C
  3
INDEXCTL
350
768B
  3
PROJECTNAME
350
8731
  3
SORTENTS
350
59C8
  0
ACAD_PROXY_OBJECT
  5
75FA
102
{ACAD_REACTORS
330
D3
102
}
330
D3
100
AcDbProxyObject
 90
      499
 91
      518
 95
   917527
 70
     0
 93
       34
310
0400004280
 94
        0
1001
ACAD
1000
AcRTDxfName
1000
ACGREFMASTER
  0
ACAD_PROXY_OBJECT
  5
75FE
102
{ACAD_REACTORS
330
D3
102
}
330
D3
100
AcDbProxyObject
 90
      499
 91
      521
 95
   917527
 70
     0
 93
      114
310
04000041C000000000000000000000
 94
        0
1001
ACAD
1000
AcRTDxfName
1000
ACGREFACADMASTER
  0
DICTIONARY
  5
7604
102
{ACAD_REACTORS
330
D3
102
}
330
D3
100
AcDbDictionary
281
     1
  3
AcmBOMDATA
350
7605
  3
AcmStdDictionary
350
760A
  0
ACAD_PROXY_OBJECT
  5
75F3
102
{ACAD_REACTORS
330
D3
102
}
330
D3
100
AcDbProxyObject
 90
      499
 91
      512
 95
   917527
 70
     0
 93
       50
310
00010040400000
330
0
330
0
330
75F4
 94
        0
1001
ACAD
1000
AcRTDxfName
1000
ACMEDRAWINGMAN
  0
ACAD_PROXY_OBJECT
  5
75EE
102
{ACAD_REACTORS
330
D3
102
}
330
D3
100
AcDbProxyObject
 90
      499
 91
      508
 95
   917527
 70
     0
 93
     1338
310
478050155805015580501558050155805015580501558050155805015580501558050155805015580504504C4F5480504554E444F80504554E444F80504554E444F80504554E444F80504554E444F80504554E444F80504554E444F80504554E444F8050644444544495480504504C4F5480504554E444F80504554E444F80
310
504554E444F80504554E444F80504554E444F80504434F505980506444445444954805044D4F564587
 94
        0
1001
ACAD
1000
AcRTDxfName
1000
ACMECOMMANDHISTORY
  0
ACAD_PROXY_OBJECT
  5
75ED
102
{ACAD_REACTORS
330
D3
102
}
330
D3
100
AcDbProxyObject
 90
      499
 91
      507
 95
   917527
 70
     0
 93
      210
310
060000444000000000000000000010541A0000000000AAA406AA80
360
75F0
360
75F1
360
75F2
360
75F4
360
7609
 94
        0
1001
ACAD
1000
AcRTDxfName
1000
ACMESCOPE
  0
ACAD_PROXY_OBJECT
  5
75F8
102
{ACAD_REACTORS
330
D3
102
}
330
D3
100
AcDbProxyObject
 90
      499
 91
      517
 95
   917527
 70
     0
 93
       50
310
06000041641280
 94
        0
1001
ACAD
1000
AcRTDxfName
1000
ACMESTATEMGR
  0
ACAD_PROXY_OBJECT
  5
75EF
102
{ACAD_REACTORS
330
D3
102
}
330
D3
100
AcDbProxyObject
 90
      499
 91
      509
 95
   917527
 70
     0
 93
       48
310
903412000000
330
75F0
330
75F1
330
75F2
 94
        0
1001
ACAD
1000
AcRTDxfName
1000
ACIMSYSVARMAN
  0
ACAD_PROXY_OBJECT
  5
7608
102
{ACAD_REACTORS
330
D3
102
}
330
D3
100
AcDbProxyObject
 90
      499
 91
      509
 95
   917527
 70
     0
 93
       32
310
90140A00
330
7609
 94
        0
1001
ACAD
1000
AcRTDxfName
1000
ACIMSYSVARMAN
  0
DICTIONARY
  5
7600
102
{ACAD_REACTORS
330
D3
102
}
330
D3
100
AcDbDictionary
281
     1
  3
AcMgSettings
350
7601
  3
AMGLAYCFG
350
760C
  0
DICTIONARY
  5
7648
102
{ACAD_REACTORS
330
D3
102
}
330
D3
100
AcDbDictionary
281
     1
  3
DIMENSION
350
764D
  3
FEA
350
764C
  3
HATCH (1)
350
7649
  3
HATCH (2)
350
764A
  3
SIMPLE WELD
350
764E
  3
SYMBOLS
350
764B
  0
ACAD_PROXY_OBJECT
  5
75FF
102
{ACAD_REACTORS
330
D3
102
}
330
D3
100
AcDbProxyObject
 90
      499
 91
      522
 95
   917527
 70
     0
 93
       34
310
0500004280
 94
        0
1001
ACAD
1000
AcRTDxfName
1000
AMIMASTER
  0
DICTIONARY
  5
50D5
102
{ACAD_REACTORS
330
D3
102
}
330
D3
100
AcDbDictionary
281
     1
  0
XRECORD
  5
8732
102
{ACAD_REACTORS
330
D3
102
}
330
D3
100
AcDbXrecord
280
     1
  1
DWGPROPS COOKIE
  2

  3

  4

  6

  7

  8
1547nh
  9

300
AmdtFileType=84
301
=
302
=
303
=
304
=
305
=
306
=
307
=
308
=
309
=
 40
0.3000877430555556
 41
2452040.353372442
 42
2460734.635089318
  1

 90
        1
  0
DICTIONARY
  5
76E0
102
{ACAD_REACTORS
330
76DF
102
}
330
76DF
100
AcDbDictionary
281
     1
  0
DICTIONARY
  5
7678
102
{ACAD_REACTORS
330
7677
102
}
330
7677
100
AcDbDictionary
281
     1
  3
*A1
350
7679
  0
XRECORD
  5
8739
102
{ACAD_REACTORS
330
8738
102
}
330
8738
100
AcDbXrecord
280
     1
102
SHADEPLOT
 70
     0
  0
XRECORD
  5
873B
102
{ACAD_REACTORS
330
873A
102
}
330
873A
100
AcDbXrecord
280
     1
102
SHADEPLOT
 70
     0
  0
LAYOUT
  5
75E4
102
{ACAD_XDICTIONARY
360
8734
102
}
102
{ACAD_REACTORS
330
75E2
102
}
330
75E2
100
AcDbPlotSettings
  1

  2
CutePDF Writer
  4
A4
  6

 40
3.174999952316284
 41
3.174999952316284
 42
3.175003051757812
 43
3.17498779296875
 44
209.8886566162109
 45
297.0530090332031
 46
0.0
 47
0.0
 48
0.0
 49
0.0
140
0.0
141
0.0
142
1.0
143
6.688643599781253
 70
 11952
 72
     1
 73
     1
 74
     1
  7
Monochrome.ctb
 75
     0
147
0.1495071437253293
148
-3549.489549316561
149
431.0764077894214
100
AcDbLayout
  1
Model
 70
     1
 71
     0
 10
0.0
 20
0.0
 11
12.0
 21
9.0
 12
0.0
 22
0.0
 32
0.0
 14
0.0
 24
0.0
 34
0.0
 15
0.0
 25
0.0
 35
0.0
146
0.0
 13
0.0
 23
0.0
 33
0.0
 16
1.0
 26
0.0
 36
0.0
 17
0.0
 27
1.0
 37
0.0
 76
     0
330
DF
1001
ACAD_PSEXT
1000
CutePDF Writer
1000
CutePDF Writer
1000
CPW2:
1000

1070
     0
  0
LAYOUT
  5
7769
102
{ACAD_XDICTIONARY
360
7776
102
}
102
{ACAD_REACTORS
330
75E2
102
}
330
75E2
100
AcDbPlotSettings
  1

  2
NEC MultiWriter8450N NPDL
  4
A4
  6

 40
5.873749732971191
 41
5.873747825622558
 42
6.000747680664062
 43
5.873748779296875
 44
210.1003265380859
 45
297.0953369140625
 46
0.0
 47
0.0
 48
0.0
 49
0.0
140
0.0
141
0.0
142
1.0
143
1.0
 70
   688
 72
     1
 73
     1
 74
     5
  7
Monochrome.ctb
 75
    16
147
1.0
148
0.0
149
0.0
100
AcDbLayout
  1
レイアウト1
 70
     1
 71
     1
 10
-5.873748779296875
 20
-5.873749732971191
 11
291.2215881347656
 21
204.2265768051148
 12
0.0
 22
0.0
 32
0.0
 14
28.53478403091429
 24
19.82258291244505
 34
0.0
 15
256.8130562782288
 25
178.4032462120056
 35
0.0
146
0.0
 13
0.0
 23
0.0
 33
0.0
 16
1.0
 26
0.0
 36
0.0
 17
0.0
 27
1.0
 37
0.0
 76
     0
330
7768
331
776F
1001
ACAD_PSEXT
1000
NEC MultiWriter8450N NPDL
1000
NEC MultiWriter8450N NPDL
1000
172.16.1.89
1000

1070
     0
  0
MATERIAL
  5
76D1
102
{ACAD_REACTORS
330
76CF
102
}
330
76CF
100
AcDbMaterial
  1
ByBlock
  2

  0
MATERIAL
  5
76D0
102
{ACAD_REACTORS
330
76CF
102
}
330
76CF
100
AcDbMaterial
  1
ByLayer
  2

  0
MATERIAL
  5
76D2
102
{ACAD_REACTORS
330
76CF
102
}
330
76CF
100
AcDbMaterial
  1
Global
  2

  0
MLEADERSTYLE
  5
76D7
102
{ACAD_REACTORS
330
76D6
102
}
330
76D6
100
AcDbMLeaderStyle
170
     2
171
     1
172
     0
 90
        2
 40
0.0
 41
0.0
173
     1
 91
-1056964608
340
D9
 92
       -2
290
     1
 42
0.09
291
     1
 43
0.36
  3
Standard
341
0
 44
0.18
300

342
D7
174
     1
178
     1
175
     1
176
     0
 93
-1056964608
 45
0.18
292
     0
297
     0
 46
0.18
343
0
 94
-1056964608
 47
1.0
 49
1.0
140
1.0
293
     1
141
0.0
294
     1
177
     0
142
1.0
295
     0
296
     0
143
0.125
1001
ACAD_MLEADERVER
1070
     2
  0
MLINESTYLE
  5
E2
102
{ACAD_REACTORS
330
D5
102
}
330
D5
100
AcDbMlineStyle
  2
STANDARD
 70
     0
  3

 62
     0
 51
90.0
 52
90.0
 71
     2
 49
0.5
 62
   256
  6
BYLAYER
 49
-0.5
 62
   256
  6
BYLAYER
  0
ACDBPLACEHOLDER
  5
75E1
102
{ACAD_REACTORS
330
75E0
102
}
330
75E0
  0
SCALE
  5
76AE
102
{ACAD_REACTORS
330
76AD
102
}
330
76AD
100
AcDbScale
 70
     0
300
1:1
140
1.0
141
1.0
290
     1
  0
SCALE
  5
76AF
102
{ACAD_REACTORS
330
76AD
102
}
330
76AD
100
AcDbScale
 70
     0
300
1:2
140
1.0
141
2.0
290
     0
  0
SCALE
  5
76B0
102
{ACAD_REACTORS
330
76AD
102
}
330
76AD
100
AcDbScale
 70
     0
300
1:4
140
1.0
141
4.0
290
     0
  0
SCALE
  5
76B1
102
{ACAD_REACTORS
330
76AD
102
}
330
76AD
100
AcDbScale
 70
     0
300
1:5
140
1.0
141
5.0
290
     0
  0
SCALE
  5
76B2
102
{ACAD_REACTORS
330
76AD
102
}
330
76AD
100
AcDbScale
 70
     0
300
1:8
140
1.0
141
8.0
290
     0
  0
SCALE
  5
76B3
102
{ACAD_REACTORS
330
76AD
102
}
330
76AD
100
AcDbScale
 70
     0
300
1:10
140
1.0
141
10.0
290
     0
  0
SCALE
  5
76B4
102
{ACAD_REACTORS
330
76AD
102
}
330
76AD
100
AcDbScale
 70
     0
300
1:16
140
1.0
141
16.0
290
     0
  0
SCALE
  5
76B5
102
{ACAD_REACTORS
330
76AD
102
}
330
76AD
100
AcDbScale
 70
     0
300
1:20
140
1.0
141
20.0
290
     0
  0
SCALE
  5
76B6
102
{ACAD_REACTORS
330
76AD
102
}
330
76AD
100
AcDbScale
 70
     0
300
1:30
140
1.0
141
30.0
290
     0
  0
SCALE
  5
76B7
102
{ACAD_REACTORS
330
76AD
102
}
330
76AD
100
AcDbScale
 70
     0
300
1:40
140
1.0
141
40.0
290
     0
  0
SCALE
  5
76B8
102
{ACAD_REACTORS
330
76AD
102
}
330
76AD
100
AcDbScale
 70
     0
300
1:50
140
1.0
141
50.0
290
     0
  0
SCALE
  5
76B9
102
{ACAD_REACTORS
330
76AD
102
}
330
76AD
100
AcDbScale
 70
     0
300
1:100
140
1.0
141
100.0
290
     0
  0
SCALE
  5
76BA
102
{ACAD_REACTORS
330
76AD
102
}
330
76AD
100
AcDbScale
 70
     0
300
2:1
140
2.0
141
1.0
290
     0
  0
SCALE
  5
76BB
102
{ACAD_REACTORS
330
76AD
102
}
330
76AD
100
AcDbScale
 70
     0
300
4:1
140
4.0
141
1.0
290
     0
  0
SCALE
  5
76BC
102
{ACAD_REACTORS
330
76AD
102
}
330
76AD
100
AcDbScale
 70
     0
300
8:1
140
8.0
141
1.0
290
     0
  0
SCALE
  5
76BD
102
{ACAD_REACTORS
330
76AD
102
}
330
76AD
100
AcDbScale
 70
     0
300
10:1
140
10.0
141
1.0
290
     0
  0
SCALE
  5
76BE
102
{ACAD_REACTORS
330
76AD
102
}
330
76AD
100
AcDbScale
 70
     0
300
100:1
140
100.0
141
1.0
290
     0
  0
SCALE
  5
76BF
102
{ACAD_REACTORS
330
76AD
102
}
330
76AD
100
AcDbScale
 70
     0
300
1/128" = 1'-0"
140
0.0078125
141
12.0
290
     0
  0
SCALE
  5
76C0
102
{ACAD_REACTORS
330
76AD
102
}
330
76AD
100
AcDbScale
 70
     0
300
1/64" = 1'-0"
140
0.015625
141
12.0
290
     0
  0
SCALE
  5
76C1
102
{ACAD_REACTORS
330
76AD
102
}
330
76AD
100
AcDbScale
 70
     0
300
1/32" = 1'-0"
140
0.03125
141
12.0
290
     0
  0
SCALE
  5
76C2
102
{ACAD_REACTORS
330
76AD
102
}
330
76AD
100
AcDbScale
 70
     0
300
1/16" = 1'-0"
140
0.0625
141
12.0
290
     0
  0
SCALE
  5
76C3
102
{ACAD_REACTORS
330
76AD
102
}
330
76AD
100
AcDbScale
 70
     0
300
3/32" = 1'-0"
140
0.09375
141
12.0
290
     0
  0
SCALE
  5
76C4
102
{ACAD_REACTORS
330
76AD
102
}
330
76AD
100
AcDbScale
 70
     0
300
1/8" = 1'-0"
140
0.125
141
12.0
290
     0
  0
SCALE
  5
76C5
102
{ACAD_REACTORS
330
76AD
102
}
330
76AD
100
AcDbScale
 70
     0
300
3/16" = 1'-0"
140
0.1875
141
12.0
290
     0
  0
SCALE
  5
76C6
102
{ACAD_REACTORS
330
76AD
102
}
330
76AD
100
AcDbScale
 70
     0
300
1/4" = 1'-0"
140
0.25
141
12.0
290
     0
  0
SCALE
  5
76C7
102
{ACAD_REACTORS
330
76AD
102
}
330
76AD
100
AcDbScale
 70
     0
300
3/8" = 1'-0"
140
0.375
141
12.0
290
     0
  0
SCALE
  5
76C8
102
{ACAD_REACTORS
330
76AD
102
}
330
76AD
100
AcDbScale
 70
     0
300
1/2" = 1'-0"
140
0.5
141
12.0
290
     0
  0
SCALE
  5
76C9
102
{ACAD_REACTORS
330
76AD
102
}
330
76AD
100
AcDbScale
 70
     0
300
3/4" = 1'-0"
140
0.75
141
12.0
290
     0
  0
SCALE
  5
76CA
102
{ACAD_REACTORS
330
76AD
102
}
330
76AD
100
AcDbScale
 70
     0
300
1" = 1'-0"
140
1.0
141
12.0
290
     0
  0
SCALE
  5
76CB
102
{ACAD_REACTORS
330
76AD
102
}
330
76AD
100
AcDbScale
 70
     0
300
1-1/2" = 1'-0"
140
1.5
141
12.0
290
     0
  0
SCALE
  5
76CC
102
{ACAD_REACTORS
330
76AD
102
}
330
76AD
100
AcDbScale
 70
     0
300
3" = 1'-0"
140
3.0
141
12.0
290
     0
  0
SCALE
  5
76CD
102
{ACAD_REACTORS
330
76AD
102
}
330
76AD
100
AcDbScale
 70
     0
300
6" = 1'-0"
140
6.0
141
12.0
290
     0
  0
SCALE
  5
76CE
102
{ACAD_REACTORS
330
76AD
102
}
330
76AD
100
AcDbScale
 70
     0
300
1'-0" = 1'-0"
140
12.0
141
12.0
290
     0
  0
TABLESTYLE
  5
76D5
102
{ACAD_REACTORS
330
76D4
102
}
330
76D4
100
AcDbTableStyle
  3
Standard
 70
     0
 71
     0
 40
0.06
 41
0.06
280
     0
281
     0
  7
STANDARD
140
4.5
170
     2
 62
     0
 63
   257
283
     0
274
    -2
284
     1
 64
     0
275
    -2
285
     1
 65
     0
276
    -2
286
     1
 66
     0
277
    -2
287
     1
 67
     0
278
    -2
288
     1
 68
     0
279
    -2
289
     1
 69
     0
  7
STANDARD
140
6.0
170
     5
 62
     0
 63
   257
283
     0
274
    -2
284
     1
 64
     0
275
    -2
285
     1
 65
     0
276
    -2
286
     1
 66
     0
277
    -2
287
     1
 67
     0
278
    -2
288
     1
 68
     0
279
    -2
289
     1
 69
     0
  7
STANDARD
140
4.5
170
     5
 62
     0
 63
   257
283
     0
274
    -2
284
     1
 64
     0
275
    -2
285
     1
 65
     0
276
    -2
286
     1
 66
     0
277
    -2
287
     1
 67
     0
278
    -2
288
     1
 68
     0
279
    -2
289
     1
 69
     0
  0
DICTIONARYVAR
  5
77AE
102
{ACAD_REACTORS
330
59C7
102
}
330
59C7
100
DictionaryVariables
280
     0
  1
STANDARD
  0
DICTIONARYVAR
  5
77AD
102
{ACAD_REACTORS
330
59C7
102
}
330
59C7
100
DictionaryVariables
280
     0
  1
STANDARD
  0
DICTIONARYVAR
  5
768C
102
{ACAD_REACTORS
330
59C7
102
}
330
59C7
100
DictionaryVariables
280
     0
  1
1
  0
DICTIONARYVAR
  5
768B
102
{ACAD_REACTORS
330
59C7
102
}
330
59C7
100
DictionaryVariables
280
     0
  1
1
  0
DICTIONARYVAR
  5
8731
102
{ACAD_REACTORS
330
59C7
102
}
330
59C7
100
DictionaryVariables
280
     0
  1

  0
DICTIONARYVAR
  5
59C8
102
{ACAD_REACTORS
330
59C7
102
}
330
59C7
100
DictionaryVariables
280
     0
  1
96
  0
ACAD_PROXY_OBJECT
  5
7605
102
{ACAD_REACTORS
330
7604
102
}
330
7604
100
AcDbProxyObject
 90
      499
 91
      524
 95
   917527
 70
     0
 93
      118
310
405010040CA904C415CD5B07571028
350
7606
 94
        0
1001
ACAD
1000
AcRTDxfName
1000
ACMDATADICTIONARY
  0
DICTIONARY
  5
760A
102
{ACAD_REACTORS
330
7604
102
}
330
7604
100
AcDbDictionary
281
     1
  3
ISO
350
760B
  0
ACAD_PROXY_OBJECT
  5
75F0
330
0
100
AcDbProxyObject
 90
      499
 91
      510
 95
   917527
 70
     0
 93
      156
310
00010143D050D351505391D5531054925390D493
330
75ED
 94
        0
1001
ACAD
1000
AcRTDxfName
1000
ACIMREALSYSVAR
  0
ACAD_PROXY_OBJECT
  5
75F1
330
0
100
AcDbProxyObject
 90
      499
 91
      510
 95
   917527
 70
     0
 93
      148
310
000101439050D351531253915054925390D491
330
75ED
 94
        0
1001
ACAD
1000
AcRTDxfName
1000
ACIMREALSYSVAR
  0
ACAD_PROXY_OBJECT
  5
75F2
330
0
100
AcDbProxyObject
 90
      499
 91
      511
 95
   917527
 70
     0
 93
      156
310
000101439050D35154D6535093D314D256915083
330
75ED
 94
        0
1001
ACAD
1000
AcRTDxfName
1000
ACIMINTSYSVAR
  0
ACAD_PROXY_OBJECT
  5
75F4
330
0
100
AcDbProxyObject
 90
      499
 91
      513
 95
   917527
 70
     0
 93
      120
310
000101422565255A6557080C402B00
330
75ED
330
0
330
0
 94
        0
1001
ACAD
1000
AcRTDxfName
1000
ACMEVIEW
  0
ACAD_PROXY_OBJECT
  5
7609
330
0
100
AcDbProxyObject
 90
      499
 91
      526
 95
   917527
 70
     0
 93
      140
310
00010142105350D55494D5110050349534F0
330
75ED
 94
        0
1001
ACAD
1000
AcRTDxfName
1000
ACIMSTRSYSVAR
  0
DICTIONARY
  5
7601
102
{ACAD_REACTORS
330
7600
102
}
330
7600
100
AcDbDictionary
281
     1
  3
DWGSETTINGS
350
7602
  3
TRANSSETTINGS
350
7603
  0
ACAD_PROXY_OBJECT
  5
760C
102
{ACAD_REACTORS
330
7600
102
}
330
7600
100
AcDbProxyObject
 90
      499
 91
      528
 95
   917527
 70
     0
 93
    12938
310
41102491013041105357CC1074CA404C504414D5F31439329013241105357CC9054CA404CD04414D5F33419199013441105357CD103466404D504414D5F3540D199013641105357CD90248E404DD04414D5F37411199013841105357CE101466404E504414D5F397F641102324141505357CC4C1074CA408D10505414D5F31
310
3140D19902495041505357CC4C9074C902408C13905414D5F304E41D32902314E41505357CC5390E4CA408C93905414D5F324E41532902334E41505357CCD3906466408D13905414D5F344E40D19902354E41505357CD53903466408D93905414D5F364E40923902374E41505357CDD3904466408E13905414D5F384E40519
310
902394E41505357CE539FD90440CC9053906414D5F31304E41D3290334414E41905357CC4C5390346640D25413906414D5F31324E41D32409044B4C494E41505357D0D3101465094112539193D08414D5F50415245464111942D055241484D3541905357D093D49074C9094115925155D08414D5F56494557534051942D064
310
24548494E4441905357D253959FD90D415514905253105414D5F545240D194250348494441905357D212511074650940D59254D06414D5F56495341D324250650415244494D42505357D410549112535034650941949151911253509414D5F52454644494D4111942553411092139590139CFFFFFFFF415092139594D06424
310
548494E44CFFFFFFFF411093D48C9055241484D3540519411093D48CD055241484D3540923411093D48D5055241484D35CFFFFFFFF4110D0530C90134CFFFFFFFF4110D0530CD0134409234110D0530D5013441D324110D0530DD0134479464110D1539390137CFFFFFFFF4110D15395D0137CFFFFFFFF4110D312539044B4
310
C494ECFFFFFFFF4110D3D38C50130CFFFFFFFF4110D3D38C90131CFFFFFFFF4110D3D38CD0132CFFFFFFFF4110D3D38D10132CFFFFFFFF411111551050134CFFFFFFFF4111125051D0135CFFFFFFFF411112531250135CFFFFFFFF411112535410650415244494DCFFFFFFFF411112535490652454644494DCFFFFFFFF4111
310
91535390138CFFFFFFFF4151915354139013840CFFFFFFFF4151915354D41023441CFFFFFFFF4151915354D5102344140D1941519153559390132CFFFFFFFF4151915355951013240D194112105510D0138CFFFFFFFF411212511390133CFFFFFFFF4112125115D0133CFFFFFFFF411213125390134CFFFFFFFF411213D0D3
310
90137CFFFFFFFF411213D0D5D0137CFFFFFFFF4112539193D04494E464FCFFFFFFFF411311505110135CFFFFFFFF419397D0921395902394ECFFFFFFFF419397D0D3D38C502304ECFFFFFFFF419397D0D3D38C902314ECFFFFFFFF419397D0D3D38CD02324ECFFFFFFFF419397D0D3D38D102324ECFFFFFFFF419397D0D153
310
93902374ECFFFFFFFF419397D0D15395D02374ECFFFFFFFF419397D1125312502354ECFFFFFFFF419397D2105510D02384ECFFFFFFFF419397D2125113902334ECFFFFFFFF419397D2125115D02334ECFFFFFFFF419397D3115051102354ECFFFFFFFF419397D391D25410349504ECFFFFFFFF419397D412105390334414EC
310
FFFFFFFF419397D510D3D3902304ECFFFFFFFF419397D5121312502344ECFFFFFFFF419397D5131153902304ECFFFFFFFF419397D594131250332414ECFFFFFFFF411391D2541024950CFFFFFFFF411410530C9055241484D3540519411410530CD055241484D3540923411410530D5055241484D35CFFFFFFFF4114121053
310
9023441CFFFFFFFF411413D4D390135CFFFFFFFF411490D1D390137CFFFFFFFF411490D1D5D0137CFFFFFFFF4114D09492D0134CFFFFFFFF4114D150D510134CFFFFFFFF4114D6508CD013540923411354D6535013540923411510D3D390130CFFFFFFFF411512131250134CFFFFFFFF411512550C9055241484D354051941
310
1512550CD055241484D3540923411512550D5055241484D35CFFFFFFFF411513115390130CFFFFFFFF415514905253105545241494CCFFFFFFFF411514931250134CFFFFFFFF411516150C5013640D19411516150C9013640D19411516150CD0136CFFFFFFFF411516150D5013641D32411516150DD0136479464115925155
310
D0456494557CFFFFFFFF4115915112103484944CFFFFFFFF4115915115903564953CFFFFFFFF41159413125023241CFFFFFFFF411692569050134CFFFFFFFFAA9FD404FE4290E4C9074C906465054C904465034650248D014651E519FD80
340
DB
340
DB
340
DB
340
760D
340
DB
340
DB
340
DB
340
760E
340
DB
340
DB
340
760E
340
760F
340
DB
340
DB
340
DB
340
DB
340
760D
340
DB
340
DB
340
DB
340
760E
340
DB
340
DB
340
760E
340
760F
340
DB
340
7610
340
DB
340
DB
340
DB
340
DB
340
DB
340
760D
340
DB
340
DB
340
DB
340
DA
340
DA
340
DA
340
DA
340
DA
340
DA
340
DA
340
DA
340
DA
340
7611
340
DA
340
DA
340
DA
340
DA
340
DA
340
DA
340
DA
340
DA
340
DA
340
DA
340
DA
340
DA
340
DA
340
DB
340
DA
340
DA
340
DA
340
DA
340
7612
340
DA
340
DA
340
7611
340
DA
340
DA
340
DA
340
DA
340
DA
340
DA
340
DA
340
DA
340
7611
340
DA
340
DA
340
DA
340
7612
340
DA
340
DA
340
DA
340
DA
340
DA
340
DA
340
DA
340
DA
340
DA
340
DA
340
DA
340
DA
340
DA
340
DA
340
7611
340
DA
340
DA
340
DA
340
DA
340
DA
340
DA
340
DA
340
DA
340
DA
340
DA
340
DA
340
DA
340
DA
340
DA
340
DA
340
DA
340
DA
340
DA
340
DA
340
DA
340
DA
340
DA
340
7615
 94
        0
1001
ACAD
1000
AcRTDxfName
1000
AMGOBJPROPCFG
  0
ACAD_PROXY_OBJECT
  5
764D
102
{ACAD_REACTORS
330
7648
102
}
330
7648
100
AcDbProxyObject
 90
      499
 91
      544
 95
   917527
 70
     0
 93
      253
310
43D1444494D454E53494F4E2C414D44545F2A5F44494D404A9012A404A9012AC
 94
        0
1001
ACAD
1000
AcRTDxfName
1000
ACAMGFILTERDAT
  0
ACAD_PROXY_OBJECT
  5
764C
102
{ACAD_REACTORS
330
7648
102
}
330
7648
100
AcDbProxyObject
 90
      499
 91
      544
 95
   917527
 70
     0
 93
      181
310
43D012A42D05357D191504B505357CA9012A404A9012AD
 94
        0
1001
ACAD
1000
AcRTDxfName
1000
ACAMGFILTERDAT
  0
ACAD_PROXY_OBJECT
  5
7649
102
{ACAD_REACTORS
330
7648
102
}
330
7648
100
AcDbProxyObject
 90
      499
 91
      544
 95
   917527
 70
     0
 93
      133
310
43D054841544348404A9012A404A9012AC
 94
        0
1001
ACAD
1000
AcRTDxfName
1000
ACAMGFILTERDAT
  0
ACAD_PROXY_OBJECT
  5
764A
102
{ACAD_REACTORS
330
7648
102
}
330
7648
100
AcDbProxyObject
 90
      499
 91
      544
 95
   917527
 70
     0
 93
      549
310
43D044C494E4549CE0B0E138B0A8B4E0B0A8B4E138B105357CE0B105357CE138B0A8B505357CE0B0A8B505357CE139012A404A910494E534552542C535444504152543244B
 94
        0
1001
ACAD
1000
AcRTDxfName
1000
ACAMGFILTERDAT
  0
ACAD_PROXY_OBJECT
  5
764E
102
{ACAD_REACTORS
330
7648
102
}
330
7648
100
AcDbProxyObject
 90
      499
 91
      544
 95
   917527
 70
     0
 93
      181
310
43D0341524341105357CD5012A404C906494E534552545
 94
        0
1001
ACAD
1000
AcRTDxfName
1000
ACAMGFILTERDAT
  0
ACAD_PROXY_OBJECT
  5
764B
102
{ACAD_REACTORS
330
7648
102
}
330
7648
100
AcDbProxyObject
 90
      499
 91
      544
 95
   917527
 70
     0
 93
     1053
310
43D7841434D46434652414D452C41434D444154554D5441524745542C41434D444154554D49442C41434D57454C4453594D2C41434D5355524653594D2C41434D4645415449442C41434D504152545245462C41434D42414C4C4F4F4E2C414D44544544474553594D2C414D47534352455743414C435441424C45404A9012A
310
404A9012AB
 94
        0
1001
ACAD
1000
AcRTDxfName
1000
ACAMGFILTERDAT
  0
LAYER_INDEX
  5
7679
102
{ACAD_REACTORS
330
7678
102
}
330
7678
100
AcDbIndex
 40
2460734.635089318
100
AcDbLayerIndex
  8
0
360
767A
 90
      238
  8
HASEN
360
767B
 90
        0
  8
ITTEN
360
767C
 90
       11
  8
NITEN
360
767D
 90
        0
  8
HATCH
360
767E
 90
        0
  8
SUNPOU
360
767F
 90
       18
  8
TEXT
360
7680
 90
       31
  8
SAISEN
360
7681
 90
        0
  8
JISSEN
360
7682
 90
        0
  8
HOJO
360
7683
 90
        2
  8
TENSEN
360
7684
 90
        8
  8
HOJOORG
360
7685
 90
        0
  8
WAKU
360
7686
 90
      144
  8
POINT
360
7687
 90
        0
  8
WINDOW
360
7688
 90
        0
  8
DEFPOINTS
360
7689
 90
        0
  8
AM_CL
360
768A
 90
        0
  0
DICTIONARY
  5
8734
330
75E4
100
AcDbDictionary
280
     1
281
     1
  3
ACAD_XREC_ROUNDTRIP
360
8735
  0
DICTIONARY
  5
7776
330
7769
100
AcDbDictionary
280
     1
281
     1
  3
ACAD_XREC_ROUNDTRIP
360
8737
  3
ADSK_XREC_LAYOUTTHUMBNAIL
360
7777
  0
ACAD_PROXY_OBJECT
  5
7606
102
{ACAD_REACTORS
330
7605
102
}
330
7605
100
AcDbProxyObject
 90
      499
 91
      525
 95
   917527
 70
     0
 93
      139
310
057356C1D5C406406AA8FFFFFFFF0AE2405A
330
DF
330
0
330
0
 94
        0
1001
ACAD
1000
AcRTDxfName
1000
ACMDATAENTRYBLOCK
  0
ACAD_PROXY_OBJECT
  5
760B
102
{ACAD_REACTORS
330
760A
102
}
330
760A
100
AcDbProxyObject
 90
      499
 91
      527
 95
   917527
 70
     0
 93
     2211
310
5700000000000000C40D0349534F405901409020000000000000310322287A1682DAC8E88AC8CECAA6E8C8812028720B1B6A9BAB9332A32BC3A29BA3220480A1282C6DA8C868CA6E8C88120286A0B1B6ABB2B63234B733A9BA3220480A1082C6DA92C8A6E8C88120285A0B1B6A230BA3AB6A9BA3220480A1282C6DA849E9AA
310
6E8C8812028820B6B23A2232BA30B4B629BCB6A9BA3220480A2282DAC8E8A6CAC6E8D2DEDCA6F2DAA6E8C88120288A0B6B23A21B2B73A32B92634B732A9BA3220480A1682DAC8E89CDEE8CAA6E8C88120285A0B1A0B6B3A630BCA9BA3220480A1682C682DACE88D2DAA6E8C88120288A0B1A0B6B3A437B632A1B430B93A29B
310
A3220480A1A82C682DACEA8D2E8D8CAA6E8C8812032040
340
7616
360
7617
360
7618
360
7619
360
761A
360
761B
360
761C
360
761D
360
761E
360
761F
360
7620
360
7621
360
7627
360
7628
360
7634
360
7635
 94
        0
1001
ACAD
1000
AcRTDxfName
1000
ACMSTANDARDISO
  0
ACAD_PROXY_OBJECT
  5
7602
102
{ACAD_REACTORS
330
7601
102
}
330
7601
100
AcDbProxyObject
 90
      499
 91
      523
 95
   917527
 70
     0
 93
     2396
310
4050B44574753455454494E4753A1286829C8E82A4A482B282A106660F8686AF86C608321A2A720A723A0A849A1ABE1C983E18999AA0C868A9C889282940000000000000488083A1A2A72224A0A9A0A8418983E19183E199820E868A9C8892A6A894000000000000010808321A2A72622A7250000000000000122020C868A9
310
C9E8C8C940000000000000488084A1A624A720A92920ACA0A8418983E19183E19982108698929C8AA8B2A082A0AB098929C8A84A22BA3AAA9A1A0A622A50A0E9882A6A89E849482A02608426A0A5A2AB24A2ABA7E8120CA0A68682988A0C00800010652455649534941501304154D0D0531150540CC4E8D50954494D455354
310
414D504A0E90379914B1F734141D5915494D253D3905414C4D4B8C0C1107B44574753455454494E4753454E447D0
 94
        0
1001
ACAD
1000
AcRTDxfName
1000
AMGSETTINGSOBJ
  0
ACAD_PROXY_OBJECT
  5
7603
102
{ACAD_REACTORS
330
7601
102
}
330
7601
100
AcDbProxyObject
 90
      499
 91
      523
 95
   917527
 70
     0
 93
      852
310
4050D5452414E5353455454494E4753A2488A482AE929C8EA8A4829CA69882A8929E9C0C00800050D4F524947494E414C4C595F4F4E0600400008529A7AAA921A2A620A723A0A81A52827212AAA0A48AA68AA4AC8A0C0080001107B44574753455454494E4753454E447D8
 94
        0
1001
ACAD
1000
AcRTDxfName
1000
AMGSETTINGSOBJ
  0
IDBUFFER
  5
767A
330
0
100
AcDbIdBuffer
330
8126
330
8127
330
8128
330
8129
330
812A
330
812B
330
812C
330
812D
330
812E
330
812F
330
8130
330
8131
330
8132
330
8133
330
8134
330
8135
330
8136
330
8137
330
8138
330
8139
330
813A
330
813B
330
813C
330
813D
330
813E
330
813F
330
8140
330
8142
330
8143
330
8144
330
8145
330
8146
330
8147
330
8148
330
8149
330
814A
330
814B
330
814C
330
814D
330
814E
330
814F
330
8150
330
8151
330
8152
330
8154
330
8155
330
8156
330
8157
330
8158
330
8159
330
815A
330
815B
330
815C
330
815D
330
815E
330
815F
330
8160
330
8161
330
8162
330
8163
330
8164
330
8165
330
8166
330
8167
330
8168
330
8169
330
816A
330
816B
330
816C
330
816D
330
816E
330
816F
330
8170
330
8171
330
8178
330
8179
330
817A
330
817B
330
817C
330
817D
330
817F
330
8180
330
8181
330
8182
330
8183
330
8184
330
8185
330
8186
330
8187
330
8188
330
8189
330
818A
330
818B
330
818C
330
818D
330
818E
330
818F
330
8190
330
8191
330
8192
330
8193
330
8194
330
8195
330
8196
330
8197
330
8198
330
8199
330
819A
330
819B
330
819C
330
819D
330
819E
330
819F
330
81A0
330
81A1
330
81A2
330
81A3
330
81A4
330
81A5
330
81A6
330
81A7
330
81A9
330
81AA
330
81AE
330
81AF
330
81B1
330
81B2
330
81B3
330
81B4
330
81B5
330
81B6
330
81B7
330
81B8
330
81B9
330
81BA
330
81BB
330
81BC
330
81BD
330
81BE
330
81BF
330
81C0
330
81C1
330
81C2
330
81C9
330
81CA
330
81CB
330
81CC
330
81CD
330
81CE
330
81CF
330
81D0
330
81D1
330
81D2
330
81D3
330
81D4
330
81D5
330
81D6
330
81D7
330
81D8
330
81D9
330
81DF
330
81E0
330
81E1
330
81E2
330
81E3
330
81E4
330
81E5
330
81E6
330
81E7
330
81E8
330
81E9
330
81EA
330
81EB
330
81EC
330
81F3
330
81F4
330
81F5
330
81F6
330
81F7
330
81F8
330
81FA
330
81FB
330
81FC
330
81FD
330
81FE
330
81FF
330
8200
330
8201
330
8202
330
8203
330
8204
330
8205
330
8206
330
8207
330
8208
330
8209
330
820A
330
820B
330
820C
330
820D
330
820E
330
820F
330
8210
330
8211
330
8215
330
8217
330
8218
330
821A
330
821B
330
821C
330
821D
330
821E
330
821F
330
8220
330
8221
330
8222
330
8223
330
8224
330
8225
330
8226
330
8227
330
8228
330
8229
330
822A
330
822B
330
822C
330
822D
330
822E
330
822F
330
8230
330
8231
330
8232
330
8233
330
8234
330
8235
330
8236
330
8237
330
8238
  0
IDBUFFER
  5
767B
330
0
100
AcDbIdBuffer
  0
IDBUFFER
  5
767C
330
0
100
AcDbIdBuffer
330
8141
330
8153
330
8177
330
817E
330
81B0
330
81C3
330
81F2
330
81F9
330
8212
330
8216
330
8219
  0
IDBUFFER
  5
767D
330
0
100
AcDbIdBuffer
  0
IDBUFFER
  5
767E
330
0
100
AcDbIdBuffer
  0
IDBUFFER
  5
767F
330
0
100
AcDbIdBuffer
330
67D
330
81A8
330
81AB
330
81AC
330
81AD
330
81C4
330
81C5
330
81C6
330
81C7
330
81C8
330
81DA
330
81DB
330
81DC
330
81DD
330
81DE
330
8213
330
8214
330
8239
  0
IDBUFFER
  5
7680
330
0
100
AcDbIdBuffer
330
7F36
330
8123
330
8416
330
8417
330
8418
330
841B
330
841C
330
85DC
330
85DD
330
85DE
330
85DF
330
85E0
330
85E1
330
85E2
330
85E3
330
85E6
330
85E7
330
85E8
330
85E9
330
85EA
330
85EB
330
85EC
330
85ED
330
85EE
330
85EF
330
85F0
330
85F1
330
85F2
330
85F3
330
85F5
330
85F6
  0
IDBUFFER
  5
7681
330
0
100
AcDbIdBuffer
  0
IDBUFFER
  5
7682
330
0
100
AcDbIdBuffer
  0
IDBUFFER
  5
7683
330
0
100
AcDbIdBuffer
330
8175
330
81F0
  0
IDBUFFER
  5
7684
330
0
100
AcDbIdBuffer
330
8172
330
8173
330
8174
330
8176
330
81ED
330
81EE
330
81EF
330
81F1
  0
IDBUFFER
  5
7685
330
0
100
AcDbIdBuffer
  0
IDBUFFER
  5
7686
330
0
100
AcDbIdBuffer
330
7EF1
330
7EF2
330
7EF3
330
7EF4
330
7EF5
330
7EF6
330
7EF7
330
7EF8
330
7EF9
330
7EFA
330
7EFB
330
7EFC
330
7EFD
330
7EFE
330
7EFF
330
7F00
330
7F01
330
7F02
330
7F03
330
7F04
330
7F05
330
7F06
330
7F07
330
7F08
330
7F09
330
7F0A
330
7F0B
330
7F0C
330
7F0F
330
7F10
330
7F11
330
7F16
330
7F17
330
7F18
330
7F19
330
7F1A
330
7F1B
330
7F1C
330
7F1D
330
7F1E
330
7F1F
330
7F32
330
7F33
330
7F34
330
7F35
330
7F39
330
7F3A
330
7F3B
330
8419
330
841A
330
844C
330
844D
330
844E
330
7E71
330
7E72
330
7E73
330
7E74
330
7E75
330
7E76
330
7E77
330
7E78
330
7E79
330
7E7A
330
7E7B
330
7E95
330
7E9B
330
7EA0
330
7EA1
330
7EA2
330
7EA3
330
7EA4
330
7EA5
330
7EA6
330
7EA7
330
7EA8
330
7EAA
330
7EAB
330
7EAC
330
7EAD
330
7EAE
330
7EAF
330
7EB0
330
7EB1
330
7EB2
330
7EB3
330
7EB4
330
7EB5
330
7EB6
330
7EB7
330
7EB8
330
7EB9
330
7EBA
330
7EBB
330
7EBC
330
7EBD
330
7EBE
330
7EBF
330
7EC2
330
7EC3
330
7EC4
330
7EC5
330
7EC6
330
7EC7
330
7EC8
330
7EC9
330
7ECA
330
7ECB
330
7ECC
330
7ECD
330
7ECE
330
7ECF
330
7ED0
330
7ED1
330
7ED2
330
7ED3
330
7ED4
330
7ED5
330
7ED6
330
7ED7
330
7ED8
330
7ED9
330
7EDA
330
7EDB
330
7EDC
330
7EDD
330
7EDE
330
7EDF
330
7EE0
330
7EE1
330
7EE2
330
7EE3
330
7EE4
330
7EE5
330
7EE6
330
7EE7
330
7EE8
330
7EE9
330
7EEA
330
7EEB
330
7EEC
330
7EED
330
7EEE
330
7EEF
330
7EF0
  0
IDBUFFER
  5
7687
330
0
100
AcDbIdBuffer
  0
IDBUFFER
  5
7688
330
0
100
AcDbIdBuffer
  0
IDBUFFER
  5
7689
330
0
100
AcDbIdBuffer
  0
IDBUFFER
  5
768A
330
0
100
AcDbIdBuffer
  0
XRECORD
  5
8735
102
{ACAD_REACTORS
330
8734
102
}
330
8734
100
AcDbXrecord
280
     1
102
SHADEPLOT
 70
     0
102
SHADEPLOTRESLEVEL
 70
     2
102
SHADEPLOTCUSTOMDPI
 70
   300
  0
XRECORD
  5
8737
102
{ACAD_REACTORS
330
7776
102
}
330
7776
100
AcDbXrecord
280
     1
102
SHADEPLOT
 70
     0
102
SHADEPLOTRESLEVEL
 70
     2
102
SHADEPLOTCUSTOMDPI
 70
   300
  0
XRECORD
  5
7777
102
{ACAD_REACTORS
330
7776
102
}
330
7776
100
AcDbXrecord
280
     1
310
28000000B40000007F00000001000800000000004C59000000000000000000000001000000000000FFFFFF0000000000FFFFFF000000000000000000000000000000000000000000000000000000000000000000330000006600000099000000CC000000FF00000000330000333300006633000099330000CC330000FF3300
310
0000660000336600006666000099660000CC660000FF66000000990000339900006699000099990000CC990000FF99000000CC000033CC000066CC000099CC0000CCCC0000FFCC000000FF000033FF000066FF000099FF0000CCFF0000FFFF000000003300330033006600330099003300CC003300FF003300003333003333
310
33006633330099333300CC333300FF33330000663300336633006666330099663300CC663300FF66330000993300339933006699330099993300CC993300FF99330000CC330033CC330066CC330099CC3300CCCC3300FFCC330000FF330033FF330066FF330099FF3300CCFF3300FFFF330000006600330066006600660099
310
006600CC006600FF00660000336600333366006633660099336600CC336600FF33660000666600336666006666660099666600CC666600FF66660000996600339966006699660099996600CC996600FF99660000CC660033CC660066CC660099CC6600CCCC6600FFCC660000FF660033FF660066FF660099FF6600CCFF6600
310
FFFF660000009900330099006600990099009900CC009900FF00990000339900333399006633990099339900CC339900FF33990000669900336699006666990099669900CC669900FF66990000999900339999006699990099999900CC999900FF99990000CC990033CC990066CC990099CC9900CCCC9900FFCC990000FF99
310
0033FF990066FF990099FF9900CCFF9900FFFF99000000CC003300CC006600CC009900CC00CC00CC00FF00CC000033CC003333CC006633CC009933CC00CC33CC00FF33CC000066CC003366CC006666CC009966CC00CC66CC00FF66CC000099CC003399CC006699CC009999CC00CC99CC00FF99CC0000CCCC0033CCCC0066CC
310
CC0099CCCC00CCCCCC00FFCCCC0000FFCC0033FFCC0066FFCC0099FFCC00CCFFCC00FFFFCC000000FF003300FF006600FF009900FF00CC00FF00FF00FF000033FF003333FF006633FF009933FF00CC33FF00FF33FF000066FF003366FF006666FF009966FF00CC66FF00FF66FF000099FF003399FF006699FF009999FF00CC
310
99FF00FF99FF0000CCFF0033CCFF0066CCFF0099CCFF00CCCCFF00FFCCFF0000FFFF0033FFFF0066FFFF0099FFFF00CCFFFF00FFFFFF00000000000D0D0D001A1A1A00282828003535350043434300505050005D5D5D006B6B6B00787878008686860093939300A1A1A100AEAEAE00BBBBBB00C9C9C900D6D6D600E4E4E400
310
F1F1F100FFFFFF0000000000000000000000000000000000000000000000000000000000000000000000000000000000EFEFE2E2E2E2E2E2E2E2E2E2E2E2E2E2E2E2E2E2E2E2E2E2E2E2E2E2E2E2E2E2E2E2E2E2E2E2E2E2E2E2E2E2E2E2E2E2E2E2E2E2E2E2E2E2E2E2E2E2E2E2E2E2E2E2E2E2E2E2E2E2E2E2E2E2E2E2E2
310
E2E2E2E2E2E2E2E2E2E2E2E2E2E2E2E2E2E2E2E2E2E2E2E2E2E2E2E2E2E2E2E2E2E2E2E2E2E2E2E2E2E2E2E2E2E2E2E2E2E2E2E2E2E2E2E2E2E2E2E2E2E2E2E2E2E2E2E2E2E2E2E2E2E2E2E2E2E2E2E2E2E2E2E2E2E2E2E2E2E2E2E2E2E2E2E2E2E2E2E2EFE2E2E2E2E2E2E2E2E2E2E2E2E2E2E2E2E2E2E2E2E2E2E2E2E2E2
310
E2E2E2E2E2E2E2E2E2E2E2E2E2E2E2E2E2E2E2E2E2E2E2E2E2E2E2E2E2E2E2E2E2E2E2E2E2E2E2E2E2E2E2E2E2E2E2E2E2E2E2E2E2E2E2E2E2E2E2E2E2E2E2E2E2E2E2E2E2E2E2E2E2E2E2E2E2E2E2E2E2E2E2E2E2E2E2E2E2E2E2E2E2E2E2E2E2E2E2E2E2E2E2E2E2E2E2E2E2E2E2E2E2E2E2E2E2E2E2E2E2E2E2E2E2E2E2
310
E2E2E2E2E2E2E2E2E2E2E2E2E2E2E2E2E2E2E2E2E2E2E2E2E2E2EFE2F5F5F5F5F5F5F5F5F5F5F5F5F5F5F5F5F5F5F5F5F5F5F5F5F5F5F5F5F5F5F5F5F5F5F5F5F5F5F5F5F5F5F5F5F5F5F5F5F5F5F5F5F5F5F5F5F5F5F5F5F5F5F5F5F5F5F5F5F5F5F5F5F5F5F5F5F5F5F5F5F5F5F5F5F5F5F5F5F5F5F5F5F5F5F5F5F5F5F5
310
F5F5F5F5F5F5F5F5F5F5F5F5F5F5F5F5F5F5F5F5F5F5F5F5F5F5F5F5F5F5F5F5F5F5F5F5F5F5F5F5F5F5F5F5F5F5F5F5F5F5F5F5F5F5F5F5F5F5F5F5F5F5F5F5F5F5F5F5F5F5F5F5F5F5F5F5F5F5E2EFE2F5F5F5F5F5F5F5F5F5F5F5F5F5F5F5F5F5F5F5F5F5F5F5F5F5F5F5F5F5F5F5F5F5F5F5F5F5F5F5F5F5F5F5F5F5F5
310
F5F5F5F5F5F5F5F5F5F5F5F5F5F5F5F5F5F5F5F5F5F5F5F5F5F5F5F5F5F5F5F5F5F5F5F5F5F5F5F5F5F5F5F5F5F5F5F5F5F5F5F5F5F5F5F5F5F5F5F5F5F5F5F5F5F5F5F5F5F5F5F5F5F5F5F5F5F5F5F5F5F5F5F5F5F5F5F5F5F5F5F5F5F5F5F5F5F5F5F5F5F5F5F5F5F5F5F5F5F5F5F5F5F5F5F5F5F5F5F5F5F5F5F5F5F5F5
310
F5F5F5F5E2EFE2F5F5F5E2E2E2E2E2E2E2E2F5F5F5F5F5F5F5F5F5E2E2E2E2E2E2E2E2E2E2E2E2E2E2E2E2F5F5F5F5F5F5F5F5E2E2E2E2E2E2E2E2E2E2E2E2E2E2E2E2F5F5F5F5F5F5F5F5F5E2E2E2E2E2E2E2E2E2E2E2E2E2E2E2F5F5F5F5F5F5F5F5F5E2E2E2E2E2E2E2E2E2E2E2E2E2E2E2F5F5F5F5F5F5F5F5F5E2E2E2
310
E2E2E2E2E2E2E2E2E2E2E2E2E2F5F5F5F5F5F5F5F5E2E2E2E2E2E2E2E2E2E2E2E2E2E2E2E2F5F5F5F5F5F5F5F5F5E2E2E2E2E2E2E2E2F5F5F5E2EFE2F5F5F5E2F5F5F5F5F5F5F5F5F5F5F5F5F5F5F5F5F5F5F5F5F5F5F5F5F5F5F5F5F5F5F5F5F5F5F5F5F5F5F5F5F5F5F5F5F5F5F5F5F5F5F5F5F5F5F5F5F5F5F5F5F5F5F5
310
F5F5F5F5F5F5F5F5F5F5F5F5F5F5F5F5F5F5F5F5F5F5F5F5F5F5F5F5F5F5F5F5F5F5F5F5F5F5F5F5F5F5F5F5F5F5F5F5F5F5F5F5F5F5F5F5F5F5F5F5F5F5F5F5F5F5F5F5F5F5F5F5F5F5F5F5F5F5F5F5F5F5F5F5F5F5F5F5F5F5F5F5F5F5F5F5F5F5F5F5F5F5F5F5F5F5E2F5F5F5E2EFE2F5F5F5E2F5F5F5F5F5F5F5F5F5F5
310
F5F5F5F5F5F5F5F5F5F5F5F5F5F5F5F5F5F5F5F5F5F5F5F5F5F5F5F5F5F5F5F5F5F5F5F5F5F5F5F5F5F5F5F5F5F5F5F5F5F5F5F5F5F5F5F5F5F5F5F5F5F5F5F5F5F5F5F5F5F5F5F5F5F5F5F5F5F5F5F5F5F5F5F5F5F5F5F5F5F5F5F5F5F5F5F5F5F5F5F5F5F5F5F5F5F5F5F5F5F5F5F5F5F5F5F5F5F5F5F5F5F5F5F5F5F5F5
310
F5F5F5F5F5F5F5F5F5F5F5F5F5F5F5F5F5F5F5F5F5F5F5F5F5F5F5F5F5F5F5F5E2F5F5F5E2EFE2F5F5F5E2F5F5F5F5F5F5F5F5F5F5F5F5F5F5F5F5F5F5F5F5F5F5F5F5F5F5F5F5F5F5F5F5F5F5F5F5F5F5F5F5F5F5F5F5F5F5F5F5F5F5F5F5F5F5F5F5F5F5F5F5F5F5F5F5F5F5F5F5F5F5F5F5F5F5F5F5F5F5F5F5F5F5F5F5
310
F5F5F5F5F5F5F5F5F5F5F5F5F5F5F5F5F5F5F5F5F5F5F5F5F5F5F5F5F5F5F5F5F5F5F5F5F5F5F5F5F5F5F5F5F5F5F5F5F5F5F5F5F5F5F5F5F5F5F5F5F5F5F5F5F5F5F5F5F5F5F5F5F5F5F5F5F5F5F5F5F5F5F5F5F5E2F5F5F5E2EFE2F5F5F5E2F5F5F5F5F5F5F5F5F5F5F5F5F5F5F5F5F5F5F5F5F5F5F5F5F5F5F5F5F5F5F5
310
F5F5F5F5F5F5F5F5F5F5F5F5F5F5F5F5F5F5F5F5F5F5F5F5F5F5F5F5F5F5F5F5F5F5F5F5F5F5F5F5F5F5F5F5F5F5F5F5F5F5F5F5F5F5F5F5F5F5F5F5F5F5F5F5F5F5F5F5F5F5F5F5F5F5F5F5F5F5F5F5F5F5F5F5F5F5F5F5F5F5F5F5F5F5F5F5F5F5F5F5F5F5F5F5F5F5F5F5F5F5F5F5F5F5F5F5F5F5F5F5F5F5F5F5F5F5F5
310
F5F5F5F5F5F5F5F5F5F5F5E2F5F5F5E2EFE2F5F5F5E2F5F5F5F5F5F5F5F5F5F5F5F5F5F5F5F5F5F5F5F5F5F5F5F5F5F5F5F5F5F5F5F5F5F5F5F5F5F5F5F5F5F5F5F5F5F5F5F5F5F5F5F5F5F5F5F5F5F5F5F5F5F5F5F5F5F5F5F5F5F5F5F5F5F5F5F5F5F5F5F5F5F5F5F5F5F5F5F5F5F5F5F5F5F5F5F5F5F5F5F5F5F5F5F5F5
310
F5F5F5F5F5F5F5F5F5F5F5F5F5F5F5F5F5F5F5F5F5F5F5F5F5F5F5F5F5F5F5F5F5F5F5F5F5F5F5F5F5F5F5F5F5F5F5F5F5F5F5F5F5F5F5F5F5F5F5F5F5F5F5F5E2F5F5F5E2EFE2F5F5F5E2F5F5F5F5F5F5F5F5F5F5F5F5F5F5F5F5F5F5F5F5F5F5F5F5F5F5F5F5F5F5F5F5F5F5F5F5F5F5F5F5F5F5F5F5F5F5F5F5F5F5F5F5
310
F5F5F5F5F5F5F5F5F5F5F5F5F5F5F5F5F5F5F5F5F5F5F5F5F5F5F5F5F5F5F5F5F5F5F5F5F5F5F5F5F5F5F5F5F5F5F5F5F5F5F5F5F5F5F5F5F5F5F5F5F5F5F5F5F5F5F5F5F5F5F5F5F5F5F5F5F5F5F5F5F5F5F5F5F5F5F5F5F5F5F5F5F5F5F5F5F5F5F5F5F5F5F5F5F5F5F5F5F5F5F5F5F5F5F5F5F5E2F5F5F5E2EFE2F5F5F5
310
E2F5F5F5F5F5F5F5F5F5F5F5F5F5F5F5F5F5F5F5F5F5F5F5F5F5F5F5F5F5F5F5F5F5F5F5F5F5F5F5F5F5F5F5F5F5F5F5F5F5F5F5F5F5F5F5F5F5F5F5F5F5F5F5F5F5F5F5F5F5F5F5F5F5F5F5F5F5F5F5F5F5F5F5F5F5F5F5F5F5F5F5F5F5F5F5F5F5F5F5F5F5F5F5F5F5F5F5F5F5F5F5F5F5F5F5F5F5F5F5F5F5F5F5F5F5F5
310
F5F5F5F5F5F5F5F5F5F5F5F5F5F5F5F5F5F5F5F5F5F5F5F5F5F5F5F5F5F5F5F5F5F5F5F5F5F5F5F5F5F5F5E2F5F5F5E2EFE2F5F5F5F5F5F5F5F5F5F5F5F5F5F5F5F5F5F5F5F5F5F5F5F5F5F5F5F5F5F5F5F5F5F5F5F5F5F5F5F5F5F5F5F5F5F5F5F5F5F5F5F5F5F5F5F5F5F5F5F5F5F5F5F5F5F5F5F5F5F5F5F5F5F5F5F5F5
310
F5F5F5F5F5F5F5F5F5F5F5F5F5F5F5F5F5F5F5F5F5F5F5F5F5F5F5F5F5F5F5F5F5F5F5F5F5F5F5F5F5F5F5F5F5F5F5F5F5F5F5F5F5F5F5F5F5F5F5F5F5F5F5F5F5F5F5F5F5F5F5F5F5F5F5F5F5F5F5F5F5F5F5F5F5F5F5F5F5F5F5F5F5F5F5F5F5F5F5F5E2EFE2F5F5F5F5F5F5F5F5F5F5F5F5F5F5F5F5F5F5F5F5F5F5F5F5
310
F5F5F5F5F5F5F5F5F5F5F5F5F5F5F5F5F5F5F5F5F5F5F5F5F5F5F5F5F5F5F5F5F5F5F5F5F5F5F5F5F5F5F5F5F5F5F5F5F5F5F5F5F5F5F5F5F5F5F5F5F5F5F5F5F5F5F5F5F5F5F5F5F5F5F5F5F5F5F5F5F5F5F5F5F5F5F5F5F5F5F5F5F5F5F5F5F5F5F5F5F5F5F5F5F5F5F5F5F5F5F5F5F5F5F5F5F5F5F5F5F5F5F5F5F5F5F5
310
F5F5F5F5F5F5F5F5F5F5F5F5F5F5F5F5F5F5F5F5F5F5F5F5F5F5E2EFE2F5F5F5F5F5F5F5F5F5F5F5F5F5F5F5F5F5F5F5F5F5F5F5F5F5F5F5F5F5F5F5F5F5F5F5F5F5F5F5F5F5F5F5F5F5F5F5F5F5F5F5F5F5F5F5F5F5F5F5F5F5F5F5F5F5F5F5F5F5F5F5F5F5F5F5F5F5F5F5F5F5F5F5F5F5F5F5F5F5F5F5F5F5F5F5F5F5F5
310
F5F5F5F5F5F5F5F5F5F5F5F5F5F5F5F5F5F5F5F5F5F5F5F5F5F5F5F5F5F5F5F5F5F5F5F5F5F5F5F5F5F5F5F5F5F5F5F5F5F5F5F5F5F5F5F5F5F5F5F5F5F5F5F5F5F5F5F5F5F5F5F5F5F5F5F5F5F5F5E2EFE2F5F5F5F5F5F5F5F5F5F5F5F5F5F5F5F5F5F5F5F5F5F5F5F5F5F5F5F5F5F5F5F5F5F5F5F5F5F5F5F5F5F5F5F5F5
310
F5F5F5F5F5F5F5F5F5F5F5F5F5F5F5F5F5F5F5F5F5F5F5F5F5F5F5F5F5F5F5F5F5F5F5F5F5F5F5F5F5F5F5F5F5F5F5F5F5F5F5F5F5F5F5F5F5F5F5F5F5F5F5F5F5F5F5F5F5F5F5F5F5F5F5F5F5F5F5F5F5F5F5F5F5F5F5F5F5F5F5F5F5F5F5F5F5F5F5F5F5F5F5F5F5F5F5F5F5F5F5F5F5F5F5F5F5F5F5F5F5F5F5F5F5F5F5
310
F5F5F5F5F5E2EFE2F5F5F5F5F5F5F5F5F5F5F5F5F5F5F5F5F5F5F5F5282828282828282828282828282828282828282828282828282828282828282828282828282828282828282828282828282828282828282828282828282828282828282828282828282828282828282828282828282828282828282828282828282828
310
2828282828282828282828282828282828282828282828282828282828282828282828282828F5F5F5F5F5F5F5F5F5F5F5F5F5F5F5F5F5F5F5F5E2EFE2F5F5F5F5F5F5F5F5F5F5F5F5F5F5F5F5F5F5F5F528F5F5F5F5F5F5F5F5F5F5F5F5F5F5F5F5F5F5F5F5F50F282828F5F5F5F5F5F5F5F5F5F5F5F5F528F5F5F5F5F5F5
310
28F5F5F5F528F5F528F5F50FF5F5F5F5F5F5F5F5F5F5F5F5F5F5F5F5F5F5F5F5F5F5F5F5F5F5F5F5F5F5F5F5F528282828282828282828F528282828282828282828282828282828F5F528F5F5F5F528F5F5F5F50F28F5F528F528F5F5F5F5F5F5F5F5F5F5F5F5F5F5F5F5F5F5F5F5E2EFE2F5F5F5F5F5F5F5F5F5F5F5F5F5
310
F5F5F5F5F5F5F528F5F5F5F5F5F5F5F5F5F5F5F5F5F5F5F5F5F5F5F5F528282828282828282828282828282828282828282828282828282828282828282828280FF5F5F5F5F5F5F5F5F5F5F5F5F5F5F5F5F5F5F5F5F5F5F5F5F5F5F5F5F5F5F5F5F50F282828282828282828F5F528282828282828282828282828280FF5F5
310
28F5F5F5F528F5F5F5F50FF5F5F528F528F5F5F5F5F5F5F5F5F5F5F5F5F5F5F5F5F5F5F5F5E2EFE2F5F5F5F5F5F5F5F5F5F5F5F5F5F5F5F5F5F5F5F528F5F5F5F5F5F5F5F5F5F5F5F5F5F5F5F5F5F5F5F5F50FF5F5F5F5F5F5F5F5F5F5F5F5F5F5F5F5F5F5F5F5F5F5F5F5F5F5F5F5F5F5F5F5F5F5F5F5F5F5F5F5F5F5F5F5
310
F5F5F5F5F5F5F5F5F5F5F5F5F5F5F5F5F5F5F5F5F5F5F5F52828282828282828282828F52828282828282828282828282828282828282828282828E228E2280F0F0F0F280F28F5F5F5F5F5F5F5F5F5F5F5F5F5F5F5F5F5F5F5F5E2EFE2F5F5F5F5F5F5F5F5F5F5F5F5F5F5F5F5F5F5F5F528F5F5F5F5F5F5F5F5F5F5F5F5F5
310
F5F5F5F5F5F5F5F50FF5F5F5F5F5F5F5F5F5F5F5F5F5F5F5F5F5F5F5F5F5F5F5F5F5F5F5F5F5F5F5F5F5F5F5F5F5F5F5F5F5F5F5F5F5F5F5F5F5F5F5F5F5F5F5F5F5F5F5F5F5F5F5F5F5F5F5F50F282828282828282828F5F5282828282828282828282828282828F5F528F5F5F5F528F5F5F5F50FF52828282828F5F5F5F5
310
F5F5F5F5F5F5F5F5F5F5F5F5F5F5F5F5E2EFE2F5F5F5E2F5F5F5F5F5F5F5F5F5F5F5F5F5F5F5F528F5F5F5F5F5F5F5F5F5F5F5F5F5F5F5F5F5F5F5F5F50FF5F5F5F5F5F5F5F5F5F5F5F5F5F5F5F5F5F5F5F5F5F5F5F5F5F5F5F5F5F5F5F5F5F5F5F5F5F5F5F5F5F5F5F5F5F5F5F5F5F5F5F5F5F5F5F5F5F5F5F5F5F5F5F5F5
310
F5F5F50F28282828282828280F0F0F280F0F0F282828280F280F0F280F0F0F0F0F0F0F0F0F0F0F0F0F0F0F0F0F0F0F0F28F5F5F5F5F5F5F5F5F5F5F5F5F5F5F5F5E2F5F5F5E2EFE2F5F5F5E2F5F5F5F5F5F5F5F5F5F5F5F5F5F5F5F528F5F5F5F5F5F5F5F5F5F5F5F5F5F5F5F5F5F5F5F5F50FF5F5F5F5F5F5F5F5F5F5F5F5
310
F5F5F5F5F5F5F5F5F5F5F5F5F5F5F5F5F5F5F5F5F5F5F5F5F5F5F5F5F5F5F5F5F5F5F5F5F5F5F5F5F5F5F5F5F5F5F5F5F5F5F5F5F5F5F5F50F282828282828282828F5F5F5F5F5F5F5F5F5F5F5F5F5F5F5F50FF5F528F5F5282828F528282828282828F5F528F5F5F5F5F5F5F5F5F5F5F5F5F5F5F5F5E2F5F5F5E2EFE2F5F5
310
F5E2F5F5F5F5F5F5F5F5F5F5F5F5F5F5F5F528F5F5F5F5F5F5F5F5F5F5F5F5F5F5F5F5F5F5F5F5F50FF5F5F5F5F5F5F5F5F5F5F5F5F5F5F5F5F5F5F5F5F5F5F5F5F5F5F5F5F5F5F5F5F5F5F5F5F5F5F5F5F5F5F5F5F5F5F5F5F5F5F5F5F5F5F5F5F5F5F5F5F5F5F5F5F5F5F5F5282828282828282828282828282828282828
310
282828282828282828F5F528F5F52828282828282828282828F5F528F5F5F5F5F5F5F5F5F5F5F5F5F5F5F5F5E2F5F5F5E2EFE2F5F5F5E2F5F5F5F5F5F5F5F5F5F5F5F5F5F5F5F528F5F5F5F5F5F5F5F5F5F5F5F5F5F5F5F5F5F5F5F5F50FF5F5F5F5F5F5F5F5F5F5F5F5F5F5F5F5F5F5F5F5F5F5F5F5F5F5F5F5F5F5F5F5F5
310
F5F5F5F5F5F5F5F5F5F5F5F5F5F5F5F5F5F5F5F5F5F5F5F5F5F5F5F5F5F5F5F5F5F5F50F28282828F5F5F5F528F5F5F5F5F5F528282828F5F5F5F5F5F50F28F528F5282828282828282828282828282828F5F5F5F5F5F5F5F5F5F5F5F5F5F5F5F5E2F5F5F5E2EFE2F5F5F5E2F5F5F5F5F5F5F5F5F5F5F5F5F5F5F5F528F5F5
310
F5F5F5F5F5F5F5F5F5F5F5F5F5F5F5F5F5F5F50FF5F5F5F5F5F5F5F5F5F5F5F5F5F5F5F5F5F5F5F5F5F5F5F5F5F5F5F5F5F5F5F5F5F5F5F5F5F5F5F5F5F5F5F5F5F5F5F5F5F5F5F5F5F5F5F5F5F5F5F5F5F5F5F5F5F5F5F5282828282828282828282828282828282828282828282828282828F5F528F5F5F5F5F528282828
310
2828F5F5F5F528F5F5F5F5F5F5F5F5F5F5F5F5F5F5F5F5E2F5F5F5E2EFE2F5F5F5E2F5F5F5F5F5F5F5F5F5F5F5F5F5F5F5F528F5F5F5F5F5F5F5F5F5F5F5F5F5F5F5F5F5F5F5F5F50FF5F5F5F5F5F5F5F5F5F5F5F5F5F5F5F5F5F5F5F5F5F5F5F5F5F5F5F5F5F5F5F5F5F5F5F5F5F5F5F5F5F5F5F5F5F5F5F5F5F5F5F5F5F5
310
F5F5F5F5F5F5F5F5F5F5F528F5F50F282828282828F5F528F5F5F5F5F5F528282828F5F5F5F5F5F50FF5F528F5F5F5F5F5F5F5F5F5F5F5F5F5F5F528F5F5F5F5F5F5F5F5F5F5F5F5F5F5F5F5E2F5F5F5E2EFE2F5F5F5E2F5F5F5F5F5F5F5F5F5F5F5F5F5F5F5F528F5F5F5F5F5F5F5F5F5F5F5F5F5F5F5F5F5F5F5F5F50FF5
310
F5F5F5F5F5F5F5F5F5F5F5F5F5F5F5F5F5F5F5F5F5F5F5F5F5F5F5F5F5F5F5F5F5F5F5F5F5F5F5F5F5F5F5F5F5F5F5F5F5F5F5F5F5F5F5F5F5F5F5F5F5F5F5F528282828282828282828282828282828282828282828280F0F0F0F0F0F0F0F0F280F0F0F0F0F0F0F0F0F0F0F0F0F0F0F28F5F5F5F5F5F5F5F5F5F5F5F5F5F5
310
F5F5E2F5F5F5E2EFE2F5F5F5E2F5F5F5F5F5F5F5F5F5F5F5F5F5F5F5F528F5F5F5F5F5F5F5F5F5F5F5F5F5F5F5F5F5F5F5F5F50FF5F5F5F5F5F5F5F5F5F5F5F5F5F5F5F5F5F5E2E2F5F5F5F5F5F5F5F5E2E2F5F5F5F5F5F5F5F5E2E2E2F5F5F5F5F5F5F5F5F5F5F5F5F5F5F5F5F5F5F5F5F528282828E2F5F5F5F5F5F5F5F5
310
28BEE2F5F5F5F528282828E22828282828F5F5F5F5F5F5F5F5F5F5F5F5F5F5F5F5F5F5F5F5F528F5F5F5F5F5F5F5F5F5F5F5F5F5F5F5F5E2F5F5F5E2EFE2F5F5F5E2F5F5F5F5F5F5F5F5F5F5F5F5F5F5F5F528F5F5F5F5F5F5F5F5F5F5F5F5F5F5F5F5F5F5F5F5F50FF5F5F5F5F5F5F5F5F5F5F5F5F5F5F5F5F5E2E2E2E2E2
310
E2E2E2E2E2E2E2E2E2E2E2E2E2E2E2E2E2E2E2F5F5F5F5F5F5F5F5F5F5F5F5F5F5F5F5F5F5F5F5F528F5F528E2E2E2E2E2E2E2E2E2E2BEE2E2E2E2E2E2E2E2E2E228F528F528F5F5F5F5F5F5F5F5F5F5F5F5F5F5F5F5F5F5F5F5F528F5F5F5F5F5F5F5F5F5F5F5F5F5F5F5F5E2F5F5F5E2EFE2F5F5F5E2F5F5F5F5F5F5F5F5
310
F5F5F5F5F5F5F5F528F5F5F5F5F5F5F5F5F5F5F5F5F5F5F5F5F5F5F5F5F50FF5F5F5F5F5F5F5F5F5F5F5F5F5F5F5F5F5E2F5F5F5F5F5F5F5F5F5F5F5BEF5F5F5F5F5F5F5F5F5F5E2F5F5F5F5F5F5F5F5F5F5F5F5F5F5F5F5F5F5F5F5F528F5F5E2F5F5F5F5F5F5F5F5F5F5BEF5F5F5F5F5F5F528F5F5E2F528F528F5F5F5F5
310
F5F5F5F5F5F5F5F5F5F5F5F5F5F5F5F5F528F5F5F5F5F5F5F5F5F5F5F5F5F5F5F5F5E2F5F5F5E2EFE2F5F5F5E2F5F5F5F5F5F5F5F5F5F5F5F5F5F5F5F528F5F5F5F5F5F5F5F5F5F5F5F5F5F5F5F5F5F5F5F5F50FF5F5F5F5F5F5F5F5F5F5F5F5F5F5F5F5F5E2F5F5F5F5F5F5F5F5F5F5F5BEF5F5F5F5F5F5F5F5F5F5E2F5F5
310
F5F5F5F5F5F5F5F5F5F5F5F5F5F5F5F5F5F5F528F5F5E2F5F5F5F5F5F5F5F5F5F5BEF5F5F5F5F5F5F5F5F5F5E2F528F528F5F5F5F5F5F5F5F5F5F5F5F5F5F5F5F5F5F5F5F5F528F5F5F5F5F5F5F5F5F5F5F5F5F5F5F5F5E2F5F5F5E2EFE2F5F5F5E2F5F5F5F5F5F5F5F5F5F5F5F5F5F5F5F528F5F5F5F5F5F5F5F5F5F5F5F5
310
F5F5F5F5F5F5F5F5F50FF5F5F5F5F5F5F5F5F5F5F5F5F5F5F5F5F5E2F5F5F5F5F5F5F5F5F5F5F5BEF5F5F5F5F5F5F5F5F5F5E2F5F5F5F5F5F5F5F5F5F5F5F5F5F5F5F5F5F5F5F5F528F5F5E2F5F5F5F5F5F5F5F5F5F5BEF5F5F5F5F5F5F5F5F5F5E2F528F528F5F5F5F5F5F5F5F5F5F5F5F5F5F5F5F5F5F5F5F5F528F5F5F5
310
F5F5F5F5F5F5F5F5F5F5F5F5F5E2F5F5F5E2EFE2F5F5F5E2F5F5F5F5F5F5F5F5F5F5F5F5F5F5F5F528F5F5F5F5F5F5F5F5F5F5F5F5F5F5F5F5F5F5F5F5F50FF5F5F5F5F5F5F5F5F5F5F5F5F5F5F5F5F5E2F5F5F5F5F5F5F5F5F5F5F5BEF5F5F5F5F5F5F5F5F5F5E2F5F5F5F5F5F5F5F5F5F5F5F5F5F5F5F5F5F5F5F52828F5
310
F5E2F5F5F5F5F5F5F5F5F5F5BEF5F5F5F5F5F5F5F5F5F5E2F528F528F5F5F5F5F5F5F5F5F5F5F5F5F5F5F5F5F5F5F5F5F528F5F5F5F5F5F5F5F5F5F5F5F5F5F5F5F5E2F5F5F5E2EFE2F5F5F5E2F5F5F5F5F5F5F5F5F5F5F5F5F5F5F5F528F5F5F5F5F5F5F5F5F5F5F5F5F5F5F5F5F5F5F5F5F50FF5F5F5F5F5F5F5F5F5F5F5
310
F5F5F5F5F5F5E2F5F5F5F5F5F5F5F5F5F5F5BEF5F5F5F5F5F5F5F5F5F5E2F5F5F5F5F5F5F5F5F5F5F5F5F5F5F5F5F5F5F5F5F528F5F5E2F5F5F5F5F5F5F5F5F5F5BEF5F5F5F5F5F5F5F5F5F5E2F528F528F5F5F5F5F5F5F5F5F5F5F5F5F5F5F5F5F5F5F5F5F528F5F5F5F5F5F5F5F5F5F5F5F5F5F5F5F5E2F5F5F5E2EFE2F5
310
F5F5E2F5F5F5F5F5F5F5F5F5F5F5F5F5F5F5F528F5F5F5F5F5F5F5F5F5F5F5F5F5F5F5F5F5F5F5F5F50FF5F5F5F5F5F5F5F5F5F5F5F5F5F5F5F5F5E2F5F5F5F5F5F5F5F5F5F5F5BEF5F5F5F5F5F5F5F5F5F5E2F5F5F5F5F5F5F5F5F5F5F5F5F5F5F5F5F5F5F5F5F528F5F5E2F5F5F5F5F5F5F5F5F5F5BEF5F5F5F5F5F5F5F5
310
F5F5E2F528F528F5F5F5F5F5F5F5F5F5F5F5F5F5F5F5F5F5F5F5F5F528F5F5F5F5F5F5F5F5F5F5F5F5F5F5F5F5E2F5F5F5E2EFE2F5F5F5F5F5F5F5F5F5F5F5F5F5F5F5F5F5F5F5F528F5F5F5F5F5F5F5F5F5F5F5F5F5F5F5F5F5F5F5F5F50FF5F5F5F5F5F5F5F5F5F5F5F5F5F5F5F5F5E2F5F5F5F5F5F5F5F5F5F5F5BEF5F5
310
F5F5F5F5F5F5F5F5E2F5F5F5F5F5F5F5F5F5F5F5F5F5F5F5F5F5F5F5F5F528F5F5E2F5F5F5F5F5F5F5F5F5F5BEF5F5F5F5F5F5F5F5F5F5E2F528F528F5F5F5F5F5F5F5F5F5F5F5F5F5F5F5F5F5F5F5F5F528F5F5F5F5F5F5F5F5F5F5F5F5F5F5F5F5F5F5F5F5E2EFE2F5F5F5F5F5F5F5F5F5F5F5F5F5F5F5F5F5F5F5F528F5
310
F5F5F5F5F5F5F5F5F5F5F5F5F5F5F5F5F5F5F5F50FF5F5F5F5F5F5F5F5F5F5F5F5F5F5F5F5F5E2F5F5F5F5F5F5F5F5F5F5F5BEF5F5F5F5F5F5BEF5F5F5E2F5F5F5F5F5F5F5F5F5F5F5F5F5F5F5F5F5F5F5F5F528F5F5E2F5F5BEF5F5F5F5F5F5F5BEF5F5F5F5F5F5F5F5F5F5E2F528F528F5F5F5F5F5F5F5F5F5F5F5F5F5F5
310
F5F5F5F5F5F5F528F5F5F5F5F5F5F5F5F5F5F5F5F5F5F5F5F5F5F5F5E2EFE2F5F5F5F5F5F5F5F5F5F5F5F5F5F5F5F5F5F5F5F528F5F5F5F5F5F5F5F5F5F5F5F5F5F5F5F5F5F5F5F5F50FF5F5F5F5F5F5F5F5F5F5F5F5F5F5F5F5F5E2F5F5F5F5F5F5F5F5F5F5F5BEF5F5F5F5F5E2E2E2E2E2E2F5F5F5F5F5F5F5F5F5F5F5F5
310
F5F5F5F5F5F5F5F5F528F5F5E2E2E2E2E2F5F5F5F5F5F5BEF5F5F5F5F5F5F5F5F5F5E2F528F528F5F5F5F5F5F5F5F5F5F5F5F5F5F5F5F5F5F5F5F5F528F5F5F5F5F5F5F5F5F5F5F5F5F5F5F5F5F5F5F5F5E2EFE2F5F5F5F5F5F5F5F5F5F5F5F5F5F5F5F5F5F5F5F528F5F5F5F5F5F5F5F5F5F5F5F5F5F5F5F5F5F5F5F5F50F
310
F5F5F5F5F5F5F5F5F5F5F5F5F5F5F5F5F5E2F5F5F5F5F5F5F5F5F5F5F5F5F5F5F5F5F5BEBEBEBEBEE2F5F5F5F5F5F5F5F5F5F5F5F5F5F5F5F5F5F5F5F5F5282828E2BEBEBEBEF5F5F5F5F5F5BEF5F5F5F5F5F5F5F5F5F5E2F528F528F5F5F5F5F5F5F5F5F5F5F5F5F5F5F5F5F5F5F5F5F528F5F5F5F5F5F5F5F5F5F5F5F5F5
310
F5F5F5F5F5F5F5E2EFE2F5F5F5F5F5F5F5F5F5F5F5F5F5F5F5F5F5F5F5F528F5F5F5F5F5F5F5F5F5F5F5F5F5F5F5F5F5F5F5F5F50FF5F5F5F5F5F5F5F5F5F5F5F5F5F5F5F5F5E2F5F5F5F5F5F5F5F5F5F5F5F5F5F5F5F5F5E2E2E2E2E2E2F5F5F5F5F5F5F5F5F5F5F5F5F5F5F5F5F5F5F5F5F5F5F5F5E2E2E2E2E2F5E2F5F5
310
F5F5BEF5F5F5F5F5F5F5F5F5F5E2F528F528F5F5F5F5F5F5F5F5F5F5F5F5F5F5F5F5F5F5F5F5F528F5F5F5F5F5F5F5F5F5F5F5F5F5F5F5F5F5F5F5F5E2EFE2F5F5F5F5F5F5F5F5F5F5F5F5F5F5F5F5F5F5F5F528F5F5F5F5F5F5F5F5F5F5F5F5F5F5F5F5F5F5F5F5F50FF5F5F5F5F5F5F5F5F5F5F5F5F5F5F5F5F5E2F5F5F5
310
F5F5F5F5F5F5F5F5F5F5F5F5F5F5F5E2E2E2E2E2F5F5F5F5F5F5F5F5F5F5F5F5F5F5F5F5F5F5F5F5F5F5F5F5E2F5F5E2F5E2E2E2E2E2F5BEF5F5F5F5F5F5F5F5F5F5E2F528F528F5F5F5F5F5F5F5F5F5F5F5F5F5F5F5F5F5F5F5F5F528F5F5F5F5F5F5F5F5F5F5F5F5F5F5F5F5F5F5F5F5E2EFE2F5F5F5F5F5F5F5F5F5F5F5
310
F5F5F5F5F5F5F5F5F528F5F5F5F5F5F5F5F5F5F5F5F5F5F5F5F5F5F5F5F5F50FF5F5F5F5F5F5F5F5F5F5F5F5F5F5F5F5F5E2F5F5F5F5F5F5F5F5F5F5F5BEF5F5F5F5F5F5F5E2E2E2E2F5F5F5F5F5F5F5F5F5F5F5F5F5F5F5F5F5F5F5F5F5F5F5F5E2F5F5F5F5E2E2E2E2E2F5F5F5F5F5F5F5F5F5F5F5F5E2F528F528F5F5F5
310
F5F5F5F5F5F5F5F5F5F5F5F5F5F5F5F5F5F528F5F5F5F5F5F5F5F5F5F5F5F5F5F5F5F5F5F5F5F5E2EFE2F5F5F5F5F5F5F5F5F5F5F5F5F5F5F5F5F5F5F5F528F5F5F5F5F5F5F5F5F5F5F5F5F5F5F5F5F5F5F5F5F50FF5F5F5F5F5F5F5F5F5F5F5F5F5F5F5F5F5E2E2E2E2E2E2E2E2E2E2E2E2BEE2E2E2E2E2E2E2E2E2E2E2F5
310
F5F5F5F5F5F5F5F5F5F5F5F5F5F5F5F5F5F5E2E2E2E2E2E2E2E2E2E2E2E2E2E2E2E2E2E2E2E2E2E2E2E2E2E2E2E2F528F528F5F5F5F5F5F5F5F5F5F5F5F5F5F5F5F5F5F5F5F5F528F5F5F5F5F5F5F5F5F5F5F5F5F5F5F5F5F5F5F5F5E2EFE2F5F5F5E2F5F5F5F5F5F5F5F5F5F5F5F5F5F5F5F528F5F5F5F5F5F5F5F5F5F5F5
310
F5F5F5F5F5F5F5F5F5F50FF5F5F5F5F5F5F5F5F5F5F5F5F5F5F5F5F5E2F5F5F5E2F5F5F5F5F5E2E2BEE2F5F5F5F5F5E2E2F5F5E2F5F5F5F5F5F5F5F5F5F5F5F5F5F5F5F5F5F5F5E2F5F5F5F5F5F5F5E2F5F5F5F5F5F5F5BEF5F5F5F5F5F5F5F5F5F5E22828F528F5F5F5F5F5F5F5F5F5F5F5F5F5F5F5F5F5F5F5F5F528F5F5
310
F5F5F5F5F5F5F5F5F5F5F5F5F5F5E2F5F5F5E2EFE2F5F5F5E2F5F5F5F5F5F5F5F5F5F5F5F5F5F5F5F528F5F5F5F5F5F5F5F5F5F5F5F5F5F5F5F5F5F5F5F5F50FF5F5F5F5F5F5F5F5F5F5F5F5F5F5F5F5F5E2F5F5F5E2E2E2E2E2E2E2E2BEE2E2E2E2E2E2E2E2F5F5E2F5F5F5F5F5F5F5F5F5F5F5F5F5F5F5F5F5F5F5E2F5F5
310
F5F5F5F5F5E2F5F5F5F5F5F5F5BEF5F5F5F5F5F5F5F5F5F5E228282828F5F5F5F5F5F5F5F5F5F5F5F5F5F5F5F5F5F5F5F5F528F5F5F5F5F5F5F5F5F5F5F5F5F5F5F5F5E2F5F5F5E2EFE2F5F5F5E2F5F5F5F5F5F5F5F5F5F5F5F5F5F5F5F528F5F5F5F5F5F5F5F5F5F5F5F5F5F5F5F5F5F5F5F5F50FF5F5F5F5F5F5F5F5F5F5
310
F5F5F5F5F5F5F5E2F5F5F5E2E2F5E2F5F5F5E2BEF5F5F5E2F5E2E2E2F5F5E2F5F5F5F5F5F5F5F5F5F5F5F5F5F5F5F5F5F5F528E2F5F5F5F5F5F5E2F5F5F5F5F5F5F5BEF5F5F5F5F5F5F5F5F5F5E22828F528F5F5F5F5F5F5F5F5F5F5F5F5F5F5F5F5F5F5F5F5F528F5F5F5F5F5F5F5F5F5F5F5F5F5F5F5F5E2F5F5F5E2EFE2
310
F5F5F5E2F5F5F5F5F5F5F5F5F5F5F5F5F5F5F5F528F5F5F5F5F5F5F5F5F5F5F5F5F5F5F5F5F5F5F5F5F50FF5F5F5F5F5F5F5F5F5F5F5F5F5F5F5F5F5E2F5F5F5E2E2F5E2F5F5F5E2E2F5F5F5E2F5E2E2E2F5F5E2F5F5F5F5F5F5F5F5F5F5F5F5F5F5F5F5F5F5F528E2F5F5F5F5F5F5E2F5F5F5F5F5F5F5BEF5F5F5F5F5F5F5
310
F5F5F5E22828F528F5F5F5F5F5F5F5F5F5F5F5F5F5F5F5F5F5F5F5F5F528F5F5F5F5F5F5F5F5F5F5F5F5F5F5F5F5E2F5F5F5E2EFE2F5F5F5E2F5F5F5F5F5F5F5F5F5F5F5F5F5F5F5F528F5F5F5F5F5F5F5F5F5F5F5F5F5F5F5F5F5F5F5F5F50FF5F5F5F5F5F5F5F5F5F5F5F5F5F5F5F5F5E2F5F5F5E2E2F5E2F5F5F5E2E2F5
310
F5F5E2F5E2E2E2F5F5E2F5F5F5F5F5F5F5F5F5F5F5F5F5F5F5F5F5F5F528F5E2F5F5F5F5F5E2F5F5F5F5F5F5F5BEF5F5F5F5F5F5F5F5F5F5E2F528F528F5F5F5F5F5F5F5F5F5F5F5F5F5F5F5F5F5F5F5F5F528F5F5F5F5F5F5F5F5F5F5F5F5F5F5F5F5E2F5F5F5E2EFE2F5F5F5E2F5F5F5F5F5F5F5F5F5F5F5F5F5F5F5F528
310
F5F5F5F5F5F5F5F5F5F5F5F5F5F5F5F5F5F5F5F5F50FF5F5F5F5F5F5F5F5F5F5F5F5F5F5F5F5F5E2F5F5F5E2E2F5E2F5F5F5E2E2F5F5F5E2F5E2E2E2F5F5E2F5F5F5F5F5F5F5F5F5F5F5F5F5F5F5F5F5F5F528F5E2F5F5F5F5F5E2F5F5F5F5F5F5F5F5F5F5F5F5F5F5F5F5F5F5E2F528F528F5F5F5F5F5F5F5F5F5F5F5F5F5
310
F5F5F5F5F5F5F5F528F5F5F5F5F5F5F5F5F5F5F5F5F5F5F5F5E2F5F5F5E2EFE2F5F5F5E2F5F5F5F5F5F5F5F5F5F5F5F5F5F5F5F528F5F5F5F5F5F5F5F5F5F5F5F5F5F5F5F5F5F5F5F5F50FF5F5F5F5F5F5F5F5F5F5F5F5F5F5F5F5F5E2F5F5F5E2E2F5E2F5F5F5E2BEF5F5F5E2F5E2E2E2F5F5E2F5F5F5F5F5F5F5F5F5F5F5
310
F5F5F5F5F5F5F5F528F5F5E2F5F5F5F5E2F5F5F5F5F5F5F5F5F5F5F5F5F5F5F5F5F5F5E2F528F528F5F5F5F5F5F5F5F5F5F5F5F5F5F5F5F5F5F5F5F5F528F5F5F5F5F5F5F5F5F5F5F5F5F5F5F5F5E2F5F5F5E2EFE2F5F5F5E2F5F5F5F5F5F5F5F5F5F5F5F5F5F5F5F528F5F5F5F5F5F5F5F5F5F5F5F5F5F5F5F5F5F5F5F5F5
310
0FF5F5F5F5F5F5F5F5F5F5F5F5F5F5F5F5F5E2F5F5F5E2E2F5E2F5F5F5E2BEF5F5F5E2F5E2E2E2F5F5E2F5F5F5F5F5F5F5F5F5F5F5F5F5F5F5F5F5F5F528F5E2E2E2F5F5F5E2F5F5F5F5F5F5F5F5F5F5F5F5F5F5F5F5F5F5E2F528F528F5F5F5F5F5F5F5F5F5F5F5F5F5F5F5F5F5F5F5F5F528F5F5F5F5F5F5F5F5F5F5F5F5
310
F5F5F5F5E2F5F5F5E2EFE2F5F5F5E2F5F5F5F5F5F5F5F5F5F5F5F5F5F5F5F528F5F5F5F5F5F5F5F5F5F5F5F5F5F5F5F5F5F5F5F5F50FF5F5F5F5F5F5F5F5F5F5F5F5F5F5F5F5F5E2F5F5F5E2E2F5E2E2E2E2E2BEE2E2E2E2F5E2E2E2F5F5E2F5F5F5F5F5F5F5F5F5F5F5F5F5F5F5F5F5F5F528E2E2E2E2E2E2E2E2F5F5F5F5
310
F5F5F5BEF5F5F5F5F5F5F5F5F5F5E2F528F528F5F5F5F5F5F5F5F5F5F5F5F5F5F5F5F5F5F5F5F5F528F5F5F5F5F5F5F5F5F5F5F5F5F5F5F5F5E2F5F5F5E2EFE2F5F5F5E2F5F5F5F5F5F5F5F5F5F5F5F5F5F5F5F528F5F5F5F5F5F5F5F5F5F5F5F5F5F5F5F5F5F5F5F5F50FF5F5F5F5F5F5F5F5F5F5F5F5F5F5F5F5F5E2F5F5
310
F5E2E2E2E2E2E2E2E2BEE2E2E2E2E2E2E2E2F5F5E2F5F5F5F5F5F5F5F5F5F5F5F5F5F5F5F5F5F5F528E2E2E2E2E2F5F5E2F5F5F5F5F5F5F5BEF5F5F5F5F5F5F5F5F5F5E2F528F528F5F5F5F5F5F5F5F5F5F5F5F5F5F5F5F5F5F5F5F5F528F5F5F5F5F5F5F5F5F5F5F5F5F5F5F5F5E2F5F5F5E2EFE2F5F5F5E2F5F5F5F5F5F5
310
F5F5F5F5F5F5F5F5F5F528F5F5F5F5F5F5F5F5F5F5F5F5F5F5F5F5F5F5F5F5F50FF5F5F5F5F5F5F5F5F5F5F5F5F5F5F5F5F5E2F5F5F5E2E2E2E2E2E2E2E2BEE2E2E2E2E2E2E2E2F5F5E2F5F5F5F5F5F5F5F5F5F5F5F5F5F5F5F5F5F5F528E2E2E2E2E2F5F5E2F5F5F5F5F5F5F5BEF5F5F5F5F5F5F5F5F5F5E2F528F528F5F5
310
F5F5F5F5F5F5F5F5F5F5F5F5F5F5F5F5F5F5F528F5F5F5F5F5F5F5F5F5F5F5F5F5F5F5F5E2F5F5F5E2EFE2F5F5F5E2F5F5F5F5F5F5F5F5F5F5F5F5F5F5F5F528F5F5F5F5F5F5F5F5F5F5F5F5F5F5F5F5F5F5F5F5F50FF5F5F5F5F5F5F5F5F5F5F5F5F5F5F5F5F5E2F5F5F5F5F5F5F5F5E2E2E2BEE2E2F5F5F5F5F5F5F5F5E2
310
F5F5F5F5F5F5F5F5F5F5F5F5F5F5F5F5F5F5F528E2E2E2E2E2F5F5E2F5F5F5F5F5F5F5BEF5F5F5F5F5F5F5F5F5F5E2F528F528F5F5F5F5F5F5F5F5F5F5F5F5F5F5F5F5F5F5F5F5F528F5F5F5F5F5F5F5F5F5F5F5F5F5F5F5F5E2F5F5F5E2EFE2F5F5F5E2F5F5F5F5F5F5F5F5F5F5F5F5F5F5F5F528F5F5F5F5F5F5F5F5F5F5
310
F5F5F5F5F5F5F5F5F5F5F50FF5F5F5F5F5F5F5F5F5F5F5F5F5F5F5F5F5E2F5F5F5F5F5F5F5F5F5F5E2BEF5F5F5F5F5F5F5F5F5F5E2F5F5F5F5F5F5F5F5F5F5F5F5F5F5F5F5F5F5F528E2E2F5E2E2F5F5E2F5F5F5F5F5F5F5BEF5F5F5F5F5F5F5F5F5F5E2F528F528F5F5F5F5F5F5F5F5F5F5F5F5F5F5F5F5F5F5F5F5F528F5
310
F5F5F5F5F5F5F5F5F5F5F5F5F5F5F5E2F5F5F5E2EFE2F5F5F5E2F5F5F5F5F5F5F5F5F5F5F5F5F5F5F5F528F5F5F5F5F5F5F5F5F5F5F5F5F5F5F5F5F5F5F5F5F50F0F0FF5F5F5F5F5F5F5F5F5F5F5F5F5F5F5E2F5F5F5F5F5F5F5F5F5F5E2BEF5F5F5F5F5F5F5F5F5F5E2F5F5F5F5F5F5F5F5F5F5F5F5F5F5F5F5F5F5F528E2
310
E2F5F5E2F5F5E2F5F5F5F5F5F5F5BEF5F5F5F5F5F5F5F5F5F5E2F528F528F5F5F5F5F5F5F5F5F5F5F5F5F5F5F5F5F5F5F5F5F528F5F5F5F5F5F5F5F5F5F5F5F5F5F5F5F5E2F5F5F5E2EFE2F5F5F5E2F5F5F5F5F5F5F5F5F5F5F5F5F5F5F5F528F5F5F5F5F5F5F5F5F5F5F5F5F5F5F5F5F5F5F5F5F50FF5F5F5F5F5F5F5F5F5
310
F5F5F5F5F5F5F5F5E2F5F5F5F5F5F5F5F5F5F5E2BEF5F5F5F5F5F5F5F5F5F5E2F5F5F5F5F5F5F5F5F5F5F5F5F5F5F5F5F5F5F528E2E2F5F5E2F5F5E2F5F5F5F5F5F5F5BEF5F5F5F5F5F5F5F5F5F5E2F528F528F5F5F5F5F5F5F5F5F5F5F5F5F5F5F5F5F5F5F5F5F528F5F5F5F5F5F5F5F5F5F5F5F5F5F5F5F5E2F5F5F5E2EF
310
E2F5F5F5E2F5F5F5F5F5F5F5F5F5F5F5F5F5F5F5F528F5F5F5F5F5F5F5F5F5F5F5F5F5F5F5F5F5F5F5F5F50FF5F5F5F5F5F5F5F5F5F5F5F5F5F5E2E2E2E2E2F5F5F5F5F5F5F5F5F5F5BEF5F5F5F5F5F5F5F5F5E2E2E2E2E2F5F5F5F5F5F5F5F5F5F5F5F5F5F5F5F528F5F5F5F5E2F5F5E2F5F5F5E2E2E2E2E2E2E2E2E2F5F5
310
F5F5F5F5E2F528F528F5F5F5F5F5F5F5F5F5F5F5F5F5F5F5F5F5F5F5F5F528F5F5F5F5F5F5F5F5F5F5F5F5F5F5F5F5E2F5F5F5E2EFE2F5F5F5F5F5F5F5F5F5F5F5F5F5F5F5F5F5F5F5F528F5F5F5F5F5F5F5F5F5F5F5F5F5F5F5F5F5F5F5F5F50FF5F5F5F5F5F5F5F5F5F5F5F5F5F5F5F5F5E2E2E2E2E2E2E2E2E2E2E2E2E2
310
E2E2E2E2E2E2E2E2E2E2E2F5F5F5F5F5F5F5F5F5F5F5F5F5F5F5F5F5F5F528F5F5F5E2E2E2E2E2E2E2E2E2E2E2E2E2E2E2E2E2E2E2E2E2E2E2E2E228F528F5F5F5F5F5F5F5F5F5F5F5F5F5F5F5F5F5F5F5F5F528F5F5F5F5F5F5F5F5F5F5F5F5F5F5F5F5F5F5F5F5E2EFE2F5F5F5F5F5F5F5F5F5F5F5F5F5F5F5F5F5F5F5F5
310
28F5F5F5F5F5F5F5F5F5F5F5F5F5F5F5F5F5F5F5F5F50FF5F5F5F5F5F5F5F5F5F5F5F5F5F5F5F5F5E2E2E2E2E2E2E2E2E2E2E2E2E2E2E2E2E2E2E2E2E2E2E2E2F5F5F5F5F5F5F5F5F5F5F5F5F5F5F5F5F5F5F528F5F5F5E2E2E2E2E2E2E2E2E2E2E2E2E2E2E2E2E2E2E2E228E2E2E2E228F528F5F5F5F5F5F5F5F5F5F5F5F5
310
F5F5F5F5F5F5F5F5F528F5F5F5F5F5F5F5F5F5F5F5F5F5F5F5F5F5F5F5F5E2EFE2F5F5F5F5F5F5F5F5F5F5F5F5F5F5F5F5F5F5F5F528F5F5F5F5F5F5F5F5F5F5F5F5F5F5F5F5F5F5F5F5F50FF5F5F5F5F5F5F5F5F5F5F5F5F5F5F5F5F5F5F5E2F5F5F5F5F5F5F5F5F5F5F5F5F5F5F5F5F5F5E2F5F5F5F5F5F5F5F5F5F5F5F5
310
F5F5F5F5F5F5F5F5F528F5F5F528F5E2F5F5F5F5F5F5F5F5F5BEF5F5BEE2E2E2282828E2282828F528F5F5F5F5F5F5F5F5F5F5F5F5F5F5F5F5F5F5F5F5F528F5F5F5F5F5F5F5F5F5F5F5F5F5F5F5F5F5F5F5F5E2EFE2F5F5F5F5F5F5F5F5F5F5F5F5F5F5F5F5F5F5F5F528F5F5F5F5F5F5F5F5F5F5F5F5F5F5F5F5F5F5F5F5
310
F50FF5F5F5F5F5F5F5F5F5F5F5F5F5F5F5F5F5F5F5E2F5F5F5F5F5F5F5F5F5F5F5F5F5F5F5F5F5F5E2F5F5F5F5F5F5F5F5F5F5F5F5F5F5F5F5F5F5F5F5F528F5F5F528F5E2E2F5F5F5F5F5F5F5F5BEF5F5E2E2E2E22828E2E2F528F5F528F5F5F5F5F5F5F5F5F5F5F5F5F5F5F5F5F5F5F5F5F528F5F5F5F5F5F5F5F5F5F5F5
310
F5F5F5F5F5F5F5F5F5E2EFE2F5F5F5F5F5F5F5F5F5F5F5F5F5F5F5F5F5F5F5F528F5F5F5F5F5F5F5F5F5F5F5F5F5F5F5F5F5F5F5F5F50FF5F5F5F5F5F5F5F5F5F5F5F5F5F5F5F5F5F5F5E2E2E2E2E2E2E2E2E2E2E2E2E2E2E2E2E2E2E2E2F5F5F5F5F5F5F5F5F5F5F5F5F5F5F5F5F5F5F5F5F528F5F5F528F5F5E2E2E2E2E2
310
E2E2E2E2E2E2E2E2E2E2282828E2282828282828F5F5F5F5F5F5F5F5F5F5F5F5F5F5F5F5F5F5F5F5F528F5F5F5F5F5F5F5F5F5F5F5F5F5F5F5F5F5F5F5F5E2EFE2F5F5F5F5F5F5F5F5F5F5F5F5F5F5F5F5F5F5F5F528F5F5F5F5F5F5F5F5F5F5F5F5F5F5F5F5F5F5F5F5F50FF5F5F5F5F5F5F5F5F5F5F5F5F5F5F5F5F5F5F5
310
F5F5F5F5F5F5F5F5F5F5F5F5F5F5F5F5F5F5F5F5F5F5F5F5F5F5F5F5F5F5F5F5F5F5F5F5F5F5F5F5F528F5F5F528F5F5F5F5F5F5F5F5F5F5F528F5F5F5F5F5282828F5F5F528F5F5F5F5F5F5F5F5F5F5F5F5F5F5F5F5F5F5F5F5F5F5F5F528F5F5F5F5F5F5F5F5F5F5F5F5F5F5F5F5F5F5F5F5E2EFE2F5F5F5F5F5F5F5F5F5
310
F5F5F5F5F5F5F5F5F5F5F528F5F5F5F5F5F5F5F5F5F5F5F5F5F5F5F5F5F5F5F5F50FF5F5F5F5F5F5F5F5F5F5F5F5F5F5F5F5F5F5F5F5F5F5E2E2E2E2E2E2E2E2E2E2E2E2E2E2E2E2E2F5F5F5F5F528282828282828282828F5F5F5F5F5F528F5F5F528F5F5F5F5F5F5F5F5F5F5F528F5F5F5F5F5282828F5F5F528F5F5F5F5
310
F5F5F5F5F5F5F5F5F5F5F5F5F5F5F5F5F5F5F5F528F5F5F5F5F5F5F5F5F5F5F5F5F5F5F5F5F5F5F5F5E2EFE2F5F5F5F5F5F5F5F5F5F5F5F5F5F5F5F5F5F5F5F528F5F5F5F5F5F5F5F5F5F5F5F5F5F5F5F5F5F5F5F5F50FF5F5F5F5F5F5F5F5F5F5F5F5F5F5F5F5F5F5F5F5F5F5E2F5F5F5F5F5F5F5F5F5F5F5F5F5F5E2E2F5
310
F5F5282828282828282828282828282828F5F5F528F5F5F528282828282828282828282828282828282828282828282828F5F5F5F5F5F5F5F5F5F5F5F5F5F5F5F5F5F5F5F5F5F5F5F528F5F5F5F5F5F5F5F5F5F5F5F5F5F5F5F5F5F5F5F5E2EFE2F5F5F5E2F5F5F5F5F5F5F5F5F5F5F5F5F5F5F5F528F5F5F5F5F5F5F5F5F5
310
F5F5F5F5F5F5F5F5F5F5F5F50FF5F5F5F5F5F5F5F5F5F5F5F5F5F5F5F5F5F5F5F5F5F5E2F5F5F5F5F5F5E2E2F5F5F5F5F5F5E2E2F5F5F5282828282828282828282828282828F5F5F528F5F5F528F5F5F5F5F5F5F5F5F5F5F528282828F5F5F5F5F5F5F5282828282828282828282828282828282828282828282828282828
310
F5F5F5F5F5F5F5F5F5F5F5F5F5F5F5F5E2F5F5F5E2EFE2F5F5F5E2F5F5F5F5F5F5F5F5F5F5F5F5F5F5F5F528F5F5F5F5F5F5F5F5F5F5F5F5F5F5F5F5F5F5F5F5F50FF5F5F5F5F5F5F5F5F5F5F5F5F5F5F5F5F5F5F5F5F5F5E2F5F5F5F5E2E2E2E2E2E2F5F5F5F5E2E2F5F528F5F5F5F5F5F5F5F5F5F5F5F5F5F5F5F5F5F528
310
F5F5F5F5F5F5F5F5F5F5F5F5F5F5F528282828F5F5F5F5F5F5F5F5F5F5F5F5F5F5F5F5F5F528282828282828282828282828282828F5F5F5F5F5F5F5F5F5F5F5F5F5F5F5F5E2F5F5F5E2EFE2F5F5F5E2F5F5F5F5F5F5F5F5F5F5F5F5F5F5F5F528F5F5F5F5F5F5F5F5F5F5F5F5F5F5F5F5F5F5F5F5F50FF5F5F5F5F5F5F5F5
310
F5F5F5F5F5F5F5F5F5F5F5F5F5F5E2F5F5F5F5E2E2E2E2E2E2F5F5F5F5E2E2F5F528F5F5F5F5F5F5F5F5F5F5F5F5F5F5F5F5F5F528F5F5F5F5F5F5F5F5F5F5F5F5F5F5F528F5F5F5F5F5F5F5F5F5F5F5F5F5F5F5F5F5F5F5F5F5F5282828282828282828282828282828F5F5F5F5F5F5F5F5F5F5F5F5F5F5F5F5E2F5F5F5E2
310
EFE2F5F5F5E2F5F5F5F5F5F5F5F5F5F5F5F5F5F5F5F528F5F5F5F5F5F5F5F5F5F5F5F5F5F5F5F5F5F5F5F5F50FF5F5F5F5F5F5F5F5F5F5F5F5F5F5F5F5F5F5F5F5F5F5E2F5F5E2E2E2E2E2E2E2E2E2E2F5F5E2E2F528F5F5F5F5F5F5F5F5F5F5F5F5F5F5F5F5F5F5F52828282828282828282828282828282828F5F5F5F5F5
310
F5F5F5F5F5282828282828282828282828282828282828282828282828282828F5F5F5F5F5F5F5F5F5F5F5F5F5F5F5F5E2F5F5F5E2EFE2F5F5F5E2F5F5F5F5F5F5F5F5F5F5F5F5F5F5F5F528F5F5F5F5F5F5F5F5F5F5F5F5F5F5F5F5F5F5F5F5F50FF5F5F5F5F5F5F5F5F5F5F5F5F5F5F5F5F5F5F5F5F5F5E2E2E2E2F5F5F5
310
F5F5F5F5F5E2E2E2E2E2E228E2F5F5F5F5F5F5F5F5F5F5F5F5F5F5F5F5F5F5F5F5F5F5F5F5F528F5F5F5F5F5F5F5F5F5F5F5F5F5F5F5F5F5F5F5F52828282828282828282828282828282828282828282828282828F5F5F5F5F5F5F5F5F5F5F5F5F5F5F5F5E2F5F5F5E2EFE2F5F5F5E2F5F5F5F5F5F5F5F5F5F5F5F5F5F5F5
310
F528F5F5F5F5F5F5F5F5F5F5F5F5F5F5F5F5F5F5F5F5F50FF5F5F5F5F5F5F5F5F5F5F5F5F5F5F5F5F5F5F5F5F5F5E2E2F5F5E2E2E2E2E2E2E2E2F5F5E2E2E228E2E2F5F5F5F5F5F5F5F5F5F5F5F5F5F5F5F5F5F5F5F5F5F5F5F5F5F5F5F5F5F5F5F5F5F5F5F5F5F5F5F5F5F5F5F5F528282828282828282828282828282828
310
2828282828282828282828F5F5F5F5F5F5F5F5F5F5F5F5F5F5F5F5E2F5F5F5E2EFE2F5F5F5E2F5F5F5F5F5F5F5F5F5F5F5F5F5F5F5F528F5F5F5F5F5F5F5F5F5F5F5F5F5F5F5F5F5F5F5F5F50FF5F5F5F5F5F5F5F5F5F5F5F5F5F5F5F5F5F5F5F5F5E2E2F5E2E2F5F5F5F5F5F5F5F5E2E2F5E2BEE2F528F5F5F5F5F5F5F5F5
310
F5F5F5F5F5F5F5F5F5F5F5F5F5F5F5F5F5F5F5F5F5F5F5F5F5F5F5F5F5F5F5F5F5F5F5F5F5F52828282828282828282828282828282828282828F5F5F5F5F528F5F5F5F5F5F5F5F5F5F5F5F5F5F5F5F5E2F5F5F5E2EFE2F5F5F5E2F5F5F5F5F5F5F5F5F5F5F5F5F5F5F5F528F5F5F5F5F5F5F5F5F5F5F5F5F5F5F5F5F5F5F5
310
F5F50FF5F5F5F5F5F5F5F5F5F5F5F5F5F5F5F5F5F5F5F5F5E2F5F5E2F5F5F5F5F5F5F5F5F5F5F5E2BEE2E2F528F5F5F5F5F5F5F5F5F5F5F5F5F5F5F5F5F5F5F5F5F5F5F5F5F5F5F5F5F5F5F5F5F5F5F5F5F5F5F5F5F5F5F5F5F5282828282828282828282828282828282828282828282828282828F5F5F5F5F5F5F5F5F5F5
310
F5F5F5F5F5F5E2F5F5F5E2EFE2F5F5F5E2F5F5F5F5F5F5F5F5F5F5F5F5F5F5F5F528F5F5F5F5F5F5F5F5F5F5F5F5F5F5F5F5F5F5F5F5F50FF5F5F5F5F5F5F5F5F5F5F5F5F5F5F5F5F5F5F5F5E2F5E2E2F5F5F5F5F5F5F5F5F5F5F5F5BEE2F5E2F5F528F5F5F5F5F5F5F5F5F5F5F5F5F5F5F5F5F5F5F5F5F5F5F5F5F5F5F5F5
310
F5F5F5F5F5F5F5F5F5F5F5F5F5F5F5F5F5282828282828282828282828F5F5F5F5F5F5F5F5F5F5F5F5F528F5F5F5F5F5F5F5F5F5F5F5F5F5F5F5F5E2F5F5F5E2EFE2F5F5F5E2F5F5F5F5F5F5F5F5F5F5F5F5F5F5F5F528F5F5F5F5F5F5F5F5F5F5F5F5F5F5F5F5F5F5F5F5F50FF5F5F5F5F5F5F5F5F5F5F5F5F5F5F5F5F5F5
310
F5E2F5E2F5F5F5F5F5F5E2E2E2E2F5F5F5BEF5F5E2F5E228F528F5F5F5F5F5F5F5F5F5F5F5F5F5F5F5F5F5F5F5F5F5F5F5F5F5F5F5F5F5F5F5F5F5F5F5F5F5F5F5F5F5F5F5F5282828282828282828282828F5F5F5F5F5F5F5F5F5F5F5F5F528F5F5F5F5F5F5F5F5F5F5F5F5F5F5F5F5E2F5F5F5E2EFE2F5F5F5E2F5F5F5F5
310
F5F5F5F5F5F5F5F5F5F5F5F528F5F5F5F5F5F5F5F5F5F5F5F5F5F5F5F5F5F5F5F5F50FF5F5F5F5F5F5F5F5F5F5F5F5F5F5F5F5F5F5F5E2F5E2F5F5F5F5E2E2F5F5F5F5E2E2F5BEF5F5E2F5E2F5F528F5F5F5F5F5F5F5F5F5F5F5F5F5F5F5F5F5F5F5F5F5F5F5F5F5F5F5F5F5F5F5F5F5F5F5F5F5F5F5F5F5F5F52828282828
310
28282828282828282828282828282828282828282828F5F5F5F5F5F5F5F5F5F5F5F5F5F5F5F5E2F5F5F5E2EFE2F5F5F5E2F5F5F5F5F5F5F5F5F5F5F5F5F5F5F5F528F5F5F5F5F5F5F5F5F5F5F5F5F5F5F5F5F5F5F5F5F50FF5F5F5F5F5F5F5F5F5F5F5F5F5F5F5F5F5F5E2F5E2F5F5F5F5E2F5F5F5F5F5F5F5F5E2F5F5F5F5
310
E2F5E2F528F5F5F5F5F5F5F5F5F5F5F5F5F5F5F5F5F5F5F5F5F5F5F5F5F5F5F5F5F5F5F5F5F5F5F5F5F5F5F5F5F5F5F5F52828282828282828282828F5F5F5F5F5F5F5F5F5F5F5F5F5F528F5F5F5F5F5F5F5F5F5F5F5F5F5F5F5F5E2F5F5F5E2EFE2F5F5F5E2F5F5F5F5F5F5F5F5F5F5F5F5F5F5F5F528F5F5F5F5F5F5F5F5
310
F5F5F5F5F5F5F5F5F5F5F5F5F50FF5F5F5F5F5F5F5F5F5F5F5F5F5F5F5F5E2E2E2F5E2F5F5F5F5E2F5F5F5F5F5F5F5BEE2F5F5F5F5E2F5E2E2E2F5F5F5F5F5F5F5F5F5F5F5F5F5F5F5F5F5F5F5F5F5F5F5F5F5F5F5F5F5F5F5F5F5F5F5F5F5F5F5F5F5F5F52828282828282828282828282828282828282828282828282828
310
28F5F5F5F5F5F5F5F5F5F5F5F5F5F5F5F5E2F5F5F5E2EFE2F5F5F5E2F5F5F5F5F5F5F5F5F5F5F5F5F5F5F5F528F5F5F5F5F5F5F5F5F5F5F5F5F5F5F5F5F5F5F5F5F50FF5F5F5F5F5F5F5F5F5F5F5F5F5F5F5F5E2E2E2F5E2F5F5F5E2F5F5F5F5F5F5F5BEF5F5E2F5F5F5E2F5E2E2E2F5F5F5F5F5F5F5F5F5F5F5F5F5F5F5F5
310
F5F5F5F5F5F5F5F5F5F5F5F5F5F5F5F5F5F5F5F5F5F5F5F5F5F5F5F52828282828282828282828282828282828282828282828282828F5F5F5F5F5F5F5F5F5F5F5F5F5F5F5F5E2F5F5F5E2EFE2F5F5F5E2F5F5F5F5F5F5F5F5F5F5F5F5F5F5F5F528F5F5F5F5F5F5F5F5F5F5F5F5F5F5F5F5F5F5F5F5F50FF5F5F5F5F5F5F5
310
F5F5F5F5F5F5F5F5E2E2F5E2F5E2F5F5F5E2F5F5F5F5F5F5BEF5F5F5E2F5F5F5E2F5E2F5E2E2F5F5F5F5F5F5F5F5F5F5F5F5F5F5F5F5F5F5F5F5F5F5F5F5F5F5F5F5F5F5F5F5F5F5F5F5F5F5F5F5F5F5282828282828282828282828282828282828282828282828282828F5F5F5F5F5F5F5F5F5F5F5F5F5F5F5F5E2F5F5F5
310
E2EFE2F5F5F5E2F5F5F5F5F5F5F5F5F5F5F5F5F5F5F5F528F5F5F5F5F5F5F5F5F5F5F5F5F5F5F5F5F5F5F5F5F50FF5F5F5F5F5F5F5F5F5F5F5F5F5F5F528BEBEBEBEBEBEBEBEE2BEBEBEBEBE28BEBEBEBEE2BEBEBEBEBEBEBEE2E2282828F5F5F5F5F5F5F5F5F5F5F5F5F5F5F5F5F5F5F5F5F5F5F5F5F5F5F5F5F5F5F5F5F5
310
F5F5F5F5F5F5F52828282828282828282828F52828282828F5F5F5F5F5F5F5F528F5F5F5F5F5F5F5F5F5F5F5F5F5F5F5F5E2F5F5F5E2EFE2F5F5F5F5F5F5F5F5F5F5F5F5F5F5F5F5F5F5F5F528F5F5F5F5F5F5F5F5F5F5F5F5F5F5F5F5F5F5F5F5F50FF5F5F5F5F5F5F5F5F5F5F5F5F5F5F5E2E2E2E2F5E2F5F5F5E2F5F5F5
310
F5F5F5F5F5F5F5E2F5F5F5E2F5E2F5E2E228F528F5F5F5F5F5F5F5F5F5F5F5F5F5F5F5F5F5F5F5F5F5F5F5F5F5F5F5F5F5F5F5F5F5F5F5F5F5F5F5F5282828282828282828F528F52828282828F5F5F5F5F5F5F5F528F5F5F5F5F5F5F5F5F5F5F5F5F5F5F5F5F5F5F5F5E2EFE2F5F5F5F5F5F5F5F5F5F5F5F5F5F5F5F5F5F5
310
F5F528F5F5F5F5F5F5F5F5F5F5F5F5F5F5F5F5F5F5F5F5F50FF5F5F5F5F5F5F5F5F5F5F5F5F5F5F528E2E2E2F5E2F5F5F5F5E2F5F5F5F5F5F5F5F5E2F5F5F5F5E2F5E2E2E228282828F5F5F5F5F5F5F5F5F5F5F5F5F5F5F5F5F5F5F5F5F5F5F5F5F5F5F5F5F5F5F5F5F5F5F5F5F5F5F5282828282828282828282828282828
310
282828282828282828282828F5F5F5F5F5F5F5F5F5F5F5F5F5F5F5F5F5F5F5F5E2EFE2F5F5F5F5F5F5F5F5F5F5F5F5F5F5F5F5F5F5F5F528F5F5F5F5F5F5F5F5F5F5F5F5F5F5F5F5F5F5F5F5F50FF5F5F5F5F5F5F5F5F5F5F5F5F5F5F528F5F5E2F5E2F5F5F5F5E2F5F5F5F5F5F5F5F5E2F5F5F5F5E2F528F5F528F5F5F5F5
310
F5F5F5F5F5F5F5F5F5F5F5F5F5F5F5F5F5F5F5F5F5F5F5F5F5F5F5F5F5F5F5F5F5F5F5F5F5F5F5282828282828282828282828282828F5282828282828F5F5F528F5F5F5F5F5F5F5F5F5F5F5F5F5F5F5F5F5F5F5F5E2EFE2F5F5F5F5F5F5F5F5F5F5F5F5F5F5F5F5F5F5F5F528F5F5F5F5F5F5F5F5F5F5F5F5F5F5F5F5F5F5
310
F5F5F50FF5F5F5F5F5F5F5F5F5F5F5F5F5F5F528F5F5F5E2F5E2F5F5F5F5E2E2F5F5F5F5E2E2F5F5F5F5E2F5E2F5282828F5F5F5F5F5F5F5F5F5F5F5F5F5F5F5F5F5F5F5F5F5F5F5F5F5F5F5F5F5F5F5F5F5F5F5F5F5F5F5F5F5F5282828282828282828282828282828282828282828282828282828F5F5F5F5F5F5F5F5F5
310
F5F5F5F5F5F5F5F5F5F5F5E2EFE2F5F5F5F5F5F5F5F5F5F5F5F5F5F5F5F5F5F5F5F528F5F5F5F5F5F5F5F5F5F5F5F5F5F5F5F5F5F5F5F5F50FF5F5F5F5F5F5F5F5F5F5F5F5F5F5F528F5F5F5E2F5E2F5F5F5F5F5E2E2E2E2E2E2F5F5F5F5F5E2F5E2F5F5F52828F5F5F5F5F5F5F5F5F5F5F5F5F5F5F5F5F5F5F5F5F5F5F5F5
310
F5F5F5F5F5F5F5F5F5F5F5F5F5F5F5F5F5F52828F52828F5F5282828282828282828F528282828282828F528F5F5F5F5F5F5F5F5F5F5F5F5F5F5F5F5F5F5F5F5E2EFE2F5F5F5F5F5F5F5F5F5F5F5F5F5F5F5F5F5F5F5F528F5F5F5F5F5F5F5F5F5F5F5F5F5F5F5F5F5F5F5F5F50FF5F5F5F5F5F5F5F5F5F5F5F5F5F5F528F5
310
F5F5F5E2F5E2E2F5F5F5F5F5F5F5F5F5F5F5F5E2E2F5E2F5F5F5F528F52828F5F5F5F5F5F5F5F5F5F5F5F5F5F5F5F5F5F5F5F5F5F5F5F5F5F5F5F5F5F5F5F5F5F5F5F5F5F5F5282828282828282828282828282828282828282828282828282828F5F5F5F5F5F5F5F5F5F5F5F5F5F5F5F5F5F5F5F5E2EFE2F5F5F5F5F5F5F5
310
F5F5F5F5F5F5F5F5F5F5F5F5F528F5F5F5F5F5F5F5F5F5F5F5F5F5F5F5F5F5F5F5F5F50FF5F5F5F5F5F5F5F5F5F5F5F5F5F5F528F5F5F5F5F5E2F5F5E2F5F5F5F5F5F5F5F5F5F5F5E2F5F5E2F5F5F5F528F5F5F52828F5F52828282828282828F5F5F5F5F5F5F5F5F5F5F5F5F5F5F5F5F5F5F5F5F5F5F5F5F5F5F5F5282828
310
282828282828282828282828282828282828F5F5F5F528F5F5F5F5F5F5F5F5F5F5F5F5F5F5F5F5F5F5F5F5E2EFE2F5F5F5F5F5F5F5F5F5F5F5F5F5F5F5F5F5F5F5F528F5F5F5F5F5F5F5F5F5F5F5F5F5F5F5F5F5F5F5F5F50FF5F5F5F5F5F5F5F5F5F5F5F5F5F5F528F5F5F5F5F5E2F5F5E2E2F5F5F5F5F5F5F5F5E2E2F5F5
310
E2F5F5F5F5F528F5F5F5F5F528282828282828282828282828F5F5F5F5F5F5F5F5F5F5F5F5F5F5F5F5F5F5F5F5F5F5F5F5282828282828282828282828282828282828282828282828282828F5F5F5F5F5F5F5F5F5F5F5F5F5F5F5F5F5F5F5F5E2EFE2F5F5F5E2F5F5F5F5F5F5F5F5F5F5F5F5F5F5F5F528F5F5F5F5F5F5F5
310
F5F5F5F5F5F5F5F5F5F5F5F5F5F50FF5F5F5F5F5F5F5F5F5F5F5F5F5F5F528F5F5F5F5F5F5E2E2F5F5E2E2E2E2E2E2E2E2F5F5E2E2F5F5F5F5F5F528F5F5F5F5F5F5282828282828282828282828F5F5F5F5F5F5F5F5F5F5F5F5F5F5F5F5F5F5F5F5F5F5F5F5F528282828F52828282828F5F5F5F5F5F5F5F5F5F5F5F5F5F5
310
F528F5F5F5F5F5F5F5F5F5F5F5F5F5F5F5F5E2F5F5F5E2EFE2F5F5F5E2F5F5F5F5F5F5F5F5F5F5F5F5F5F5F5F528F5F5F5F5F5F5F5F5F5F5F5F5F5F5F5F5F5F5F5F5F50FF5F5F5F5F5F5F5F5F5F5F5F5F5F5F528F5F5F5F5F5F5F5F5E2E2F5F5F5F5F5F5F5F5E2E2F5F5F5F5F5F5F5F528F5F5F5F5F5F5F528F5F5F5F5F5F5
310
28282828F5F5F5F5F5F5F5F5F5F5F5F5F5F5F5F5F5F5F5F5F5F5F5F5F528282828F52828282828F528F5F5F5F5F5F5F5F5F5F5F5F5F528F5F5F5F5F5F5F5F5F5F5F5F5F5F5F5F5E2F5F5F5E2EFE2F5F5F5E2F5F5F5F5F5F5F5F5F5F5F5F5F5F5F5F528F5F5F5F5F5F5F5F5F5F5F5F5F5F5F5F5F5F5F5F5F50FF5F5F5F5F5F5
310
F5F5F5F5F5F5F5F5F528F5F5F5F5F5F5F5F5F5F5E2E2E2E2E2E2E2E2F5F5F5F5F5F5F5F5F5F528F5F5F5F5F5F5F5F5F5F5F5F5F5F5F5F5F5F5F5F5F5F5F5F5F5F5F5F5F5F5F5F5F5F5F5F5F5F5F5F5F5F5282828282828282828282828282828282828282828282828282828F5F5F5F5F5F5F5F5F5F5F5F5F5F5F5F5E2F5F5
310
F5E2EFE2F5F5F5E2F5F5F5F5F5F5F5F5F5F5F5F5F5F5F5F528F5F5F5F5F5F5F5F5F5F5F5F5F5F5F5F5F5F5F5F5F50FF5F5F5F5F5F5F5F5F5F5F5F5F5F5F528F5F5F5F5F5F5F5F5F5F5F5F5F5F5F5F5F5F5F5F5F5F5F5F5F5F5F5F528F5F5F5F5F5F5F5F5F5F5F5F5F5F5F5F5F5F5F5F5F5F5F5F5F5F5F5F5F5F5F5F5F5F5F5
310
F5F5F5F5F5F5F5F52828282828282828282828282828282828282828282828282828F5F5F5F5F5F5F5F5F5F5F5F5F5F5F5F5E2F5F5F5E2EFE2F5F5F5E2F5F5F5F5F5F5F5F5F5F5F5F5F5F5F5F528F5F5F5F5F5F5F5F5F5F5F5F5F5F5F5F5F5F5F5F5F50FF5F5F5F5F5F5F5F5F5F5F5F5F5F5F528F5F5F5F5F5F5F5F5F5F5F5
310
F5F5F5F5F5F5F5F5F5F5F5F5F5F5F5F5F528F5F5F5F5F5F5F5F5F5F5F5F5F5F5F5F5F5F5F5F5F5F5F5F5F5F5F5F5F5F5F5F5F5F5F5F5F5F5F5F5F5F528282828282828F5F52828282828F5F528F528F5282828F5F52828F5F5F5F5F5F5F5F5F5F5F5F5F5F5F5F5E2F5F5F5E2EFE2F5F5F5E2F5F5F5F5F5F5F5F5F5F5F5F5F5
310
F5F5F528F5F5F5F5F5F5F5F5F5F5F5F5F5F5F5F5F5F5F5F5F50FF5F5F5F5F5F5F5F5F5F5F5F5F5F5F528F5F5F5F5F5F5F5F5F5F5F5F5F5F5F5F5F5F5F5F5F5F5F5F5F5F5F5F528F5F5F5F5F5F5F5F5F5F5F5F5F5F5F5F5F5F5F5F5F5F5F5F5F5F5F5F5F5F5F5F5F5F5F5F5F5F5F5F5F5F5F528282828F5F5F5F5F5F5F5F5F5
310
F5F5F5F5F5F5F5F5F5F5F5F528F5F5F5F5F5F5F5F5F5F5F5F5F5F5F5F5E2F5F5F5E2EFE2F5F5F5E2F5F5F5F5F5F5F5F5F5F5F5F5F5F5F5F528F5F5F5F5F5F5F5F5F5F5F5F5F5F5F5F5F5F5F5F5F50FF5F5F5F5F5F5F5F5F5F5F5F5F5F5F5282828282828282828282828282828282828282828282828282828282828F5F5F5
310
F5F5F5F5F5F5F5F5F5F5F5F5F5F5F5F5F5F5F5F5F5F5F5F5F5F5F5F5F5F5F5F5F5F5F5F5F5F5F5F528F52828F5F5F5F5F5F5F5F5F5F5F5F5F5F5F5F5F5F5F5F5F528F5F5F5F5F5F5F5F5F5F5F5F5F5F5F5F5E2F5F5F5E2EFE2F5F5F5E2F5F5F5F5F5F5F5F5F5F5F5F5F5F5F5F528F5F5F5F5F5F5F5F5F5F5F5F5F5F5F5F5F5
310
F5F5F5F50FF5F5F5F5F5F5F5F5F5F5F5F5F5F5F5F5F5F5F5F5F5F5F5F5F5F5F5F528282828F5F5F5F5F5F5F5F5F5F5F5F5F5F5F5F5F5F5F5F5F5F5F5F5F5F5F5F5F5F5F5F5F5F5F5F5F5F5F5F5F5F5F5F5F5F5F5F5F5F5F5F5F5F5F5F5F5F5F5F5F5F5F5F5F5F5F5F5F5F5F5F5F5F5F5F5F5F5F5F5F528F5F5F5F5F5F5F5F5
310
F5F5F5F5F5F5F5F5E2F5F5F5E2EFE2F5F5F5E2F5F5F5F5F5F5F5F5F5F5F5F5F5F5F5F528F5F5F5F5F5F5F5F5F5F5F5F5F5F5F5F5F5F5F5F5F50F0FDCDC0FDCDC0FDC0FDCDC0FDC0FDC280F0F0F0F0F0F0F0F0F0F0F0F282828280F0F0F0F0F0F0F0F0F0F0F0F0F0F0F0F0F0F0F0F0F0F0F0F0F0F0F0F0F0F0F0F0F0F0F0F0F
310
0F0F0F0F0F0F0F0F0F0F0F0F0F0F0F0F0F0F0F0F0F0F0F0F0F0F0F0F0F0F0F0F0F0F0F0F0F0F0F0F0F0F0F0F28F5F5F5F5F5F5F5F5F5F5F5F5F5F5F5F5E2F5F5F5E2EFE2F5F5F5E2F5F5F5F5F5F5F5F5F5F5F5F5F5F5F5F528F5F5F5F5F5F5F5F5F5F5F5F5F5F5F5F5F5F5F5F5F50FF5DCDCF5DCDCF5DCF5DCDCF5DCF5DC28
310
F5F5280FF5F5F5F5F5F5F5F5F5F5F5F5F5F5F5F5F5F5F5F5F5F5F5F5F5F5F5F5F5F5F5F5F5F5F5F5F5F5F5F5F5F5F5F5F5F5F5F5F5F5F5F5F5F5F5F5F5F5F5F5F5F5F5F5F5F5F5F5F5F5F5F5F5F5F5F5F5F5F5F5F5F5F5F5F5F5F5F5F5F5F5F5F528F5F5F5F5F5F5F5F5F5F5F5F5F5F5F5F5E2F5F5F5E2EFE2F5F5F5E2F5F5
310
F5F5F5F5F5F5F5F5F5F5F5F5F5F528F5F5F5F5F5F5F5F5F5F5F5F5F5F5F5F5F5F5F5F5F50FF5DCDCF5DCDCF5DCF5DCDCF5DCF5DC28F5F5F50FF5F5F5F5F5F5F5F5F5F5F5F5F5F5F5F5F5F5F5F5F5F5F5F5F5F5F5F5F5F5F5F5F5F5F5F5F5F5F5F5F5F5F5F5F5F5F5F5F5F5F5F5F5F5F5F5F5F5F5F5F5F5F5F5F5F5F5F5F5F5
310
F5F5F5F5F5F5F5F5F5F5F5F5F5F5F5F5F5F5F5F5F5F5F528F5F5F5F5F5F5F5F5F5F5F5F5F5F5F5F5E2F5F5F5E2EFE2F5F5F5E2F5F5F5F5F5F5F5F5F5F5F5F5F5F5F5F528F5F5F5F5F5F5F5F5F5F5F5F5F5F5F5F5F5F5F5F5F50F0FDCDC0FDCDC0FDC0FDCDC0FDC0FDC280F0F0F0FF5F5F5F5F5F5F5F5F5F5F5F5F5F5F5F5F5
310
F5F5F5F5F5F5F5F5F5F5F5F5F5F5F5F5F5F5F5F5F5F5F5F5F5F5F5F5F5F5F5F5F5F5F5F5F5F5F5F5F5F5F5F5F5F5F5F5F5F5F5F5F5F5F5F5F5F5F5F5F5F5F5F5F5F5F5F5F5F5F5F5F5F5F5F528F5F5F5F5F5F5F5F5F5F5F5F5F5F5F5F5E2F5F5F5E2EFE2F5F5F5E2F5F5F5F5F5F5F5F5F5F5F5F5F5F5F5F528F5F5F5F5F5F5
310
F5F5F5F5F5F5F5F5F5F5F5F5F5F5F5F5F5F5F5F5F5F5F5F5F5F5F5F5F5F5F5F5F5F5F5F5F5F5F5F5F5F5F5F5F5F5F5F5F5F5F5F5F5F5F5F5F5F5F5F5F5F5F5F5F5F5F5F5F5F5F5F5F5F5F5F5F5F5F5F5F5F5F5F5F5F5F5F5F5F5F5F5F5F5F5F5F5F5F5F5F5F5F5F5F5F5F5F5F5F5F5F5F5F5F5F5F5F5F5F5F5F5F5F5F5F5F5
310
F5F528F5F5F5F5F5F5F5F5F5F5F5F5F5F5F5F5E2F5F5F5E2EFE2F5F5F5E2F5F5F5F5F5F5F5F5F5F5F5F5F5F5F5F528F5F5F5F5F5F5F5F5F5F5F5F5F5F5F5F5F5F5F5F5F5F5F5F5F5F5F5F5F5F5F5F5F5F5F5F5F5F5F5F5F5F5F5F5F5F5F5F5F5F5F5F5F5F5F5F5F5F5F5F5F5F5F5F5F5F5F5F5F5F5F5F5F5F5F5F5F5F5F5F5
310
F5F5F5F5F5F5F5F5F5F5F5F5F5F5F5F5F5F5F5F5F5F5F5F5F5F5F5F5F5F5F5F5F5F5F5F5F5F5F5F5F5F5F5F5F5F5F5F5F5F5F5F5F5F5F528F5F5F5F5F5F5F5F5F5F5F5F5F5F5F5F5E2F5F5F5E2EFE2F5F5F5E2F5F5F5F5F5F5F5F5F5F5F5F5F5F5F5F528F5F5F5F5F5F5F5F5F5F5F5F5F5F5F5F5F5F5F5F5F5F5F5F5F5F5F5
310
F5F5F5F5F5F5F5F5F5F5F5F5F5F5F5F5F5F5F5F5F5F5F5F5F5F5F5F5F5F5F5F5F5F5F5F5F5F5F5F5F5F5F5F5F5F5F5F5F5F5F5F5F5F5F5F5F5F5F5F5F5F5F5F5F5F5F5F5F5F5F5F5F5F5F5F5F5F5F5F5F5F5F5F5F5F5F5F5F5F5F5F5F5F5F5F5F5F5F5F5F5F5F5F5F5F5F5F528F5F5F5F5F5F5F5F5F5F5F5F5F5F5F5F5E2F5
310
F5F5E2EFE2F5F5F5F5F5F5F5F5F5F5F5F5F5F5F5F5F5F5F5F528F5F5F5F5F5F5F5F5F5F5F5F5F5F5F5F5F5F5F5F5F5F5F5F5F5F5F5F5F5F5F5F5F5F5F5F5F5F5F5F5F5F5F5F5F5F5F5F5F5F5F5F5F5F5F5F5F5F5F5F5F5F5F5F5F5F5F5F5F5F5F5F5F5F5F5F5F5F5F5F5F5F5F5F5F5F5F5F5F5F5F5F5F5F5F5F5F5F5F5F5F5
310
F5F5F5F5F5F5F5F5F5F5F5F5F5F5F5F5F5F5F5F5F5F5F5F5F5F5F5F5F5F5F5F5F5F528F5F5F5F5F5F5F5F5F5F5F5F5F5F5F5F5F5F5F5F5E2EFE2F5F5F5F5F5F5F5F5F5F5F5F5F5F5F5F5F5F5F5F528F5F5F5F5F5F5F5F5F5F5F5F5F5F5F5F5F5F5F5F5F5F5F5F5F5F5F5F5F5F5F5F5F5F5F5F5F5F5F5F5F5F5F5F5F5F5F5F5
310
F5F5F5F5F5F5F5F5F5F5F5F5F5F5F5F5F5F5F5F5F5F5F5F5F5F5F5F5F5F5F5F5F5F5F5F5F5F5F5F5F5F5F5F5F5F5F5F5F5F5F5F5F5F5F5F5F5F5F5F5F5F5F5F5F5F5F5F5F5F5F5F5F5F5F5F5F5F5F5F5F5F5F5F5F5F5F528F5F5F5F5F5F5F5F5F5F5F5F5F5F5F5F5F5F5F5F5E2EFE2F5F5F5F5F5F5F5F5F5F5F5F5F5F5F5F5
310
F5F5F5F528F5F5F5F5F5F5F5F5F5F5F5F5F5F5F5F5F5F5F5F5F5F5F5F5F5F5F5F5F5F5F5F5F5F5F5F5F5F5F5F5F5F5F5F5F5F5F5F5F5F5F5F5F5F5F5F5F5F5F5F5F5F5F5F5F5F5F5F5F5F5F5F5F5F5F5F5F5F5F5F5F5F5F5F5F5F5F5F5F5F5F5F5F5F5F5F5F5F5F5F5F5F5F5F5F5F5F5F5F5F5F5F5F5F5F5F5F5F5F5F5F5F5
310
F5F5F5F5F5F5F5F5F5F5F5F5F528F5F5F5F5F5F5F5F5F5F5F5F5F5F5F5F5F5F5F5F5E2EFE2F5F5F5F5F5F5F5F5F5F5F5F5F5F5F5F5F5F5F5F528F5F5F5F5F5F5F5F5F5F5F5F5F5F5F5F5F5F5F5F5F5F5F5F5F5F5F5F5F5F5F5F5F5F5F5F5F5F5F5F5F5F5F5F5F5F5F5F5F5F5F5F5F5F5F5F5F5F5F5F5F5F5F5F5F5F5F5F5F5
310
F5F5F5F5F5F5F5F5F5F5F5F5F5F5F5F5F5F5F5F5F5F5F5F5F5F5F5F5F5F5F5F5F5F5F5F5F5F5F5F5F5F5F5F5F5F5F5F5F5F5F5F5F5F5F5F5F5F5F5F5F5F5F5F5F5F528F5F5F5F5F5F5F5F5F5F5F5F5F5F5F5F5F5F5F5F5E2EFE2F5F5F5F5F5F5F5F5F5F5F5F5F5F5F5F5F5F5F5F52828282828282828282828282828282828
310
282828282828282828282828282828282828282828282828282828282828282828282828282828282828282828282828282828282828282828282828282828282828282828282828282828282828282828282828282828282828282828282828282828282828282828282828282828282828282828282828F5F5F5F5F5F5F5
310
F5F5F5F5F5F5F5F5F5F5F5F5F5E2EFE2F5F5F5F5F5F5F5F5F5F5F5F5F5F5F5F5F5F5F5F5F5F5F5F5F5F5F5F5F5F5F5F5F5F5F5F5F5F5F5F5F5F5F5F5F5F5F5F5F5F5F5F5F5F5F5F5F5F5F5F5F5F5F5F5F5F5F5F5F5F5F5F5F5F5F5F5F5F5F5F5F5F5F5F5F5F5F5F5F5F5F5F5F5F5F5F5F5F5F5F5F5F5F5F5F5F5F5F5F5F5F5
310
F5F5F5F5F5F5F5F5F5F5F5F5F5F5F5F5F5F5F5F5F5F5F5F5F5F5F5F5F5F5F5F5F5F5F5F5F5F5F5F5F5F5F5F5F5F5F5F5F5F5F5F5F5F5F5F5F5F5F5F5F5F5F5F5F5F5E2EFE2F5F5F5F5F5F5F5F5F5F5F5F5F5F5F5F5F5F5F5F5F5F5F5F5F5F5F5F5F5F5F5F5F5F5F5F5F5F5F5F5F5F5F5F5F5F5F5F5F5F5F5F5F5F5F5F5F5F5
310
F5F5F5F5F5F5F5F5F5F5F5F5F5F5F5F5F5F5F5F5F5F5F5F5F5F5F5F5F5F5F5F5F5F5F5F5F5F5F5F5F5F5F5F5F5F5F5F5F5F5F5F5F5F5F5F5F5F5F5F5F5F5F5F5F5F5F5F5F5F5F5F5F5F5F5F5F5F5F5F5F5F5F5F5F5F5F5F5F5F5F5F5F5F5F5F5F5F5F5F5F5F5F5F5F5F5F5F5F5F5F5F5F5F5F5F5F5F5F5E2EFE2F5F5F5F5F5
310
F5F5F5F5F5F5F5F5F5F5F5F5F5F5F5F5F5F5F5F5F5F5F5F5F5F5F5F5F5F5F5F5F5F5F5F5F5F5F5F5F5F5F5F5F5F5F5F5F5F5F5F5F5F5F5F5F5F5F5F5F5F5F5F5F5F5F5F5F5F5F5F5F5F5F5F5F5F5F5F5F5F5F5F5F5F5F5F5F5F5F5F5F5F5F5F5F5F5F5F5F5F5F5F5F5F5F5F5F5F5F5F5F5F5F5F5F5F5F5F5F5F5F5F5F5F5F5
310
F5F5F5F5F5F5F5F5F5F5F5F5F5F5F5F5F5F5F5F5F5F5F5F5F5F5F5F5F5F5F5F5F5F5F5F5F5F5F5F5F5F5F5F5F5E2EFE2F5F5F5F5F5F5F5F5F5F5F5F5F5F5F5F5F5F5F5F5F5F5F5F5F5F5F5F5F5F5F5F5F5F5F5F5F5F5F5F5F5F5F5F5F5F5F5F5F5F5F5F5F5F5F5F5F5F5F5F5F5F5F5F5F5F5F5F5F5F5F5F5F5F5F5F5F5F5F5
310
F5F5F5F5F5F5F5F5F5F5F5F5F5F5F5F5F5F5F5F5F5F5F5F5F5F5F5F5F5F5F5F5F5F5F5F5F5F5F5F5F5F5F5F5F5F5F5F5F5F5F5F5F5F5F5F5F5F5F5F5F5F5F5F5F5F5F5F5F5F5F5F5F5F5F5F5F5F5F5F5F5F5F5F5F5F5F5F5F5F5F5F5F5F5F5F5F5F5E2EFE2F5F5F5E2F5F5F5F5F5F5F5F5F5F5F5F5F5F5F5F5F5F5F5F5F5F5
310
F5F5F5F5F5F5F5F5F5F5F5F5F5F5F5F5F5F5F5F5F5F5F5F5F5F5F5F5F5F5F5F5F5F5F5F5F5F5F5F5F5F5F5F5F5F5F5F5F5F5F5F5F5F5F5F5F5F5F5F5F5F5F5F5F5F5F5F5F5F5F5F5F5F5F5F5F5F5F5F5F5F5F5F5F5F5F5F5F5F5F5F5F5F5F5F5F5F5F5F5F5F5F5F5F5F5F5F5F5F5F5F5F5F5F5F5F5F5F5F5F5F5F5F5F5F5F5
310
F5F5F5F5F5F5F5F5F5F5F5F5F5F5F5F5F5F5F5F5E2F5F5F5E2EFE2F5F5F5E2F5F5F5F5F5F5F5F5F5F5F5F5F5F5F5F5F5F5F5F5F5F5F5F5F5F5F5F5F5F5F5F5F5F5F5F5F5F5F5F5F5F5F5F5F5F5F5F5F5F5F5F5F5F5F5F5F5F5F5F5F5F5F5F5F5F5F5F5F5F5F5F5F5F5F5F5F5F5F5F5F5F5F5F5F5F5F5F5F5F5F5F5F5F5F5F5
310
F5F5F5F5F5F5F5F5F5F5F5F5F5F5F5F5F5F5F5F5F5F5F5F5F5F5F5F5F5F5F5F5F5F5F5F5F5F5F5F5F5F5F5F5F5F5F5F5F5F5F5F5F5F5F5F5F5F5F5F5F5F5F5F5F5F5F5F5F5F5F5F5F5E2F5F5F5E2EFE2F5F5F5E2F5F5F5F5F5F5F5F5F5F5F5F5F5F5F5F5F5F5F5F5F5F5F5F5F5F5F5F5F5F5F5F5F5F5F5F5F5F5F5F5F5F5F5
310
F5F5F5F5F5F5F5F5F5F5F5F5F5F5F5F5F5F5F5F5F5F5F5F5F5F5F5F5F5F5F5F5F5F5F5F5F5F5F5F5F5F5F5F5F5F5F5F5F5F5F5F5F5F5F5F5F5F5F5F5F5F5F5F5F5F5F5F5F5F5F5F5F5F5F5F5F5F5F5F5F5F5F5F5F5F5F5F5F5F5F5F5F5F5F5F5F5F5F5F5F5F5F5F5F5F5F5F5F5F5F5F5F5F5F5F5F5F5F5F5F5F5F5F5F5F5E2
310
F5F5F5E2EFE2F5F5F5E2F5F5F5F5F5F5F5F5F5F5F5F5F5F5F5F5F5F5F5F5F5F5F5F5F5F5F5F5F5F5F5F5F5F5F5F5F5F5F5F5F5F5F5F5F5F5F5F5F5F5F5F5F5F5F5F5F5F5F5F5F5F5F5F5F5F5F5F5F5F5F5F5F5F5F5F5F5F5F5F5F5F5F5F5F5F5F5F5F5F5F5F5F5F5F5F5F5F5F5F5F5F5F5F5F5F5F5F5F5F5F5F5F5F5F5F5F5
310
F5F5F5F5F5F5F5F5F5F5F5F5F5F5F5F5F5F5F5F5F5F5F5F5F5F5F5F5F5F5F5F5F5F5F5F5F5F5F5F5F5F5F5F5F5F5F5F5F5F5F5F5E2F5F5F5E2EFE2F5F5F5E2F5F5F5F5F5F5F5F5F5F5F5F5F5F5F5F5F5F5F5F5F5F5F5F5F5F5F5F5F5F5F5F5F5F5F5F5F5F5F5F5F5F5F5F5F5F5F5F5F5F5F5F5F5F5F5F5F5F5F5F5F5F5F5F5
310
F5F5F5F5F5F5F5F5F5F5F5F5F5F5F5F5F5F5F5F5F5F5F5F5F5F5F5F5F5F5F5F5F5F5F5F5F5F5F5F5F5F5F5F5F5F5F5F5F5F5F5F5F5F5F5F5F5F5F5F5F5F5F5F5F5F5F5F5F5F5F5F5F5F5F5F5F5F5F5F5F5F5F5F5F5F5F5F5F5F5F5F5F5F5F5F5F5F5F5F5F5F5F5F5F5E2F5F5F5E2EFE2F5F5F5E2F5F5F5F5F5F5F5F5F5F5F5
310
F5F5F5F5F5F5F5F5F5F5F5F5F5F5F5F5F5F5F5F5F5F5F5F5F5F5F5F5F5F5F5F5F5F5F5F5F5F5F5F5F5F5F5F5F5F5F5F5F5F5F5F5F5F5F5F5F5F5F5F5F5F5F5F5F5F5F5F5F5F5F5F5F5F5F5F5F5F5F5F5F5F5F5F5F5F5F5F5F5F5F5F5F5F5F5F5F5F5F5F5F5F5F5F5F5F5F5F5F5F5F5F5F5F5F5F5F5F5F5F5F5F5F5F5F5F5F5
310
F5F5F5F5F5F5F5F5F5F5F5F5F5F5F5F5F5F5F5F5F5F5F5F5F5F5F5F5F5F5F5E2F5F5F5E2EFE2F5F5F5E2F5F5F5F5F5F5F5F5F5F5F5F5F5F5F5F5F5F5F5F5F5F5F5F5F5F5F5F5F5F5F5F5F5F5F5F5F5F5F5F5F5F5F5F5F5F5F5F5F5F5F5F5F5F5F5F5F5F5F5F5F5F5F5F5F5F5F5F5F5F5F5F5F5F5F5F5F5F5F5F5F5F5F5F5F5
310
F5F5F5F5F5F5F5F5F5F5F5F5F5F5F5F5F5F5F5F5F5F5F5F5F5F5F5F5F5F5F5F5F5F5F5F5F5F5F5F5F5F5F5F5F5F5F5F5F5F5F5F5F5F5F5F5F5F5F5F5F5F5F5F5F5F5F5F5F5F5F5F5F5F5F5F5F5F5F5F5F5F5F5F5E2F5F5F5E2EFE2F5F5F5E2E2E2E2E2E2E2E2F5F5F5F5F5F5F5F5F5E2E2E2E2E2E2E2E2E2E2E2E2E2E2E2E2
310
F5F5F5F5F5F5F5F5E2E2E2E2E2E2E2E2E2E2E2E2E2E2E2E2F5F5F5F5F5F5F5F5F5E2E2E2E2E2E2E2E2E2E2E2E2E2E2E2F5F5F5F5F5F5F5F5F5E2E2E2E2E2E2E2E2E2E2E2E2E2E2E2F5F5F5F5F5F5F5F5F5E2E2E2E2E2E2E2E2E2E2E2E2E2E2E2E2F5F5F5F5F5F5F5F5E2E2E2E2E2E2E2E2E2E2E2E2E2E2E2E2F5F5F5F5F5F5
310
F5F5F5E2E2E2E2E2E2E2E2F5F5F5E2EFE2F5F5F5F5F5F5F5F5F5F5F5F5F5F5F5F5F5F5F5F5F5F5F5F5F5F5F5F5F5F5F5F5F5F5F5F5F5F5F5F5F5F5F5F5F5F5F5F5F5F5F5F5F5F5F5F5F5F5F5F5F5F5F5F5F5F5F5F5F5F5F5F5F5F5F5F5F5F5F5F5F5F5F5F5F5F5F5F5F5F5F5F5F5F5F5F5F5F5F5F5F5F5F5F5F5F5F5F5F5F5
310
F5F5F5F5F5F5F5F5F5F5F5F5F5F5F5F5F5F5F5F5F5F5F5F5F5F5F5F5F5F5F5F5F5F5F5F5F5F5F5F5F5F5F5F5F5F5F5F5F5F5F5F5F5F5F5F5F5F5F5F5F5F5F5F5F5F5F5E2EFE2F5F5F5F5F5F5F5F5F5F5F5F5F5F5F5F5F5F5F5F5F5F5F5F5F5F5F5F5F5F5F5F5F5F5F5F5F5F5F5F5F5F5F5F5F5F5F5F5F5F5F5F5F5F5F5F5F5
310
F5F5F5F5F5F5F5F5F5F5F5F5F5F5F5F5F5F5F5F5F5F5F5F5F5F5F5F5F5F5F5F5F5F5F5F5F5F5F5F5F5F5F5F5F5F5F5F5F5F5F5F5F5F5F5F5F5F5F5F5F5F5F5F5F5F5F5F5F5F5F5F5F5F5F5F5F5F5F5F5F5F5F5F5F5F5F5F5F5F5F5F5F5F5F5F5F5F5F5F5F5F5F5F5F5F5F5F5F5F5F5F5F5F5F5F5F5F5F5F5E2EFE2E2E2E2E2
310
E2E2E2E2E2E2E2E2E2E2E2E2E2E2E2E2E2E2E2E2E2E2E2E2E2E2E2E2E2E2E2E2E2E2E2E2E2E2E2E2E2E2E2E2E2E2E2E2E2E2E2E2E2E2E2E2E2E2E2E2E2E2E2E2E2E2E2E2E2E2E2E2E2E2E2E2E2E2E2E2E2E2E2E2E2E2E2E2E2E2E2E2E2E2E2E2E2E2E2E2E2E2E2E2E2E2E2E2E2E2E2E2E2E2E2E2E2E2E2E2E2E2E2E2E2E2E2
310
E2E2E2E2E2E2E2E2E2E2E2E2E2E2E2E2E2E2E2E2E2E2E2E2E2E2E2E2E2E2E2E2E2E2E2E2E2E2E2E2E2E2E2E2E2E2E2EF
  0
ACAD_PROXY_OBJECT
  5
7617
330
760B
100
AcDbProxyObject
 90
      499
 91
      529
 95
   917527
 70
     0
 93
       12
310
5710
 94
        0
1001
ACAD
1000
AcRTDxfName
1000
AMDTEDGESTANDARDISO
  0
ACAD_PROXY_OBJECT
  5
7618
330
760B
100
AcDbProxyObject
 90
      499
 91
      530
 95
   917527
 70
     0
 93
       96
310
572A0E80A0280A0280A0280F
 94
        0
1001
ACAD
1000
AcRTDxfName
1000
ACMSURFSTANDARDISO
  0
ACAD_PROXY_OBJECT
  5
7619
330
760B
100
AcDbProxyObject
 90
      499
 91
      531
 95
   917527
 70
     0
 93
      272
310
5710E4050140501405014050140501405014050140D01405012C0000000000000040
340
7622
 94
        0
1001
ACAD
1000
AcRTDxfName
1000
ACMFCFSTANDARDISO
  0
ACAD_PROXY_OBJECT
  5
761A
330
760B
100
AcDbProxyObject
 90
      499
 91
      532
 95
   917527
 70
     0
 93
      496
310
5728666666666667A67E199999999999E99FD224050140501405014050140501405014050140501405014050140501405014050140501405014050140501
340
7623
 94
        0
1001
ACAD
1000
AcRTDxfName
1000
ACMWELDSTANDARDISO
  0
ACAD_PROXY_OBJECT
  5
761B
330
760B
100
AcDbProxyObject
 90
      499
 91
      533
 95
   917527
 70
     0
 93
       10
310
5728
 94
        0
1001
ACAD
1000
AcRTDxfName
1000
ACMIDSTANDARDISO
  0
ACAD_PROXY_OBJECT
  5
761C
330
760B
100
AcDbProxyObject
 90
      499
 91
      534
 95
   917527
 70
     0
 93
      223
310
572290EA22A7D90F49F8000000000000108140000000000000420204
340
7624
340
7625
 94
        0
1001
ACAD
1000
AcRTDxfName
1000
ACMDATUMSTANDARDISO
  0
ACAD_PROXY_OBJECT
  5
761D
330
760B
100
AcDbProxyObject
 90
      499
 91
      535
 95
   917527
 70
     0
 93
    12255
310
5710E411255115350141236025B690140501406901000000000000091013347454E545241434F2C4A504E2C302C8D8096DA2C47454E54524154582C25732C2847454E4D53472067656E647767203232322940690120281A8AA2CA0282484A4BE52028120280A0320200000000000012202668E8A9CA8A482869E5894A09C58
310
605921292F94588E8A9CA8A482A8B0584AE658508E8A9C9AA68E40CECADCC8EECE406464665280D202405044E414D454050496BC914F4051C40640A80000000000004E404CD1D15395149050D3CB1294138B0C0B25AF2453CB11D15395149055160B095CCB0A11D1539354D1C819D95B991DD9C80C8C8D8A50190B3D424C4F
310
434B3A4E414D4540480A0A888AA686A480A0921C12D7C80A3A80C81D0000000000100A28099A3A2A72A2920A1A79625282716181648704B5F1623A2A72A2920AA2C1612B9961423A2A726A9A39033B2B7323BB39019189B94A034809014214D51053911054911014122D2E29A50147501904A000000000000125013347454E
310
545241434F2C4A504E2C302C8B4B8A692C47454E54524154582C25732C2847454E4D53472067656E64776720323138294069012028426A0AA22A924A0A62028246EF4BDFA028EA0320B40000000000001CA02668E8A9CA8A482869E5894A09C5860591BBD2F7E588E8A9CA8A482A8B0584AE658508E8A9C9AA68E40CECADCC
310
8EECE406464625280D202405044E4F544540504928D8B4C4051D40641A80000000000003E404CD1D15395149050D3CB1294138B0C0B24A362D30B11D15395149055160B095CCB0A11D1539354D1C819D95B991DD9C80C8C8D4A501240480A0CAC8A9C889EA480A0D9BBDBB81BD6080A3A80C83D00000000000007C809AA3A2
310
A72A2920A1A79625282716181666EF6EE06F581623A2A72A2920AA2C1612B9961423A2A726A9A39033B2B7323BB39019191A14A0248090141911154D0D48C90141A43825AF880C90147501908A000000000020145013447454E545241434F2C4A504E2C302C90E096BE20322C47454E54524154582C25732C2847454E4D534
310
72067656E6477672033362940490120284A9AA20A72220A922192028345A5C53490192028EA03213400000000000024A026A8E8A9CA8A482869E5894A09C586059169714D24064588E8A9CA8A482A8B0584AE658508E8A9C9AA68E40CECADCC8EECE4064646052809202405094D4154455249414C32405068DDE97BF203240
310
51D40642A8713D0AD7A37045404D11D15395149050D3CB1294138B0C0B2377A5EFC80C8B11D15395149055160B095CCB0A11D1539354D1C819D95B991DD9C80D0C0A501240480A089A82A6A680A091D7F2F9480A3A80A0485A068100000000000007C809923A2A72A2920A1A796252827161816475FCBE51623A2A72A2920A
310
A2C1612B9961423A2A726A9A39033B2B7323BB3901A1914A024809014154149250D150141226FE29A501475014090C409020000000000000F9013247454E545241434F2C4A504E2C302C89BF8A692C47454E54524154582C25732C2847454E4D53472067656E6477672034332940490120281A224A6A02824850CB202028EA
310
028121A81A040000000000001F202648E8A9CA8A482869E5894A09C58605921432C80588E8A9CA8A482A8B0584AE658508E8A9C9AA68E40CECADCC8EECE406868528092024050E445020000000000000510107004060000000000000F9000000000000003E4041CF4F125511534F9014060000000000000F90000000000000
310
03E4041CF4F125511534F9014060000000000000D100000000000000344041CF4F125511534F9014060000000000000D100000000000000344041CF4F125511534F90140A4040000000000003E400000000000000F901073D3C4954454D3E405063D3C5154593E4050180000000000003E400000000000000F901073D3C495
310
4454D3E406404000000000000003E400000000000000F902888000000000000208081A0881A068120480A032208521122080D21480D211480A1485214852050000000000003C2FC000000000000F0BF4050241CCDCCCCCCCCCCEC3F3373333333333B0FC0000000000000C40480D0590140D04416406800000000000018808
310
120480A026280A03
340
0
340
0
 94
        0
1001
ACAD
1000
AcRTDxfName
1000
ACMBOMSTANDARDISO
  0
ACAD_PROXY_OBJECT
  5
761E
330
760B
100
AcDbProxyObject
 90
      499
 91
      536
 95
   917527
 70
     0
 93
      864
310
5704000000000000144048CF4F11115510525317D3105091530F880A0F11115510525317D05094D4D0D053114F8A51141C9A9999999999B93F26A666666666724FC000000000000E03F4000000000000004000000000000005100000000000000244041C0000000000001440
340
DB
340
7616
 94
        0
1001
ACAD
1000
AcRTDxfName
1000
ACMDETAILSTANDARDISO
  0
ACAD_PROXY_OBJECT
  5
761F
330
760B
100
AcDbProxyObject
 90
      499
 91
      537
 95
   917527
 70
     0
 93
      745
310
5700B00000000000002880959E9E29A2A1AA24A7A72FA620A122A62FA324A929AA1F169E29A2A1AA24A7A72FA620A122A62FA620A9AA1F00000000000004880FF41C88A0E0000000000001220000000000000028800000000000000A2000
340
F2
340
7616
 94
        0
1001
ACAD
1000
AcRTDxfName
1000
ACMSECTIONSTANDARDISO
  0
ACAD_PROXY_OBJECT
  5
7620
330
760B
100
AcDbProxyObject
 90
      499
 91
      538
 95
   917527
 70
     0
 93
      151
310
57280000000000000840A3D0A5723F0BD1F200
 94
        0
1001
ACAD
1000
AcRTDxfName
1000
ACMCENTERLINESTANDARDISO
  0
ACAD_PROXY_OBJECT
  5
7621
330
760B
100
AcDbProxyObject
 90
      499
 91
      539
 95
   917527
 70
     0
 93
     8042
310
571084050B90142A4050240509C3DDCCDFDAB0C420314043A013D2525633C486F6C653A63746469613E2078203C486F6C653A637464657074683E20555C503C696628657175616C28486F6C653A7461707065642C223022292C22252563222C486F6C653A6E6F6D696E616C202220782022293E3C696628657175616C28486
310
F6C653A7461707065642C223022292C486F6C653A6469612C486F6C653A706974636864657363293E3C696628657175616C28486F6C653A7461707065642C223122292C22207820222C2222293E3C696628657175616C28486F6C653A7461707065642C223122292C486F6C653A74617064657074682C2222293E203C69662
310
8657175616C28486F6C653A7465726D696E6174696F6E2C223022292C22202F20222C2222293E3C696628657175616C28486F6C653A7465726D696E6174696F6E2C223022292C486F6C653A64657074682C2222293E4064050340509C3DDCCDFDAB0C420314043B013D2525633C486F6C653A63746469613E2078203C486F6
310
C653A6374616E676C653E2525645C503C696628657175616C28486F6C653A7461707065642C223022292C22252563222C486F6C653A6E6F6D696E616C202220782022293E3C696628657175616C28486F6C653A7461707065642C223022292C486F6C653A6469612C486F6C653A706974636864657363293E3C69662865717
310
5616C28486F6C653A7461707065642C223122292C22207820222C2222293E3C696628657175616C28486F6C653A7461707065642C223122292C486F6C653A74617064657074682C2222293E203C696628657175616C28486F6C653A7465726D696E6174696F6E2C223022292C22202F20222C2222293E3C696628657175616
310
C28486F6C653A7465726D696E6174696F6E2C223022292C486F6C653A64657074682C2222293E4064050140509C3DDCCDFDAB0C4203140416013D3C696628657175616C28486F6C653A7461707065642C223022292C22252563222C486F6C653A6E6F6D696E616C202220782022293E3C696628657175616C28486F6C653A7
310
461707065642C223022292C486F6C653A6469612C486F6C653A706974636864657363293E3C696628657175616C28486F6C653A7461707065642C223122292C22207820222C2222293E3C696628657175616C28486F6C653A7461707065642C223122292C486F6C653A74617064657074682C2222293E203C6966286571756
310
16C28486F6C653A7465726D696E6174696F6E2C223022292C22202F20222C2222293E3C696628657175616C28486F6C653A7465726D696E6174696F6E2C223022292C486F6C653A64657074682C2222293E4064051E40509C3DDCCDFDAB0C420314050C3D3C535444503A444553433E40640515AB5
 94
        0
1001
ACAD
1000
AcRTDxfName
1000
ACMNOTESTANDARDISO
  0
ACAD_PROXY_OBJECT
  5
7627
330
760B
100
AcDbProxyObject
 90
      499
 91
      540
 95
   917527
 70
     0
 93
       20
310
571014
340
760C
 94
        0
1001
ACAD
1000
AcRTDxfName
1000
ACAMGLAYSTD
  0
ACAD_PROXY_OBJECT
  5
7628
330
760B
100
AcDbProxyObject
 90
      499
 91
      541
 95
   917527
 70
     0
 93
      250
310
571020000000000000A1000000000000002440408F0F9023C3E409A0DCFFFF86
340
7629
340
0
340
0
340
762A
340
762B
340
762C
340
762D
340
762E
340
7633
340
0
 94
        0
1001
ACAD
1000
AcRTDxfName
1000
ACAMGDIMSTD
  0
ACAD_PROXY_OBJECT
  5
7634
330
760B
100
AcDbProxyObject
 90
      499
 91
      542
 95
   917527
 70
     0
 93
    13131
310
5711A003FFFFFFFD03030003000000000000031000903030003000000000000031000805098DC0955782CCD8BDC4014E11D15395149050D3CB1294138B0C0B23702555E0B3362F710B11D15395149055160B095CCB0A11D1539354D1C819D95B991A5B5E880CCC0A78000C0000000000000000000000000000000100000000
310
0000031010240000000000000C4040A0141E322B0EC3337B64053647454E545241434F2C4A504E2C302C8C8AC3B0CCDED92C47454E54524154582C25732C2847454E4D53472067656E64696D7A20333129E00030000000000000000000000000000000040000000000000C40409000000000000031010290D4411140903411
310
0541D0C4350F4050E44D03449074510F000141232D24D7C053247454E545241434F2C4A504E2C302C8CB4935F2C47454E54524154582C25732C2847454E4D53472067656E64696D7A20312900010105002214000281464500A608E8A9CA8A482869E5894A09C5860591914588E8A9CA8A482A8B0584AE658508E8A9C9AA68E
310
40CECADCC8D2DAF4406452029F9E9E27B934B3B4B71F1E24A31427A91424A9A12620A7259427B934B3B4B7149624A9A12620A7259424B73232BC149496111116111711149F1E24B73232BC1F00808200111A000140560052F47454E545241434F2C4A504E2C302C582C47454E54524154582C25732C2847454E4D534720676
310
56E64696D7A20332900010100002054000280AC80A5E8E8A9CA8A482869E5894A09C586058B2588E8A9CA8A482A8B0584AE658508E8A9C9AA68E40CECADCC8D2DAF4406852000202000040E800050152014BD1D15395149050D3CB1294138B0C0B148B11D15395149055160B095CCB0A11D1539354D1C819D95B991A5B5E88
310
0D8A400040400008250000A0507A6029823A2A72A2920A1A79625282716181641E99623A2A72A2920AA2C1612B9961423A2A726A9A39033B2B73234B6BD101B948000808180105A000140A0F4C053047454E545241434F2C4A504E2C302C83D32C47454E54524154582C25732C2847454E4D53472067656E64696D7A203829
310
000101010020F400028248704B5F00A668E8A9CA8A482869E5894A09C58605921C12D7C588E8A9CA8A482A8B0584AE658508E8A9C9AA68E40CECADCC8D2DAF440646052000200080043280005048B4B8A69014CD1D15395149050D3CB1294138B0C0B22D2E29A4B11D15395149055160B095CCB0A11D1539354D1C819D95B9
310
91A5B5E880C8C4A4000400100086D0000A09196926BE029923A2A72A2920A1A796252827161816465A49AF9623A2A72A2920AA2C1612B9961423A2A726A9A39033B2B73234B6BD10189480A026202020A0043E80005048D8096DA014CD1D15395149050D3CB1294138B0C0B236025B68B11D15395149055160B095CCB0A11D
310
1539354D1C819D95B991A5B5E880C4D0A4000404140080D0000A0F65BB87BD5F717A029B23A2A72A2920A1A796252827161816596EE1EF57DC5E9623A2A72A2920AA2C1612B9961423A2A726A9A39033B2B73234B6BD10189A94800080828010EA0001426322ACB770F7ABEE2F4053847454E545241434F2C4A504E2C302C8
310
C8AB2DDC3DEAFB8BD2C47454E54524154582C25732C2847454E4D53472067656E64696D7A2031372900010105002274000281464500A628E8A9CA8A482869E5894A09C5860591914588E8A9CA8A482A8B0584AE658508E8A9C9AA68E40CECADCC8D2DAF440626C52000202080044A8000504909497CA014CD1D15395149050
310
D3CB1294138B0C0B242525F28B11D15395149055160B095CCB0A11D1539354D1C819D95B991A5B5E880C4E4A400040418008A521E000000000000001CA040C00000000000034408080000000000006881010000000000000D102040000000000001A2040800000000000034408180000000000007281030000000000001250
310
20600000000004028A040000000000000034408000000000000004881000000000000000D102000000000000001A204000000000000003440818000000000000508143C0000000000000039408180000000000006881030000000000000D102060000000000001A2040C000000000000344081800000000000068810300000
310
00000000E5020600000000000024A040C000000000080514080000000000000068810000000000000009102000000000000001A2040000000000000034408180000000000006881030000000000000A10283A2000000087800000204000000818000002080000008280000020E00000080A240000000
340
0
340
0
340
0
340
0
 94
        0
1001
ACAD
1000
AcRTDxfName
1000
ACAMGHOLECHARTSTDISO
  0
ACAD_PROXY_OBJECT
  5
7635
330
760B
100
AcDbProxyObject
 90
      499
 91
      543
 95
   917527
 70
     0
 93
     6922
310
5719740D254D3D0649534F5F4133429254D3D7D5125513115051349534F5F42525F5265766973696F6E6C69737446111413478342028323937783834316D6D2920421254D3D7D04D1E0D11141327835202835393478323130326D6D29421254D3D7D04C9E0D51141347839202832393778313839326D6D29421254D3D7D04D
310
1E0E51141337837202834323078323038306D6D29421254D3D7D04CDE0DD1141347838202832393778313638326D6D29421254D3D7D04D1E0E11141327834202835393478313638326D6D29421254D3D7D04C9E0D10E41312028353934783834316D6D29419254D3D7D04C51141347837202832393778313437316D6D29421
310
254D3D7D04D1E0DD1141347836202832393778313236316D6D29421254D3D7D04D1E0D91141347835202832393778313035316D6D29421254D3D7D04D1E0D5104130202838343078313138396D6D2920419254D3D7D04C10E41332028323937783432306D6D29419254D3D7D04CD1141327833202835393478313236316D6D
310
29421254D3D7D04C9E0CD10413478332028323937783633306D6D29421254D3D7D04D1E0CD1141337834202834323078313138396D6D29421254D3D7D04CDE0D11141337836202834323078313738336D6D29421254D3D7D04CDE0D91141337835202834323078313438366D6D29421254D3D7D04CDE0D50E4132202834323
310
0783539346D6D29419254D3D7D04C910413378332028343230783839316D6D29421254D3D7D04CDE0CD0E41342028323937783231306D6D29419254D3D7D04D1124130783220283131383978313638326D6D29421254D3D7D04C1E0C9124130783320283131383978323532336D6D29421254D3D7D04C1E0CD114131783420
310
2838343178323337386D6D29421254D3D7D04C5E0D11141317833202838343178313738336D6D29421254D3D7D04C5E0CD02431254D3C82557247A25E4C81050A49534F5F5449544C4541431254D3C82557247A25E4C81090A49534F5F5449544C45424110B979A97F0D8BDC45F424C5F44D254D3D7D09317D4995D9A5CDA5
310
BDB9B1A5CDD10B979A97F0D8BDC45F544C5F44D254D3D7D51317D4995D9A5CDA5BDB9B1A5CDD10B979A97F0D8BDC45F42525F44D254D3D7D09497D4995D9A5CDA5BDB9B1A5CDD10B979A97F0D8BDC45F54525F44D254D3D7D51497D4995D9A5CDA5BDB9B1A5CDD31
 94
        0
1001
ACAD
1000
AcRTDxfName
1000
ACAMGTITLESTD
  0
ENDSEC
  0
EOF
