  0
SECTION
  2
HEADER
  9
$ACADVER
  1
AC1018
  9
$ACADMAINTVER
 70
   104
  9
$DWGCODEPAGE
  3
ANSI_932
  9
$LASTSAVEDBY
  1
1547nh
  9
$CUSTOMPROPERTYTAG
  1
AmdtFileType
  9
$CUSTOMPROPERTY
  1
84
  9
$INSBASE
 10
0.0
 20
0.0
 30
0.0
  9
$EXTMIN
 10
-335.633397883701
 20
388.93344730942
 30
-0.0000000100002891
  9
$EXTMAX
 10
1569.562762544183
 20
1704.099481174829
 30
0.0000000100008806
  9
$LIMMIN
 10
0.0
 20
0.0
  9
$LIMMAX
 10
2099.9999916
 20
1485.0
  9
$ORTHOMODE
 70
     0
  9
$REGENMODE
 70
     1
  9
$FILLMODE
 70
     1
  9
$QTEXTMODE
 70
     0
  9
$MIRRTEXT
 70
     0
  9
$LTSCALE
 40
25.0
  9
$ATTMODE
 70
     1
  9
$TEXTSIZE
 40
15.0
  9
$TRACEWID
 40
1.0
  9
$TEXTSTYLE
  7
STANDARD
  9
$CLAYER
  8
SUNPOU
  9
$CELTYPE
  6
BYLAYER
  9
$CECOLOR
 62
   256
  9
$CELTSCALE
 40
1.0
  9
$DISPSILH
 70
     0
  9
$DIMSCALE
 40
5.0
  9
$DIMASZ
 40
2.5
  9
$DIMEXO
 40
1.0
  9
$DIMDLI
 40
6.0
  9
$DIMRND
 40
0.0
  9
$DIMDLE
 40
0.0
  9
$DIMEXE
 40
1.0
  9
$DIMTP
 40
0.0
  9
$DIMTM
 40
0.0
  9
$DIMTXT
 40
3.0
  9
$DIMCEN
 40
0.0
  9
$DIMTSZ
 40
0.0
  9
$DIMTOL
 70
     0
  9
$DIMLIM
 70
     0
  9
$DIMTIH
 70
     0
  9
$DIMTOH
 70
     0
  9
$DIMSE1
 70
     0
  9
$DIMSE2
 70
     0
  9
$DIMTAD
 70
     3
  9
$DIMZIN
 70
     8
  9
$DIMBLK
  1

  9
$DIMASO
 70
     1
  9
$DIMSHO
 70
     1
  9
$DIMPOST
  1

  9
$DIMAPOST
  1

  9
$DIMALT
 70
     0
  9
$DIMALTD
 70
     2
  9
$DIMALTF
 40
25.4
  9
$DIMLFAC
 40
1.0
  9
$DIMTOFL
 70
     1
  9
$DIMTVP
 40
0.0
  9
$DIMTIX
 70
     0
  9
$DIMSOXD
 70
     0
  9
$DIMSAH
 70
     1
  9
$DIMBLK1
  1
ARROW
  9
$DIMBLK2
  1
ARROW
  9
$DIMSTYLE
  2
IMCADLT
  9
$DIMCLRD
 70
     0
  9
$DIMCLRE
 70
     0
  9
$DIMCLRT
 70
     0
  9
$DIMTFAC
 40
0.45
  9
$DIMGAP
 40
1.0
  9
$DIMJUST
 70
     0
  9
$DIMSD1
 70
     0
  9
$DIMSD2
 70
     0
  9
$DIMTOLJ
 70
     1
  9
$DIMTZIN
 70
     8
  9
$DIMALTZ
 70
     0
  9
$DIMALTTZ
 70
     0
  9
$DIMUPT
 70
     0
  9
$DIMDEC
 70
     2
  9
$DIMTDEC
 70
     2
  9
$DIMALTU
 70
     2
  9
$DIMALTTD
 70
     2
  9
$DIMTXSTY
  7
STANDARD
  9
$DIMAUNIT
 70
     0
  9
$DIMADEC
 70
     0
  9
$DIMALTRND
 40
0.0
  9
$DIMAZIN
 70
     0
  9
$DIMDSEP
 70
    46
  9
$DIMATFIT
 70
     1
  9
$DIMFRAC
 70
     0
  9
$DIMLDRBLK
  1
ARROW
  9
$DIMLUNIT
 70
     2
  9
$DIMLWD
 70
    -2
  9
$DIMLWE
 70
    -2
  9
$DIMTMOVE
 70
     0
  9
$LUNITS
 70
     2
  9
$LUPREC
 70
     2
  9
$SKETCHINC
 40
1.0
  9
$FILLETRAD
 40
10.0
  9
$AUNITS
 70
     0
  9
$AUPREC
 70
     2
  9
$MENU
  1
acad
  9
$ELEVATION
 40
0.0
  9
$PELEVATION
 40
0.0
  9
$THICKNESS
 40
0.0
  9
$LIMCHECK
 70
     0
  9
$CHAMFERA
 40
10.0
  9
$CHAMFERB
 40
10.0
  9
$CHAMFERC
 40
20.0
  9
$CHAMFERD
 40
0.0
  9
$SKPOLY
 70
     0
  9
$TDCREATE
 40
2452703.606793553
  9
$TDUCREATE
 40
2452703.231793553
  9
$TDUPDATE
 40
2460733.724023032
  9
$TDUUPDATE
 40
2460733.349023032
  9
$TDINDWG
 40
0.0295288773
  9
$TDUSRTIMER
 40
0.0295288773
  9
$USRTIMER
 70
     1
  9
$ANGBASE
 50
0.0
  9
$ANGDIR
 70
     0
  9
$PDMODE
 70
     3
  9
$PDSIZE
 40
0.0
  9
$PLINEWID
 40
0.0
  9
$SPLFRAME
 70
     0
  9
$SPLINETYPE
 70
     6
  9
$SPLINESEGS
 70
     8
  9
$HANDSEED
  5
1F6C
  9
$SURFTAB1
 70
     6
  9
$SURFTAB2
 70
     6
  9
$SURFTYPE
 70
     6
  9
$SURFU
 70
     6
  9
$SURFV
 70
     6
  9
$UCSBASE
  2

  9
$UCSNAME
  2

  9
$UCSORG
 10
0.0
 20
0.0
 30
0.0
  9
$UCSXDIR
 10
1.0
 20
0.0
 30
0.0
  9
$UCSYDIR
 10
0.0
 20
1.0
 30
0.0
  9
$UCSORTHOREF
  2

  9
$UCSORTHOVIEW
 70
     0
  9
$UCSORGTOP
 10
0.0
 20
0.0
 30
0.0
  9
$UCSORGBOTTOM
 10
0.0
 20
0.0
 30
0.0
  9
$UCSORGLEFT
 10
0.0
 20
0.0
 30
0.0
  9
$UCSORGRIGHT
 10
0.0
 20
0.0
 30
0.0
  9
$UCSORGFRONT
 10
0.0
 20
0.0
 30
0.0
  9
$UCSORGBACK
 10
0.0
 20
0.0
 30
0.0
  9
$PUCSBASE
  2

  9
$PUCSNAME
  2

  9
$PUCSORG
 10
0.0
 20
0.0
 30
0.0
  9
$PUCSXDIR
 10
1.0
 20
0.0
 30
0.0
  9
$PUCSYDIR
 10
0.0
 20
1.0
 30
0.0
  9
$PUCSORTHOREF
  2

  9
$PUCSORTHOVIEW
 70
     0
  9
$PUCSORGTOP
 10
0.0
 20
0.0
 30
0.0
  9
$PUCSORGBOTTOM
 10
0.0
 20
0.0
 30
0.0
  9
$PUCSORGLEFT
 10
0.0
 20
0.0
 30
0.0
  9
$PUCSORGRIGHT
 10
0.0
 20
0.0
 30
0.0
  9
$PUCSORGFRONT
 10
0.0
 20
0.0
 30
0.0
  9
$PUCSORGBACK
 10
0.0
 20
0.0
 30
0.0
  9
$USERI1
 70
     3
  9
$USERI2
 70
     1
  9
$USERI3
 70
     5
  9
$USERI4
 70
     1
  9
$USERI5
 70
     0
  9
$USERR1
 40
5.0
  9
$USERR2
 40
3.0
  9
$USERR3
 40
3.0
  9
$USERR4
 40
2.5
  9
$USERR5
 40
6.0
  9
$WORLDVIEW
 70
     1
  9
$SHADEDGE
 70
     3
  9
$SHADEDIF
 70
    70
  9
$TILEMODE
 70
     1
  9
$MAXACTVP
 70
    48
  9
$PINSBASE
 10
0.0
 20
0.0
 30
0.0
  9
$PLIMCHECK
 70
     0
  9
$PEXTMIN
 10
1.000000000000000E+20
 20
1.000000000000000E+20
 30
1.000000000000000E+20
  9
$PEXTMAX
 10
-1.000000000000000E+20
 20
-1.000000000000000E+20
 30
-1.000000000000000E+20
  9
$PLIMMIN
 10
0.0
 20
0.0
  9
$PLIMMAX
 10
420.0
 20
297.0
  9
$UNITMODE
 70
     0
  9
$VISRETAIN
 70
     0
  9
$PLINEGEN
 70
     0
  9
$PSLTSCALE
 70
     1
  9
$TREEDEPTH
 70
  3020
  9
$CMLSTYLE
  2
STANDARD
  9
$CMLJUST
 70
     0
  9
$CMLSCALE
 40
20.0
  9
$PROXYGRAPHICS
 70
     1
  9
$MEASUREMENT
 70
     1
  9
$CELWEIGHT
370
    -1
  9
$ENDCAPS
280
     0
  9
$JOINSTYLE
280
     0
  9
$LWDISPLAY
290
     0
  9
$INSUNITS
 70
     0
  9
$HYPERLINKBASE
  1

  9
$STYLESHEET
  1
yama1.ctb
  9
$XEDIT
290
     1
  9
$CEPSNTYPE
380
     0
  9
$PSTYLEMODE
290
     1
  9
$FINGERPRINTGUID
  2
{47B594C6-ADEF-11D3-A508-004005A036C4}
  9
$VERSIONGUID
  2
{E84B0A4B-67D5-4A4C-9F50-50B4DFF202D5}
  9
$EXTNAMES
290
     1
  9
$PSVPSCALE
 40
0.0
  9
$OLESTARTUP
290
     0
  9
$SORTENTS
280
   127
  9
$INDEXCTL
280
     1
  9
$HIDETEXT
280
     0
  9
$XCLIPFRAME
290
     0
  9
$HALOGAP
280
     0
  9
$OBSCOLOR
 70
   257
  9
$OBSLTYPE
280
     0
  9
$INTERSECTIONDISPLAY
280
     0
  9
$INTERSECTIONCOLOR
 70
   257
  9
$DIMASSOC
280
     1
  9
$PROJECTNAME
  1

  0
ENDSEC
  0
SECTION
  2
CLASSES
  0
CLASS
  1
LWPOLYLINE
  2
AcDbPolyline
  3
ObjectDBX Classes
 90
        0
 91
        1
280
     0
281
     1
  0
CLASS
  1
ACDBDICTIONARYWDFLT
  2
AcDbDictionaryWithDefault
  3
ObjectDBX Classes
 90
        0
 91
        1
280
     0
281
     0
  0
CLASS
  1
ACDBPLACEHOLDER
  2
AcDbPlaceHolder
  3
ObjectDBX Classes
 90
        0
 91
        1
280
     0
281
     0
  0
CLASS
  1
LAYOUT
  2
AcDbLayout
  3
ObjectDBX Classes
 90
        0
 91
        2
280
     0
281
     0
  0
CLASS
  1
LONG_TRANSACTION
  2
AcDbLongTransaction
  3
ObjectDBX Classes
 90
        0
 91
        0
280
     0
281
     0
  0
CLASS
  1
LWPOLYLINE
  2
AcDbPolyline
  3
ObjectDBX Classes
 90
        0
 91
        1
280
     0
281
     1
  0
CLASS
  1
HATCH
  2
AcDbHatch
  3
ObjectDBX Classes
 90
        0
 91
        0
280
     0
281
     1
  0
CLASS
  1
XRECORD
  2
AcDbXrecord
  3
ObjectDBX Classes
 90
        0
 91
        4
280
     0
281
     0
  0
CLASS
  1
LONG_TRANSACTION
  2
AcDbLongTransaction
  3
ObjectDBX Classes
 90
        0
 91
        0
280
     0
281
     0
  0
CLASS
  1
LWPOLYLINE
  2
AcDbPolyline
  3
ObjectDBX Classes
 90
        0
 91
        1
280
     0
281
     1
  0
CLASS
  1
HATCH
  2
AcDbHatch
  3
ObjectDBX Classes
 90
        0
 91
        0
280
     0
281
     1
  0
CLASS
  1
XRECORD
  2
AcDbXrecord
  3
ObjectDBX Classes
 90
        0
 91
        4
280
     0
281
     0
  0
CLASS
  1
LONG_TRANSACTION
  2
AcDbLongTransaction
  3
ObjectDBX Classes
 90
        0
 91
        0
280
     0
281
     0
  0
CLASS
  1
LWPOLYLINE
  2
AcDbPolyline
  3
ObjectDBX Classes
 90
        0
 91
        1
280
     0
281
     1
  0
CLASS
  1
HATCH
  2
AcDbHatch
  3
ObjectDBX Classes
 90
        0
 91
        0
280
     0
281
     1
  0
CLASS
  1
XRECORD
  2
AcDbXrecord
  3
ObjectDBX Classes
 90
        0
 91
        4
280
     0
281
     0
  0
CLASS
  1
LONG_TRANSACTION
  2
AcDbLongTransaction
  3
ObjectDBX Classes
 90
        0
 91
        0
280
     0
281
     0
  0
CLASS
  1
LWPOLYLINE
  2
AcDbPolyline
  3
ObjectDBX Classes
 90
        0
 91
        1
280
     0
281
     1
  0
CLASS
  1
HATCH
  2
AcDbHatch
  3
ObjectDBX Classes
 90
        0
 91
        0
280
     0
281
     1
  0
CLASS
  1
XRECORD
  2
AcDbXrecord
  3
ObjectDBX Classes
 90
        0
 91
        4
280
     0
281
     0
  0
CLASS
  1
LONG_TRANSACTION
  2
AcDbLongTransaction
  3
ObjectDBX Classes
 90
        0
 91
        0
280
     0
281
     0
  0
CLASS
  1
LWPOLYLINE
  2
AcDbPolyline
  3
ObjectDBX Classes
 90
        0
 91
        1
280
     0
281
     1
  0
CLASS
  1
HATCH
  2
AcDbHatch
  3
ObjectDBX Classes
 90
        0
 91
        0
280
     0
281
     1
  0
CLASS
  1
XRECORD
  2
AcDbXrecord
  3
ObjectDBX Classes
 90
        0
 91
        4
280
     0
281
     0
  0
CLASS
  1
ACME_DOCUMENT
  2
AcMeDbDoc
  3
AcMeServices
 90
        0
 91
        0
280
     0
281
     0
  0
CLASS
  1
ACMESCOPE
  2
AcMeScope
  3
AcMeServices
 90
        0
 91
        2
280
     0
281
     0
  0
CLASS
  1
ACMECOMMANDHISTORY
  2
AcMeCommandHistory
  3
AcMeServices
 90
        0
 91
        2
280
     0
281
     0
  0
CLASS
  1
ACIMSYSVARMAN
  2
AcImSysVarManager
  3
AcMeServices
 90
        0
 91
        3
280
     0
281
     0
  0
CLASS
  1
ACIMREALSYSVAR
  2
AcImRealSysVar
  3
AcMeServices
 90
        0
 91
        3
280
     0
281
     0
  0
CLASS
  1
ACIMINTSYSVAR
  2
AcImIntSysVar
  3
AcMeServices
 90
        0
 91
        2
280
     0
281
     0
  0
CLASS
  1
ACMEDRAWINGMAN
  2
AcMeDrawingMan
  3
AcMeServices
 90
        0
 91
        2
280
     0
281
     0
  0
CLASS
  1
ACMEVIEW
  2
AcMeView
  3
AcMeServices
 90
        0
 91
        2
280
     0
281
     0
  0
CLASS
  1
ACDBENTITYCACHE
  2
AcMeEntityCache
  3
AcMeServices
 90
        0
 91
        0
280
     0
281
     0
  0
CLASS
  1
GSMANAGER
  2
AcMeGSManager
  3
AcMeServices
 90
        0
 91
        0
280
     0
281
     0
  0
CLASS
  1
AMDTINTERNALREACTOR
  2
AmdtInternalReactor
  3
AcMeServices
 90
        0
 91
        0
280
     0
281
     0
  0
CLASS
  1
ACMESTATEMGR
  2
AcMeStateMgr
  3
AcMeServices
 90
        0
 91
        2
280
     0
281
     0
  0
CLASS
  1
ACGREFMASTER
  2
AcGrefMaster
  3
AcAttribServices
 90
        0
 91
        2
280
     0
281
     0
  0
CLASS
  1
ACME_DATABASE
  2
AcMeDbDatabase
  3
AcMeServices
 90
        0
 91
        0
280
     0
281
     0
  0
CLASS
  1
ACRFINSADJUSTERMGR
  2
AcRfInsAdjusterMgr
  3
AcMeServices
 90
        0
 91
        0
280
     0
281
     0
  0
CLASS
  1
ACGREFACADMASTER
  2
AcGrefacadMaster
  3
AcGrefServices
 90
        0
 91
        2
280
     0
281
     0
  0
CLASS
  1
AMIMASTER
  2
AmiMaster
  3
AmiServices
 90
        0
 91
        2
280
     0
281
     0
  0
CLASS
  1
AMGSETTINGSOBJ
  2
AmgSettingsObj
  3
"AcadM|Product Description: AutoCAD Mechanical 2000|Company: Autodesk"
 90
        0
 91
        3
280
     0
281
     0
  0
CLASS
  1
ACMDATADICTIONARY
  2
AcmDataDictionary
  3
"AcmSymBB|Product Description: AutoCAD Mechanical 2000|Company: Autodesk"
 90
        0
 91
        2
280
     0
281
     0
  0
CLASS
  1
ACMDATAENTRYBLOCK
  2
AcmDataEntryBlock
  3
"AcmSymBB|Product Description: AutoCAD Mechanical 2000|Company: Autodesk"
 90
        0
 91
        2
280
     0
281
     0
  0
CLASS
  1
ACIMSTRSYSVAR
  2
AcImStrSysVar
  3
AcMeServices
 90
        0
 91
        2
280
     0
281
     0
  0
CLASS
  1
ACMSTANDARDISO
  2
AcmStandardISO
  3
"Amdt_StdImp|Product Description: AutoCAD Mechanical 2000|Company: Autodesk"
 90
        0
 91
        2
280
     0
281
     0
  0
CLASS
  1
AMGOBJPROPCFG
  2
AmgObjPropCfg
  3
"AmgLay|Product Description: AutoCAD Mechanical 2000|Company: Autodesk"
 90
        1
 91
        2
280
     0
281
     0
  0
CLASS
  1
AMDTEDGESTANDARDISO
  2
AmdtEdgeStdISO
  3
"Amdt_StdImp|Product Description: AutoCAD Mechanical 2000|Company: Autodesk"
 90
        0
 91
        2
280
     0
281
     0
  0
CLASS
  1
ACMSURFSTANDARDISO
  2
AcmSurfTextStdISO
  3
"Amdt_StdImp|Product Description: AutoCAD Mechanical 2000|Company: Autodesk"
 90
        0
 91
        2
280
     0
281
     0
  0
CLASS
  1
ACMFCFSTANDARDISO
  2
AcmFCFStdISO
  3
"Amdt_StdImp|Product Description: AutoCAD Mechanical 2000|Company: Autodesk"
 90
        0
 91
        2
280
     0
281
     0
  0
CLASS
  1
ACMWELDSTANDARDISO
  2
AcmWeldingStdISO
  3
"Amdt_StdImp|Product Description: AutoCAD Mechanical 2000|Company: Autodesk"
 90
        0
 91
        2
280
     0
281
     0
  0
CLASS
  1
ACMIDSTANDARDISO
  2
AcmIdStdISO
  3
"Amdt_StdImp|Product Description: AutoCAD Mechanical 2000|Company: Autodesk"
 90
        0
 91
        2
280
     0
281
     0
  0
CLASS
  1
ACMDATUMSTANDARDISO
  2
AcmDatumStdISO
  3
"Amdt_StdImp|Product Description: AutoCAD Mechanical 2000|Company: Autodesk"
 90
        0
 91
        2
280
     0
281
     0
  0
CLASS
  1
ACMBOMSTANDARDISO
  2
AcmBOMStdISO
  3
"Amdt_StdImp|Product Description: AutoCAD Mechanical 2000|Company: Autodesk"
 90
        0
 91
        2
280
     0
281
     0
  0
CLASS
  1
ACMDETAILSTANDARDISO
  2
AmdtDetailSymStdISO
  3
"Amdt_StdImp|Product Description: AutoCAD Mechanical 2000|Company: Autodesk"
 90
        0
 91
        2
280
     0
281
     0
  0
CLASS
  1
ACMSECTIONSTANDARDISO
  2
AmdtSectionSymStdISO
  3
"Amdt_StdImp|Product Description: AutoCAD Mechanical 2000|Company: Autodesk"
 90
        0
 91
        2
280
     0
281
     0
  0
CLASS
  1
ACMCENTERLINESTANDARDISO
  2
AmdtCenterLineStdISO
  3
"Amdt_StdImp|Product Description: AutoCAD Mechanical 2000|Company: Autodesk"
 90
        0
 91
        2
280
     0
281
     0
  0
CLASS
  1
ACMNOTESTANDARDISO
  2
AmdtNoteStdISO
  3
"Amdt_StdImp|Product Description: AutoCAD Mechanical 2000|Company: Autodesk"
 90
        0
 91
        2
280
     0
281
     0
  0
CLASS
  1
ACAMGLAYSTD
  2
AcAmgLayStd
  3
"AcAmgLayStd|Product Description: AutoCAD Mechanical 2000|Company: Autodesk"
 90
        0
 91
        2
280
     0
281
     0
  0
CLASS
  1
ACAMGDIMSTD
  2
AcAmgDimStd
  3
"AcAmgDimStd|Product Description: AutoCAD Mechanical 2000|Company: Autodesk"
 90
        0
 91
        2
280
     0
281
     0
  0
CLASS
  1
ACAMGHOLECHARTSTDISO
  2
AcAmgHoleChartStdISO
  3
ACMSYMBB_MODULE_NAME
 90
        0
 91
        2
280
     0
281
     0
  0
CLASS
  1
ACAMGTITLESTD
  2
AcAmgTitleStd
  3
"TITLEAPP"
 90
        0
 91
        2
280
     0
281
     0
  0
CLASS
  1
ACAMGFILTERDAT
  2
AcAmgFilterDat
  3
"AcadM|Product Description: AutoCAD Mechanical 2000|Company: Autodesk"
 90
        0
 91
        7
280
     0
281
     0
  0
CLASS
  1
LAYER_INDEX
  2
AcDbLayerIndex
  3
ObjectDBX Classes
 90
        0
 91
        1
280
     0
281
     0
  0
CLASS
  1
IDBUFFER
  2
AcDbIdBuffer
  3
ObjectDBX Classes
 90
        0
 91
       17
280
     0
281
     0
  0
CLASS
  1
DICTIONARYVAR
  2
AcDbDictionaryVar
  3
ObjectDBX Classes
 90
        0
 91
        4
280
     0
281
     0
  0
CLASS
  1
SCALE
  2
AcDbScale
  3
ObjectDBX Classes
 90
     1153
 91
       33
280
     0
281
     0
  0
CLASS
  1
MATERIAL
  2
AcDbMaterial
  3
ObjectDBX Classes
 90
     1153
 91
        3
280
     0
281
     0
  0
CLASS
  1
TABLESTYLE
  2
AcDbTableStyle
  3
ObjectDBX Classes
 90
     4095
 91
        1
280
     0
281
     0
  0
CLASS
  1
MLEADERSTYLE
  2
AcDbMLeaderStyle
  3
ACDB_MLEADERSTYLE_CLASS
 90
     4095
 91
        1
280
     0
281
     0
  0
CLASS
  1
SORTENTSTABLE
  2
AcDbSortentsTable
  3
ObjectDBX Classes
 90
        0
 91
        1
280
     0
281
     0
  0
CLASS
  1
CELLSTYLEMAP
  2
AcDbCellStyleMap
  3
NULL
 90
     1152
 91
        1
280
     0
281
     0
  0
ENDSEC
  0
SECTION
  2
TABLES
  0
TABLE
  2
VPORT
  5
8
330
0
100
AcDbSymbolTable
 70
     1
  0
VPORT
  5
1116
330
8
100
AcDbSymbolTableRecord
100
AcDbViewportTableRecord
  2
*Active
 70
     0
 10
0.0
 20
0.0
 11
1.0
 21
1.0
 12
616.9646823302408
 22
1046.516464242124
 13
0.0
 23
0.0
 14
10.0
 24
10.0
 15
10.0
 25
10.0
 16
0.0
 26
0.0
 36
1.0
 17
0.0
 27
0.0
 37
0.0
 40
1318.185343566252
 41
2.228337236533957
 42
50.0
 43
0.0
 44
0.0
 50
0.0
 51
0.0
 71
     0
 72
   100
 73
     1
 74
     0
 75
     0
 76
     0
 77
     0
 78
     0
281
     0
 65
     1
110
0.0
120
0.0
130
0.0
111
1.0
121
0.0
131
0.0
112
0.0
122
1.0
132
0.0
 79
     0
146
0.0
  0
ENDTAB
  0
TABLE
  2
LTYPE
  5
5
330
0
100
AcDbSymbolTable
 70
    15
  0
LTYPE
  5
12
330
5
100
AcDbSymbolTableRecord
100
AcDbLinetypeTableRecord
  2
BYBLOCK
 70
     0
  3

 72
    65
 73
     0
 40
0.0
  0
LTYPE
  5
13
330
5
100
AcDbSymbolTableRecord
100
AcDbLinetypeTableRecord
  2
BYLAYER
 70
     0
  3

 72
    65
 73
     0
 40
0.0
  0
LTYPE
  5
14
330
5
100
AcDbSymbolTableRecord
100
AcDbLinetypeTableRecord
  2
CONTINUOUS
 70
     0
  3
Solid line
 72
    65
 73
     0
 40
0.0
  0
LTYPE
  5
35
330
5
100
AcDbSymbolTableRecord
100
AcDbLinetypeTableRecord
  2
DASHED
 70
     0
  3
Dashed __ __ __ __ __ __ __ __ __ __ __ __ __ _
 72
    65
 73
     2
 40
0.75
 49
0.5
 74
     0
 49
-0.25
 74
     0
  0
LTYPE
  5
36
330
5
100
AcDbSymbolTableRecord
100
AcDbLinetypeTableRecord
  2
CENTER
 70
     0
  3
Center ____ _ ____ _ ____ _ ____ _ ____ _ ____
 72
    65
 73
     4
 40
2.0
 49
1.25
 74
     0
 49
-0.25
 74
     0
 49
0.25
 74
     0
 49
-0.25
 74
     0
  0
LTYPE
  5
37
330
5
100
AcDbSymbolTableRecord
100
AcDbLinetypeTableRecord
  2
PHANTOM
 70
     0
  3
Phantom ______  __  __  ______  __  __  ______
 72
    65
 73
     6
 40
2.5
 49
1.25
 74
     0
 49
-0.25
 74
     0
 49
0.25
 74
     0
 49
-0.25
 74
     0
 49
0.25
 74
     0
 49
-0.25
 74
     0
  0
LTYPE
  5
38
330
5
100
AcDbSymbolTableRecord
100
AcDbLinetypeTableRecord
  2
HIDDEN
 70
     0
  3
Hidden __ __ __ __ __ __ __ __ __ __ __ __ __ _
 72
    65
 73
     2
 40
0.375
 49
0.25
 74
     0
 49
-0.125
 74
     0
  0
LTYPE
  5
1033
330
5
100
AcDbSymbolTableRecord
100
AcDbLinetypeTableRecord
  2
AM_ISO02W050
 70
     0
  3
__ __ __ __ __ __ __ __ __ __ __ __ __ __ __
 72
    65
 73
     2
 40
7.5
 49
6.0
 74
     0
 49
-1.5
 74
     0
  0
LTYPE
  5
1034
330
5
100
AcDbSymbolTableRecord
100
AcDbLinetypeTableRecord
  2
AM_ISO08W050
 70
     0
  3
____ . ____ . ____ . ____ . ____ . ____ . ____
 72
    65
 73
     4
 40
18.0
 49
12.0
 74
     0
 49
-1.5
 74
     0
 49
3.0
 74
     0
 49
-1.5
 74
     0
  0
LTYPE
  5
1035
330
5
100
AcDbSymbolTableRecord
100
AcDbLinetypeTableRecord
  2
AM_ISO09W050
 70
     0
  3
_____ . . _____ . . _____ . . ____ .. ____
 72
    65
 73
     6
 40
22.5
 49
12.0
 74
     0
 49
-1.5
 74
     0
 49
3.0
 74
     0
 49
-1.5
 74
     0
 49
3.0
 74
     0
 49
-1.5
 74
     0
  0
LTYPE
  5
1036
330
5
100
AcDbSymbolTableRecord
100
AcDbLinetypeTableRecord
  2
Amconstr
 70
     0
  3
_______________________
 72
    65
 73
     2
 40
9999.0
 49
9999.0
 74
     0
 49
0.0
 74
     0
  0
LTYPE
  5
1037
330
5
100
AcDbSymbolTableRecord
100
AcDbLinetypeTableRecord
  2
AM_ISO08W050x2
 70
     0
  3
__ . __ . __ . __ . __ . __
 72
    65
 73
     4
 40
9.0
 49
6.0
 74
     0
 49
-0.75
 74
     0
 49
1.5
 74
     0
 49
-0.75
 74
     0
  0
LTYPE
  5
1038
330
5
100
AcDbSymbolTableRecord
100
AcDbLinetypeTableRecord
  2
AM_ISO02W050x2
 70
     0
  3
 _ _ _ _ _ _ _ _ _ _ _ _
 72
    65
 73
     2
 40
3.75
 49
3.0
 74
     0
 49
-0.75
 74
     0
  0
LTYPE
  5
1039
330
5
100
AcDbSymbolTableRecord
100
AcDbLinetypeTableRecord
  2
Amzigzag
 70
     0
  3
/\/-/\/-/\/-/\/-/\/-/\/
 72
    65
 73
     2
 40
11.0001
 49
0.0001
 74
     4
 75
   135
340
34
 46
0.04
 50
0.0
 44
0.0
 45
0.0
 49
-11.0
 74
     0
  0
LTYPE
  5
1047
330
5
100
AcDbSymbolTableRecord
100
AcDbLinetypeTableRecord
  2
ACISOWELD
 70
     0
  3
_ _ _ _ _
 72
    65
 73
     2
 40
2.0
 49
2.0
 74
     0
 49
-1.0
 74
     0
  0
LTYPE
  5
1048
330
5
100
AcDbSymbolTableRecord
100
AcDbLinetypeTableRecord
  2
ACISOTGB
 70
     0
  3
__ . . __ . .
 72
    65
 73
     6
 40
9.0
 49
4.0
 74
     0
 49
-1.0
 74
     0
 49
1.0
 74
     0
 49
-1.0
 74
     0
 49
1.0
 74
     0
 49
-1.0
 74
     0
  0
LTYPE
  5
1049
330
5
100
AcDbSymbolTableRecord
100
AcDbLinetypeTableRecord
  2
ACISOTGL
 70
     0
  3
_ _ _ _ _
 72
    65
 73
     2
 40
3.0
 49
2.0
 74
     0
 49
-1.0
 74
     0
  0
ENDTAB
  0
TABLE
  2
LAYER
  5
2
102
{ACAD_XDICTIONARY
360
1251
102
}
330
0
100
AcDbSymbolTable
 70
    17
  0
LAYER
  5
E
330
2
100
AcDbSymbolTableRecord
100
AcDbLayerTableRecord
  2
0
 70
     0
 62
     7
  6
CONTINUOUS
370
    -3
390
CB
  0
LAYER
  5
39
330
2
100
AcDbSymbolTableRecord
100
AcDbLayerTableRecord
  2
DEFPOINTS
 70
     0
 62
     7
  6
CONTINUOUS
290
     0
370
    -3
390
CB
  0
LAYER
  5
3A
330
2
100
AcDbSymbolTableRecord
100
AcDbLayerTableRecord
  2
HASEN
 70
     0
 62
     2
  6
DASHED
370
    -3
390
CB
  0
LAYER
  5
3B
330
2
100
AcDbSymbolTableRecord
100
AcDbLayerTableRecord
  2
HATCH
 70
     0
 62
     4
  6
CONTINUOUS
370
    -3
390
CB
  0
LAYER
  5
3C
330
2
100
AcDbSymbolTableRecord
100
AcDbLayerTableRecord
  2
HOJO
 70
     0
 62
     6
  6
CONTINUOUS
370
    -3
390
CB
  0
LAYER
  5
3D
330
2
100
AcDbSymbolTableRecord
100
AcDbLayerTableRecord
  2
HOJOORG
 70
     0
 62
     1
  6
CONTINUOUS
370
    -3
390
CB
  0
LAYER
  5
3E
330
2
100
AcDbSymbolTableRecord
100
AcDbLayerTableRecord
  2
ITTEN
 70
     0
 62
     1
  6
CENTER
370
    -3
390
CB
  0
LAYER
  5
3F
330
2
100
AcDbSymbolTableRecord
100
AcDbLayerTableRecord
  2
JISSEN
 70
     0
 62
     7
  6
CONTINUOUS
370
    -3
390
CB
  0
LAYER
  5
40
330
2
100
AcDbSymbolTableRecord
100
AcDbLayerTableRecord
  2
NITEN
 70
     0
 62
     2
  6
PHANTOM
370
    -3
390
CB
  0
LAYER
  5
41
330
2
100
AcDbSymbolTableRecord
100
AcDbLayerTableRecord
  2
POINT
 70
     0
 62
     7
  6
CONTINUOUS
370
    -3
390
CB
  0
LAYER
  5
42
330
2
100
AcDbSymbolTableRecord
100
AcDbLayerTableRecord
  2
SAISEN
 70
     0
 62
     4
  6
CONTINUOUS
370
    -3
390
CB
  0
LAYER
  5
43
330
2
100
AcDbSymbolTableRecord
100
AcDbLayerTableRecord
  2
SUNPOU
 70
     0
 62
     3
  6
CONTINUOUS
370
    -3
390
CB
  0
LAYER
  5
44
330
2
100
AcDbSymbolTableRecord
100
AcDbLayerTableRecord
  2
TENSEN
 70
     0
 62
     2
  6
HIDDEN
370
    -3
390
CB
  0
LAYER
  5
45
330
2
100
AcDbSymbolTableRecord
100
AcDbLayerTableRecord
  2
TEXT
 70
     0
 62
     3
  6
CONTINUOUS
370
    -3
390
CB
  0
LAYER
  5
46
330
2
100
AcDbSymbolTableRecord
100
AcDbLayerTableRecord
  2
WAKU
 70
     0
 62
     5
  6
CONTINUOUS
370
    -3
390
CB
  0
LAYER
  5
24B
330
2
100
AcDbSymbolTableRecord
100
AcDbLayerTableRecord
  2
氷出口(CS)
 70
     0
 62
    22
  6
CONTINUOUS
370
    -3
390
CB
  0
LAYER
  5
106F
330
2
100
AcDbSymbolTableRecord
100
AcDbLayerTableRecord
  2
AM_CL
 70
     0
 62
     1
  6
Amconstr
370
    25
390
CB
  0
ENDTAB
  0
TABLE
  2
STYLE
  5
3
330
0
100
AcDbSymbolTable
 70
     6
  0
STYLE
  5
F
330
3
100
AcDbSymbolTableRecord
100
AcDbTextStyleTableRecord
  2
STANDARD
 70
     0
 40
0.0
 41
1.0
 50
0.0
 71
     0
 42
15.0
  3
romans.shx
  4
extfont.shx
  0
STYLE
  5
34
330
3
100
AcDbSymbolTableRecord
100
AcDbTextStyleTableRecord
  2

 70
     1
 40
0.0
 41
1.0
 50
0.0
 71
     0
 42
2.5
  3
ltypeshp.shx
  4

  0
STYLE
  5
48
330
3
100
AcDbSymbolTableRecord
100
AcDbTextStyleTableRecord
  2
K
 70
     0
 40
0.0
 41
1.0
 50
0.0
 71
     0
 42
1.0
  3
ROMANS
  4
EXTFONT
  0
STYLE
  5
103A
330
3
100
AcDbSymbolTableRecord
100
AcDbTextStyleTableRecord
  2
ACISOTS
 70
     0
 40
1.0
 41
1.0
 50
0.0
 71
     0
 42
15.0
  3
isocp.shx
  4
extfont.shx
  0
STYLE
  5
1046
330
3
100
AcDbSymbolTableRecord
100
AcDbTextStyleTableRecord
  2
ACISOGDT
 70
     0
 40
0.0
 41
1.0
 50
0.0
 71
     0
 42
15.0
  3
amgdt.shx
  4

  0
ENDTAB
  0
TABLE
  2
VIEW
  5
6
330
0
100
AcDbSymbolTable
 70
     0
  0
ENDTAB
  0
TABLE
  2
UCS
  5
7
330
0
100
AcDbSymbolTable
 70
     0
  0
ENDTAB
  0
TABLE
  2
APPID
  5
9
330
0
100
AcDbSymbolTable
 70
     9
  0
APPID
  5
10
330
9
100
AcDbSymbolTableRecord
100
AcDbRegAppTableRecord
  2
ACAD
 70
     0
  0
APPID
  5
24
330
9
100
AcDbSymbolTableRecord
100
AcDbRegAppTableRecord
  2
CONTENTTABDATA
 70
     0
  0
APPID
  5
25
330
9
100
AcDbSymbolTableRecord
100
AcDbRegAppTableRecord
  2
CONTENTCURRENTTAB
 70
     0
  0
APPID
  5
1011
330
9
100
AcDbSymbolTableRecord
100
AcDbRegAppTableRecord
  2
MCAD_NO_VIS
 70
     0
  0
APPID
  5
1012
330
9
100
AcDbSymbolTableRecord
100
AcDbRegAppTableRecord
  2
ACAD_TEMP_GRAPHIC
 70
     0
  0
APPID
  5
1023
330
9
100
AcDbSymbolTableRecord
100
AcDbRegAppTableRecord
  2
ACATTRIBSERVICES
 70
     0
  0
APPID
  5
110C
330
9
100
AcDbSymbolTableRecord
100
AcDbRegAppTableRecord
  2
___LIKI___
 70
     0
  0
APPID
  5
1160
330
9
100
AcDbSymbolTableRecord
100
AcDbRegAppTableRecord
  2
ACAD_OBJECT_CHANGE_GUID
 70
     0
  0
APPID
  5
1F6B
330
9
100
AcDbSymbolTableRecord
100
AcDbRegAppTableRecord
  2
ACAD_MLEADERVER
 70
     0
  0
ENDTAB
  0
TABLE
  2
DIMSTYLE
  5
A
330
0
100
AcDbSymbolTable
 70
    10
100
AcDbDimStyleTable
 71
     1
340
47
  0
DIMSTYLE
105
1D
330
A
100
AcDbSymbolTableRecord
100
AcDbDimStyleTableRecord
  2
STANDARD
 70
     0
340
F
  0
DIMSTYLE
105
47
102
{ACAD_REACTORS
330
1E40
330
1E41
330
1E42
330
1E43
330
1E6E
102
}
330
A
100
AcDbSymbolTableRecord
100
AcDbDimStyleTableRecord
  2
IMCADLT
 70
     0
 40
5.0
 41
2.5
 42
1.0
 43
6.0
 44
1.0
 73
     0
 74
     0
 77
     3
 78
     8
140
3.0
141
0.0
146
0.45
147
1.0
172
     1
173
     1
271
     2
272
     2
284
     8
289
     1
340
F
341
49
343
49
344
49
  0
DIMSTYLE
105
104D
330
A
100
AcDbSymbolTableRecord
100
AcDbDimStyleTableRecord
  2
AM_ISO
 70
     0
  4
"
 41
2.5
 42
1.0
 43
10.0
 44
1.0
 47
0.1
 48
0.1
 73
     0
 74
     0
 77
     1
 78
     8
 79
     2
140
3.5
141
0.0
143
0.0393701
146
0.71
147
1.5
172
     1
176
   256
177
   256
178
     2
271
     2
272
     3
274
     4
283
     0
284
     8
340
F
371
    -1
372
    -1
  0
DIMSTYLE
105
104E
330
A
100
AcDbSymbolTableRecord
100
AcDbDimStyleTableRecord
  2
AM_ISO$3
 70
     0
  4
"
 41
2.5
 42
1.0
 43
10.0
 44
1.0
 47
0.1
 48
0.1
 73
     0
 77
     1
 78
     8
 79
     2
140
3.5
141
0.0
143
0.0393701
146
0.71
147
1.5
176
   256
177
   256
178
     2
271
     2
272
     3
274
     4
283
     0
284
     8
289
     0
340
F
371
    -1
372
    -1
  0
DIMSTYLE
105
104F
330
A
100
AcDbSymbolTableRecord
100
AcDbDimStyleTableRecord
  2
AM_ISO$4
 70
     0
  4
"
 41
2.5
 42
1.0
 43
10.0
 44
1.0
 47
0.1
 48
0.1
 73
     0
 77
     1
 78
     8
 79
     2
140
3.5
141
0.0
143
0.0393701
146
0.71
147
1.5
176
   256
177
   256
178
     2
271
     2
272
     3
274
     4
283
     0
284
     8
289
     0
340
F
371
    -1
372
    -1
  0
DIMSTYLE
105
1050
330
A
100
AcDbSymbolTableRecord
100
AcDbDimStyleTableRecord
  2
AM_ISO$6
 70
     0
  4
"
 41
2.5
 42
1.0
 43
10.0
 44
1.0
 47
0.1
 48
0.1
 73
     0
 74
     0
 78
     8
 79
     2
140
3.5
141
0.0
143
0.0393701
146
0.71
147
1.5
172
     1
176
   256
177
   256
178
     2
271
     2
272
     3
274
     4
283
     0
284
     8
340
F
371
    -1
372
    -1
  0
DIMSTYLE
105
1051
330
A
100
AcDbSymbolTableRecord
100
AcDbDimStyleTableRecord
  2
AM_ISO$7
 70
     0
  4
"
 41
2.5
 42
1.0
 43
10.0
 44
1.0
 47
0.1
 48
0.1
 73
     0
 74
     0
 77
     1
 78
     8
 79
     2
140
5.0
141
0.0
143
0.0393701
146
0.71
147
1.5
172
     1
176
   256
177
   256
178
     2
271
     2
272
     3
274
     4
283
     0
284
     8
340
F
371
    -1
372
    -1
  0
DIMSTYLE
105
1052
330
A
100
AcDbSymbolTableRecord
100
AcDbDimStyleTableRecord
  2
AM_ISO$SF
 70
     0
  4
"
 41
2.5
 42
1.0
 43
10.0
 44
1.0
 47
0.1
 48
0.1
 73
     0
 74
     0
 75
     1
 76
     1
 77
     1
 78
     8
 79
     2
140
3.5
141
0.0
143
0.0393701
146
0.71
147
1.5
172
     1
176
   256
177
   256
178
     2
271
     2
272
     3
274
     4
283
     0
284
     8
340
F
371
    -1
372
    -1
  0
DIMSTYLE
105
1057
330
A
100
AcDbSymbolTableRecord
100
AcDbDimStyleTableRecord
  2
AM_ISO$SH
 70
     0
  4
"
 41
2.5
 42
1.0
 43
10.0
 44
1.0
 47
0.1
 48
0.1
 73
     0
 74
     0
 75
     1
 76
     1
 77
     1
 78
     8
 79
     2
140
3.5
141
0.0
143
0.0393701
144
2.0
146
0.71
147
1.5
172
     1
173
     1
176
   256
177
   256
178
     2
271
     2
272
     3
274
     4
283
     0
284
     8
340
F
343
1053
371
    -1
372
    -1
  0
ENDTAB
  0
TABLE
  2
BLOCK_RECORD
  5
1
330
0
100
AcDbSymbolTable
 70
    74
  0
BLOCK_RECORD
  5
18
102
{ACAD_XDICTIONARY
360
E62
102
}
330
1
100
AcDbSymbolTableRecord
100
AcDbBlockTableRecord
  2
*MODEL_SPACE
340
CE
  0
BLOCK_RECORD
  5
15
102
{ACAD_XDICTIONARY
360
E60
102
}
330
1
100
AcDbSymbolTableRecord
100
AcDbBlockTableRecord
  2
*PAPER_SPACE
340
CF
  0
BLOCK_RECORD
  5
49
330
1
100
AcDbSymbolTableRecord
100
AcDbBlockTableRecord
  2
ARROW
340
0
102
{BLKREFS
331
F4D
331
F4E
331
DEC
331
DED
331
DDA
331
DDB
331
DD1
331
DD2
331
DC8
331
DC9
331
DE3
331
DE4
331
DF5
331
DF6
331
DFE
331
DFF
331
F19
331
F1A
331
E34
331
E35
331
E2B
331
E2C
331
F10
331
F11
331
FD1
331
FD2
331
1842
331
1843
331
184E
331
184F
331
185A
331
185B
331
1866
331
1867
331
1872
331
1873
331
187E
331
187F
331
188A
331
188B
331
1895
331
1896
331
18A1
331
18A2
331
18AD
331
18AE
331
18B9
331
18BA
331
18C5
331
18C6
331
18D1
331
18D2
331
18DD
331
18DE
331
1C6E
331
1C6F
331
1C77
331
1C78
331
1C80
331
1C81
331
1C89
331
1C8A
331
1C92
331
1C93
331
1C9B
331
1C9C
331
1CA4
331
1CA5
331
1CAC
331
1CAD
331
1CB5
331
1CB6
331
1CBE
331
1CBF
331
1CC7
331
1CC8
331
1CD0
331
1CD1
331
1DD1
331
1D15
331
1D16
331
1D21
331
1D22
331
1D2D
331
1D2E
331
1D39
331
1D3A
331
1D47
331
1D48
331
1E68
331
1F29
331
1F2A
331
1F32
331
1F33
331
1F3B
331
1F3C
331
1F44
331
1F45
331
1F4D
331
1F4E
102
}
  0
BLOCK_RECORD
  5
52
330
1
100
AcDbSymbolTableRecord
100
AcDbBlockTableRecord
  2
ARROWANG
340
0
  0
BLOCK_RECORD
  5
58
330
1
100
AcDbSymbolTableRecord
100
AcDbBlockTableRecord
  2
BATU
340
0
  0
BLOCK_RECORD
  5
60
330
1
100
AcDbSymbolTableRecord
100
AcDbBlockTableRecord
  2
CENCRS
340
0
  0
BLOCK_RECORD
  5
66
330
1
100
AcDbSymbolTableRecord
100
AcDbBlockTableRecord
  2
CENLINE
340
0
  0
BLOCK_RECORD
  5
6B
330
1
100
AcDbSymbolTableRecord
100
AcDbBlockTableRecord
  2
DOT
340
0
  0
BLOCK_RECORD
  5
71
330
1
100
AcDbSymbolTableRecord
100
AcDbBlockTableRecord
  2
HOJO
340
0
  0
BLOCK_RECORD
  5
76
330
1
100
AcDbSymbolTableRecord
100
AcDbBlockTableRecord
  2
HOJOANG
340
0
  0
BLOCK_RECORD
  5
7B
330
1
100
AcDbSymbolTableRecord
100
AcDbBlockTableRecord
  2
HOJOC
340
0
  0
BLOCK_RECORD
  5
80
330
1
100
AcDbSymbolTableRecord
100
AcDbBlockTableRecord
  2
HOJOCR
340
0
  0
BLOCK_RECORD
  5
86
330
1
100
AcDbSymbolTableRecord
100
AcDbBlockTableRecord
  2
HOJOORG
340
0
102
{BLKREFS
331
91
331
92
102
}
  0
BLOCK_RECORD
  5
8B
330
1
100
AcDbSymbolTableRecord
100
AcDbBlockTableRecord
  2
HOJOORGC
340
0
  0
BLOCK_RECORD
  5
90
330
1
100
AcDbSymbolTableRecord
100
AcDbBlockTableRecord
  2
HOJOORGCR
340
0
  0
BLOCK_RECORD
  5
96
330
1
100
AcDbSymbolTableRecord
100
AcDbBlockTableRecord
  2
WAKU
340
0
  0
BLOCK_RECORD
  5
A5
330
1
100
AcDbSymbolTableRecord
100
AcDbBlockTableRecord
  2
IMCADLT3
340
0
  0
BLOCK_RECORD
  5
E6
330
1
100
AcDbSymbolTableRecord
100
AcDbBlockTableRecord
  2
A$C19783D3A
340
0
  0
BLOCK_RECORD
  5
D4B
330
1
100
AcDbSymbolTableRecord
100
AcDbBlockTableRecord
  2
_IMCADLT3
340
0
102
{BLKREFS
331
D4E
102
}
  0
BLOCK_RECORD
  5
1053
330
1
100
AcDbSymbolTableRecord
100
AcDbBlockTableRecord
  2
GENAXEH
340
0
  0
BLOCK_RECORD
  5
1BB2
330
1
100
AcDbSymbolTableRecord
100
AcDbBlockTableRecord
  2
*D45
340
0
  0
BLOCK_RECORD
  5
1BBE
330
1
100
AcDbSymbolTableRecord
100
AcDbBlockTableRecord
  2
*D46
340
0
  0
BLOCK_RECORD
  5
1BCA
330
1
100
AcDbSymbolTableRecord
100
AcDbBlockTableRecord
  2
*D47
340
0
  0
BLOCK_RECORD
  5
1BD6
330
1
100
AcDbSymbolTableRecord
100
AcDbBlockTableRecord
  2
*D48
340
0
  0
BLOCK_RECORD
  5
1BE2
330
1
100
AcDbSymbolTableRecord
100
AcDbBlockTableRecord
  2
*D49
340
0
  0
BLOCK_RECORD
  5
1BEE
330
1
100
AcDbSymbolTableRecord
100
AcDbBlockTableRecord
  2
*D50
340
0
  0
BLOCK_RECORD
  5
1BFA
330
1
100
AcDbSymbolTableRecord
100
AcDbBlockTableRecord
  2
*D51
340
0
  0
BLOCK_RECORD
  5
1C06
330
1
100
AcDbSymbolTableRecord
100
AcDbBlockTableRecord
  2
*D52
340
0
  0
BLOCK_RECORD
  5
1C12
330
1
100
AcDbSymbolTableRecord
100
AcDbBlockTableRecord
  2
*D53
340
0
  0
BLOCK_RECORD
  5
1C1E
330
1
100
AcDbSymbolTableRecord
100
AcDbBlockTableRecord
  2
*D54
340
0
  0
BLOCK_RECORD
  5
1C29
330
1
100
AcDbSymbolTableRecord
100
AcDbBlockTableRecord
  2
*D55
340
0
  0
BLOCK_RECORD
  5
1C35
330
1
100
AcDbSymbolTableRecord
100
AcDbBlockTableRecord
  2
*D56
340
0
  0
BLOCK_RECORD
  5
1C41
330
1
100
AcDbSymbolTableRecord
100
AcDbBlockTableRecord
  2
*D57
340
0
  0
BLOCK_RECORD
  5
1C4D
330
1
100
AcDbSymbolTableRecord
100
AcDbBlockTableRecord
  2
*D58
340
0
  0
BLOCK_RECORD
  5
1D0B
330
1
100
AcDbSymbolTableRecord
100
AcDbBlockTableRecord
  2
BATU2
340
0
102
{BLKREFS
331
1DBB
331
1DBC
331
1DBD
331
1DBE
331
1E52
331
1E53
331
1E54
331
1E55
102
}
  0
BLOCK_RECORD
  5
1D10
330
1
100
AcDbSymbolTableRecord
100
AcDbBlockTableRecord
  2
*D60
340
0
  0
BLOCK_RECORD
  5
1D1C
330
1
100
AcDbSymbolTableRecord
100
AcDbBlockTableRecord
  2
*D61
340
0
  0
BLOCK_RECORD
  5
1D28
330
1
100
AcDbSymbolTableRecord
100
AcDbBlockTableRecord
  2
*D62
340
0
  0
BLOCK_RECORD
  5
1D34
330
1
100
AcDbSymbolTableRecord
100
AcDbBlockTableRecord
  2
*D63
340
0
  0
BLOCK_RECORD
  5
1D40
330
1
100
AcDbSymbolTableRecord
100
AcDbBlockTableRecord
  2
*D64
340
0
  0
BLOCK_RECORD
  5
1E7A
330
1
100
AcDbSymbolTableRecord
100
AcDbBlockTableRecord
  2
*D66
340
0
  0
BLOCK_RECORD
  5
1E86
330
1
100
AcDbSymbolTableRecord
100
AcDbBlockTableRecord
  2
*D67
340
0
  0
BLOCK_RECORD
  5
1E92
330
1
100
AcDbSymbolTableRecord
100
AcDbBlockTableRecord
  2
*D68
340
0
  0
BLOCK_RECORD
  5
1E9E
330
1
100
AcDbSymbolTableRecord
100
AcDbBlockTableRecord
  2
*D69
340
0
  0
BLOCK_RECORD
  5
1EAA
330
1
100
AcDbSymbolTableRecord
100
AcDbBlockTableRecord
  2
*D70
340
0
  0
ENDTAB
  0
ENDSEC
  0
SECTION
  2
BLOCKS
  0
BLOCK
  5
19
330
18
100
AcDbEntity
  8
0
100
AcDbBlockBegin
  2
*MODEL_SPACE
 70
     0
 10
0.0
 20
0.0
 30
0.0
  3
*MODEL_SPACE
  1

  0
ENDBLK
  5
1A
330
18
100
AcDbEntity
  8
0
100
AcDbBlockEnd
  0
BLOCK
  5
16
330
15
100
AcDbEntity
 67
     1
  8
0
100
AcDbBlockBegin
  2
*PAPER_SPACE
 70
     0
 10
0.0
 20
0.0
 30
0.0
  3
*PAPER_SPACE
  1

  0
ENDBLK
  5
17
330
15
100
AcDbEntity
 67
     1
  8
0
100
AcDbBlockEnd
  0
BLOCK
  5
4D
330
49
100
AcDbEntity
  8
0
100
AcDbBlockBegin
  2
ARROW
 70
     0
 10
0.0
 20
0.0
 30
0.0
  3
ARROW
  1

  0
LINE
  5
4A
330
49
100
AcDbEntity
  8
0
100
AcDbLine
 10
0.0
 20
0.0
 30
0.0
 11
-1.500000000000021
 21
-0.4019237886466982
 31
0.0
  0
LINE
  5
4B
330
49
100
AcDbEntity
  8
0
100
AcDbLine
 10
-1.0
 20
0.0
 30
0.0
 11
0.0
 21
0.0
 31
0.0
  0
LINE
  5
4C
330
49
100
AcDbEntity
  8
0
100
AcDbLine
 10
0.0
 20
0.0
 30
0.0
 11
-1.499999999999957
 21
0.4019237886467409
 31
0.0
  0
ENDBLK
  5
4E
330
49
100
AcDbEntity
  8
0
100
AcDbBlockEnd
  0
BLOCK
  5
55
330
52
100
AcDbEntity
  8
0
100
AcDbBlockBegin
  2
ARROWANG
 70
     0
 10
0.0
 20
0.0
 30
0.0
  3
ARROWANG
  1

  0
LINE
  5
53
330
52
100
AcDbEntity
  8
SUNPOU
100
AcDbLine
 10
0.0
 20
0.0
 30
0.0
 11
-1.499999999999957
 21
0.4019237886467409
 31
0.0
  0
LINE
  5
54
330
52
100
AcDbEntity
  8
SUNPOU
100
AcDbLine
 10
0.0
 20
0.0
 30
0.0
 11
-1.500000000000028
 21
-0.4019237886467124
 31
0.0
  0
ENDBLK
  5
56
330
52
100
AcDbEntity
  8
0
100
AcDbBlockEnd
  0
BLOCK
  5
5D
330
58
100
AcDbEntity
  8
0
100
AcDbBlockBegin
  2
BATU
 70
     0
 10
0.0
 20
0.0
 30
0.0
  3
BATU
  1

  0
LINE
  5
59
330
58
100
AcDbEntity
  8
ITTEN
100
AcDbLine
 10
-1.0
 20
0.0
 30
0.0
 11
0.0
 21
0.0
 31
0.0
  0
LINE
  5
5A
330
58
100
AcDbEntity
  8
ITTEN
100
AcDbLine
 10
0.0
 20
0.0
 30
0.0
 11
1.0
 21
0.0
 31
0.0
  0
LINE
  5
5B
330
58
100
AcDbEntity
  8
ITTEN
100
AcDbLine
 10
0.0
 20
-1.0
 30
0.0
 11
0.0
 21
0.0
 31
0.0
  0
LINE
  5
5C
330
58
100
AcDbEntity
  8
ITTEN
100
AcDbLine
 10
0.0
 20
0.0
 30
0.0
 11
0.0
 21
1.0
 31
0.0
  0
ENDBLK
  5
5E
330
58
100
AcDbEntity
  8
0
100
AcDbBlockEnd
  0
BLOCK
  5
63
330
60
100
AcDbEntity
  8
0
100
AcDbBlockBegin
  2
CENCRS
 70
     0
 10
0.0
 20
0.0
 30
0.0
  3
CENCRS
  1

  0
LINE
  5
61
330
60
100
AcDbEntity
  8
ITTEN
100
AcDbLine
 10
0.0
 20
0.5
 30
0.0
 11
0.0
 21
-0.5
 31
0.0
  0
LINE
  5
62
330
60
100
AcDbEntity
  8
ITTEN
100
AcDbLine
 10
-0.5
 20
0.0
 30
0.0
 11
0.5
 21
0.0
 31
0.0
  0
ENDBLK
  5
64
330
60
100
AcDbEntity
  8
0
100
AcDbBlockEnd
  0
BLOCK
  5
68
330
66
100
AcDbEntity
  8
0
100
AcDbBlockBegin
  2
CENLINE
 70
     0
 10
0.0
 20
0.0
 30
0.0
  3
CENLINE
  1

  0
LINE
  5
67
330
66
100
AcDbEntity
  8
ITTEN
100
AcDbLine
 10
0.0
 20
0.0
 30
0.0
 11
1.0
 21
0.0
 31
0.0
  0
ENDBLK
  5
69
330
66
100
AcDbEntity
  8
0
100
AcDbBlockEnd
  0
BLOCK
  5
6E
330
6B
100
AcDbEntity
  8
0
100
AcDbBlockBegin
  2
DOT
 70
     0
 10
0.0
 20
0.0
 30
0.0
  3
DOT
  1

  0
LWPOLYLINE
  5
6C
330
6B
100
AcDbEntity
  8
JISSEN
  6
ByBlock
 62
     0
100
AcDbPolyline
 90
        2
 70
     1
 43
0.5
 10
-0.25
 20
0.0
 42
1.0
 10
0.25
 20
0.0
 42
1.0
  0
LINE
  5
6D
330
6B
100
AcDbEntity
  8
JISSEN
  6
ByBlock
 62
     0
100
AcDbLine
 10
-0.5
 20
0.0
 30
0.0
 11
-1.0
 21
0.0
 31
0.0
  0
ENDBLK
  5
6F
330
6B
100
AcDbEntity
  8
0
100
AcDbBlockEnd
  0
BLOCK
  5
73
330
71
100
AcDbEntity
  8
0
100
AcDbBlockBegin
  2
HOJO
 70
     0
 10
0.0
 20
0.0
 30
0.0
  3
HOJO
  1

  0
LINE
  5
72
330
71
100
AcDbEntity
  8
HOJO
100
AcDbLine
 10
0.0
 20
0.0
 30
0.0
 11
2.0
 21
0.0
 31
0.0
  0
ENDBLK
  5
74
330
71
100
AcDbEntity
  8
0
100
AcDbBlockEnd
  0
BLOCK
  5
78
330
76
100
AcDbEntity
  8
0
100
AcDbBlockBegin
  2
HOJOANG
 70
     0
 10
0.0
 20
0.0
 30
0.0
  3
HOJOANG
  1

  0
LINE
  5
77
330
76
100
AcDbEntity
  8
HOJO
100
AcDbLine
 10
-1.0
 20
0.0
 30
0.0
 11
1.0
 21
0.0
 31
0.0
  0
ENDBLK
  5
79
330
76
100
AcDbEntity
  8
0
100
AcDbBlockEnd
  0
BLOCK
  5
7D
330
7B
100
AcDbEntity
  8
0
100
AcDbBlockBegin
  2
HOJOC
 70
     0
 10
0.0
 20
0.0
 30
0.0
  3
HOJOC
  1

  0
CIRCLE
  5
7C
330
7B
100
AcDbEntity
  8
HOJO
100
AcDbCircle
 10
0.0
 20
0.0
 30
0.0
 40
1.0
  0
ENDBLK
  5
7E
330
7B
100
AcDbEntity
  8
0
100
AcDbBlockEnd
  0
BLOCK
  5
83
330
80
100
AcDbEntity
  8
0
100
AcDbBlockBegin
  2
HOJOCR
 70
     0
 10
0.0
 20
0.0
 30
0.0
  3
HOJOCR
  1

  0
LINE
  5
81
330
80
100
AcDbEntity
  8
HOJO
100
AcDbLine
 10
-1.0
 20
0.0
 30
0.0
 11
1.0
 21
0.0
 31
0.0
  0
LINE
  5
82
330
80
100
AcDbEntity
  8
HOJO
100
AcDbLine
 10
0.0
 20
-1.0
 30
0.0
 11
0.0
 21
1.0
 31
0.0
  0
ENDBLK
  5
84
330
80
100
AcDbEntity
  8
0
100
AcDbBlockEnd
  0
BLOCK
  5
88
330
86
100
AcDbEntity
  8
0
100
AcDbBlockBegin
  2
HOJOORG
 70
     0
 10
0.0
 20
0.0
 30
0.0
  3
HOJOORG
  1

  0
LINE
  5
87
330
86
100
AcDbEntity
  8
HOJOORG
100
AcDbLine
 10
-1.0
 20
0.0
 30
0.0
 11
1.0
 21
0.0
 31
0.0
  0
ENDBLK
  5
89
330
86
100
AcDbEntity
  8
0
100
AcDbBlockEnd
  0
BLOCK
  5
8D
330
8B
100
AcDbEntity
  8
0
100
AcDbBlockBegin
  2
HOJOORGC
 70
     0
 10
0.0
 20
0.0
 30
0.0
  3
HOJOORGC
  1

  0
CIRCLE
  5
8C
330
8B
100
AcDbEntity
  8
HOJOORG
100
AcDbCircle
 10
0.0
 20
0.0
 30
0.0
 40
1.0
  0
ENDBLK
  5
8E
330
8B
100
AcDbEntity
  8
0
100
AcDbBlockEnd
  0
BLOCK
  5
93
330
90
100
AcDbEntity
  8
0
100
AcDbBlockBegin
  2
HOJOORGCR
 70
     0
 10
0.0
 20
0.0
 30
0.0
  3
HOJOORGCR
  1

  0
INSERT
  5
91
330
90
100
AcDbEntity
  8
JISSEN
100
AcDbBlockReference
  2
HOJOORG
 10
0.0
 20
0.0
 30
0.0
 50
90.0
  0
INSERT
  5
92
330
90
100
AcDbEntity
  8
JISSEN
100
AcDbBlockReference
  2
HOJOORG
 10
0.0
 20
0.0
 30
0.0
  0
ENDBLK
  5
94
330
90
100
AcDbEntity
  8
0
100
AcDbBlockEnd
  0
BLOCK
  5
9B
330
96
100
AcDbEntity
  8
0
100
AcDbBlockBegin
  2
WAKU
 70
     0
 10
0.0
 20
0.0
 30
0.0
  3
WAKU
  1

  0
LINE
  5
97
330
96
100
AcDbEntity
  8
WAKU
100
AcDbLine
 10
0.999999996
 20
0.0
 30
0.0
 11
0.999999996
 21
0.9999999999999998
 31
0.0
  0
LINE
  5
98
330
96
100
AcDbEntity
  8
WAKU
100
AcDbLine
 10
0.0
 20
0.9999999999999998
 30
0.0
 11
0.999999996
 21
0.9999999999999998
 31
0.0
  0
LINE
  5
99
330
96
100
AcDbEntity
  8
WAKU
100
AcDbLine
 10
0.999999996
 20
0.0
 30
0.0
 11
0.0
 21
0.0
 31
0.0
  0
LINE
  5
9A
330
96
100
AcDbEntity
  8
WAKU
100
AcDbLine
 10
0.0
 20
0.0
 30
0.0
 11
0.0
 21
0.9999999999999998
 31
0.0
  0
ENDBLK
  5
9C
330
96
100
AcDbEntity
  8
0
100
AcDbBlockEnd
  0
BLOCK
  5
A6
330
A5
100
AcDbEntity
  8
0
100
AcDbBlockBegin
  2
IMCADLT3
 70
     0
 10
0.0
 20
0.0
 30
0.0
  3
IMCADLT3
  1

  0
ENDBLK
  5
A7
330
A5
100
AcDbEntity
  8
0
100
AcDbBlockEnd
  0
BLOCK
  5
1AD
330
E6
100
AcDbEntity
  8
0
100
AcDbBlockBegin
  2
A$C19783D3A
 70
     0
 10
0.0
 20
0.0
 30
0.0
  3
A$C19783D3A
  1

  0
LINE
  5
E7
330
E6
100
AcDbEntity
  8
JISSEN
 62
     3
100
AcDbLine
 10
31.69552124143361
 20
11.30000058013958
 30
0.0
 11
59.19104228504848
 21
11.30000058013958
 31
0.0
  0
LINE
  5
E8
330
E6
100
AcDbEntity
  8
JISSEN
 62
     3
100
AcDbLine
 10
31.69552124143361
 20
27.80000058013958
 30
0.0
 11
59.19104228504848
 21
27.80000058013958
 31
0.0
  0
LINE
  5
E9
330
E6
100
AcDbEntity
  8
JISSEN
 62
     3
100
AcDbLine
 10
31.69552124143361
 20
22.30000058013958
 30
0.0
 11
59.19104228504848
 21
22.30000058013958
 31
0.0
  0
LINE
  5
EA
330
E6
100
AcDbEntity
  8
JISSEN
 62
     3
100
AcDbLine
 10
31.69552124143361
 20
16.80000058013959
 30
0.0
 11
59.19104228504848
 21
16.80000058013959
 31
0.0
  0
MTEXT
  5
EB
330
E6
100
AcDbEntity
  8
JISSEN
 62
     3
100
AcDbMText
 10
41.76355431159886
 20
8.075389675667807
 30
0.0
 40
3.0
 41
30.0
 71
     5
 72
     5
  1
流用機種名
  7
K
 73
     1
 44
1.0
1001
ACAD
1000
MTEXTBEGIN
1070
    73
1070
     1
1070
    44
1040
1.0
1070
    74
1070
     0
1000
MTEXTEND
  0
MTEXT
  5
EC
330
E6
100
AcDbEntity
  8
JISSEN
 62
     3
100
AcDbMText
 10
55.54014197213582
 20
8.378494138161514
 30
0.0
 40
3.0
 41
10.0
 71
     5
 72
     5
  1
数量
  7
K
 73
     1
 44
1.0
1001
ACAD
1000
MTEXTBEGIN
1070
    73
1070
     1
1070
    44
1040
1.0
1070
    74
1070
     0
1000
MTEXTEND
  0
LINE
  5
ED
330
E6
100
AcDbEntity
  8
JISSEN
 62
     3
100
AcDbLine
 10
51.69552124143361
 20
33.30000058013958
 30
0.0
 11
51.69552124143361
 21
5.800000580139581
 31
0.0
  0
LINE
  5
EE
330
E6
100
AcDbEntity
  8
JISSEN
 62
     3
100
AcDbLine
 10
31.69552124143361
 20
5.800000580139567
 30
0.0
 11
59.19104228504848
 21
5.800000580139567
 31
0.0
  0
LINE
  5
EF
330
E6
100
AcDbEntity
  8
SUNPOU
100
AcDbLine
 10
59.19104228504848
 20
33.30000058013958
 30
0.0
 11
59.19104228504848
 21
5.800000580139567
 31
0.0
  0
LINE
  5
F0
330
E6
100
AcDbEntity
  8
SUNPOU
100
AcDbLine
 10
31.69552124143361
 20
33.30000058013958
 30
0.0
 11
31.69552124143361
 21
5.800000580139567
 31
0.0
  0
LINE
  5
F1
330
E6
100
AcDbEntity
  8
JISSEN
 62
     3
100
AcDbLine
 10
31.69552124143361
 20
33.30000058013958
 30
0.0
 11
59.19104228504848
 21
33.30000058013958
 31
0.0
  0
TEXT
  5
F2
330
E6
100
AcDbEntity
  8
SUNPOU
100
AcDbText
 10
350.14585641555
 20
39.42435143287866
 30
0.0
 40
3.0
  1
寸 法
  7
K
100
AcDbText
  0
TEXT
  5
F3
330
E6
100
AcDbEntity
  8
SUNPOU
100
AcDbText
 10
350.145859233442
 20
43.2605016467578
 30
0.0
 40
3.0
  1
材 料
  7
K
100
AcDbText
  0
LINE
  5
F4
330
E6
100
AcDbEntity
  8
SUNPOU
100
AcDbLine
 10
64.92817834040497
 20
16.80000058013959
 30
0.0
 11
69.42817834040496
 21
11.30000058013958
 31
0.0
  0
LINE
  5
F5
330
E6
100
AcDbEntity
  8
SUNPOU
100
AcDbLine
 10
60.42817834040497
 20
11.30000058013958
 30
0.0
 11
64.92817834040497
 21
16.80000058013959
 31
0.0
  0
LINE
  5
F6
330
E6
100
AcDbEntity
  8
SUNPOU
100
AcDbLine
 10
64.92817834040497
 20
22.30000058013958
 30
0.0
 11
69.42817834040498
 21
16.80000058013959
 31
0.0
  0
LINE
  5
F7
330
E6
100
AcDbEntity
  8
SUNPOU
100
AcDbLine
 10
60.42817834040497
 20
16.80000058013959
 30
0.0
 11
64.92817834040497
 21
22.30000058013958
 31
0.0
  0
LINE
  5
F8
330
E6
100
AcDbEntity
  8
SUNPOU
100
AcDbLine
 10
64.92817834040497
 20
27.8000005801396
 30
0.0
 11
60.42817834040497
 21
22.30000058013958
 31
0.0
  0
LINE
  5
F9
330
E6
100
AcDbEntity
  8
SUNPOU
100
AcDbLine
 10
69.42817834040498
 20
22.30000058013958
 30
0.0
 11
64.92817834040497
 21
27.8000005801396
 31
0.0
  0
LINE
  5
FA
330
E6
100
AcDbEntity
  8
SUNPOU
100
AcDbLine
 10
64.92817834040497
 20
33.30000058013958
 30
0.0
 11
69.428178340405
 21
27.8000005801396
 31
0.0
  0
LINE
  5
FB
330
E6
100
AcDbEntity
  8
SUNPOU
100
AcDbLine
 10
60.42817834040497
 20
27.8000005801396
 30
0.0
 11
64.92817834040497
 21
33.30000058013958
 31
0.0
  0
LINE
  5
FC
330
E6
100
AcDbEntity
  8
SUNPOU
100
AcDbLine
 10
3.000000197818735
 20
33.30000058013958
 30
0.0
 11
3.000000197818735
 21
5.800000580139567
 31
0.0
  0
LINE
  5
FD
330
E6
100
AcDbEntity
  8
SUNPOU
100
AcDbLine
 10
30.49552124143361
 20
33.30000058013958
 30
0.0
 11
30.49552124143361
 21
5.800000580139567
 31
0.0
  0
LINE
  5
FE
330
E6
100
AcDbEntity
  8
JISSEN
 62
     3
100
AcDbLine
 10
3.000000197818735
 20
5.800000580139567
 30
0.0
 11
30.49552124143361
 21
5.800000580139567
 31
0.0
  0
LINE
  5
FF
330
E6
100
AcDbEntity
  8
JISSEN
 62
     3
100
AcDbLine
 10
23.00000019781874
 20
33.30000058013958
 30
0.0
 11
23.00000019781874
 21
5.800000580139581
 31
0.0
  0
MTEXT
  5
100
330
E6
100
AcDbEntity
  8
JISSEN
 62
     3
100
AcDbMText
 10
26.84462092852095
 20
8.378494138161514
 30
0.0
 40
3.0
 41
10.0
 71
     5
 72
     5
  1
数量
  7
K
 73
     1
 44
1.0
1001
ACAD
1000
MTEXTBEGIN
1070
    73
1070
     1
1070
    44
1040
1.0
1070
    74
1070
     0
1000
MTEXTEND
  0
MTEXT
  5
101
330
E6
100
AcDbEntity
  8
JISSEN
 62
     3
100
AcDbMText
 10
13.06803326798399
 20
8.075389675667807
 30
0.0
 40
3.0
 41
30.0
 71
     5
 72
     5
  1
流用機種名
  7
K
 73
     1
 44
1.0
1001
ACAD
1000
MTEXTBEGIN
1070
    73
1070
     1
1070
    44
1040
1.0
1070
    74
1070
     0
1000
MTEXTEND
  0
LINE
  5
102
330
E6
100
AcDbEntity
  8
JISSEN
 62
     3
100
AcDbLine
 10
3.000000197818735
 20
16.80000058013959
 30
0.0
 11
30.49552124143361
 21
16.80000058013959
 31
0.0
  0
LINE
  5
103
330
E6
100
AcDbEntity
  8
JISSEN
 62
     3
100
AcDbLine
 10
3.000000197818735
 20
22.30000058013958
 30
0.0
 11
30.49552124143361
 21
22.30000058013958
 31
0.0
  0
LINE
  5
104
330
E6
100
AcDbEntity
  8
JISSEN
 62
     3
100
AcDbLine
 10
3.000000197818735
 20
27.80000058013958
 30
0.0
 11
30.49552124143361
 21
27.80000058013958
 31
0.0
  0
LINE
  5
105
330
E6
100
AcDbEntity
  8
JISSEN
 62
     3
100
AcDbLine
 10
3.000000197818735
 20
33.30000058013958
 30
0.0
 11
30.49552124143361
 21
33.30000058013958
 31
0.0
  0
LINE
  5
106
330
E6
100
AcDbEntity
  8
JISSEN
 62
     3
100
AcDbLine
 10
3.000000197818735
 20
11.30000058013958
 30
0.0
 11
30.49552124143361
 21
11.30000058013958
 31
0.0
  0
LINE
  5
107
330
E6
100
AcDbEntity
  8
SUNPOU
100
AcDbLine
 10
60.42817834040497
 20
33.30000058013958
 30
0.0
 11
60.42817834040497
 21
5.800000580139567
 31
0.0
  0
LINE
  5
108
330
E6
100
AcDbEntity
  8
SUNPOU
100
AcDbLine
 10
206.6364001978185
 20
33.30000058013958
 30
0.0
 11
206.6364001978185
 21
5.800000580139567
 31
0.0
  0
LINE
  5
109
330
E6
100
AcDbEntity
  8
JISSEN
 62
     3
100
AcDbLine
 10
206.6364001978186
 20
5.800000580139567
 30
0.0
 11
60.42817834040497
 21
5.800000580139567
 31
0.0
  0
LINE
  5
10A
330
E6
100
AcDbEntity
  8
JISSEN
 62
     3
100
AcDbLine
 10
69.42817834040496
 20
5.800000580139581
 30
0.0
 11
69.42817834040496
 21
33.30000058013958
 31
0.0
  0
LINE
  5
10B
330
E6
100
AcDbEntity
  8
SUNPOU
100
AcDbLine
 10
80.58388490205093
 20
33.30000058013958
 30
0.0
 11
80.58388490205093
 21
5.800000580139581
 31
0.0
  0
LINE
  5
10C
330
E6
100
AcDbEntity
  8
JISSEN
 62
     3
100
AcDbLine
 10
60.42817834040497
 20
11.30000058013958
 30
0.0
 11
206.6364001978185
 21
11.30000058013958
 31
0.0
  0
TEXT
  5
10D
330
E6
100
AcDbEntity
  8
JISSEN
 62
     3
100
AcDbText
 10
61.98386765794011
 20
6.90135357766384
 30
0.0
 40
3.0
  1
記号
  7
K
 72
     4
 11
65.18386765794011
 21
8.40135357766384
 31
0.0
100
AcDbText
  0
TEXT
  5
10E
330
E6
100
AcDbEntity
  8
SUNPOU
100
AcDbText
 10
70.06515856796489
 20
6.971257904423296
 30
0.0
 40
3.0
  1
変更数
  7
K
100
AcDbText
  0
TEXT
  5
10F
330
E6
100
AcDbEntity
  8
JISSEN
 62
     3
100
AcDbText
 10
104.1270942561235
 20
7.311125871739832
 30
0.0
 40
3.0
  1
変更内容・理由
  7
K
 72
     4
 11
116.2270942561235
 21
8.811125871739832
 31
0.0
100
AcDbText
  0
TEXT
  5
110
330
E6
100
AcDbEntity
  8
JISSEN
 62
     3
100
AcDbText
 10
156.8364001978185
 20
7.311125871739946
 30
0.0
 40
3.0
  1
設変番号
  7
K
 72
     4
 11
163.6364001978185
 21
8.811125871739946
 31
0.0
100
AcDbText
  0
TEXT
  5
111
330
E6
100
AcDbEntity
  8
JISSEN
 62
     3
100
AcDbText
 10
172.4709071627829
 20
7.04591516153279
 30
0.0
 40
3.0
  1
 年 月 日
  7
K
 72
     4
 11
180.8709071627829
 21
8.545915161532789
 31
0.0
100
AcDbText
  0
TEXT
  5
112
330
E6
100
AcDbEntity
  8
JISSEN
 62
     3
100
AcDbText
 10
190.0006859121043
 20
7.045915161532676
 30
0.0
 40
3.0
  1
担当
  7
K
 72
     4
 11
193.1364001978185
 21
8.545915161532676
 31
0.0
100
AcDbText
  0
TEXT
  5
113
330
E6
100
AcDbEntity
  8
JISSEN
 62
     3
100
AcDbText
 10
199.0364001978186
 20
7.045915161532676
 30
0.0
 40
3.0
  1
検図
  7
K
 72
     4
 11
202.1364001978186
 21
8.545915161532676
 31
0.0
100
AcDbText
  0
LINE
  5
114
330
E6
100
AcDbEntity
  8
JISSEN
 62
     3
100
AcDbLine
 10
206.6364001978186
 20
16.80000058013959
 30
0.0
 11
60.42817834040497
 21
16.80000058013959
 31
0.0
  0
LINE
  5
115
330
E6
100
AcDbEntity
  8
JISSEN
 62
     3
100
AcDbLine
 10
60.42817834040497
 20
22.30000058013958
 30
0.0
 11
206.6364001978185
 21
22.30000058013958
 31
0.0
  0
LINE
  5
116
330
E6
100
AcDbEntity
  8
JISSEN
 62
     3
100
AcDbLine
 10
197.6364001978186
 20
5.800000580139581
 30
0.0
 11
197.6364001978186
 21
33.30000058013958
 31
0.0
  0
LINE
  5
117
330
E6
100
AcDbEntity
  8
JISSEN
 62
     3
100
AcDbLine
 10
188.6364001978185
 20
33.30000058013958
 30
0.0
 11
188.6364001978185
 21
5.800000580139581
 31
0.0
  0
LINE
  5
118
330
E6
100
AcDbEntity
  8
JISSEN
 62
     3
100
AcDbLine
 10
173.6364001978186
 20
5.800000580139581
 30
0.0
 11
173.6364001978186
 21
33.30000058013958
 31
0.0
  0
LINE
  5
119
330
E6
100
AcDbEntity
  8
JISSEN
 62
     3
100
AcDbLine
 10
153.6364001978185
 20
33.30000058013958
 30
0.0
 11
153.6364001978185
 21
5.800000580139581
 31
0.0
  0
LINE
  5
11A
330
E6
100
AcDbEntity
  8
JISSEN
 62
     3
100
AcDbLine
 10
60.42817834040497
 20
27.8000005801396
 30
0.0
 11
206.6364001978185
 21
27.8000005801396
 31
0.0
  0
LINE
  5
11B
330
E6
100
AcDbEntity
  8
JISSEN
 62
     3
100
AcDbLine
 10
60.42817834040497
 20
33.30000058013958
 30
0.0
 11
206.6364001978185
 21
33.30000058013958
 31
0.0
  0
LINE
  5
11C
330
E6
100
AcDbEntity
  8
SUNPOU
100
AcDbLine
 10
331.6400001978187
 20
31.80000058013957
 30
0.0
 11
331.6400001978187
 21
16.80000058013957
 31
0.0
  0
TEXT
  5
11D
330
E6
100
AcDbEntity
  8
SUNPOU
100
AcDbText
 10
251.1951238683839
 20
10.60833342026348
 30
0.0
 40
2.0
  1
1000以下
 41
0.8
  7
K
 72
     2
 11
260.7036952969553
 21
11.60833342026347
 31
0.0
100
AcDbText
 73
     2
  0
TEXT
  5
11E
330
E6
100
AcDbEntity
  8
SUNPOU
100
AcDbText
 10
252.7189333921934
 20
14.48055531367941
 30
0.0
 40
2.0
  1
315以下
 41
0.8
  7
K
 72
     2
 11
260.7036952969553
 21
15.48055531367942
 31
0.0
100
AcDbText
 73
     2
  0
TEXT
  5
11F
330
E6
100
AcDbEntity
  8
SUNPOU
100
AcDbText
 10
242.5864001978187
 20
33.30555383405115
 30
0.0
 40
2.7
  1
呼 ビ 寸 法
  7
K
 72
     1
 11
251.1364001978187
 21
34.65555383405115
 31
0.0
100
AcDbText
 73
     2
  0
TEXT
  5
120
330
E6
100
AcDbEntity
  8
SUNPOU
100
AcDbText
 10
251.1951238683839
 20
6.736111526847537
 30
0.0
 40
2.0
  1
2000以下
 41
0.8
  7
K
 72
     2
 11
260.7036952969553
 21
7.736111526847537
 31
0.0
100
AcDbText
 73
     2
  0
LINE
  5
121
330
E6
100
AcDbEntity
  8
SUNPOU
100
AcDbLine
 10
240.6364001978187
 20
32.90555383405115
 30
0.0
 11
282.6364001978187
 21
32.90555383405115
 31
0.0
  0
LINE
  5
122
330
E6
100
AcDbEntity
  8
SUNPOU
100
AcDbLine
 10
240.6364001978187
 20
29.03333194063521
 30
0.0
 11
282.6364001978187
 21
29.03333194063521
 31
0.0
  0
LINE
  5
123
330
E6
100
AcDbEntity
  8
SUNPOU
100
AcDbLine
 10
282.6364001978187
 20
25.16111004721927
 30
0.0
 11
240.6364001978187
 21
25.16111004721927
 31
0.0
  0
LINE
  5
124
330
E6
100
AcDbEntity
  8
SUNPOU
100
AcDbLine
 10
240.6364001978187
 20
21.28888815380333
 30
0.0
 11
282.6364001978187
 21
21.28888815380333
 31
0.0
  0
LINE
  5
125
330
E6
100
AcDbEntity
  8
SUNPOU
100
AcDbLine
 10
282.6364001978187
 20
17.41666626038739
 30
0.0
 11
240.6364001978187
 21
17.41666626038739
 31
0.0
  0
LINE
  5
126
330
E6
100
AcDbEntity
  8
SUNPOU
100
AcDbLine
 10
240.6364001978187
 20
13.54444436697145
 30
0.0
 11
282.6364001978187
 21
13.54444436697145
 31
0.0
  0
LINE
  5
127
330
E6
100
AcDbEntity
  8
SUNPOU
100
AcDbLine
 10
282.6364001978187
 20
9.672222473555507
 30
0.0
 11
240.6364001978187
 21
9.672222473555507
 31
0.0
  0
LINE
  5
128
330
E6
100
AcDbEntity
  8
SUNPOU
100
AcDbLine
 10
277.1364001978187
 20
30.96944288734318
 30
0.0
 11
280.7424334571796
 21
30.96944288734318
 31
0.0
  0
TEXT
  5
129
330
E6
100
AcDbEntity
  8
SUNPOU
100
AcDbText
 10
277.1364001978187
 20
26.09722099392724
 30
0.0
 40
2.0
  1
0.2
 41
0.8
  7
K
 11
277.1364001978187
 21
27.09722099392724
 31
0.0
100
AcDbText
 73
     2
  0
LINE
  5
12A
330
E6
100
AcDbEntity
  8
WAKU
100
AcDbLine
 10
282.6364001978187
 20
36.40555383405115
 30
0.0
 11
206.6364001978187
 21
36.40555383405115
 31
0.0
  0
LINE
  5
12B
330
E6
100
AcDbEntity
  8
SUNPOU
100
AcDbLine
 10
206.6364001978187
 20
48.66851833144346
 30
0.0
 11
282.6364001978187
 21
48.66851833144346
 31
0.0
  0
LINE
  5
12C
330
E6
100
AcDbEntity
  8
SUNPOU
100
AcDbLine
 10
282.6364001978187
 20
42.53703608274725
 30
0.0
 11
206.6364001978187
 21
42.53703608274725
 31
0.0
  0
TEXT
  5
12D
330
E6
100
AcDbEntity
  8
SUNPOU
100
AcDbText
 10
220.8767110216292
 20
2.800000580139567
 30
0.0
 40
2.6
  1
複写図面配布先： 購買  →発注先　製造部　品質保証部　 開発部
  7
K
100
AcDbText
  0
LINE
  5
12E
330
E6
100
AcDbEntity
  8
SUNPOU
100
AcDbLine
 10
238.0000001978187
 20
54.80000058013956
 30
0.0
 11
238.0000001978187
 21
36.40555383405115
 31
0.0
  0
LINE
  5
12F
330
E6
100
AcDbEntity
  8
WAKU
100
AcDbLine
 10
206.6364001978185
 20
54.80000058013956
 30
0.0
 11
206.6364001978185
 21
5.800000580139567
 31
0.0
  0
TEXT
  5
130
330
E6
100
AcDbEntity
  8
SUNPOU
100
AcDbText
 10
385.1333335311521
 20
134.401342744163
 30
0.0
 40
4.0
  1
は
  7
K
 72
     1
 11
387.0000001978187
 21
136.401342744163
 31
0.0
100
AcDbText
 73
     2
  0
TEXT
  5
131
330
E6
100
AcDbEntity
  8
SUNPOU
100
AcDbText
 10
385.1333335311521
 20
139.401342744163
 30
0.0
 40
4.0
  1
図
  7
K
 72
     1
 11
387.0000001978187
 21
141.401342744163
 31
0.0
100
AcDbText
 73
     2
  0
TEXT
  5
132
330
E6
100
AcDbEntity
  8
SUNPOU
100
AcDbText
 10
385.1333335311521
 20
144.401342744163
 30
0.0
 40
4.0
  1
本
  7
K
 72
     1
 11
387.0000001978187
 21
146.401342744163
 31
0.0
100
AcDbText
 73
     2
  0
TEXT
  5
133
330
E6
100
AcDbEntity
  8
SUNPOU
100
AcDbText
 10
385.2666668644854
 20
129.401342744163
 30
0.0
 40
4.0
  1
用
  7
K
 72
     1
 11
387.0000001978187
 21
131.401342744163
 31
0.0
100
AcDbText
 73
     2
  0
TEXT
  5
134
330
E6
100
AcDbEntity
  8
SUNPOU
100
AcDbText
 10
385.1333335311521
 20
124.401342744163
 30
0.0
 40
4.0
  1
済
  7
K
 72
     1
 11
387.0000001978187
 21
126.401342744163
 31
0.0
100
AcDbText
 73
     2
  0
TEXT
  5
135
330
E6
100
AcDbEntity
  8
SUNPOU
100
AcDbText
 10
387.9256956900239
 20
111.0049708589015
 30
0.0
 40
4.0
  1
、
  7
K
 72
     1
 11
388.4590290233573
 21
113.0049708589015
 31
0.0
100
AcDbText
 73
     2
  0
TEXT
  5
136
330
E6
100
AcDbEntity
  8
SUNPOU
100
AcDbText
 10
385.1333335311521
 20
114.401342744163
 30
0.0
 40
4.0
  1
後
  7
K
 72
     1
 11
387.0000001978187
 21
116.401342744163
 31
0.0
100
AcDbText
 73
     2
  0
TEXT
  5
137
330
E6
100
AcDbEntity
  8
SUNPOU
100
AcDbText
 10
385.2666668644854
 20
119.401342744163
 30
0.0
 40
4.0
  1
み
  7
K
 72
     1
 11
387.0000001978187
 21
121.401342744163
 31
0.0
100
AcDbText
 73
     2
  0
TEXT
  5
138
330
E6
100
AcDbEntity
  8
SUNPOU
100
AcDbText
 10
385.1333335311521
 20
99.40134274416301
 30
0.0
 40
4.0
  1
ず
  7
K
 72
     1
 11
387.0000001978187
 21
101.401342744163
 31
0.0
100
AcDbText
 73
     2
  0
TEXT
  5
139
330
E6
100
AcDbEntity
  8
SUNPOU
100
AcDbText
 10
385.1333335311521
 20
104.401342744163
 30
0.0
 40
4.0
  1
必
  7
K
 72
     1
 11
387.0000001978187
 21
106.401342744163
 31
0.0
100
AcDbText
 73
     2
  0
TEXT
  5
13A
330
E6
100
AcDbEntity
  8
SUNPOU
100
AcDbText
 10
385.1333335311521
 20
89.40134274416299
 30
0.0
 40
4.0
  1
行
  7
K
 72
     1
 11
387.0000001978187
 21
91.401342744163
 31
0.0
100
AcDbText
 73
     2
  0
TEXT
  5
13B
330
E6
100
AcDbEntity
  8
SUNPOU
100
AcDbText
 10
385.1333335311521
 20
94.40134274416299
 30
0.0
 40
4.0
  1
発
  7
K
 72
     1
 11
387.0000001978187
 21
96.401342744163
 31
0.0
100
AcDbText
 73
     2
  0
TEXT
  5
13C
330
E6
100
AcDbEntity
  8
SUNPOU
100
AcDbText
 10
385.2666668644854
 20
79.401342744163
 30
0.0
 40
4.0
  1
へ
  7
K
 72
     1
 11
387.0000001978187
 21
81.401342744163
 31
0.0
100
AcDbText
 73
     2
  0
TEXT
  5
13D
330
E6
100
AcDbEntity
  8
SUNPOU
100
AcDbText
 10
385.1333335311521
 20
69.401342744163
 30
0.0
 40
4.0
  1
却
  7
K
 72
     1
 11
387.0000001978187
 21
71.401342744163
 31
0.0
100
AcDbText
 73
     2
  0
TEXT
  5
13E
330
E6
100
AcDbEntity
  8
SUNPOU
100
AcDbText
 10
385.0346251479263
 20
64.66078995636042
 30
0.0
 40
4.0
  1
の
  7
K
 72
     4
 11
386.9012918145929
 21
66.66078995636041
 31
0.0
100
AcDbText
  0
TEXT
  5
13F
330
E6
100
AcDbEntity
  8
SUNPOU
100
AcDbText
 10
385.1333335311521
 20
74.401342744163
 30
0.0
 40
4.0
  1
返
  7
K
 72
     1
 11
387.0000001978187
 21
76.401342744163
 31
0.0
100
AcDbText
 73
     2
  0
TEXT
  5
140
330
E6
100
AcDbEntity
  8
SUNPOU
100
AcDbText
 10
385.1333335311521
 20
84.40134274416299
 30
0.0
 40
4.0
  1
元
  7
K
 72
     1
 11
387.0000001978187
 21
86.401342744163
 31
0.0
100
AcDbText
 73
     2
  0
TEXT
  5
141
330
E6
100
AcDbEntity
  8
SUNPOU
100
AcDbText
 10
385.1333335311521
 20
55.401342744163
 30
0.0
 40
4.0
  1
と
  7
K
 72
     1
 11
387.0000001978187
 21
57.401342744163
 31
0.0
100
AcDbText
 73
     2
  0
TEXT
  5
142
330
E6
100
AcDbEntity
  8
SUNPOU
100
AcDbText
 10
385.1333335311521
 20
60.401342744163
 30
0.0
 40
4.0
  1
こ
  7
K
 72
     1
 11
387.0000001978187
 21
62.401342744163
 31
0.0
100
AcDbText
 73
     2
  0
TEXT
  5
143
330
E6
100
AcDbEntity
  8
SUNPOU
100
AcDbText
 10
367.0633117556899
 20
33.21726119265634
 30
0.0
 40
2.5
  1
(単位mm)
  7
K
100
AcDbText
  0
TEXT
  5
144
330
E6
100
AcDbEntity
  8
SUNPOU
100
AcDbText
 10
350.0000001978187
 20
48.80000058013957
 30
0.0
 40
3.0
  1
材 質
  7
K
100
AcDbText
  0
LINE
  5
145
330
E6
100
AcDbEntity
  8
SUNPOU
100
AcDbLine
 10
356.0000001978187
 20
31.80000058013957
 30
0.0
 11
356.0000001978187
 21
38.80000058013957
 31
0.0
  0
LINE
  5
146
330
E6
100
AcDbEntity
  8
SUNPOU
100
AcDbLine
 10
347.0000001978188
 20
38.80000058013957
 30
0.0
 11
347.0000001978188
 21
31.80000058013957
 31
0.0
  0
TEXT
  5
147
330
E6
100
AcDbEntity
  8
SUNPOU
100
AcDbText
 10
348.0000001978187
 20
33.80000058013957
 30
0.0
 40
3.0
  1
尺度
  7
K
100
AcDbText
  0
TEXT
  5
148
330
E6
100
AcDbEntity
  8
SUNPOU
100
AcDbText
 10
326.9254756723258
 20
33.80000058013957
 30
0.0
 40
3.0
  1
三 角 法
  7
K
100
AcDbText
  0
LINE
  5
149
330
E6
100
AcDbEntity
  8
SUNPOU
100
AcDbLine
 10
360.0000001978187
 20
54.80000058013956
 30
0.0
 11
360.0000001978187
 21
38.80000058013957
 31
0.0
  0
LINE
  5
14A
330
E6
100
AcDbEntity
  8
WAKU
100
AcDbLine
 10
349.0000001978188
 20
54.80000058013956
 30
0.0
 11
349.0000001978188
 21
38.80000058013957
 31
0.0
  0
LINE
  5
14B
330
E6
100
AcDbEntity
  8
WAKU
100
AcDbLine
 10
384.0000001978187
 20
54.80000058013956
 30
0.0
 11
206.6364001978185
 21
54.80000058013956
 31
0.0
  0
LINE
  5
14C
330
E6
100
AcDbEntity
  8
SUNPOU
100
AcDbLine
 10
349.0000001978188
 20
46.80000058013956
 30
0.0
 11
384.0000001978187
 21
46.80000058013956
 31
0.0
  0
CIRCLE
  5
14D
330
E6
100
AcDbEntity
  8
JISSEN
100
AcDbCircle
 10
314.3030668644855
 20
31.55000058013957
 30
0.0
 40
0.2
  0
CIRCLE
  5
14E
330
E6
100
AcDbEntity
  8
JISSEN
100
AcDbCircle
 10
308.969733531152
 20
31.55000058013957
 30
0.0
 40
0.2
  0
CIRCLE
  5
14F
330
E6
100
AcDbEntity
  8
JISSEN
100
AcDbCircle
 10
314.3030668644855
 20
23.30000058013957
 30
0.0
 40
0.2
  0
CIRCLE
  5
150
330
E6
100
AcDbEntity
  8
JISSEN
100
AcDbCircle
 10
308.969733531152
 20
23.30000058013957
 30
0.0
 40
0.2
  0
TEXT
  5
151
330
E6
100
AcDbEntity
  8
SUNPOU
100
AcDbText
 10
283.6364001978187
 20
44.80000058013956
 30
0.0
 40
3.0
  1
品名
  7
K
100
AcDbText
  0
TEXT
  5
152
330
E6
100
AcDbEntity
  8
SUNPOU
100
AcDbText
 10
283.6364001978187
 20
32.55000058013957
 30
0.0
 40
3.0
  1
設計
  7
K
100
AcDbText
  0
TEXT
  5
153
330
E6
100
AcDbEntity
  8
SUNPOU
100
AcDbText
 10
277.8506859121044
 20
33.30555383405115
 30
0.0
 40
2.7
  1
L
  7
K
 72
     1
 11
279.1364001978187
 21
34.65555383405115
 31
0.0
100
AcDbText
 73
     2
  0
TEXT
  5
154
330
E6
100
AcDbEntity
  8
SUNPOU
100
AcDbText
 10
283.6364001978187
 20
24.30000058013957
 30
0.0
 40
3.0
  1
製図
  7
K
100
AcDbText
  0
TEXT
  5
155
330
E6
100
AcDbEntity
  8
SUNPOU
100
AcDbText
 10
277.1364001978187
 20
22.2249991005113
 30
0.0
 40
2.0
  1
0.5
 41
0.8
  7
K
 11
277.1364001978187
 21
23.2249991005113
 31
0.0
100
AcDbText
 73
     2
  0
TEXT
  5
156
330
E6
100
AcDbEntity
  8
SUNPOU
100
AcDbText
 10
270.1364001978187
 20
29.96944288734318
 30
0.0
 40
2.0
  1
0.1
 41
0.8
  7
K
 11
270.1364001978187
 21
30.96944288734318
 31
0.0
100
AcDbText
 73
     2
  0
TEXT
  5
157
330
E6
100
AcDbEntity
  8
SUNPOU
100
AcDbText
 10
270.722114483533
 20
33.30555383405115
 30
0.0
 40
2.7
  1
K
  7
K
 72
     1
 11
272.1364001978187
 21
34.65555383405115
 31
0.0
100
AcDbText
 73
     2
  0
TEXT
  5
158
330
E6
100
AcDbEntity
  8
SUNPOU
100
AcDbText
 10
264.2364001978187
 20
33.30555383405115
 30
0.0
 40
2.7
  1
J
  7
K
 72
     1
 11
265.1364001978187
 21
34.65555383405115
 31
0.0
100
AcDbText
 73
     2
  0
TEXT
  5
159
330
E6
100
AcDbEntity
  8
SUNPOU
100
AcDbText
 10
263.1364001978187
 20
29.96944288734318
 30
0.0
 40
2.0
  1
0.05
 41
0.8
  7
K
 11
263.1364001978187
 21
30.96944288734318
 31
0.0
100
AcDbText
 73
     2
  0
TEXT
  5
15A
330
E6
100
AcDbEntity
  8
SUNPOU
100
AcDbText
 10
270.1364001978187
 20
26.09722099392724
 30
0.0
 40
2.0
  1
0.1
 41
0.8
  7
K
 11
270.1364001978187
 21
27.09722099392724
 31
0.0
100
AcDbText
 73
     2
  0
TEXT
  5
15B
330
E6
100
AcDbEntity
  8
SUNPOU
100
AcDbText
 10
270.1364001978187
 20
22.2249991005113
 30
0.0
 40
2.0
  1
0.2
 41
0.8
  7
K
 11
270.1364001978187
 21
23.2249991005113
 31
0.0
100
AcDbText
 73
     2
  0
TEXT
  5
15C
330
E6
100
AcDbEntity
  8
SUNPOU
100
AcDbText
 10
263.1364001978187
 20
22.2249991005113
 30
0.0
 40
2.0
  1
0.1
 41
0.8
  7
K
 11
263.1364001978187
 21
23.2249991005113
 31
0.0
100
AcDbText
 73
     2
  0
TEXT
  5
15D
330
E6
100
AcDbEntity
  8
SUNPOU
100
AcDbText
 10
263.1364001978187
 20
26.09722099392724
 30
0.0
 40
2.0
  1
0.05
 41
0.8
  7
K
 11
263.1364001978187
 21
27.09722099392724
 31
0.0
100
AcDbText
 73
     2
  0
LINE
  5
15E
330
E6
100
AcDbEntity
  8
SUNPOU
100
AcDbLine
 10
291.6364001978187
 20
54.80000058013956
 30
0.0
 11
291.6364001978187
 21
38.80000058013957
 31
0.0
  0
LINE
  5
15F
330
E6
100
AcDbEntity
  8
WAKU
100
AcDbLine
 10
282.6364001978187
 20
38.80000058013957
 30
0.0
 11
384.0000001978187
 21
38.80000058013957
 31
0.0
  0
LINE
  5
160
330
E6
100
AcDbEntity
  8
SUNPOU
100
AcDbLine
 10
282.6364001978187
 20
22.30000058013957
 30
0.0
 11
319.6364001978187
 21
22.30000058013957
 31
0.0
  0
LINE
  5
161
330
E6
100
AcDbEntity
  8
SUNPOU
100
AcDbLine
 10
319.6364001978187
 20
30.55000058013957
 30
0.0
 11
282.6364001978187
 21
30.55000058013957
 31
0.0
  0
TEXT
  5
162
330
E6
100
AcDbEntity
  8
SUNPOU
100
AcDbText
 10
322.3364001978187
 20
22.80000058013957
 30
0.0
 40
3.0
  1
図番
  7
K
 72
     4
 11
325.6364001978187
 21
24.30000058013957
 31
0.0
100
AcDbText
  0
LINE
  5
163
330
E6
100
AcDbEntity
  8
WAKU
100
AcDbLine
 10
319.6364001978187
 20
16.80000058013957
 30
0.0
 11
384.0000001978187
 21
16.80000058013957
 31
0.0
  0
LINE
  5
164
330
E6
100
AcDbEntity
  8
WAKU
100
AcDbLine
 10
384.0000001978187
 20
31.80000058013957
 30
0.0
 11
319.6364001978187
 21
31.80000058013957
 31
0.0
  0
TEXT
  5
165
330
E6
100
AcDbEntity
  8
SUNPOU
100
AcDbText
 10
336.2793184982411
 20
9.800000580139567
 30
0.0
 40
3.5
  1
中部コーポレーション
  7
K
100
AcDbText
  0
CIRCLE
  5
166
330
E6
100
AcDbEntity
  8
JISSEN
100
AcDbCircle
 10
314.3030668644855
 20
15.05000058013957
 30
0.0
 40
0.2
  0
CIRCLE
  5
167
330
E6
100
AcDbEntity
  8
JISSEN
100
AcDbCircle
 10
308.969733531152
 20
15.05000058013957
 30
0.0
 40
0.2
  0
CIRCLE
  5
168
330
E6
100
AcDbEntity
  8
JISSEN
100
AcDbCircle
 10
314.3030668644855
 20
6.800000580139567
 30
0.0
 40
0.2
  0
CIRCLE
  5
169
330
E6
100
AcDbEntity
  8
JISSEN
100
AcDbCircle
 10
308.969733531152
 20
6.800000580139567
 30
0.0
 40
0.2
  0
TEXT
  5
16A
330
E6
100
AcDbEntity
  8
SUNPOU
100
AcDbText
 10
283.6364001978187
 20
7.800000580139567
 30
0.0
 40
3.0
  1
承認
  7
K
100
AcDbText
  0
TEXT
  5
16B
330
E6
100
AcDbEntity
  8
SUNPOU
100
AcDbText
 10
277.1364001978187
 20
10.60833342026348
 30
0.0
 40
2.0
  1
2
 41
0.8
  7
K
 11
277.1364001978187
 21
11.60833342026347
 31
0.0
100
AcDbText
 73
     2
  0
TEXT
  5
16C
330
E6
100
AcDbEntity
  8
SUNPOU
100
AcDbText
 10
277.1364001978187
 20
14.48055531367941
 30
0.0
 40
2.0
  1
1.2
 41
0.8
  7
K
 11
277.1364001978187
 21
15.48055531367942
 31
0.0
100
AcDbText
 73
     2
  0
TEXT
  5
16D
330
E6
100
AcDbEntity
  8
SUNPOU
100
AcDbText
 10
277.1364001978187
 20
6.736111526847537
 30
0.0
 40
2.0
  1
3
 41
0.8
  7
K
 11
277.1364001978187
 21
7.736111526847537
 31
0.0
100
AcDbText
 73
     2
  0
TEXT
  5
16E
330
E6
100
AcDbEntity
  8
SUNPOU
100
AcDbText
 10
270.1364001978187
 20
14.48055531367941
 30
0.0
 40
2.0
  1
0.5
 41
0.8
  7
K
 11
270.1364001978187
 21
15.48055531367942
 31
0.0
100
AcDbText
 73
     2
  0
TEXT
  5
16F
330
E6
100
AcDbEntity
  8
SUNPOU
100
AcDbText
 10
270.1364001978187
 20
10.60833342026348
 30
0.0
 40
2.0
  1
0.8
 41
0.8
  7
K
 11
270.1364001978187
 21
11.60833342026347
 31
0.0
100
AcDbText
 73
     2
  0
TEXT
  5
170
330
E6
100
AcDbEntity
  8
SUNPOU
100
AcDbText
 10
263.1364001978187
 20
10.60833342026348
 30
0.0
 40
2.0
  1
0.3
 41
0.8
  7
K
 11
263.1364001978187
 21
11.60833342026347
 31
0.0
100
AcDbText
 73
     2
  0
TEXT
  5
171
330
E6
100
AcDbEntity
  8
SUNPOU
100
AcDbText
 10
263.1364001978187
 20
14.48055531367941
 30
0.0
 40
2.0
  1
0.2
 41
0.8
  7
K
 11
263.1364001978187
 21
15.48055531367942
 31
0.0
100
AcDbText
 73
     2
  0
TEXT
  5
172
330
E6
100
AcDbEntity
  8
SUNPOU
100
AcDbText
 10
270.1364001978187
 20
6.736111526847537
 30
0.0
 40
2.0
  1
1.2
 41
0.8
  7
K
 11
270.1364001978187
 21
7.736111526847537
 31
0.0
100
AcDbText
 73
     2
  0
TEXT
  5
173
330
E6
100
AcDbEntity
  8
SUNPOU
100
AcDbText
 10
263.1364001978187
 20
6.736111526847537
 30
0.0
 40
2.0
  1
0.5
 41
0.8
  7
K
 11
263.1364001978187
 21
7.736111526847537
 31
0.0
100
AcDbText
 73
     2
  0
LINE
  5
174
330
E6
100
AcDbEntity
  8
SUNPOU
100
AcDbLine
 10
319.6364001978187
 20
14.05000058013956
 30
0.0
 11
282.6364001978187
 21
14.05000058013956
 31
0.0
  0
TEXT
  5
175
330
E6
100
AcDbEntity
  8
SUNPOU
100
AcDbText
 10
326.3033674213228
 20
9.800000580139567
 30
0.0
 40
2.0
  1
株式会社
  7
K
100
AcDbText
  0
TEXT
  5
176
330
E6
100
AcDbEntity
  8
SUNPOU
100
AcDbText
 10
277.1364001978187
 20
18.35277720709536
 30
0.0
 40
2.0
  1
0.8
 41
0.8
  7
K
 11
277.1364001978187
 21
19.35277720709535
 31
0.0
100
AcDbText
 73
     2
  0
TEXT
  5
177
330
E6
100
AcDbEntity
  8
SUNPOU
100
AcDbText
 10
270.1364001978187
 20
18.35277720709536
 30
0.0
 40
2.0
  1
0.3
 41
0.8
  7
K
 11
270.1364001978187
 21
19.35277720709535
 31
0.0
100
AcDbText
 73
     2
  0
TEXT
  5
178
330
E6
100
AcDbEntity
  8
SUNPOU
100
AcDbText
 10
263.1364001978187
 20
18.35277720709536
 30
0.0
 40
2.0
  1
0.15
 41
0.8
  7
K
 11
263.1364001978187
 21
19.35277720709535
 31
0.0
100
AcDbText
 73
     2
  0
LINE
  5
179
330
E6
100
AcDbEntity
  8
WAKU
100
AcDbLine
 10
319.6364001978187
 20
5.800000580139567
 30
0.0
 11
319.6364001978187
 21
38.80000058013957
 31
0.0
  0
LINE
  5
17A
330
E6
100
AcDbEntity
  8
SUNPOU
100
AcDbLine
 10
303.6364001978187
 20
38.80000058013957
 30
0.0
 11
303.6364001978187
 21
5.800000580139567
 31
0.0
  0
TEXT
  5
17B
330
E6
100
AcDbEntity
  8
SUNPOU
100
AcDbText
 10
283.6364001978187
 20
16.05000058013956
 30
0.0
 40
3.0
  1
検図
  7
K
100
AcDbText
  0
LINE
  5
17C
330
E6
100
AcDbEntity
  8
WAKU
100
AcDbLine
 10
282.6364001978187
 20
5.800000580139567
 30
0.0
 11
282.6364001978187
 21
54.80000058013956
 31
0.0
  0
LINE
  5
17D
330
E6
100
AcDbEntity
  8
SUNPOU
100
AcDbLine
 10
291.6364001978187
 20
38.80000058013957
 30
0.0
 11
291.6364001978187
 21
5.800000580139567
 31
0.0
  0
LINE
  5
17E
330
E6
100
AcDbEntity
  8
SUNPOU
100
AcDbLine
 10
268.6364001978187
 20
5.800000580139567
 30
0.0
 11
268.6364001978187
 21
36.40555383405115
 31
0.0
  0
LINE
  5
17F
330
E6
100
AcDbEntity
  8
SUNPOU
100
AcDbLine
 10
275.6364001978187
 20
36.40555383405115
 30
0.0
 11
275.6364001978187
 21
5.800000580139567
 31
0.0
  0
LINE
  5
180
330
E6
100
AcDbEntity
  8
SUNPOU
100
AcDbLine
 10
261.6364001978187
 20
36.40555383405115
 30
0.0
 11
261.6364001978187
 21
5.800000580139567
 31
0.0
  0
TEXT
  5
181
330
E6
100
AcDbEntity
  8
SUNPOU
100
AcDbText
 10
242.844845694525
 20
29.96944288734318
 30
0.0
 40
2.0
  1
0.5以上
 41
0.8
  7
K
 72
     2
 11
250.0677028373822
 21
30.96944288734318
 31
0.0
100
AcDbText
 73
     2
  0
TEXT
  5
182
330
E6
100
AcDbEntity
  8
SUNPOU
100
AcDbText
 10
245.9838933135727
 20
22.2249991005113
 30
0.0
 40
2.0
  1
6ｦｺｴ
 41
0.8
  7
K
 72
     2
 11
250.0677028373822
 21
23.2249991005113
 31
0.0
100
AcDbText
 73
     2
  0
TEXT
  5
183
330
E6
100
AcDbEntity
  8
SUNPOU
100
AcDbText
 10
245.9838933135727
 20
26.09722099392724
 30
0.0
 40
2.0
  1
3ｦｺｴ
 41
0.8
  7
K
 72
     2
 11
250.0677028373822
 21
27.09722099392724
 31
0.0
100
AcDbText
 73
     2
  0
TEXT
  5
184
330
E6
100
AcDbEntity
  8
SUNPOU
100
AcDbText
 10
235.8764001978188
 20
24.90873758818833
 30
0.0
 40
2.7
  1
通
  7
K
 72
     1
 11
237.1364001978188
 21
24.90873758818833
 31
0.0
100
AcDbText
  0
TEXT
  5
185
330
E6
100
AcDbEntity
  8
SUNPOU
100
AcDbText
 10
235.8764001978188
 20
21.80873758818831
 30
0.0
 40
2.7
  1
寸
  7
K
 72
     1
 11
237.1364001978188
 21
21.80873758818831
 31
0.0
100
AcDbText
  0
TEXT
  5
186
330
E6
100
AcDbEntity
  8
SUNPOU
100
AcDbText
 10
235.8764001978188
 20
18.70873758818834
 30
0.0
 40
2.7
  1
法
  7
K
 72
     1
 11
237.1364001978188
 21
18.70873758818834
 31
0.0
100
AcDbText
  0
TEXT
  5
187
330
E6
100
AcDbEntity
  8
SUNPOU
100
AcDbText
 10
235.8764001978188
 20
28.0087375881883
 30
0.0
 40
2.7
  1
普
  7
K
 72
     1
 11
237.1364001978188
 21
28.0087375881883
 31
0.0
100
AcDbText
  0
TEXT
  5
188
330
E6
100
AcDbEntity
  8
SUNPOU
100
AcDbText
 10
209.7021866584479
 20
44.10277720709536
 30
0.0
 40
3.0
  1
色調
  7
K
 11
209.7021866584479
 21
45.60277720709535
 31
0.0
100
AcDbText
 73
     2
  0
TEXT
  5
189
330
E6
100
AcDbEntity
  8
SUNPOU
100
AcDbText
 10
209.7021866584479
 20
50.23425945579152
 30
0.0
 40
3.0
  1
表面処理
  7
K
 11
209.7021866584479
 21
51.73425945579151
 31
0.0
100
AcDbText
 73
     2
  0
TEXT
  5
18A
330
E6
100
AcDbEntity
  8
SUNPOU
100
AcDbText
 10
208.1364001978188
 20
21.78662987279364
 30
0.0
 40
2.0
  1
▽▽▽▽
  7
K
 11
208.1364001978188
 21
22.78662987279364
 31
0.0
100
AcDbText
 73
     2
  0
TEXT
  5
18B
330
E6
100
AcDbEntity
  8
SUNPOU
100
AcDbText
 10
209.7021866584479
 20
37.9712949583992
 30
0.0
 40
3.0
  1
適用規格など
  7
K
 11
209.7021866584479
 21
39.4712949583992
 31
0.0
100
AcDbText
 73
     2
  0
LINE
  5
18C
330
E6
100
AcDbEntity
  8
SUNPOU
100
AcDbLine
 10
206.6364001978187
 20
30.4829649902905
 30
0.0
 11
233.6364001978187
 21
30.4829649902905
 31
0.0
  0
LINE
  5
18D
330
E6
100
AcDbEntity
  8
SUNPOU
100
AcDbLine
 10
206.6364001978187
 20
24.674033127533
 30
0.0
 11
233.6364001978187
 21
24.674033127533
 31
0.0
  0
TEXT
  5
18E
330
E6
100
AcDbEntity
  8
SUNPOU
100
AcDbText
 10
208.1364001978188
 20
31.94425941217082
 30
0.0
 40
3.0
  1
標準加工アラサ
  7
K
 72
     4
 11
220.1364001978188
 21
33.44425941217082
 31
0.0
100
AcDbText
  0
TEXT
  5
18F
330
E6
100
AcDbEntity
  8
SUNPOU
100
AcDbText
 10
208.4564001978187
 20
26.326302568122
 30
0.0
 40
3.0
  1
(標準外ﾊ指定ﾉｺﾄ)
 41
0.8
  7
K
 72
     4
 11
220.1364001978188
 21
27.61201685383628
 31
0.0
100
AcDbText
  0
TEXT
  5
190
330
E6
100
AcDbEntity
  8
SUNPOU
100
AcDbText
 10
225.7554478168664
 20
21.78662987279364
 30
0.0
 40
2.0
  1
0.8Z
  7
K
 72
     2
 11
232.1364001978187
 21
22.78662987279364
 31
0.0
100
AcDbText
 73
     2
  0
TEXT
  5
191
330
E6
100
AcDbEntity
  8
SUNPOU
100
AcDbText
 10
242.9362742659536
 20
10.60833342026348
 30
0.0
 40
2.0
  1
315ｦｺｴ
 41
0.8
  7
K
 72
     2
 11
250.0677028373822
 21
11.60833342026347
 31
0.0
100
AcDbText
 73
     2
  0
TEXT
  5
192
330
E6
100
AcDbEntity
  8
SUNPOU
100
AcDbText
 10
242.9362742659536
 20
14.48055531367941
 30
0.0
 40
2.0
  1
120ｦｺｴ
 41
0.8
  7
K
 72
     2
 11
250.0677028373822
 21
15.48055531367942
 31
0.0
100
AcDbText
 73
     2
  0
TEXT
  5
193
330
E6
100
AcDbEntity
  8
SUNPOU
100
AcDbText
 10
239.2599288493162
 20
10.96190464610896
 30
0.0
 40
2.0
  1
)
  7
K
 11
239.2599288493162
 21
11.96190464610896
 31
0.0
100
AcDbText
 73
     2
  0
TEXT
  5
194
330
E6
100
AcDbEntity
  8
SUNPOU
100
AcDbText
 10
236.2030668644854
 20
11.96190464610896
 30
0.0
 40
2.0
  1
±
  7
K
 72
     1
 11
237.1364001978188
 21
11.96190464610896
 31
0.0
100
AcDbText
  0
TEXT
  5
195
330
E6
100
AcDbEntity
  8
SUNPOU
100
AcDbText
 10
234.9935430549616
 20
10.04345972235012
 30
0.0
 40
1.5
  1
mm
  7
K
 72
     1
 11
237.1364001978188
 21
10.04345972235012
 31
0.0
100
AcDbText
  0
TEXT
  5
196
330
E6
100
AcDbEntity
  8
SUNPOU
100
AcDbText
 10
235.8764001978188
 20
15.60873758818832
 30
0.0
 40
2.7
  1
差
  7
K
 72
     1
 11
237.1364001978188
 21
15.60873758818832
 31
0.0
100
AcDbText
  0
TEXT
  5
197
330
E6
100
AcDbEntity
  8
SUNPOU
100
AcDbText
 10
226.7078287692473
 20
14.23701685383628
 30
0.0
 40
2.0
  1
25Z
  7
K
 72
     2
 11
232.1364001978187
 21
15.23701685383628
 31
0.0
100
AcDbText
 73
     2
  0
TEXT
  5
198
330
E6
100
AcDbEntity
  8
SUNPOU
100
AcDbText
 10
233.5887811501997
 20
10.96190464610896
 30
0.0
 40
2.0
  1
(
  7
K
 72
     2
 11
234.6364001978187
 21
11.96190464610896
 31
0.0
100
AcDbText
 73
     2
  0
TEXT
  5
199
330
E6
100
AcDbEntity
  8
SUNPOU
100
AcDbText
 10
241.4124647421441
 20
6.736111526847537
 30
0.0
 40
2.0
  1
1000ｦｺｴ
 41
0.8
  7
K
 72
     2
 11
250.0677028373822
 21
7.736111526847537
 31
0.0
100
AcDbText
 73
     2
  0
TEXT
  5
19A
330
E6
100
AcDbEntity
  8
SUNPOU
100
AcDbText
 10
208.1364001978188
 20
14.23701685383628
 30
0.0
 40
2.0
  1
▽▽
  7
K
 11
208.1364001978188
 21
15.23701685383628
 31
0.0
100
AcDbText
 73
     2
  0
TEXT
  5
19B
330
E6
100
AcDbEntity
  8
SUNPOU
100
AcDbText
 10
208.1364001978188
 20
10.46221034435757
 30
0.0
 40
2.0
  1
▽
  7
K
 11
208.1364001978188
 21
11.46221034435757
 31
0.0
100
AcDbText
 73
     2
  0
TEXT
  5
19C
330
E6
100
AcDbEntity
  8
SUNPOU
100
AcDbText
 10
208.1364001978188
 20
6.687403834878921
 30
0.0
 40
2.0
  1
～
  7
K
 11
208.1364001978188
 21
7.687403834878921
 31
0.0
100
AcDbText
 73
     2
  0
TEXT
  5
19D
330
E6
100
AcDbEntity
  8
SUNPOU
100
AcDbText
 10
220.8767110216292
 20
0.000000580139556
 30
0.0
 40
2.399999999999999
  1
（必要に応じて追加・抹消）
  7
K
100
AcDbText
  0
TEXT
  5
19E
330
E6
100
AcDbEntity
  8
SUNPOU
100
AcDbText
 10
224.8030668644854
 20
10.46221034435757
 30
0.0
 40
2.0
  1
100Z
  7
K
 72
     2
 11
232.1364001978187
 21
11.46221034435757
 31
0.0
100
AcDbText
 73
     2
  0
TEXT
  5
19F
330
E6
100
AcDbEntity
  8
SUNPOU
100
AcDbText
 10
244.4600837897632
 20
18.35277720709536
 30
0.0
 40
2.0
  1
30ｦｺｴ
 41
0.8
  7
K
 72
     2
 11
250.0677028373822
 21
19.35277720709535
 31
0.0
100
AcDbText
 73
     2
  0
TEXT
  5
1A0
330
E6
100
AcDbEntity
  8
SUNPOU
100
AcDbText
 10
225.7554478168664
 20
18.01182336331499
 30
0.0
 40
2.0
  1
6.3Z
  7
K
 72
     2
 11
232.1364001978187
 21
19.01182336331499
 31
0.0
100
AcDbText
 73
     2
  0
TEXT
  5
1A1
330
E6
100
AcDbEntity
  8
SUNPOU
100
AcDbText
 10
208.1364001978188
 20
18.01182336331499
 30
0.0
 40
2.0
  1
▽▽▽
  7
K
 11
208.1364001978188
 21
19.01182336331499
 31
0.0
100
AcDbText
 73
     2
  0
LINE
  5
1A2
330
E6
100
AcDbEntity
  8
SUNPOU
100
AcDbLine
 10
233.6364001978187
 20
36.40555383405115
 30
0.0
 11
233.6364001978187
 21
5.800000580139567
 31
0.0
  0
LINE
  5
1A3
330
E6
100
AcDbEntity
  8
SUNPOU
100
AcDbLine
 10
240.6364001978187
 20
36.40555383405115
 30
0.0
 11
240.6364001978187
 21
5.800000580139567
 31
0.0
  0
TEXT
  5
1A4
330
E6
100
AcDbEntity
  8
SUNPOU
100
AcDbText
 10
255.7665524398125
 20
29.96944288734318
 30
0.0
 40
2.0
  1
3以下
 41
0.8
  7
K
 72
     2
 11
260.7036952969553
 21
30.96944288734318
 31
0.0
100
AcDbText
 73
     2
  0
TEXT
  5
1A5
330
E6
100
AcDbEntity
  8
SUNPOU
100
AcDbText
 10
255.7665524398125
 20
26.09722099392724
 30
0.0
 40
2.0
  1
6以下
 41
0.8
  7
K
 72
     2
 11
260.7036952969553
 21
27.09722099392724
 31
0.0
100
AcDbText
 73
     2
  0
TEXT
  5
1A6
330
E6
100
AcDbEntity
  8
SUNPOU
100
AcDbText
 10
254.2427429160029
 20
22.2249991005113
 30
0.0
 40
2.0
  1
30以下
 41
0.8
  7
K
 72
     2
 11
260.7036952969553
 21
23.2249991005113
 31
0.0
100
AcDbText
 73
     2
  0
TEXT
  5
1A7
330
E6
100
AcDbEntity
  8
SUNPOU
100
AcDbText
 10
252.7189333921934
 20
18.35277720709536
 30
0.0
 40
2.0
  1
120以下
 41
0.8
  7
K
 72
     2
 11
260.7036952969553
 21
19.35277720709535
 31
0.0
100
AcDbText
 73
     2
  0
LINE
  5
1A8
330
E6
100
AcDbEntity
  8
WAKU
100
AcDbLine
 10
3.000000197818735
 20
268.8000005801395
 30
0.0
 11
384.0000001978187
 21
268.8000005801395
 31
0.0
  0
LINE
  5
1A9
330
E6
100
AcDbEntity
  8
WAKU
100
AcDbLine
 10
384.0000001978187
 20
5.800000580139567
 30
0.0
 11
3.000000197818735
 21
5.800000580139567
 31
0.0
  0
LINE
  5
1AA
330
E6
100
AcDbEntity
  8
WAKU
100
AcDbLine
 10
3.000000197818735
 20
5.800000580139567
 30
0.0
 11
3.000000197818735
 21
268.8000005801395
 31
0.0
  0
LINE
  5
1AB
330
E6
100
AcDbEntity
  8
WAKU
100
AcDbLine
 10
3.000000197818735
 20
138.8000005801395
 30
0.0
 11
0.0000001978187356
 21
138.8000005801395
 31
0.0
  0
LINE
  5
1AC
330
E6
100
AcDbEntity
  8
WAKU
100
AcDbLine
 10
384.0000001978187
 20
268.8000005801395
 30
0.0
 11
384.0000001978187
 21
5.800000580139567
 31
0.0
  0
ENDBLK
  5
1AE
330
E6
100
AcDbEntity
  8
0
100
AcDbBlockEnd
  0
BLOCK
  5
D4C
330
D4B
100
AcDbEntity
  8
0
100
AcDbBlockBegin
  2
_IMCADLT3
 70
     0
 10
0.0
 20
0.0
 30
0.0
  3
_IMCADLT3
  1

  0
ENDBLK
  5
D4D
330
D4B
100
AcDbEntity
  8
0
100
AcDbBlockEnd
  0
BLOCK
  5
1055
330
1053
100
AcDbEntity
  8
0
100
AcDbBlockBegin
  2
GENAXEH
 70
     0
 10
0.0
 20
0.0
 30
0.0
  3
GENAXEH
  1

  0
LINE
  5
1054
330
1053
100
AcDbEntity
  8
0
100
AcDbLine
 10
-1.0
 20
0.0
 30
0.0
 11
1.0
 21
0.0
 31
0.0
  0
ENDBLK
  5
1056
330
1053
100
AcDbEntity
  8
0
100
AcDbBlockEnd
  0
BLOCK
  5
1BBC
330
1BB2
100
AcDbEntity
  8
0
100
AcDbBlockBegin
  2
*D45
 70
     1
 10
0.0
 20
0.0
 30
0.0
  3
*D45
  1

  0
LINE
  5
1C59
330
1BB2
100
AcDbEntity
  8
SUNPOU
 62
     0
370
    -2
100
AcDbLine
 10
363.5041854048791
 20
1078.309517708227
 30
0.0
 11
363.5041854048791
 21
1273.276903752677
 31
0.0
  0
LINE
  5
1C5A
330
1BB2
100
AcDbEntity
  8
SUNPOU
 62
     0
370
    -2
100
AcDbLine
 10
629.504185406999
 20
1149.495133224908
 30
0.0
 11
629.504185406999
 21
1273.276903752677
 31
0.0
  0
LINE
  5
1C5B
330
1BB2
100
AcDbEntity
  8
SUNPOU
 62
     0
370
    -2
100
AcDbLine
 10
378.5041854048791
 20
1268.276903752677
 30
0.0
 11
614.5041854069989
 21
1268.276903752677
 31
0.0
  0
SOLID
  5
1C5C
330
1BB2
100
AcDbEntity
  8
SUNPOU
 62
     0
100
AcDbTrace
 10
378.5041854048791
 20
1270.776903752677
 30
0.0
 11
378.5041854048791
 21
1265.776903752677
 31
0.0
 12
363.5041854048791
 22
1268.276903752677
 32
0.0
 13
363.5041854048791
 23
1268.276903752677
 33
0.0
  0
SOLID
  5
1C5D
330
1BB2
100
AcDbEntity
  8
SUNPOU
 62
     0
100
AcDbTrace
 10
614.5041854069989
 20
1265.776903752677
 30
0.0
 11
614.5041854069989
 21
1270.776903752677
 31
0.0
 12
629.504185406999
 22
1268.276903752677
 32
0.0
 13
629.504185406999
 23
1268.276903752677
 33
0.0
  0
MTEXT
  5
1C5E
330
1BB2
100
AcDbEntity
  8
SUNPOU
 62
     0
100
AcDbMText
 10
499.3468420198633
 20
1280.776903752677
 30
0.0
 40
15.0
 41
0.0
 71
     5
 72
     5
  1
\A1;266
 73
     1
 44
1.0
1001
ACAD
1000
MTEXTBEGIN
1070
    73
1070
     1
1070
    44
1040
1.0
1070
    74
1070
     0
1000
MTEXTEND
  0
POINT
  5
1C5F
330
1BB2
100
AcDbEntity
  8
DEFPOINTS
 62
     0
100
AcDbPoint
 10
363.5041854048791
 20
1073.309517708227
 30
0.0
  0
POINT
  5
1C60
330
1BB2
100
AcDbEntity
  8
DEFPOINTS
 62
     0
100
AcDbPoint
 10
629.504185406999
 20
1144.495133224908
 30
0.0
  0
POINT
  5
1C61
330
1BB2
100
AcDbEntity
  8
DEFPOINTS
 62
     0
100
AcDbPoint
 10
629.504185406999
 20
1268.276903752677
 30
0.0
  0
ENDBLK
  5
1BBD
330
1BB2
100
AcDbEntity
  8
0
100
AcDbBlockEnd
  0
BLOCK
  5
1BC8
330
1BBE
100
AcDbEntity
  8
0
100
AcDbBlockBegin
  2
*D46
 70
     1
 10
0.0
 20
0.0
 30
0.0
  3
*D46
  1

  0
LINE
  5
1C62
330
1BBE
100
AcDbEntity
  8
SUNPOU
 62
     0
370
    -2
100
AcDbLine
 10
360.6358737648791
 20
836.2039829482274
 30
0.0
 11
305.2029382291635
 21
836.2039829482274
 31
0.0
  0
LINE
  5
1C63
330
1BBE
100
AcDbEntity
  8
SUNPOU
 62
     0
370
    -2
100
AcDbLine
 10
379.1946354050462
 20
1016.203982948227
 30
0.0
 11
305.2029382291635
 21
1016.203982948227
 31
0.0
  0
LINE
  5
1C64
330
1BBE
100
AcDbEntity
  8
SUNPOU
 62
     0
370
    -2
100
AcDbLine
 10
310.2029382291635
 20
851.2039829482274
 30
0.0
 11
310.2029382291635
 21
1001.203982948227
 31
0.0
  0
SOLID
  5
1C65
330
1BBE
100
AcDbEntity
  8
SUNPOU
 62
     0
100
AcDbTrace
 10
307.7029382291635
 20
851.2039829482274
 30
0.0
 11
312.7029382291635
 21
851.2039829482274
 31
0.0
 12
310.2029382291635
 22
836.2039829482274
 32
0.0
 13
310.2029382291635
 23
836.2039829482274
 33
0.0
  0
SOLID
  5
1C66
330
1BBE
100
AcDbEntity
  8
SUNPOU
 62
     0
100
AcDbTrace
 10
312.7029382291635
 20
1001.203982948227
 30
0.0
 11
307.7029382291635
 21
1001.203982948227
 31
0.0
 12
310.2029382291635
 22
1016.203982948227
 32
0.0
 13
310.2029382291635
 23
1016.203982948227
 33
0.0
  0
MTEXT
  5
1C67
330
1BBE
100
AcDbEntity
  8
SUNPOU
 62
     0
100
AcDbMText
 10
297.7029382291635
 20
929.7629362993085
 30
0.0
 40
15.0
 41
0.0
 71
     5
 72
     5
  1
\A1;180
 11
0.0
 21
1.0
 31
0.0
 73
     1
 44
1.0
1001
ACAD
1000
MTEXTBEGIN
1070
    73
1070
     1
1070
    44
1040
1.0
1070
    74
1070
     0
1000
MTEXTEND
  0
POINT
  5
1C68
330
1BBE
100
AcDbEntity
  8
DEFPOINTS
 62
     0
100
AcDbPoint
 10
365.6358737648791
 20
836.2039829482274
 30
0.0
  0
POINT
  5
1C69
330
1BBE
100
AcDbEntity
  8
DEFPOINTS
 62
     0
100
AcDbPoint
 10
384.1946354050461
 20
1016.203982948227
 30
0.0
  0
POINT
  5
1C6A
330
1BBE
100
AcDbEntity
  8
DEFPOINTS
 62
     0
100
AcDbPoint
 10
310.2029382291635
 20
1016.203982948227
 30
0.0
  0
ENDBLK
  5
1BC9
330
1BBE
100
AcDbEntity
  8
0
100
AcDbBlockEnd
  0
BLOCK
  5
1BD4
330
1BCA
100
AcDbEntity
  8
0
100
AcDbBlockBegin
  2
*D47
 70
     1
 10
0.0
 20
0.0
 30
0.0
  3
*D47
  1

  0
LINE
  5
1C6B
330
1BCA
100
AcDbEntity
  8
SUNPOU
 62
     0
370
    -2
100
AcDbLine
 10
150.173629287452
 20
1086.046561288227
 30
0.0
 11
150.173629287452
 21
1276.452255033251
 31
0.0
  0
LINE
  5
1C6C
330
1BCA
100
AcDbEntity
  8
SUNPOU
 62
     0
370
    -2
100
AcDbLine
 10
-79.82637071935432
 20
1086.046561288227
 30
0.0
 11
-79.82637071935432
 21
1276.452255033251
 31
0.0
  0
LINE
  5
1C6D
330
1BCA
100
AcDbEntity
  8
SUNPOU
 62
     0
370
    -2
100
AcDbLine
 10
135.173629287452
 20
1271.452255033251
 30
0.0
 11
-64.82637071935432
 21
1271.452255033251
 31
0.0
  0
INSERT
  5
1C6E
330
1BCA
100
AcDbEntity
  8
SUNPOU
 62
     0
370
    -2
100
AcDbBlockReference
  2
ARROW
 10
150.173629287452
 20
1271.452255033251
 30
0.0
 41
15.0
 42
15.0
 43
15.0
  0
INSERT
  5
1C6F
330
1BCA
100
AcDbEntity
  8
SUNPOU
 62
     0
370
    -2
100
AcDbBlockReference
  2
ARROW
 10
-79.82637071935432
 20
1271.452255033251
 30
0.0
 41
15.0
 42
15.0
 43
15.0
 50
180.0
  0
MTEXT
  5
1C70
330
1BCA
100
AcDbEntity
  8
SUNPOU
 62
     0
100
AcDbMText
 10
35.17362928745206
 20
1283.952255033251
 30
0.0
 40
15.0
 41
0.0
 71
     5
 72
     5
  1
\A1;230
 73
     1
 44
1.0
1001
ACAD
1000
MTEXTBEGIN
1070
    73
1070
     1
1070
    44
1040
1.0
1070
    74
1070
     0
1000
MTEXTEND
  0
POINT
  5
1C71
330
1BCA
100
AcDbEntity
  8
DEFPOINTS
 62
     0
100
AcDbPoint
 10
150.173629287452
 20
1081.046561288228
 30
0.0
  0
POINT
  5
1C72
330
1BCA
100
AcDbEntity
  8
DEFPOINTS
 62
     0
100
AcDbPoint
 10
-79.82637071935432
 20
1081.046561288228
 30
0.0
  0
POINT
  5
1C73
330
1BCA
100
AcDbEntity
  8
DEFPOINTS
 62
     0
100
AcDbPoint
 10
-79.82637071935432
 20
1271.452255033251
 30
0.0
  0
ENDBLK
  5
1BD5
330
1BCA
100
AcDbEntity
  8
0
100
AcDbBlockEnd
  0
BLOCK
  5
1BE0
330
1BD6
100
AcDbEntity
  8
0
100
AcDbBlockBegin
  2
*D48
 70
     1
 10
0.0
 20
0.0
 30
0.0
  3
*D48
  1

  0
LINE
  5
1C74
330
1BD6
100
AcDbEntity
  8
SUNPOU
 62
     0
370
    -2
100
AcDbLine
 10
-77.82637071935432
 20
811.0465612882276
 30
0.0
 11
-77.82637071935432
 21
683.6205210917428
 31
0.0
  0
LINE
  5
1C75
330
1BD6
100
AcDbEntity
  8
SUNPOU
 62
     0
370
    -2
100
AcDbLine
 10
148.173629287452
 20
811.0465612882276
 30
0.0
 11
148.173629287452
 21
683.6205210917428
 31
0.0
  0
LINE
  5
1C76
330
1BD6
100
AcDbEntity
  8
SUNPOU
 62
     0
370
    -2
100
AcDbLine
 10
-62.82637071935432
 20
688.6205210917428
 30
0.0
 11
133.173629287452
 21
688.6205210917428
 31
0.0
  0
INSERT
  5
1C77
330
1BD6
100
AcDbEntity
  8
SUNPOU
 62
     0
370
    -2
100
AcDbBlockReference
  2
ARROW
 10
-77.82637071935432
 20
688.6205210917428
 30
0.0
 41
15.0
 42
15.0
 43
15.0
 50
180.0
  0
INSERT
  5
1C78
330
1BD6
100
AcDbEntity
  8
SUNPOU
 62
     0
370
    -2
100
AcDbBlockReference
  2
ARROW
 10
148.173629287452
 20
688.6205210917428
 30
0.0
 41
15.0
 42
15.0
 43
15.0
  0
MTEXT
  5
1C79
330
1BD6
100
AcDbEntity
  8
SUNPOU
 62
     0
100
AcDbMText
 10
35.17362928745206
 20
701.1205210917428
 30
0.0
 40
15.0
 41
0.0
 71
     5
 72
     5
  1
\A1;226
 73
     1
 44
1.0
1001
ACAD
1000
MTEXTBEGIN
1070
    73
1070
     1
1070
    44
1040
1.0
1070
    74
1070
     0
1000
MTEXTEND
  0
POINT
  5
1C7A
330
1BD6
100
AcDbEntity
  8
DEFPOINTS
 62
     0
100
AcDbPoint
 10
-77.82637071935432
 20
816.0465612882275
 30
0.0
  0
POINT
  5
1C7B
330
1BD6
100
AcDbEntity
  8
DEFPOINTS
 62
     0
100
AcDbPoint
 10
148.173629287452
 20
816.0465612882275
 30
0.0
  0
POINT
  5
1C7C
330
1BD6
100
AcDbEntity
  8
DEFPOINTS
 62
     0
100
AcDbPoint
 10
148.173629287452
 20
688.6205210917428
 30
0.0
  0
ENDBLK
  5
1BE1
330
1BD6
100
AcDbEntity
  8
0
100
AcDbBlockEnd
  0
BLOCK
  5
1BEC
330
1BE2
100
AcDbEntity
  8
0
100
AcDbBlockBegin
  2
*D49
 70
     1
 10
0.0
 20
0.0
 30
0.0
  3
*D49
  1

  0
LINE
  5
1C7D
330
1BE2
100
AcDbEntity
  8
SUNPOU
 62
     0
370
    -2
100
AcDbLine
 10
-50.82637071595115
 20
796.0465612882274
 30
0.0
 11
-50.82637071595115
 21
725.3896468264427
 31
0.0
  0
LINE
  5
1C7E
330
1BE2
100
AcDbEntity
  8
SUNPOU
 62
     0
370
    -2
100
AcDbLine
 10
121.1736292840488
 20
796.0465612882273
 30
0.0
 11
121.1736292840488
 21
725.3896468264427
 31
0.0
  0
LINE
  5
1C7F
330
1BE2
100
AcDbEntity
  8
SUNPOU
 62
     0
370
    -2
100
AcDbLine
 10
-35.82637071595116
 20
730.3896468264427
 30
0.0
 11
106.1736292840488
 21
730.3896468264427
 31
0.0
  0
INSERT
  5
1C80
330
1BE2
100
AcDbEntity
  8
SUNPOU
 62
     0
370
    -2
100
AcDbBlockReference
  2
ARROW
 10
-50.82637071595115
 20
730.3896468264427
 30
0.0
 41
15.0
 42
15.0
 43
15.0
 50
180.0
  0
INSERT
  5
1C81
330
1BE2
100
AcDbEntity
  8
SUNPOU
 62
     0
370
    -2
100
AcDbBlockReference
  2
ARROW
 10
121.1736292840488
 20
730.3896468264427
 30
0.0
 41
15.0
 42
15.0
 43
15.0
  0
MTEXT
  5
1C82
330
1BE2
100
AcDbEntity
  8
SUNPOU
 62
     0
100
AcDbMText
 10
32.28396702768077
 20
742.8896468264427
 30
0.0
 40
15.0
 41
0.0
 71
     5
 72
     5
  1
\A1;172
 73
     1
 44
1.0
1001
ACAD
1000
MTEXTBEGIN
1070
    73
1070
     1
1070
    44
1040
1.0
1070
    74
1070
     0
1000
MTEXTEND
  0
POINT
  5
1C83
330
1BE2
100
AcDbEntity
  8
DEFPOINTS
 62
     0
100
AcDbPoint
 10
-50.82637071595115
 20
801.0465612882274
 30
0.0
  0
POINT
  5
1C84
330
1BE2
100
AcDbEntity
  8
DEFPOINTS
 62
     0
100
AcDbPoint
 10
121.1736292840488
 20
801.0465612882274
 30
0.0
  0
POINT
  5
1C85
330
1BE2
100
AcDbEntity
  8
DEFPOINTS
 62
     0
100
AcDbPoint
 10
121.1736292840488
 20
730.3896468264427
 30
0.0
  0
ENDBLK
  5
1BED
330
1BE2
100
AcDbEntity
  8
0
100
AcDbBlockEnd
  0
BLOCK
  5
1BF8
330
1BEE
100
AcDbEntity
  8
0
100
AcDbBlockBegin
  2
*D50
 70
     1
 10
0.0
 20
0.0
 30
0.0
  3
*D50
  1

  0
LINE
  5
1C86
330
1BEE
100
AcDbEntity
  8
SUNPOU
 62
     0
370
    -2
100
AcDbLine
 10
-64.10399587433551
 20
801.0465612882274
 30
0.0
 11
-212.6477000251125
 21
801.0465612882274
 31
0.0
  0
LINE
  5
1C87
330
1BEE
100
AcDbEntity
  8
SUNPOU
 62
     0
370
    -2
100
AcDbLine
 10
-70.73252340831982
 20
1193.046561286798
 30
0.0
 11
-212.6477000251125
 21
1193.046561286798
 31
0.0
  0
LINE
  5
1C88
330
1BEE
100
AcDbEntity
  8
SUNPOU
 62
     0
370
    -2
100
AcDbLine
 10
-207.6477000251125
 20
816.0465612882275
 30
0.0
 11
-207.6477000251125
 21
1178.046561286798
 31
0.0
  0
INSERT
  5
1C89
330
1BEE
100
AcDbEntity
  8
SUNPOU
 62
     0
370
    -2
100
AcDbBlockReference
  2
ARROW
 10
-207.6477000251125
 20
801.0465612882274
 30
0.0
 41
15.0
 42
15.0
 43
15.0
 50
270.0
  0
INSERT
  5
1C8A
330
1BEE
100
AcDbEntity
  8
SUNPOU
 62
     0
370
    -2
100
AcDbBlockReference
  2
ARROW
 10
-207.6477000251125
 20
1193.046561286798
 30
0.0
 41
15.0
 42
15.0
 43
15.0
 50
90.0
  0
MTEXT
  5
1C8B
330
1BEE
100
AcDbEntity
  8
SUNPOU
 62
     0
100
AcDbMText
 10
-220.1477000251125
 20
1008.555970054406
 30
0.0
 40
15.0
 41
0.0
 71
     5
 72
     5
  1
\A1;392
 11
0.0
 21
1.0
 31
0.0
 73
     1
 44
1.0
1001
ACAD
1000
MTEXTBEGIN
1070
    73
1070
     1
1070
    44
1040
1.0
1070
    74
1070
     0
1000
MTEXTEND
  0
POINT
  5
1C8C
330
1BEE
100
AcDbEntity
  8
DEFPOINTS
 62
     0
100
AcDbPoint
 10
-59.10399587433551
 20
801.0465612882274
 30
0.0
  0
POINT
  5
1C8D
330
1BEE
100
AcDbEntity
  8
DEFPOINTS
 62
     0
100
AcDbPoint
 10
-65.73252340831982
 20
1193.046561286798
 30
0.0
  0
POINT
  5
1C8E
330
1BEE
100
AcDbEntity
  8
DEFPOINTS
 62
     0
100
AcDbPoint
 10
-207.6477000251125
 20
1193.046561286798
 30
0.0
  0
ENDBLK
  5
1BF9
330
1BEE
100
AcDbEntity
  8
0
100
AcDbBlockEnd
  0
BLOCK
  5
1C04
330
1BFA
100
AcDbEntity
  8
0
100
AcDbBlockBegin
  2
*D51
 70
     1
 10
0.0
 20
0.0
 30
0.0
  3
*D51
  1

  0
LINE
  5
1C8F
330
1BFA
100
AcDbEntity
  8
SUNPOU
 62
     0
370
    -2
100
AcDbLine
 10
150.173629287452
 20
1086.046561288227
 30
0.0
 11
150.173629287452
 21
1314.112032335226
 31
0.0
  0
LINE
  5
1C90
330
1BFA
100
AcDbEntity
  8
SUNPOU
 62
     0
370
    -2
100
AcDbLine
 10
-87.82637071595116
 20
1014.743829897219
 30
0.0
 11
-87.82637071595116
 21
1314.112032335226
 31
0.0
  0
LINE
  5
1C91
330
1BFA
100
AcDbEntity
  8
SUNPOU
 62
     0
370
    -2
100
AcDbLine
 10
135.173629287452
 20
1309.112032335226
 30
0.0
 11
-72.82637071595115
 21
1309.112032335226
 31
0.0
  0
INSERT
  5
1C92
330
1BFA
100
AcDbEntity
  8
SUNPOU
 62
     0
370
    -2
100
AcDbBlockReference
  2
ARROW
 10
150.173629287452
 20
1309.112032335226
 30
0.0
 41
15.0
 42
15.0
 43
15.0
  0
INSERT
  5
1C93
330
1BFA
100
AcDbEntity
  8
SUNPOU
 62
     0
370
    -2
100
AcDbBlockReference
  2
ARROW
 10
-87.82637071595116
 20
1309.112032335226
 30
0.0
 41
15.0
 42
15.0
 43
15.0
 50
180.0
  0
MTEXT
  5
1C94
330
1BFA
100
AcDbEntity
  8
SUNPOU
 62
     0
100
AcDbMText
 10
31.17362928575045
 20
1321.612032335226
 30
0.0
 40
15.0
 41
0.0
 71
     5
 72
     5
  1
\A1;238
 73
     1
 44
1.0
1001
ACAD
1000
MTEXTBEGIN
1070
    73
1070
     1
1070
    44
1040
1.0
1070
    74
1070
     0
1000
MTEXTEND
  0
POINT
  5
1C95
330
1BFA
100
AcDbEntity
  8
DEFPOINTS
 62
     0
100
AcDbPoint
 10
150.173629287452
 20
1081.046561288228
 30
0.0
  0
POINT
  5
1C96
330
1BFA
100
AcDbEntity
  8
DEFPOINTS
 62
     0
100
AcDbPoint
 10
-87.82637071595116
 20
1009.743829897219
 30
0.0
  0
POINT
  5
1C97
330
1BFA
100
AcDbEntity
  8
DEFPOINTS
 62
     0
100
AcDbPoint
 10
-87.82637071595116
 20
1309.112032335226
 30
0.0
  0
ENDBLK
  5
1C05
330
1BFA
100
AcDbEntity
  8
0
100
AcDbBlockEnd
  0
BLOCK
  5
1C10
330
1C06
100
AcDbEntity
  8
0
100
AcDbBlockBegin
  2
*D52
 70
     1
 10
0.0
 20
0.0
 30
0.0
  3
*D52
  1

  0
LINE
  5
1C98
330
1C06
100
AcDbEntity
  8
SUNPOU
 62
     0
370
    -2
100
AcDbLine
 10
761.5299319948792
 20
859.0465612882274
 30
0.0
 11
802.6562427052827
 21
859.0465612882274
 31
0.0
  0
LINE
  5
1C99
330
1C06
100
AcDbEntity
  8
SUNPOU
 62
     0
370
    -2
100
AcDbLine
 10
617.9134989232635
 20
801.0465612882274
 30
0.0
 11
802.6562427052827
 21
801.0465612882274
 31
0.0
  0
LINE
  5
1C9A
330
1C06
100
AcDbEntity
  8
SUNPOU
 62
     0
370
    -2
100
AcDbLine
 10
797.6562427052827
 20
844.0465612882274
 30
0.0
 11
797.6562427052827
 21
816.0465612882275
 31
0.0
  0
INSERT
  5
1C9B
330
1C06
100
AcDbEntity
  8
SUNPOU
 62
     0
370
    -2
100
AcDbBlockReference
  2
ARROW
 10
797.6562427052827
 20
859.0465612882274
 30
0.0
 41
15.0
 42
15.0
 43
15.0
 50
90.0
  0
INSERT
  5
1C9C
330
1C06
100
AcDbEntity
  8
SUNPOU
 62
     0
370
    -2
100
AcDbBlockReference
  2
ARROW
 10
797.6562427052827
 20
801.0465612882274
 30
0.0
 41
15.0
 42
15.0
 43
15.0
 50
270.0
  0
MTEXT
  5
1C9D
330
1C06
100
AcDbEntity
  8
SUNPOU
 62
     0
100
AcDbMText
 10
785.1562427052827
 20
831.0812085863313
 30
0.0
 40
15.0
 41
0.0
 71
     5
 72
     5
  1
\A1;58
 11
0.0
 21
1.0
 31
0.0
 73
     1
 44
1.0
1001
ACAD
1000
MTEXTBEGIN
1070
    73
1070
     1
1070
    44
1040
1.0
1070
    74
1070
     0
1000
MTEXTEND
  0
POINT
  5
1C9E
330
1C06
100
AcDbEntity
  8
DEFPOINTS
 62
     0
100
AcDbPoint
 10
756.5299319948792
 20
859.0465612882274
 30
0.0
  0
POINT
  5
1C9F
330
1C06
100
AcDbEntity
  8
DEFPOINTS
 62
     0
100
AcDbPoint
 10
612.9134989232635
 20
801.0465612882274
 30
0.0
  0
POINT
  5
1CA0
330
1C06
100
AcDbEntity
  8
DEFPOINTS
 62
     0
100
AcDbPoint
 10
797.6562427052827
 20
801.0465612882274
 30
0.0
  0
ENDBLK
  5
1C11
330
1C06
100
AcDbEntity
  8
0
100
AcDbBlockEnd
  0
BLOCK
  5
1C1C
330
1C12
100
AcDbEntity
  8
0
100
AcDbBlockBegin
  2
*D53
 70
     1
 10
0.0
 20
0.0
 30
0.0
  3
*D53
  1

  0
LINE
  5
1CA1
330
1C12
100
AcDbEntity
  8
SUNPOU
 62
     0
370
    -2
100
AcDbLine
 10
419.635873764879
 20
796.0465612882274
 30
0.0
 11
419.635873764879
 21
726.6189962330518
 31
0.0
  0
LINE
  5
1CA2
330
1C12
100
AcDbEntity
  8
SUNPOU
 62
     0
370
    -2
100
AcDbLine
 10
604.6358737648792
 20
796.0465612882274
 30
0.0
 11
604.6358737648792
 21
726.6189962330518
 31
0.0
  0
LINE
  5
1CA3
330
1C12
100
AcDbEntity
  8
SUNPOU
 62
     0
370
    -2
100
AcDbLine
 10
434.6358737648791
 20
731.6189962330517
 30
0.0
 11
589.6358737648792
 21
731.6189962330517
 31
0.0
  0
INSERT
  5
1CA4
330
1C12
100
AcDbEntity
  8
SUNPOU
 62
     0
370
    -2
100
AcDbBlockReference
  2
ARROW
 10
419.635873764879
 20
731.6189962330517
 30
0.0
 41
15.0
 42
15.0
 43
15.0
 50
180.0
  0
INSERT
  5
1CA5
330
1C12
100
AcDbEntity
  8
SUNPOU
 62
     0
370
    -2
100
AcDbBlockReference
  2
ARROW
 10
604.6358737648792
 20
731.6189962330517
 30
0.0
 41
15.0
 42
15.0
 43
15.0
  0
MTEXT
  5
1CA6
330
1C12
100
AcDbEntity
  8
SUNPOU
 62
     0
100
AcDbMText
 10
508.2442399914925
 20
744.1189962330517
 30
0.0
 40
15.0
 41
0.0
 71
     5
 72
     5
  1
\A1;185
 73
     1
 44
1.0
1001
ACAD
1000
MTEXTBEGIN
1070
    73
1070
     1
1070
    44
1040
1.0
1070
    74
1070
     0
1000
MTEXTEND
  0
POINT
  5
1CA7
330
1C12
100
AcDbEntity
  8
DEFPOINTS
 62
     0
100
AcDbPoint
 10
419.635873764879
 20
801.0465612882274
 30
0.0
  0
POINT
  5
1CA8
330
1C12
100
AcDbEntity
  8
DEFPOINTS
 62
     0
100
AcDbPoint
 10
604.6358737648792
 20
801.0465612882274
 30
0.0
  0
POINT
  5
1CA9
330
1C12
100
AcDbEntity
  8
DEFPOINTS
 62
     0
100
AcDbPoint
 10
604.6358737648792
 20
731.6189962330517
 30
0.0
  0
ENDBLK
  5
1C1D
330
1C12
100
AcDbEntity
  8
0
100
AcDbBlockEnd
  0
BLOCK
  5
1C27
330
1C1E
100
AcDbEntity
  8
0
100
AcDbBlockBegin
  2
*D54
 70
     1
 10
0.0
 20
0.0
 30
0.0
  3
*D54
  1

  0
LINE
  5
1CAA
330
1C1E
100
AcDbEntity
  8
SUNPOU
 62
     0
370
    -2
100
AcDbLine
 10
365.6358737648792
 20
809.0465612882274
 30
0.0
 11
365.6358737648792
 21
726.6189962330518
 31
0.0
  0
LINE
  5
1CAB
330
1C1E
100
AcDbEntity
  8
SUNPOU
 62
     0
370
    -2
100
AcDbLine
 10
404.635873764879
 20
731.6189962330517
 30
0.0
 11
380.6358737648792
 21
731.6189962330517
 31
0.0
  0
INSERT
  5
1CAC
330
1C1E
100
AcDbEntity
  8
SUNPOU
 62
     0
370
    -2
100
AcDbBlockReference
  2
ARROW
 10
419.635873764879
 20
731.6189962330517
 30
0.0
 41
15.0
 42
15.0
 43
15.0
  0
INSERT
  5
1CAD
330
1C1E
100
AcDbEntity
  8
SUNPOU
 62
     0
370
    -2
100
AcDbBlockReference
  2
ARROW
 10
365.6358737648792
 20
731.6189962330517
 30
0.0
 41
15.0
 42
15.0
 43
15.0
 50
180.0
  0
MTEXT
  5
1CAE
330
1C1E
100
AcDbEntity
  8
SUNPOU
 62
     0
100
AcDbMText
 10
392.6358737648791
 20
744.1189962330517
 30
0.0
 40
15.0
 41
0.0
 71
     5
 72
     5
  1
\A1;54
 73
     1
 44
1.0
1001
ACAD
1000
MTEXTBEGIN
1070
    73
1070
     1
1070
    44
1040
1.0
1070
    74
1070
     0
1000
MTEXTEND
  0
POINT
  5
1CAF
330
1C1E
100
AcDbEntity
  8
DEFPOINTS
 62
     0
100
AcDbPoint
 10
419.635873764879
 20
801.0465612882274
 30
0.0
  0
POINT
  5
1CB0
330
1C1E
100
AcDbEntity
  8
DEFPOINTS
 62
     0
100
AcDbPoint
 10
365.6358737648792
 20
814.0465612882275
 30
0.0
  0
POINT
  5
1CB1
330
1C1E
100
AcDbEntity
  8
DEFPOINTS
 62
     0
100
AcDbPoint
 10
365.6358737648792
 20
731.6189962330517
 30
0.0
  0
ENDBLK
  5
1C28
330
1C1E
100
AcDbEntity
  8
0
100
AcDbBlockEnd
  0
BLOCK
  5
1C33
330
1C29
100
AcDbEntity
  8
0
100
AcDbBlockBegin
  2
*D55
 70
     1
 10
0.0
 20
0.0
 30
0.0
  3
*D55
  1

  0
LINE
  5
1CB2
330
1C29
100
AcDbEntity
  8
SUNPOU
 62
     0
370
    -2
100
AcDbLine
 10
365.6358737648792
 20
809.0465612882274
 30
0.0
 11
365.6358737648792
 21
696.6189962330518
 31
0.0
  0
LINE
  5
1CB3
330
1C29
100
AcDbEntity
  8
SUNPOU
 62
     0
370
    -2
100
AcDbLine
 10
629.635873764879
 20
807.0465612882275
 30
0.0
 11
629.635873764879
 21
696.6189962330518
 31
0.0
  0
LINE
  5
1CB4
330
1C29
100
AcDbEntity
  8
SUNPOU
 62
     0
370
    -2
100
AcDbLine
 10
380.6358737648792
 20
701.6189962330518
 30
0.0
 11
614.6358737648791
 21
701.6189962330518
 31
0.0
  0
INSERT
  5
1CB5
330
1C29
100
AcDbEntity
  8
SUNPOU
 62
     0
370
    -2
100
AcDbBlockReference
  2
ARROW
 10
365.6358737648792
 20
701.6189962330518
 30
0.0
 41
15.0
 42
15.0
 43
15.0
 50
180.0
  0
INSERT
  5
1CB6
330
1C29
100
AcDbEntity
  8
SUNPOU
 62
     0
370
    -2
100
AcDbBlockReference
  2
ARROW
 10
629.635873764879
 20
701.6189962330518
 30
0.0
 41
15.0
 42
15.0
 43
15.0
  0
MTEXT
  5
1CB7
330
1C29
100
AcDbEntity
  8
SUNPOU
 62
     0
100
AcDbMText
 10
497.6358737648791
 20
714.1189962330518
 30
0.0
 40
15.0
 41
0.0
 71
     5
 72
     5
  1
\A1;264
 73
     1
 44
1.0
1001
ACAD
1000
MTEXTBEGIN
1070
    73
1070
     1
1070
    44
1040
1.0
1070
    74
1070
     0
1000
MTEXTEND
  0
POINT
  5
1CB8
330
1C29
100
AcDbEntity
  8
DEFPOINTS
 62
     0
100
AcDbPoint
 10
365.6358737648792
 20
814.0465612882275
 30
0.0
  0
POINT
  5
1CB9
330
1C29
100
AcDbEntity
  8
DEFPOINTS
 62
     0
100
AcDbPoint
 10
629.635873764879
 20
812.0465612882275
 30
0.0
  0
POINT
  5
1CBA
330
1C29
100
AcDbEntity
  8
DEFPOINTS
 62
     0
100
AcDbPoint
 10
629.635873764879
 20
701.6189962330518
 30
0.0
  0
ENDBLK
  5
1C34
330
1C29
100
AcDbEntity
  8
0
100
AcDbBlockEnd
  0
BLOCK
  5
1C3F
330
1C35
100
AcDbEntity
  8
0
100
AcDbBlockBegin
  2
*D56
 70
     1
 10
0.0
 20
0.0
 30
0.0
  3
*D56
  1

  0
LINE
  5
1CBB
330
1C35
100
AcDbEntity
  8
SUNPOU
 62
     0
370
    -2
100
AcDbLine
 10
629.504185406999
 20
1144.495133224908
 30
0.0
 11
629.504185406999
 21
1320.255709087397
 31
0.0
  0
LINE
  5
1CBC
330
1C35
100
AcDbEntity
  8
SUNPOU
 62
     0
370
    -2
100
AcDbLine
 10
354.504185406999
 20
1107.940260492791
 30
0.0
 11
354.504185406999
 21
1320.255709087397
 31
0.0
  0
LINE
  5
1CBD
330
1C35
100
AcDbEntity
  8
SUNPOU
 62
     0
370
    -2
100
AcDbLine
 10
614.5041854069989
 20
1315.255709087397
 30
0.0
 11
369.504185406999
 21
1315.255709087397
 31
0.0
  0
INSERT
  5
1CBE
330
1C35
100
AcDbEntity
  8
SUNPOU
 62
     0
370
    -2
100
AcDbBlockReference
  2
ARROW
 10
629.504185406999
 20
1315.255709087397
 30
0.0
 41
15.0
 42
15.0
 43
15.0
  0
INSERT
  5
1CBF
330
1C35
100
AcDbEntity
  8
SUNPOU
 62
     0
370
    -2
100
AcDbBlockReference
  2
ARROW
 10
354.504185406999
 20
1315.255709087397
 30
0.0
 41
15.0
 42
15.0
 43
15.0
 50
180.0
  0
MTEXT
  5
1CC0
330
1C35
100
AcDbEntity
  8
SUNPOU
 62
     0
100
AcDbMText
 10
500.214873397866
 20
1327.755709087397
 30
0.0
 40
15.0
 41
0.0
 71
     5
 72
     5
  1
\A1;275
 73
     1
 44
1.0
1001
ACAD
1000
MTEXTBEGIN
1070
    73
1070
     1
1070
    44
1040
1.0
1070
    74
1070
     0
1000
MTEXTEND
  0
POINT
  5
1CC1
330
1C35
100
AcDbEntity
  8
DEFPOINTS
 62
     0
100
AcDbPoint
 10
629.504185406999
 20
1139.495133224908
 30
0.0
  0
POINT
  5
1CC2
330
1C35
100
AcDbEntity
  8
DEFPOINTS
 62
     0
100
AcDbPoint
 10
354.504185406999
 20
1102.940260492791
 30
0.0
  0
POINT
  5
1CC3
330
1C35
100
AcDbEntity
  8
DEFPOINTS
 62
     0
100
AcDbPoint
 10
354.504185406999
 20
1315.255709087397
 30
0.0
  0
ENDBLK
  5
1C40
330
1C35
100
AcDbEntity
  8
0
100
AcDbBlockEnd
  0
BLOCK
  5
1C4B
330
1C41
100
AcDbEntity
  8
0
100
AcDbBlockBegin
  2
*D57
 70
     1
 10
0.0
 20
0.0
 30
0.0
  3
*D57
  1

  0
LINE
  5
1CC4
330
1C41
100
AcDbEntity
  8
SUNPOU
 62
     0
370
    -2
100
AcDbLine
 10
699.5665120648791
 20
1518.541501770308
 30
0.0
 11
804.2379950769387
 21
1518.541501770308
 31
0.0
  0
LINE
  5
1CC5
330
1C41
100
AcDbEntity
  8
SUNPOU
 62
     0
370
    -2
100
AcDbLine
 10
761.398243634879
 20
1458.541501770308
 30
0.0
 11
804.2379950769387
 21
1458.541501770308
 31
0.0
  0
LINE
  5
1CC6
330
1C41
100
AcDbEntity
  8
SUNPOU
 62
     0
370
    -2
100
AcDbLine
 10
799.2379950769386
 20
1503.541501770308
 30
0.0
 11
799.2379950769386
 21
1473.541501770308
 31
0.0
  0
INSERT
  5
1CC7
330
1C41
100
AcDbEntity
  8
SUNPOU
 62
     0
370
    -2
100
AcDbBlockReference
  2
ARROW
 10
799.2379950769386
 20
1518.541501770308
 30
0.0
 41
15.0
 42
15.0
 43
15.0
 50
90.0
  0
INSERT
  5
1CC8
330
1C41
100
AcDbEntity
  8
SUNPOU
 62
     0
370
    -2
100
AcDbBlockReference
  2
ARROW
 10
799.2379950769386
 20
1458.541501770308
 30
0.0
 41
15.0
 42
15.0
 43
15.0
 50
270.0
  0
MTEXT
  5
1CC9
330
1C41
100
AcDbEntity
  8
SUNPOU
 62
     0
100
AcDbMText
 10
786.7379950769386
 20
1489.914890653757
 30
0.0
 40
15.0
 41
0.0
 71
     5
 72
     5
  1
\A1;60
 11
0.0
 21
1.0
 31
0.0
 73
     1
 44
1.0
1001
ACAD
1000
MTEXTBEGIN
1070
    73
1070
     1
1070
    44
1040
1.0
1070
    74
1070
     0
1000
MTEXTEND
  0
POINT
  5
1CCA
330
1C41
100
AcDbEntity
  8
DEFPOINTS
 62
     0
100
AcDbPoint
 10
694.5665120648791
 20
1518.541501770308
 30
0.0
  0
POINT
  5
1CCB
330
1C41
100
AcDbEntity
  8
DEFPOINTS
 62
     0
100
AcDbPoint
 10
756.398243634879
 20
1458.541501770308
 30
0.0
  0
POINT
  5
1CCC
330
1C41
100
AcDbEntity
  8
DEFPOINTS
 62
     0
100
AcDbPoint
 10
799.2379950769386
 20
1458.541501770308
 30
0.0
  0
ENDBLK
  5
1C4C
330
1C41
100
AcDbEntity
  8
0
100
AcDbBlockEnd
  0
BLOCK
  5
1C57
330
1C4D
100
AcDbEntity
  8
0
100
AcDbBlockBegin
  2
*D58
 70
     1
 10
0.0
 20
0.0
 30
0.0
  3
*D58
  1

  0
LINE
  5
1CCD
330
1C4D
100
AcDbEntity
  8
SUNPOU
 62
     0
370
    -2
100
AcDbLine
 10
629.5041854048791
 20
1421.041501770308
 30
0.0
 11
629.5041854048791
 21
1351.486109097178
 31
0.0
  0
LINE
  5
1CCE
330
1C4D
100
AcDbEntity
  8
SUNPOU
 62
     0
370
    -2
100
AcDbLine
 10
756.3982436348792
 20
1448.541501770308
 30
0.0
 11
756.3982436348792
 21
1351.486109097178
 31
0.0
  0
LINE
  5
1CCF
330
1C4D
100
AcDbEntity
  8
SUNPOU
 62
     0
370
    -2
100
AcDbLine
 10
644.504185404879
 20
1356.486109097178
 30
0.0
 11
741.3982436348792
 21
1356.486109097178
 31
0.0
  0
INSERT
  5
1CD0
330
1C4D
100
AcDbEntity
  8
SUNPOU
 62
     0
370
    -2
100
AcDbBlockReference
  2
ARROW
 10
629.5041854048791
 20
1356.486109097178
 30
0.0
 41
15.0
 42
15.0
 43
15.0
 50
180.0
  0
INSERT
  5
1CD1
330
1C4D
100
AcDbEntity
  8
SUNPOU
 62
     0
370
    -2
100
AcDbBlockReference
  2
ARROW
 10
756.3982436348792
 20
1356.486109097178
 30
0.0
 41
15.0
 42
15.0
 43
15.0
  0
MTEXT
  5
1CD2
330
1C4D
100
AcDbEntity
  8
SUNPOU
 62
     0
100
AcDbMText
 10
694.3270939009321
 20
1368.986109097178
 30
0.0
 40
15.0
 41
0.0
 71
     5
 72
     5
  1
\A1;約2200
 73
     1
 44
1.0
1001
ACAD
1000
MTEXTBEGIN
1070
    73
1070
     1
1070
    44
1040
1.0
1070
    74
1070
     0
1000
MTEXTEND
  0
POINT
  5
1CD3
330
1C4D
100
AcDbEntity
  8
DEFPOINTS
 62
     0
100
AcDbPoint
 10
629.5041854048791
 20
1426.041501770308
 30
0.0
  0
POINT
  5
1CD4
330
1C4D
100
AcDbEntity
  8
DEFPOINTS
 62
     0
100
AcDbPoint
 10
756.3982436348792
 20
1453.541501770308
 30
0.0
  0
POINT
  5
1CD5
330
1C4D
100
AcDbEntity
  8
DEFPOINTS
 62
     0
100
AcDbPoint
 10
756.3982436348792
 20
1356.486109097178
 30
0.0
  0
ENDBLK
  5
1C58
330
1C4D
100
AcDbEntity
  8
0
100
AcDbBlockEnd
  0
BLOCK
  5
1D0C
330
1D0B
100
AcDbEntity
  8
0
100
AcDbBlockBegin
  2
BATU2
 70
     0
 10
0.0
 20
0.0
 30
0.0
  3
BATU2
  1

  0
LINE
  5
1D0D
330
1D0B
100
AcDbEntity
  8
ITTEN
100
AcDbLine
 10
1.0
 20
0.0
 30
0.0
 11
-1.0
 21
0.0
 31
0.0
  0
LINE
  5
1D0E
330
1D0B
100
AcDbEntity
  8
ITTEN
100
AcDbLine
 10
0.0
 20
1.0
 30
0.0
 11
0.0
 21
-1.0
 31
0.0
  0
ENDBLK
  5
1D0F
330
1D0B
100
AcDbEntity
  8
0
100
AcDbBlockEnd
  0
BLOCK
  5
1D11
330
1D10
100
AcDbEntity
  8
0
100
AcDbBlockBegin
  2
*D60
 70
     1
 10
0.0
 20
0.0
 30
0.0
  3
*D60
  1

  0
LINE
  5
1D12
330
1D10
100
AcDbEntity
  8
SUNPOU
 62
     0
370
    -2
100
AcDbLine
 10
505.58337316
 20
522.6788058054198
 30
0.0
 11
609.4691264790794
 21
522.6788058054198
 31
0.0
  0
LINE
  5
1D13
330
1D10
100
AcDbEntity
  8
SUNPOU
 62
     0
370
    -2
100
AcDbLine
 10
505.58337316
 20
170.6788058084209
 30
0.0
 11
609.4691264790794
 21
170.6788058084209
 31
0.0
  0
LINE
  5
1D14
330
1D10
100
AcDbEntity
  8
SUNPOU
 62
     0
370
    -2
100
AcDbLine
 10
604.4691264790794
 20
507.6788058054198
 30
0.0
 11
604.4691264790794
 21
185.6788058084209
 31
0.0
  0
INSERT
  5
1D15
330
1D10
100
AcDbEntity
  8
SUNPOU
 62
     0
370
    -2
100
AcDbBlockReference
  2
ARROW
 10
604.4691264790794
 20
522.6788058054198
 30
0.0
 41
15.0
 42
15.0
 43
15.0
 50
90.0
  0
INSERT
  5
1D16
330
1D10
100
AcDbEntity
  8
SUNPOU
 62
     0
370
    -2
100
AcDbBlockReference
  2
ARROW
 10
604.4691264790794
 20
170.6788058084209
 30
0.0
 41
15.0
 42
15.0
 43
15.0
 50
270.0
  0
MTEXT
  5
1D17
330
1D10
100
AcDbEntity
  8
SUNPOU
 62
     0
100
AcDbMText
 10
589.4691264790794
 20
348.8015258666387
 30
0.0
 40
15.0
 41
0.0
 71
     5
 72
     5
  1
\A1;352
 11
0.0
 21
1.0
 31
0.0
 73
     1
 44
1.0
1001
ACAD
1000
MTEXTBEGIN
1070
    73
1070
     1
1070
    44
1040
1.0
1070
    74
1070
     0
1000
MTEXTEND
  0
POINT
  5
1D18
330
1D10
100
AcDbEntity
  8
DEFPOINTS
 62
     0
100
AcDbPoint
 10
500.5833731600001
 20
522.6788058054198
 30
0.0
  0
POINT
  5
1D19
330
1D10
100
AcDbEntity
  8
DEFPOINTS
 62
     0
100
AcDbPoint
 10
500.5833731600001
 20
170.6788058084209
 30
0.0
  0
POINT
  5
1D1A
330
1D10
100
AcDbEntity
  8
DEFPOINTS
 62
     0
100
AcDbPoint
 10
604.4691264790794
 20
170.6788058084209
 30
0.0
  0
ENDBLK
  5
1D1B
330
1D10
100
AcDbEntity
  8
0
100
AcDbBlockEnd
  0
BLOCK
  5
1D1D
330
1D1C
100
AcDbEntity
  8
0
100
AcDbBlockBegin
  2
*D61
 70
     1
 10
0.0
 20
0.0
 30
0.0
  3
*D61
  1

  0
LINE
  5
1D1E
330
1D1C
100
AcDbEntity
  8
SUNPOU
 62
     0
370
    -2
100
AcDbLine
 10
505.58337316
 20
170.6788058084209
 30
0.0
 11
639.4691264790794
 21
170.6788058084209
 31
0.0
  0
LINE
  5
1D1F
330
1D1C
100
AcDbEntity
  8
SUNPOU
 62
     0
370
    -2
100
AcDbLine
 10
490.58337316
 20
549.6788058084209
 30
0.0
 11
639.4691264790794
 21
549.6788058084209
 31
0.0
  0
LINE
  5
1D20
330
1D1C
100
AcDbEntity
  8
SUNPOU
 62
     0
370
    -2
100
AcDbLine
 10
634.4691264790794
 20
185.6788058084209
 30
0.0
 11
634.4691264790794
 21
534.6788058084208
 31
0.0
  0
INSERT
  5
1D21
330
1D1C
100
AcDbEntity
  8
SUNPOU
 62
     0
370
    -2
100
AcDbBlockReference
  2
ARROW
 10
634.4691264790794
 20
170.6788058084209
 30
0.0
 41
15.0
 42
15.0
 43
15.0
 50
270.0
  0
INSERT
  5
1D22
330
1D1C
100
AcDbEntity
  8
SUNPOU
 62
     0
370
    -2
100
AcDbBlockReference
  2
ARROW
 10
634.4691264790794
 20
549.6788058084209
 30
0.0
 41
15.0
 42
15.0
 43
15.0
 50
90.0
  0
MTEXT
  5
1D23
330
1D1C
100
AcDbEntity
  8
SUNPOU
 62
     0
100
AcDbMText
 10
619.4691264790795
 20
360.1788058084208
 30
0.0
 40
15.0
 41
0.0
 71
     5
 72
     5
  1
\A1;379
 11
0.0
 21
1.0
 31
0.0
 73
     1
 44
1.0
1001
ACAD
1000
MTEXTBEGIN
1070
    73
1070
     1
1070
    44
1040
1.0
1070
    74
1070
     0
1000
MTEXTEND
  0
POINT
  5
1D24
330
1D1C
100
AcDbEntity
  8
DEFPOINTS
 62
     0
100
AcDbPoint
 10
500.5833731600001
 20
170.6788058084209
 30
0.0
  0
POINT
  5
1D25
330
1D1C
100
AcDbEntity
  8
DEFPOINTS
 62
     0
100
AcDbPoint
 10
485.58337316
 20
549.6788058084209
 30
0.0
  0
POINT
  5
1D26
330
1D1C
100
AcDbEntity
  8
DEFPOINTS
 62
     0
100
AcDbPoint
 10
634.4691264790794
 20
549.6788058084209
 30
0.0
  0
ENDBLK
  5
1D27
330
1D1C
100
AcDbEntity
  8
0
100
AcDbBlockEnd
  0
BLOCK
  5
1D29
330
1D28
100
AcDbEntity
  8
0
100
AcDbBlockBegin
  2
*D62
 70
     1
 10
0.0
 20
0.0
 30
0.0
  3
*D62
  1

  0
LINE
  5
1D2A
330
1D28
100
AcDbEntity
  8
SUNPOU
 62
     0
370
    -2
100
AcDbLine
 10
251.58337316
 20
173.678805808421
 30
0.0
 11
251.58337316
 21
87.09359353736454
 31
0.0
  0
LINE
  5
1D2B
330
1D28
100
AcDbEntity
  8
SUNPOU
 62
     0
370
    -2
100
AcDbLine
 10
505.58337316
 20
173.678805808421
 30
0.0
 11
505.58337316
 21
87.09359353736454
 31
0.0
  0
LINE
  5
1D2C
330
1D28
100
AcDbEntity
  8
SUNPOU
 62
     0
370
    -2
100
AcDbLine
 10
266.5833731600001
 20
92.09359353736454
 30
0.0
 11
490.58337316
 21
92.09359353736454
 31
0.0
  0
INSERT
  5
1D2D
330
1D28
100
AcDbEntity
  8
SUNPOU
 62
     0
370
    -2
100
AcDbBlockReference
  2
ARROW
 10
251.58337316
 20
92.09359353736454
 30
0.0
 41
15.0
 42
15.0
 43
15.0
 50
180.0
  0
INSERT
  5
1D2E
330
1D28
100
AcDbEntity
  8
SUNPOU
 62
     0
370
    -2
100
AcDbBlockReference
  2
ARROW
 10
505.58337316
 20
92.09359353736454
 30
0.0
 41
15.0
 42
15.0
 43
15.0
  0
MTEXT
  5
1D2F
330
1D28
100
AcDbEntity
  8
SUNPOU
 62
     0
100
AcDbMText
 10
383.6915349403125
 20
107.0935935373645
 30
0.0
 40
15.0
 41
0.0
 71
     5
 72
     5
  1
\A1;254
 73
     1
 44
1.0
1001
ACAD
1000
MTEXTBEGIN
1070
    73
1070
     1
1070
    44
1040
1.0
1070
    74
1070
     0
1000
MTEXTEND
  0
POINT
  5
1D30
330
1D28
100
AcDbEntity
  8
DEFPOINTS
 62
     0
100
AcDbPoint
 10
251.58337316
 20
178.6788058084209
 30
0.0
  0
POINT
  5
1D31
330
1D28
100
AcDbEntity
  8
DEFPOINTS
 62
     0
100
AcDbPoint
 10
505.58337316
 20
178.6788058084209
 30
0.0
  0
POINT
  5
1D32
330
1D28
100
AcDbEntity
  8
DEFPOINTS
 62
     0
100
AcDbPoint
 10
505.58337316
 20
92.09359353736454
 30
0.0
  0
ENDBLK
  5
1D33
330
1D28
100
AcDbEntity
  8
0
100
AcDbBlockEnd
  0
BLOCK
  5
1D35
330
1D34
100
AcDbEntity
  8
0
100
AcDbBlockBegin
  2
*D63
 70
     1
 10
0.0
 20
0.0
 30
0.0
  3
*D63
  1

  0
LINE
  5
1D36
330
1D34
100
AcDbEntity
  8
SUNPOU
 62
     0
370
    -2
100
AcDbLine
 10
806.6709498399847
 20
173.6788058084209
 30
0.0
 11
806.6709498399847
 21
80.0651895365304
 31
0.0
  0
LINE
  5
1D37
330
1D34
100
AcDbEntity
  8
SUNPOU
 62
     0
370
    -2
100
AcDbLine
 10
1120.670949839984
 20
173.678805808421
 30
0.0
 11
1120.670949839984
 21
80.0651895365304
 31
0.0
  0
LINE
  5
1D38
330
1D34
100
AcDbEntity
  8
SUNPOU
 62
     0
370
    -2
100
AcDbLine
 10
821.6709498399847
 20
85.0651895365304
 30
0.0
 11
1105.670949839985
 21
85.0651895365304
 31
0.0
  0
INSERT
  5
1D39
330
1D34
100
AcDbEntity
  8
SUNPOU
 62
     0
370
    -2
100
AcDbBlockReference
  2
ARROW
 10
806.6709498399847
 20
85.0651895365304
 30
0.0
 41
15.0
 42
15.0
 43
15.0
 50
180.0
  0
INSERT
  5
1D3A
330
1D34
100
AcDbEntity
  8
SUNPOU
 62
     0
370
    -2
100
AcDbBlockReference
  2
ARROW
 10
1120.670949839984
 20
85.0651895365304
 30
0.0
 41
15.0
 42
15.0
 43
15.0
  0
MTEXT
  5
1D3B
330
1D34
100
AcDbEntity
  8
SUNPOU
 62
     0
100
AcDbMText
 10
964.0752580166804
 20
100.0651895365304
 30
0.0
 40
15.0
 41
0.0
 71
     5
 72
     5
  1
\A1;314
 73
     1
 44
1.0
1001
ACAD
1000
MTEXTBEGIN
1070
    73
1070
     1
1070
    44
1040
1.0
1070
    74
1070
     0
1000
MTEXTEND
  0
POINT
  5
1D3C
330
1D34
100
AcDbEntity
  8
DEFPOINTS
 62
     0
100
AcDbPoint
 10
806.6709498399847
 20
178.6788058084209
 30
0.0
  0
POINT
  5
1D3D
330
1D34
100
AcDbEntity
  8
DEFPOINTS
 62
     0
100
AcDbPoint
 10
1120.670949839984
 20
178.6788058084209
 30
0.0
  0
POINT
  5
1D3E
330
1D34
100
AcDbEntity
  8
DEFPOINTS
 62
     0
100
AcDbPoint
 10
1120.670949839984
 20
85.0651895365304
 30
0.0
  0
ENDBLK
  5
1D3F
330
1D34
100
AcDbEntity
  8
0
100
AcDbBlockEnd
  0
BLOCK
  5
1D41
330
1D40
100
AcDbEntity
  8
0
100
AcDbBlockBegin
  2
*D64
 70
     1
 10
0.0
 20
0.0
 30
0.0
  3
*D64
  1

  0
LINE
  5
1D42
330
1D40
100
AcDbEntity
  8
SUNPOU
 62
     0
370
    -2
100
AcDbLine
 10
505.5833731600001
 20
954.7760054654199
 30
0.0
 11
505.5833731600001
 21
1020.147869749071
 31
0.0
  0
LINE
  5
1D43
330
1D40
100
AcDbEntity
  8
SUNPOU
 62
     0
370
    -2
100
AcDbLine
 10
465.5833731600001
 20
959.77600546542
 30
0.0
 11
465.5833731600001
 21
1020.147869749071
 31
0.0
  0
LINE
  5
1D44
330
1D40
100
AcDbEntity
  8
SUNPOU
 62
     0
370
    -2
100
AcDbLine
 10
505.5833731600001
 20
1015.147869749071
 30
0.0
 11
465.5833731600001
 21
1015.147869749071
 31
0.0
  0
LINE
  5
1D45
330
1D40
100
AcDbEntity
  8
SUNPOU
 62
     0
370
    -2
100
AcDbLine
 10
520.5833731600002
 20
1015.147869749071
 30
0.0
 11
535.5833731600001
 21
1015.147869749071
 31
0.0
  0
LINE
  5
1D46
330
1D40
100
AcDbEntity
  8
SUNPOU
 62
     0
370
    -2
100
AcDbLine
 10
450.5833731600001
 20
1015.147869749071
 30
0.0
 11
435.5833731600001
 21
1015.147869749071
 31
0.0
  0
INSERT
  5
1D47
330
1D40
100
AcDbEntity
  8
SUNPOU
 62
     0
370
    -2
100
AcDbBlockReference
  2
ARROW
 10
505.5833731600001
 20
1015.147869749071
 30
0.0
 41
15.0
 42
15.0
 43
15.0
 50
180.0
  0
INSERT
  5
1D48
330
1D40
100
AcDbEntity
  8
SUNPOU
 62
     0
370
    -2
100
AcDbBlockReference
  2
ARROW
 10
465.5833731600001
 20
1015.147869749071
 30
0.0
 41
15.0
 42
15.0
 43
15.0
  0
MTEXT
  5
1D49
330
1D40
100
AcDbEntity
  8
SUNPOU
 62
     0
100
AcDbMText
 10
485.5833731600001
 20
1030.147869749071
 30
0.0
 40
15.0
 41
0.0
 71
     5
 72
     5
  1
\A1;40
 73
     1
 44
1.0
1001
ACAD
1000
MTEXTBEGIN
1070
    73
1070
     1
1070
    44
1040
1.0
1070
    74
1070
     0
1000
MTEXTEND
  0
POINT
  5
1D4A
330
1D40
100
AcDbEntity
  8
DEFPOINTS
 62
     0
100
AcDbPoint
 10
505.5833731600001
 20
949.7760054654198
 30
0.0
  0
POINT
  5
1D4B
330
1D40
100
AcDbEntity
  8
DEFPOINTS
 62
     0
100
AcDbPoint
 10
465.5833731600001
 20
954.7760054654199
 30
0.0
  0
POINT
  5
1D4C
330
1D40
100
AcDbEntity
  8
DEFPOINTS
 62
     0
100
AcDbPoint
 10
465.5833731600001
 20
1015.147869749071
 30
0.0
  0
ENDBLK
  5
1D4D
330
1D40
100
AcDbEntity
  8
0
100
AcDbBlockEnd
  0
BLOCK
  5
1E84
330
1E7A
100
AcDbEntity
  8
0
100
AcDbBlockBegin
  2
*D66
 70
     1
 10
0.0
 20
0.0
 30
0.0
  3
*D66
  1

  0
LINE
  5
1F26
330
1E7A
100
AcDbEntity
  8
SUNPOU
 62
     0
370
    -2
100
AcDbLine
 10
82.66737254635655
 20
1116.05365446112
 30
0.0
 11
186.5531258654359
 21
1116.05365446112
 31
0.0
  0
LINE
  5
1F27
330
1E7A
100
AcDbEntity
  8
SUNPOU
 62
     0
370
    -2
100
AcDbLine
 10
82.66737254635655
 20
764.0536544641211
 30
0.0
 11
186.5531258654359
 21
764.0536544641211
 31
0.0
  0
LINE
  5
1F28
330
1E7A
100
AcDbEntity
  8
SUNPOU
 62
     0
370
    -2
100
AcDbLine
 10
181.5531258654359
 20
1103.55365446112
 30
0.0
 11
181.5531258654359
 21
776.5536544641211
 31
0.0
  0
INSERT
  5
1F29
330
1E7A
100
AcDbEntity
  8
SUNPOU
 62
     0
370
    -2
100
AcDbBlockReference
  2
ARROW
 10
181.5531258654359
 20
1116.05365446112
 30
0.0
 41
12.5
 42
12.5
 43
12.5
 50
90.0
  0
INSERT
  5
1F2A
330
1E7A
100
AcDbEntity
  8
SUNPOU
 62
     0
370
    -2
100
AcDbBlockReference
  2
ARROW
 10
181.5531258654359
 20
764.0536544641211
 30
0.0
 41
12.5
 42
12.5
 43
12.5
 50
270.0
  0
MTEXT
  5
1F2B
330
1E7A
100
AcDbEntity
  8
SUNPOU
 62
     0
100
AcDbMText
 10
169.0531258654359
 20
942.1763745223389
 30
0.0
 40
15.0
 41
0.0
 71
     5
 72
     5
  1
\A1;352
 11
0.0
 21
1.0
 31
0.0
 73
     1
 44
1.0
1001
ACAD
1000
MTEXTBEGIN
1070
    73
1070
     1
1070
    44
1040
1.0
1070
    74
1070
     0
1000
MTEXTEND
  0
POINT
  5
1F2C
330
1E7A
100
AcDbEntity
  8
DEFPOINTS
 62
     0
100
AcDbPoint
 10
77.66737254635654
 20
1116.05365446112
 30
0.0
  0
POINT
  5
1F2D
330
1E7A
100
AcDbEntity
  8
DEFPOINTS
 62
     0
100
AcDbPoint
 10
77.66737254635654
 20
764.0536544641211
 30
0.0
  0
POINT
  5
1F2E
330
1E7A
100
AcDbEntity
  8
DEFPOINTS
 62
     0
100
AcDbPoint
 10
181.5531258654359
 20
764.0536544641211
 30
0.0
  0
ENDBLK
  5
1E85
330
1E7A
100
AcDbEntity
  8
0
100
AcDbBlockEnd
  0
BLOCK
  5
1E90
330
1E86
100
AcDbEntity
  8
0
100
AcDbBlockBegin
  2
*D67
 70
     1
 10
0.0
 20
0.0
 30
0.0
  3
*D67
  1

  0
LINE
  5
1F2F
330
1E86
100
AcDbEntity
  8
SUNPOU
 62
     0
370
    -2
100
AcDbLine
 10
82.66737254635655
 20
764.0536544641211
 30
0.0
 11
216.5531258654359
 21
764.0536544641211
 31
0.0
  0
LINE
  5
1F30
330
1E86
100
AcDbEntity
  8
SUNPOU
 62
     0
370
    -2
100
AcDbLine
 10
67.66737254635654
 20
1143.053654464121
 30
0.0
 11
216.553125865436
 21
1143.053654464121
 31
0.0
  0
LINE
  5
1F31
330
1E86
100
AcDbEntity
  8
SUNPOU
 62
     0
370
    -2
100
AcDbLine
 10
211.5531258654359
 20
776.5536544641211
 30
0.0
 11
211.5531258654359
 21
1130.553654464121
 31
0.0
  0
INSERT
  5
1F32
330
1E86
100
AcDbEntity
  8
SUNPOU
 62
     0
370
    -2
100
AcDbBlockReference
  2
ARROW
 10
211.5531258654359
 20
764.0536544641211
 30
0.0
 41
12.5
 42
12.5
 43
12.5
 50
270.0
  0
INSERT
  5
1F33
330
1E86
100
AcDbEntity
  8
SUNPOU
 62
     0
370
    -2
100
AcDbBlockReference
  2
ARROW
 10
211.5531258654359
 20
1143.053654464121
 30
0.0
 41
12.5
 42
12.5
 43
12.5
 50
90.0
  0
MTEXT
  5
1F34
330
1E86
100
AcDbEntity
  8
SUNPOU
 62
     0
100
AcDbMText
 10
199.0531258654359
 20
953.553654464121
 30
0.0
 40
15.0
 41
0.0
 71
     5
 72
     5
  1
\A1;379
 11
0.0000000000000001
 21
1.0
 31
0.0
 73
     1
 44
1.0
1001
ACAD
1000
MTEXTBEGIN
1070
    73
1070
     1
1070
    44
1040
1.0
1070
    74
1070
     0
1000
MTEXTEND
  0
POINT
  5
1F35
330
1E86
100
AcDbEntity
  8
DEFPOINTS
 62
     0
100
AcDbPoint
 10
77.66737254635654
 20
764.0536544641211
 30
0.0
  0
POINT
  5
1F36
330
1E86
100
AcDbEntity
  8
DEFPOINTS
 62
     0
100
AcDbPoint
 10
62.66737254635654
 20
1143.053654464121
 30
0.0
  0
POINT
  5
1F37
330
1E86
100
AcDbEntity
  8
DEFPOINTS
 62
     0
100
AcDbPoint
 10
211.5531258654359
 20
1143.053654464121
 30
0.0
  0
ENDBLK
  5
1E91
330
1E86
100
AcDbEntity
  8
0
100
AcDbBlockEnd
  0
BLOCK
  5
1E9C
330
1E92
100
AcDbEntity
  8
0
100
AcDbBlockBegin
  2
*D68
 70
     1
 10
0.0
 20
0.0
 30
0.0
  3
*D68
  1

  0
LINE
  5
1F38
330
1E92
100
AcDbEntity
  8
SUNPOU
 62
     0
370
    -2
100
AcDbLine
 10
-171.3326274536434
 20
767.0536544641211
 30
0.0
 11
-171.3326274536434
 21
680.4684421930646
 31
0.0
  0
LINE
  5
1F39
330
1E92
100
AcDbEntity
  8
SUNPOU
 62
     0
370
    -2
100
AcDbLine
 10
82.66737254635655
 20
767.0536544641211
 30
0.0
 11
82.66737254635655
 21
680.4684421930646
 31
0.0
  0
LINE
  5
1F3A
330
1E92
100
AcDbEntity
  8
SUNPOU
 62
     0
370
    -2
100
AcDbLine
 10
-158.8326274536434
 20
685.4684421930646
 30
0.0
 11
70.16737254635654
 21
685.4684421930646
 31
0.0
  0
INSERT
  5
1F3B
330
1E92
100
AcDbEntity
  8
SUNPOU
 62
     0
370
    -2
100
AcDbBlockReference
  2
ARROW
 10
-171.3326274536434
 20
685.4684421930646
 30
0.0
 41
12.5
 42
12.5
 43
12.5
 50
180.0
  0
INSERT
  5
1F3C
330
1E92
100
AcDbEntity
  8
SUNPOU
 62
     0
370
    -2
100
AcDbBlockReference
  2
ARROW
 10
82.66737254635655
 20
685.4684421930646
 30
0.0
 41
12.5
 42
12.5
 43
12.5
  0
MTEXT
  5
1F3D
330
1E92
100
AcDbEntity
  8
SUNPOU
 62
     0
100
AcDbMText
 10
-39.224465673331
 20
697.9684421930646
 30
0.0
 40
15.0
 41
0.0
 71
     5
 72
     5
  1
\A1;254
 73
     1
 44
1.0
1001
ACAD
1000
MTEXTBEGIN
1070
    73
1070
     1
1070
    44
1040
1.0
1070
    74
1070
     0
1000
MTEXTEND
  0
POINT
  5
1F3E
330
1E92
100
AcDbEntity
  8
DEFPOINTS
 62
     0
100
AcDbPoint
 10
-171.3326274536434
 20
772.0536544641211
 30
0.0
  0
POINT
  5
1F3F
330
1E92
100
AcDbEntity
  8
DEFPOINTS
 62
     0
100
AcDbPoint
 10
82.66737254635655
 20
772.0536544641211
 30
0.0
  0
POINT
  5
1F40
330
1E92
100
AcDbEntity
  8
DEFPOINTS
 62
     0
100
AcDbPoint
 10
82.66737254635655
 20
685.4684421930646
 30
0.0
  0
ENDBLK
  5
1E9D
330
1E92
100
AcDbEntity
  8
0
100
AcDbBlockEnd
  0
BLOCK
  5
1EA8
330
1E9E
100
AcDbEntity
  8
0
100
AcDbBlockBegin
  2
*D69
 70
     1
 10
0.0
 20
0.0
 30
0.0
  3
*D69
  1

  0
LINE
  5
1F41
330
1E9E
100
AcDbEntity
  8
SUNPOU
 62
     0
370
    -2
100
AcDbLine
 10
383.7549492263411
 20
767.0536544641211
 30
0.0
 11
383.7549492263411
 21
673.4400381922305
 31
0.0
  0
LINE
  5
1F42
330
1E9E
100
AcDbEntity
  8
SUNPOU
 62
     0
370
    -2
100
AcDbLine
 10
697.7549492263412
 20
767.0536544641211
 30
0.0
 11
697.7549492263412
 21
673.4400381922305
 31
0.0
  0
LINE
  5
1F43
330
1E9E
100
AcDbEntity
  8
SUNPOU
 62
     0
370
    -2
100
AcDbLine
 10
396.2549492263411
 20
678.4400381922305
 30
0.0
 11
685.2549492263412
 21
678.4400381922305
 31
0.0
  0
INSERT
  5
1F44
330
1E9E
100
AcDbEntity
  8
SUNPOU
 62
     0
370
    -2
100
AcDbBlockReference
  2
ARROW
 10
383.7549492263411
 20
678.4400381922305
 30
0.0
 41
12.5
 42
12.5
 43
12.5
 50
180.0
  0
INSERT
  5
1F45
330
1E9E
100
AcDbEntity
  8
SUNPOU
 62
     0
370
    -2
100
AcDbBlockReference
  2
ARROW
 10
697.7549492263412
 20
678.4400381922305
 30
0.0
 41
12.5
 42
12.5
 43
12.5
  0
MTEXT
  5
1F46
330
1E9E
100
AcDbEntity
  8
SUNPOU
 62
     0
100
AcDbMText
 10
541.1592574030369
 20
690.9400381922305
 30
0.0
 40
15.0
 41
0.0
 71
     5
 72
     5
  1
\A1;314
 73
     1
 44
1.0
1001
ACAD
1000
MTEXTBEGIN
1070
    73
1070
     1
1070
    44
1040
1.0
1070
    74
1070
     0
1000
MTEXTEND
  0
POINT
  5
1F47
330
1E9E
100
AcDbEntity
  8
DEFPOINTS
 62
     0
100
AcDbPoint
 10
383.7549492263411
 20
772.0536544641211
 30
0.0
  0
POINT
  5
1F48
330
1E9E
100
AcDbEntity
  8
DEFPOINTS
 62
     0
100
AcDbPoint
 10
697.7549492263412
 20
772.0536544641211
 30
0.0
  0
POINT
  5
1F49
330
1E9E
100
AcDbEntity
  8
DEFPOINTS
 62
     0
100
AcDbPoint
 10
697.7549492263412
 20
678.4400381922305
 30
0.0
  0
ENDBLK
  5
1EA9
330
1E9E
100
AcDbEntity
  8
0
100
AcDbBlockEnd
  0
BLOCK
  5
1EB4
330
1EAA
100
AcDbEntity
  8
0
100
AcDbBlockBegin
  2
*D70
 70
     1
 10
0.0
 20
0.0
 30
0.0
  3
*D70
  1

  0
LINE
  5
1F4A
330
1EAA
100
AcDbEntity
  8
SUNPOU
 62
     0
370
    -2
100
AcDbLine
 10
82.66737254635655
 20
1548.15085412112
 30
0.0
 11
82.66737254635655
 21
1613.522718404771
 31
0.0
  0
LINE
  5
1F4B
330
1EAA
100
AcDbEntity
  8
SUNPOU
 62
     0
370
    -2
100
AcDbLine
 10
42.66737254635654
 20
1553.15085412112
 30
0.0
 11
42.66737254635654
 21
1613.522718404771
 31
0.0
  0
LINE
  5
1F4C
330
1EAA
100
AcDbEntity
  8
SUNPOU
 62
     0
370
    -2
100
AcDbLine
 10
70.16737254635654
 20
1608.522718404772
 30
0.0
 11
55.16737254635654
 21
1608.522718404772
 31
0.0
  0
INSERT
  5
1F4D
330
1EAA
100
AcDbEntity
  8
SUNPOU
 62
     0
370
    -2
100
AcDbBlockReference
  2
ARROW
 10
82.66737254635655
 20
1608.522718404772
 30
0.0
 41
12.5
 42
12.5
 43
12.5
  0
INSERT
  5
1F4E
330
1EAA
100
AcDbEntity
  8
SUNPOU
 62
     0
370
    -2
100
AcDbBlockReference
  2
ARROW
 10
42.66737254635654
 20
1608.522718404772
 30
0.0
 41
12.5
 42
12.5
 43
12.5
 50
180.0
  0
MTEXT
  5
1F4F
330
1EAA
100
AcDbEntity
  8
SUNPOU
 62
     0
100
AcDbMText
 10
62.66737254635654
 20
1621.022718404772
 30
0.0
 40
15.0
 41
0.0
 71
     5
 72
     5
  1
\A1;40
 73
     1
 44
1.0
1001
ACAD
1000
MTEXTBEGIN
1070
    73
1070
     1
1070
    44
1040
1.0
1070
    74
1070
     0
1000
MTEXTEND
  0
POINT
  5
1F50
330
1EAA
100
AcDbEntity
  8
DEFPOINTS
 62
     0
100
AcDbPoint
 10
82.66737254635655
 20
1543.15085412112
 30
0.0
  0
POINT
  5
1F51
330
1EAA
100
AcDbEntity
  8
DEFPOINTS
 62
     0
100
AcDbPoint
 10
42.66737254635654
 20
1548.15085412112
 30
0.0
  0
POINT
  5
1F52
330
1EAA
100
AcDbEntity
  8
DEFPOINTS
 62
     0
100
AcDbPoint
 10
42.66737254635654
 20
1608.522718404772
 30
0.0
  0
ENDBLK
  5
1EB5
330
1EAA
100
AcDbEntity
  8
0
100
AcDbBlockEnd
  0
ENDSEC
  0
SECTION
  2
ENTITIES
  0
INSERT
  5
D4E
330
18
100
AcDbEntity
  8
0
100
AcDbBlockReference
  2
_IMCADLT3
 10
0.0
 20
0.0
 30
0.0
  0
TEXT
  5
12FF
330
18
100
AcDbEntity
  8
TEXT
100
AcDbText
 10
1152.633410509058
 20
579.5696414146095
 30
0.0
 40
15.0
  1
キューブアイスクラッシャー
  7
K
100
AcDbText
  0
LINE
  5
1300
330
18
100
AcDbEntity
  8
WAKU
 62
     3
100
AcDbLine
 10
901.4580260188104
 20
617.3588150650857
 30
0.0
 11
1011.667631344336
 21
617.3588150650857
 31
0.0
  0
LINE
  5
1301
330
18
100
AcDbEntity
  8
WAKU
 62
     3
100
AcDbLine
 10
901.4580260188104
 20
586.7014038216047
 30
0.0
 11
1011.667631344336
 21
586.7014038216047
 31
0.0
  0
LINE
  5
1302
330
18
100
AcDbEntity
  8
WAKU
 62
     3
100
AcDbLine
 10
901.4580260188104
 20
556.0439925781241
 30
0.0
 11
1011.667631344336
 21
556.0439925781241
 31
0.0
  0
LINE
  5
1303
330
18
100
AcDbEntity
  8
WAKU
 62
     3
100
AcDbLine
 10
1477.053691422761
 20
611.498398858113
 30
0.0
 11
1542.410550272097
 21
611.498398858113
 31
0.0
  0
LINE
  5
1304
330
18
100
AcDbEntity
  8
WAKU
 62
     3
100
AcDbLine
 10
1477.053691422761
 20
571.4983988581129
 30
0.0
 11
1542.410550272097
 21
571.4983988581129
 31
0.0
  0
TEXT
  5
1305
330
18
100
AcDbEntity
  8
TEXT
100
AcDbText
 10
1441.187573422394
 20
526.8381291725163
 30
0.0
 40
15.0
  1
1/5
  7
K
100
AcDbText
  0
TEXT
  5
1306
330
18
100
AcDbEntity
  8
TEXT
100
AcDbText
 10
1343.31803702455
 20
476.8703078010275
 30
0.0
 40
15.0
  1
HS-17
  7
K
100
AcDbText
  0
LINE
  5
1307
330
18
100
AcDbEntity
  8
WAKU
 62
     3
100
AcDbLine
 10
-335.5450027782472
 20
1704.00373459817
 30
0.0
 11
1569.454997221753
 21
1704.00373459817
 31
0.0
  0
LINE
  5
1308
330
18
100
AcDbEntity
  8
WAKU
 62
     3
100
AcDbLine
 10
1569.454997221753
 20
389.00373459817
 30
0.0
 11
-335.5450027782472
 21
389.00373459817
 31
0.0
  0
LINE
  5
1309
330
18
100
AcDbEntity
  8
WAKU
 62
     3
100
AcDbLine
 10
-335.5450027782472
 20
389.00373459817
 30
0.0
 11
-335.5450027782472
 21
1704.00373459817
 31
0.0
  0
TEXT
  5
130A
330
18
100
AcDbEntity
  8
WAKU
 62
     3
100
AcDbText
 10
9.954997221752819
 20
396.50373459817
 30
0.0
 40
15.0
  1
 年 月 日
  7
K
 72
     4
 11
51.95499722175282
 21
404.00373459817
 31
0.0
100
AcDbText
  0
LINE
  5
130B
330
18
100
AcDbEntity
  8
WAKU
 62
     3
100
AcDbLine
 10
179.4549972217528
 20
419.00373459817
 30
0.0
 11
-285.5450027782472
 21
419.00373459817
 31
0.0
  0
LINE
  5
130C
330
18
100
AcDbEntity
  8
WAKU
 62
     3
100
AcDbLine
 10
-285.5450027782472
 20
449.00373459817
 30
0.0
 11
179.4549972217528
 21
449.00373459817
 31
0.0
  0
LINE
  5
130D
330
18
100
AcDbEntity
  8
WAKU
 62
     3
100
AcDbLine
 10
179.4549972217528
 20
479.00373459817
 30
0.0
 11
-285.5450027782472
 21
479.00373459817
 31
0.0
  0
LINE
  5
130E
330
18
100
AcDbEntity
  8
WAKU
 62
     3
100
AcDbLine
 10
-285.5450027782472
 20
419.00373459817
 30
0.0
 11
179.4549972217528
 21
419.00373459817
 31
0.0
  0
LINE
  5
130F
330
18
100
AcDbEntity
  8
WAKU
 62
     3
100
AcDbLine
 10
179.4549972217528
 20
449.00373459817
 30
0.0
 11
-285.5450027782472
 21
449.00373459817
 31
0.0
  0
LINE
  5
1310
330
18
100
AcDbEntity
  8
WAKU
 62
     3
100
AcDbLine
 10
-285.5450027782472
 20
479.00373459817
 30
0.0
 11
179.4549972217528
 21
479.00373459817
 31
0.0
  0
LINE
  5
1311
330
18
100
AcDbEntity
  8
WAKU
 62
     3
100
AcDbLine
 10
179.4549972217528
 20
509.0037345981699
 30
0.0
 11
-335.5450027782472
 21
509.0037345981699
 31
0.0
  0
TEXT
  5
1312
330
18
100
AcDbEntity
  8
WAKU
 62
     3
100
AcDbText
 10
-329.0450027782472
 20
396.50373459817
 30
0.0
 40
15.0
  1
記号
  7
K
 72
     4
 11
-313.0450027782472
 21
404.00373459817
 31
0.0
100
AcDbText
  0
LINE
  5
1313
330
18
100
AcDbEntity
  8
WAKU
 62
     3
100
AcDbLine
 10
-285.5450027782472
 20
389.00373459817
 30
0.0
 11
-285.5450027782472
 21
509.0037345981699
 31
0.0
  0
LINE
  5
1314
330
18
100
AcDbEntity
  8
WAKU
 62
     3
100
AcDbLine
 10
-290.5450027782472
 20
509.0037345981699
 30
0.0
 11
-290.5450027782472
 21
389.00373459817
 31
0.0
  0
LINE
  5
1315
330
18
100
AcDbEntity
  8
WAKU
 62
     3
100
AcDbLine
 10
-290.5450027782472
 20
389.00373459817
 30
0.0
 11
-290.5450027782472
 21
509.0037345981699
 31
0.0
  0
LINE
  5
1316
330
18
100
AcDbEntity
  8
WAKU
 62
     3
100
AcDbLine
 10
-285.5450027782472
 20
509.0037345981699
 30
0.0
 11
-285.5450027782472
 21
389.00373459817
 31
0.0
  0
LINE
  5
1317
330
18
100
AcDbEntity
  8
WAKU
 62
     3
100
AcDbLine
 10
-313.0450027782472
 20
479.00373459817
 30
0.0
 11
-335.5450027782472
 21
449.00373459817
 31
0.0
  0
LINE
  5
1318
330
18
100
AcDbEntity
  8
WAKU
 62
     3
100
AcDbLine
 10
-313.0450027782472
 20
479.00373459817
 30
0.0
 11
-290.5450027782472
 21
449.00373459817
 31
0.0
  0
LINE
  5
1319
330
18
100
AcDbEntity
  8
WAKU
 62
     3
100
AcDbLine
 10
-313.0450027782472
 20
449.00373459817
 30
0.0
 11
-335.5450027782472
 21
419.00373459817
 31
0.0
  0
LINE
  5
131A
330
18
100
AcDbEntity
  8
WAKU
 62
     3
100
AcDbLine
 10
-335.5450027782472
 20
449.00373459817
 30
0.0
 11
-290.5450027782472
 21
449.00373459817
 31
0.0
  0
LINE
  5
131B
330
18
100
AcDbEntity
  8
WAKU
 62
     3
100
AcDbLine
 10
-290.5450027782472
 20
419.00373459817
 30
0.0
 11
-335.5450027782472
 21
419.00373459817
 31
0.0
  0
LINE
  5
131C
330
18
100
AcDbEntity
  8
WAKU
 62
     3
100
AcDbLine
 10
-290.5450027782472
 20
419.00373459817
 30
0.0
 11
-335.5450027782472
 21
419.00373459817
 31
0.0
  0
LINE
  5
131D
330
18
100
AcDbEntity
  8
WAKU
 62
     3
100
AcDbLine
 10
-290.5450027782472
 20
449.00373459817
 30
0.0
 11
-335.5450027782472
 21
449.00373459817
 31
0.0
  0
LINE
  5
131E
330
18
100
AcDbEntity
  8
WAKU
 62
     3
100
AcDbLine
 10
-313.0450027782472
 20
449.00373459817
 30
0.0
 11
-290.5450027782472
 21
419.00373459817
 31
0.0
  0
LINE
  5
131F
330
18
100
AcDbEntity
  8
WAKU
 62
     3
100
AcDbLine
 10
-313.0450027782472
 20
509.0037345981699
 30
0.0
 11
-335.5450027782472
 21
479.00373459817
 31
0.0
  0
LINE
  5
1320
330
18
100
AcDbEntity
  8
WAKU
 62
     3
100
AcDbLine
 10
-290.5450027782472
 20
479.00373459817
 30
0.0
 11
-335.5450027782472
 21
479.00373459817
 31
0.0
  0
LINE
  5
1321
330
18
100
AcDbEntity
  8
WAKU
 62
     3
100
AcDbLine
 10
-290.5450027782472
 20
479.00373459817
 30
0.0
 11
-335.5450027782472
 21
479.00373459817
 31
0.0
  0
LINE
  5
1322
330
18
100
AcDbEntity
  8
WAKU
 62
     3
100
AcDbLine
 10
-290.5450027782472
 20
479.00373459817
 30
0.0
 11
-313.0450027782472
 21
509.0037345981699
 31
0.0
  0
TEXT
  5
1323
330
18
100
AcDbEntity
  8
WAKU
 62
     3
100
AcDbText
 10
-69.54500277824717
 20
396.50373459817
 30
0.0
 40
15.0
  1
設変番号
  7
K
 72
     4
 11
-35.54500277824718
 21
404.00373459817
 31
0.0
100
AcDbText
  0
TEXT
  5
1324
330
18
100
AcDbEntity
  8
WAKU
 62
     3
100
AcDbText
 10
-246.0450027782472
 20
396.50373459817
 30
0.0
 40
15.0
  1
変更内容・理由
  7
K
 72
     4
 11
-185.5450027782472
 21
404.00373459817
 31
0.0
100
AcDbText
  0
LINE
  5
1325
330
18
100
AcDbEntity
  8
WAKU
 62
     3
100
AcDbLine
 10
14.45499722175282
 20
389.00373459817
 30
0.0
 11
14.45499722175282
 21
509.0037345981699
 31
0.0
  0
LINE
  5
1326
330
18
100
AcDbEntity
  8
WAKU
 62
     3
100
AcDbLine
 10
-85.54500277824718
 20
509.0037345981699
 30
0.0
 11
-85.54500277824718
 21
389.00373459817
 31
0.0
  0
TEXT
  5
1328
330
18
100
AcDbEntity
  8
WAKU
 62
     3
100
AcDbText
 10
141.4549972217528
 20
396.50373459817
 30
0.0
 40
15.0
  1
検図
  7
K
 72
     4
 11
156.9549972217528
 21
404.00373459817
 31
0.0
100
AcDbText
  0
TEXT
  5
1329
330
18
100
AcDbEntity
  8
WAKU
 62
     3
100
AcDbText
 10
96.27642579318139
 20
396.50373459817
 30
0.0
 40
15.0
  1
担当
  7
K
 72
     4
 11
111.9549972217528
 21
404.00373459817
 31
0.0
100
AcDbText
  0
LINE
  5
132A
330
18
100
AcDbEntity
  8
WAKU
 62
     3
100
AcDbLine
 10
179.4549972217528
 20
509.0037345981699
 30
0.0
 11
179.4549972217528
 21
389.00373459817
 31
0.0
  0
LINE
  5
132B
330
18
100
AcDbEntity
  8
WAKU
 62
     3
100
AcDbLine
 10
134.4549972217528
 20
389.00373459817
 30
0.0
 11
134.4549972217528
 21
509.0037345981699
 31
0.0
  0
LINE
  5
132C
330
18
100
AcDbEntity
  8
WAKU
 62
     3
100
AcDbLine
 10
89.45499722175282
 20
509.0037345981699
 30
0.0
 11
89.45499722175282
 21
389.00373459817
 31
0.0
  0
LINE
  5
132D
330
18
100
AcDbEntity
  8
WAKU
 62
     3
100
AcDbLine
 10
1569.454997221753
 20
1704.00373459817
 30
0.0
 11
1569.454997221753
 21
389.00373459817
 31
0.0
  0
TEXT
  5
132E
330
18
100
AcDbEntity
  8
WAKU
 62
     3
100
AcDbText
 10
1294.991374594288
 20
529.00373459817
 30
0.0
 40
15.0
  1
三 角 法
  7
K
100
AcDbText
  0
LINE
  5
132F
330
18
100
AcDbEntity
  8
WAKU
 62
     3
100
AcDbLine
 10
1269.454997221753
 20
454.00373459817
 30
0.0
 11
1569.454997221753
 21
454.00373459817
 31
0.0
  0
LINE
  5
1330
330
18
100
AcDbEntity
  8
WAKU
 62
     3
100
AcDbLine
 10
1569.454997221753
 20
519.00373459817
 30
0.0
 11
1269.454997221753
 21
519.00373459817
 31
0.0
  0
LINE
  5
1331
330
18
100
AcDbEntity
  8
WAKU
 62
     3
100
AcDbLine
 10
1269.454997221753
 20
554.00373459817
 30
0.0
 11
1569.454997221753
 21
554.00373459817
 31
0.0
  0
TEXT
  5
1332
330
18
100
AcDbEntity
  8
WAKU
 62
     3
100
AcDbText
 10
1341.760588723865
 20
409.0037345981699
 30
0.0
 40
17.5
  1
中部コーポレーション
  7
K
100
AcDbText
  0
LINE
  5
1333
330
18
100
AcDbEntity
  8
WAKU
 62
     3
100
AcDbLine
 10
1084.454997221753
 20
634.0037345981699
 30
0.0
 11
1394.454997221753
 21
634.0037345981699
 31
0.0
  0
LINE
  5
1334
330
18
100
AcDbEntity
  8
WAKU
 62
     3
100
AcDbLine
 10
1084.454997221753
 20
634.0037345981699
 30
0.0
 11
704.4549972217528
 21
634.0037345981699
 31
0.0
  0
TEXT
  5
1335
330
18
100
AcDbEntity
  8
WAKU
 62
     3
100
AcDbText
 10
1021.954997221753
 20
509.850946134188
 30
0.0
 40
10.0
  1
0.1
 41
0.8
  7
K
 11
1021.954997221753
 21
514.850946134188
 31
0.0
100
AcDbText
 73
     2
  0
TEXT
  5
1336
330
18
100
AcDbEntity
  8
WAKU
 62
     3
100
AcDbText
 10
1021.954997221753
 20
490.4898366671083
 30
0.0
 40
10.0
  1
0.1
 41
0.8
  7
K
 11
1021.954997221753
 21
495.4898366671083
 31
0.0
100
AcDbText
 73
     2
  0
TEXT
  5
1337
330
18
100
AcDbEntity
  8
WAKU
 62
     3
100
AcDbText
 10
1021.954997221753
 20
471.1287272000286
 30
0.0
 40
10.0
  1
0.2
 41
0.8
  7
K
 11
1021.954997221753
 21
476.1287272000286
 31
0.0
100
AcDbText
 73
     2
  0
TEXT
  5
1338
330
18
100
AcDbEntity
  8
WAKU
 62
     3
100
AcDbText
 10
1021.954997221753
 20
451.7676177329489
 30
0.0
 40
10.0
  1
0.3
 41
0.8
  7
K
 11
1021.954997221753
 21
456.7676177329489
 31
0.0
100
AcDbText
 73
     2
  0
TEXT
  5
1339
330
18
100
AcDbEntity
  8
WAKU
 62
     3
100
AcDbText
 10
1021.954997221753
 20
432.4065082658692
 30
0.0
 40
10.0
  1
0.5
 41
0.8
  7
K
 11
1021.954997221753
 21
437.4065082658693
 31
0.0
100
AcDbText
 73
     2
  0
TEXT
  5
133A
330
18
100
AcDbEntity
  8
WAKU
 62
     3
100
AcDbText
 10
1021.954997221753
 20
413.0453987987896
 30
0.0
 40
10.0
  1
0.8
 41
0.8
  7
K
 11
1021.954997221753
 21
418.0453987987895
 31
0.0
100
AcDbText
 73
     2
  0
TEXT
  5
133B
330
18
100
AcDbEntity
  8
WAKU
 62
     3
100
AcDbText
 10
1024.883568650324
 20
526.5315008677279
 30
0.0
 40
13.5
  1
K
  7
K
 72
     1
 11
1031.954997221752
 21
533.2815008677279
 31
0.0
100
AcDbText
 73
     2
  0
TEXT
  5
133C
330
18
100
AcDbEntity
  8
WAKU
 62
     3
100
AcDbText
 10
1021.954997221753
 20
393.6842893317099
 30
0.0
 40
10.0
  1
1.2
 41
0.8
  7
K
 11
1021.954997221753
 21
398.6842893317099
 31
0.0
100
AcDbText
 73
     2
  0
LINE
  5
133D
330
18
100
AcDbEntity
  8
WAKU
 62
     3
100
AcDbLine
 10
874.4549972217528
 20
524.5315008677279
 30
0.0
 11
1084.454997221753
 21
524.5315008677279
 31
0.0
  0
LINE
  5
133E
330
18
100
AcDbEntity
  8
WAKU
 62
     3
100
AcDbLine
 10
874.4549972217528
 20
505.1703914006481
 30
0.0
 11
1084.454997221753
 21
505.1703914006481
 31
0.0
  0
LINE
  5
133F
330
18
100
AcDbEntity
  8
WAKU
 62
     3
100
AcDbLine
 10
1084.454997221753
 20
485.8092819335685
 30
0.0
 11
874.4549972217528
 21
485.8092819335685
 31
0.0
  0
LINE
  5
1340
330
18
100
AcDbEntity
  8
WAKU
 62
     3
100
AcDbLine
 10
874.4549972217528
 20
466.4481724664888
 30
0.0
 11
1084.454997221753
 21
466.4481724664888
 31
0.0
  0
LINE
  5
1341
330
18
100
AcDbEntity
  8
WAKU
 62
     3
100
AcDbLine
 10
1084.454997221753
 20
447.0870629994091
 30
0.0
 11
874.4549972217528
 21
447.0870629994091
 31
0.0
  0
LINE
  5
1342
330
18
100
AcDbEntity
  8
WAKU
 62
     3
100
AcDbLine
 10
874.4549972217528
 20
427.7259535323294
 30
0.0
 11
1084.454997221753
 21
427.7259535323294
 31
0.0
  0
LINE
  5
1343
330
18
100
AcDbEntity
  8
WAKU
 62
     3
100
AcDbLine
 10
1084.454997221753
 20
408.3648440652496
 30
0.0
 11
874.4549972217528
 21
408.3648440652496
 31
0.0
  0
LINE
  5
1344
330
18
100
AcDbEntity
  8
WAKU
 62
     3
100
AcDbLine
 10
1084.454997221753
 20
542.0315008677278
 30
0.0
 11
704.4549972217528
 21
542.0315008677278
 31
0.0
  0
LINE
  5
1345
330
18
100
AcDbEntity
  8
WAKU
 62
     3
100
AcDbLine
 10
704.4549972217528
 20
603.3463233546894
 30
0.0
 11
1084.454997221753
 21
603.3463233546894
 31
0.0
  0
LINE
  5
1346
330
18
100
AcDbEntity
  8
WAKU
 62
     3
100
AcDbLine
 10
1084.454997221753
 20
572.6889121112084
 30
0.0
 11
704.4549972217528
 21
572.6889121112084
 31
0.0
  0
LINE
  5
1347
330
18
100
AcDbEntity
  8
WAKU
 62
     3
100
AcDbLine
 10
1014.454997221753
 20
389.00373459817
 30
0.0
 11
1014.454997221753
 21
542.0315008677278
 31
0.0
  0
LINE
  5
1348
330
18
100
AcDbEntity
  8
WAKU
 62
     3
100
AcDbLine
 10
839.4549972217529
 20
512.75373459817
 30
0.0
 11
839.4549972217529
 21
389.00373459817
 31
0.0
  0
LINE
  5
1349
330
18
100
AcDbEntity
  8
WAKU
 62
     3
100
AcDbLine
 10
874.4549972217528
 20
542.0315008677278
 30
0.0
 11
874.4549972217528
 21
389.00373459817
 31
0.0
  0
LINE
  5
134A
330
18
100
AcDbEntity
  8
WAKU
 62
     3
100
AcDbLine
 10
979.4549972217527
 20
542.0315008677278
 30
0.0
 11
979.4549972217527
 21
389.00373459817
 31
0.0
  0
TEXT
  5
134B
330
18
100
AcDbEntity
  8
WAKU
 62
     3
100
AcDbText
 10
711.9549972217527
 20
393.4407508718668
 30
0.0
 40
10.0
  1
～
  7
K
 11
711.9549972217527
 21
398.4407508718668
 31
0.0
100
AcDbText
 73
     2
  0
TEXT
  5
134C
330
18
100
AcDbEntity
  8
WAKU
 62
     3
100
AcDbText
 10
927.2486155745786
 20
393.6842893317099
 30
0.0
 40
10.0
  1
2000以下
 41
0.8
  7
K
 72
     2
 11
974.7914727174357
 21
398.6842893317099
 31
0.0
100
AcDbText
 73
     2
  0
TEXT
  5
134D
330
18
100
AcDbEntity
  8
WAKU
 62
     3
100
AcDbText
 10
878.3353199433797
 20
393.6842893317099
 30
0.0
 40
10.0
  1
1000ｦｺｴ
 41
0.8
  7
K
 72
     2
 11
921.6115104195701
 21
398.6842893317099
 31
0.0
100
AcDbText
 73
     2
  0
TEXT
  5
134E
330
18
100
AcDbEntity
  8
WAKU
 62
     3
100
AcDbText
 10
986.9549972217528
 20
393.6842893317099
 30
0.0
 40
10.0
  1
0.5
 41
0.8
  7
K
 11
986.9549972217528
 21
398.6842893317099
 31
0.0
100
AcDbText
 73
     2
  0
TEXT
  5
134F
330
18
100
AcDbEntity
  8
WAKU
 62
     3
100
AcDbText
 10
846.2407115074672
 20
410.2210303092228
 30
0.0
 40
7.5
  1
mm
  7
K
 72
     1
 11
856.9549972217528
 21
410.2210303092228
 31
0.0
100
AcDbText
  0
TEXT
  5
1350
330
18
100
AcDbEntity
  8
WAKU
 62
     3
100
AcDbText
 10
711.9549972217527
 20
519.7250287583263
 30
0.0
 40
15.0
  1
標準加工アラサ
  7
K
 72
     4
 11
771.9549972217528
 21
527.2250287583262
 31
0.0
100
AcDbText
  0
LINE
  5
1351
330
18
100
AcDbEntity
  8
WAKU
 62
     3
100
AcDbLine
 10
839.4549972217529
 20
634.0037345981699
 30
0.0
 11
839.4549972217529
 21
512.75373459817
 31
0.0
  0
LINE
  5
1352
330
18
100
AcDbEntity
  8
WAKU
 62
     3
100
AcDbLine
 10
704.4549972217528
 20
512.4185566489246
 30
0.0
 11
839.4549972217529
 21
512.4185566489246
 31
0.0
  0
LINE
  5
1353
330
18
100
AcDbEntity
  8
WAKU
 62
     3
100
AcDbLine
 10
704.4549972217528
 20
483.3738973351371
 30
0.0
 11
839.4549972217529
 21
483.3738973351371
 31
0.0
  0
TEXT
  5
1354
330
18
100
AcDbEntity
  8
WAKU
 62
     3
100
AcDbText
 10
713.5549972217528
 20
491.6352445380821
 30
0.0
 40
15.0
  1
(標準外ﾊ指定ﾉｺﾄ)
 41
0.8
  7
K
 72
     4
 11
771.9549972217528
 21
498.0638159666535
 31
0.0
100
AcDbText
  0
TEXT
  5
1355
330
18
100
AcDbEntity
  8
WAKU
 62
     3
100
AcDbText
 10
711.9549972217527
 20
450.0628485140471
 30
0.0
 40
10.0
  1
▽▽▽
  7
K
 11
711.9549972217527
 21
455.0628485140471
 31
0.0
100
AcDbText
 73
     2
  0
TEXT
  5
1356
330
18
100
AcDbEntity
  8
WAKU
 62
     3
100
AcDbText
 10
711.9549972217527
 20
431.1888159666535
 30
0.0
 40
10.0
  1
▽▽
  7
K
 11
711.9549972217527
 21
436.1888159666535
 31
0.0
100
AcDbText
 73
     2
  0
TEXT
  5
1357
330
18
100
AcDbEntity
  8
WAKU
 62
     3
100
AcDbText
 10
711.9549972217527
 20
412.31478341926
 30
0.0
 40
10.0
  1
▽
  7
K
 11
711.9549972217527
 21
417.31478341926
 31
0.0
100
AcDbText
 73
     2
  0
TEXT
  5
1358
330
18
100
AcDbEntity
  8
WAKU
 62
     3
100
AcDbText
 10
711.9549972217527
 20
468.9368810614404
 30
0.0
 40
10.0
  1
▽▽▽▽
  7
K
 11
711.9549972217527
 21
473.9368810614403
 31
0.0
100
AcDbText
 73
     2
  0
TEXT
  5
1359
330
18
100
AcDbEntity
  8
WAKU
 62
     3
100
AcDbText
 10
850.6549972217529
 20
453.5474196384138
 30
0.0
 40
13.5
  1
法
  7
K
 72
     1
 11
856.9549972217528
 21
453.5474196384138
 31
0.0
100
AcDbText
  0
TEXT
  5
135A
330
18
100
AcDbEntity
  8
WAKU
 62
     3
100
AcDbText
 10
795.2883305550861
 20
412.31478341926
 30
0.0
 40
10.0
  1
100Z
  7
K
 72
     2
 11
831.9549972217528
 21
417.31478341926
 31
0.0
100
AcDbText
 73
     2
  0
TEXT
  5
135B
330
18
100
AcDbEntity
  8
WAKU
 62
     3
100
AcDbText
 10
804.8121400788957
 20
431.1888159666535
 30
0.0
 40
10.0
  1
25Z
  7
K
 72
     2
 11
831.9549972217528
 21
436.1888159666535
 31
0.0
100
AcDbText
 73
     2
  0
TEXT
  5
135C
330
18
100
AcDbEntity
  8
WAKU
 62
     3
100
AcDbText
 10
800.0502353169908
 20
450.0628485140471
 30
0.0
 40
10.0
  1
6.3Z
  7
K
 72
     2
 11
831.9549972217528
 21
455.0628485140471
 31
0.0
100
AcDbText
 73
     2
  0
TEXT
  5
135D
330
18
100
AcDbEntity
  8
WAKU
 62
     3
100
AcDbText
 10
839.2169019836575
 20
414.813254928017
 30
0.0
 40
10.0
  1
(
  7
K
 72
     2
 11
844.4549972217528
 21
419.8132549280169
 31
0.0
100
AcDbText
 73
     2
  0
TEXT
  5
135E
330
18
100
AcDbEntity
  8
WAKU
 62
     3
100
AcDbText
 10
850.7645210312766
 20
419.8132549280169
 30
0.0
 40
10.0
  1
±
  7
K
 72
     1
 11
856.9549972217528
 21
419.8132549280169
 31
0.0
100
AcDbText
  0
TEXT
  5
135F
330
18
100
AcDbEntity
  8
WAKU
 62
     3
100
AcDbText
 10
850.6549972217529
 20
438.0474196384137
 30
0.0
 40
13.5
  1
差
  7
K
 72
     1
 11
856.9549972217528
 21
438.0474196384137
 31
0.0
100
AcDbText
  0
TEXT
  5
1360
330
18
100
AcDbEntity
  8
WAKU
 62
     3
100
AcDbText
 10
800.0502353169908
 20
468.9368810614404
 30
0.0
 40
10.0
  1
0.8Z
  7
K
 72
     2
 11
831.9549972217528
 21
473.9368810614403
 31
0.0
100
AcDbText
 73
     2
  0
TEXT
  5
1361
330
18
100
AcDbEntity
  8
WAKU
 62
     3
100
AcDbText
 10
850.6549972217529
 20
484.5474196384138
 30
0.0
 40
13.5
  1
通
  7
K
 72
     1
 11
856.9549972217528
 21
484.5474196384138
 31
0.0
100
AcDbText
  0
TEXT
  5
1362
330
18
100
AcDbEntity
  8
WAKU
 62
     3
100
AcDbText
 10
850.6549972217529
 20
469.0474196384137
 30
0.0
 40
13.5
  1
寸
  7
K
 72
     1
 11
856.9549972217528
 21
469.0474196384137
 31
0.0
100
AcDbText
  0
TEXT
  5
1363
330
18
100
AcDbEntity
  8
WAKU
 62
     3
100
AcDbText
 10
850.6549972217529
 20
500.0474196384137
 30
0.0
 40
13.5
  1
普
  7
K
 72
     1
 11
856.9549972217528
 21
500.0474196384137
 31
0.0
100
AcDbText
  0
TEXT
  5
1364
330
18
100
AcDbEntity
  8
WAKU
 62
     3
100
AcDbText
 10
719.7839295248987
 20
611.1750289764297
 30
0.0
 40
15.0
  1
表面処理
  7
K
 11
719.7839295248987
 21
618.6750289764297
 31
0.0
100
AcDbText
 73
     2
  0
TEXT
  5
1365
330
18
100
AcDbEntity
  8
WAKU
 62
     3
100
AcDbText
 10
719.7839295248987
 20
549.8602064894681
 30
0.0
 40
15.0
  1
適用規格など
  7
K
 11
719.7839295248987
 21
557.3602064894681
 31
0.0
100
AcDbText
 73
     2
  0
TEXT
  5
1366
330
18
100
AcDbEntity
  8
WAKU
 62
     3
100
AcDbText
 10
719.7839295248987
 20
580.517617732949
 30
0.0
 40
15.0
  1
色調
  7
K
 11
719.7839295248987
 21
588.017617732949
 31
0.0
100
AcDbText
 73
     2
  0
TEXT
  5
1367
330
18
100
AcDbEntity
  8
WAKU
 62
     3
100
AcDbText
 10
942.4867108126738
 20
471.1287272000286
 30
0.0
 40
10.0
  1
30以下
 41
0.8
  7
K
 72
     2
 11
974.7914727174357
 21
476.1287272000286
 31
0.0
100
AcDbText
 73
     2
  0
TEXT
  5
1368
330
18
100
AcDbEntity
  8
WAKU
 62
     3
100
AcDbText
 10
934.8676631936262
 20
451.7676177329489
 30
0.0
 40
10.0
  1
120以下
 41
0.8
  7
K
 72
     2
 11
974.7914727174357
 21
456.7676177329489
 31
0.0
100
AcDbText
 73
     2
  0
TEXT
  5
1369
330
18
100
AcDbEntity
  8
WAKU
 62
     3
100
AcDbText
 10
927.2486155745786
 20
413.0453987987896
 30
0.0
 40
10.0
  1
1000以下
 41
0.8
  7
K
 72
     2
 11
974.7914727174357
 21
418.0453987987895
 31
0.0
100
AcDbText
 73
     2
  0
TEXT
  5
136A
330
18
100
AcDbEntity
  8
WAKU
 62
     3
100
AcDbText
 10
934.8676631936262
 20
432.4065082658692
 30
0.0
 40
10.0
  1
315以下
 41
0.8
  7
K
 72
     2
 11
974.7914727174357
 21
437.4065082658693
 31
0.0
100
AcDbText
 73
     2
  0
TEXT
  5
136B
330
18
100
AcDbEntity
  8
WAKU
 62
     3
100
AcDbText
 10
885.9543675624273
 20
413.0453987987896
 30
0.0
 40
10.0
  1
315ｦｺｴ
 41
0.8
  7
K
 72
     2
 11
921.6115104195701
 21
418.0453987987895
 31
0.0
100
AcDbText
 73
     2
  0
TEXT
  5
136C
330
18
100
AcDbEntity
  8
WAKU
 62
     3
100
AcDbText
 10
885.9543675624273
 20
432.4065082658692
 30
0.0
 40
10.0
  1
120ｦｺｴ
 41
0.8
  7
K
 72
     2
 11
921.6115104195701
 21
437.4065082658693
 31
0.0
100
AcDbText
 73
     2
  0
TEXT
  5
136D
330
18
100
AcDbEntity
  8
WAKU
 62
     3
100
AcDbText
 10
893.5734151814749
 20
451.7676177329489
 30
0.0
 40
10.0
  1
30ｦｺｴ
 41
0.8
  7
K
 72
     2
 11
921.6115104195701
 21
456.7676177329489
 31
0.0
100
AcDbText
 73
     2
  0
TEXT
  5
136E
330
18
100
AcDbEntity
  8
WAKU
 62
     3
100
AcDbText
 10
867.5726404792403
 20
414.813254928017
 30
0.0
 40
10.0
  1
)
  7
K
 11
867.5726404792403
 21
419.8132549280169
 31
0.0
100
AcDbText
 73
     2
  0
TEXT
  5
136F
330
18
100
AcDbEntity
  8
WAKU
 62
     3
100
AcDbText
 10
901.1924628005225
 20
471.1287272000286
 30
0.0
 40
10.0
  1
6ｦｺｴ
 41
0.8
  7
K
 72
     2
 11
921.6115104195701
 21
476.1287272000286
 31
0.0
100
AcDbText
 73
     2
  0
TEXT
  5
1370
330
18
100
AcDbEntity
  8
WAKU
 62
     3
100
AcDbText
 10
901.1924628005225
 20
490.4898366671083
 30
0.0
 40
10.0
  1
3ｦｺｴ
 41
0.8
  7
K
 72
     2
 11
921.6115104195701
 21
495.4898366671083
 31
0.0
100
AcDbText
 73
     2
  0
TEXT
  5
1371
330
18
100
AcDbEntity
  8
WAKU
 62
     3
100
AcDbText
 10
885.4972247052844
 20
509.850946134188
 30
0.0
 40
10.0
  1
0.5以上
 41
0.8
  7
K
 72
     2
 11
921.6115104195701
 21
514.850946134188
 31
0.0
100
AcDbText
 73
     2
  0
TEXT
  5
1372
330
18
100
AcDbEntity
  8
WAKU
 62
     3
100
AcDbText
 10
986.9549972217528
 20
432.4065082658692
 30
0.0
 40
10.0
  1
0.2
 41
0.8
  7
K
 11
986.9549972217528
 21
437.4065082658693
 31
0.0
100
AcDbText
 73
     2
  0
TEXT
  5
1373
330
18
100
AcDbEntity
  8
WAKU
 62
     3
100
AcDbText
 10
986.9549972217528
 20
413.0453987987896
 30
0.0
 40
10.0
  1
0.3
 41
0.8
  7
K
 11
986.9549972217528
 21
418.0453987987895
 31
0.0
100
AcDbText
 73
     2
  0
TEXT
  5
1374
330
18
100
AcDbEntity
  8
WAKU
 62
     3
100
AcDbText
 10
986.9549972217528
 20
451.7676177329489
 30
0.0
 40
10.0
  1
0.15
 41
0.8
  7
K
 11
986.9549972217528
 21
456.7676177329489
 31
0.0
100
AcDbText
 73
     2
  0
TEXT
  5
1375
330
18
100
AcDbEntity
  8
WAKU
 62
     3
100
AcDbText
 10
950.1057584317214
 20
490.4898366671083
 30
0.0
 40
10.0
  1
6以下
 41
0.8
  7
K
 72
     2
 11
974.7914727174357
 21
495.4898366671083
 31
0.0
100
AcDbText
 73
     2
  0
TEXT
  5
1376
330
18
100
AcDbEntity
  8
WAKU
 62
     3
100
AcDbText
 10
950.1057584317214
 20
509.850946134188
 30
0.0
 40
10.0
  1
3以下
 41
0.8
  7
K
 72
     2
 11
974.7914727174357
 21
514.850946134188
 31
0.0
100
AcDbText
 73
     2
  0
TEXT
  5
1377
330
18
100
AcDbEntity
  8
WAKU
 62
     3
100
AcDbText
 10
986.9549972217528
 20
490.4898366671083
 30
0.0
 40
10.0
  1
0.05
 41
0.8
  7
K
 11
986.9549972217528
 21
495.4898366671083
 31
0.0
100
AcDbText
 73
     2
  0
TEXT
  5
1378
330
18
100
AcDbEntity
  8
WAKU
 62
     3
100
AcDbText
 10
986.9549972217528
 20
471.1287272000286
 30
0.0
 40
10.0
  1
0.1
 41
0.8
  7
K
 11
986.9549972217528
 21
476.1287272000286
 31
0.0
100
AcDbText
 73
     2
  0
TEXT
  5
1379
330
18
100
AcDbEntity
  8
WAKU
 62
     3
100
AcDbText
 10
986.9549972217528
 20
509.850946134188
 30
0.0
 40
10.0
  1
0.05
 41
0.8
  7
K
 11
986.9549972217528
 21
514.850946134188
 31
0.0
100
AcDbText
 73
     2
  0
TEXT
  5
137A
330
18
100
AcDbEntity
  8
WAKU
 62
     3
100
AcDbText
 10
884.2049972217528
 20
526.5315008677279
 30
0.0
 40
13.5
  1
呼 ビ 寸 法
  7
K
 72
     1
 11
926.9549972217529
 21
533.2815008677279
 31
0.0
100
AcDbText
 73
     2
  0
TEXT
  5
137B
330
18
100
AcDbEntity
  8
WAKU
 62
     3
100
AcDbText
 10
992.4549972217528
 20
526.5315008677279
 30
0.0
 40
13.5
  1
J
  7
K
 72
     1
 11
996.9549972217528
 21
533.2815008677279
 31
0.0
100
AcDbText
 73
     2
  0
TEXT
  5
137C
330
18
100
AcDbEntity
  8
WAKU
 62
     3
100
AcDbText
 10
1089.454997221753
 20
399.00373459817
 30
0.0
 40
15.0
  1
承認
  7
K
100
AcDbText
  0
LINE
  5
137D
330
18
100
AcDbEntity
  8
WAKU
 62
     3
100
AcDbLine
 10
1269.454997221753
 20
389.00373459817
 30
0.0
 11
1269.454997221753
 21
454.00373459817
 31
0.0
  0
LINE
  5
137E
330
18
100
AcDbEntity
  8
WAKU
 62
     3
100
AcDbLine
 10
1189.454997221753
 20
554.00373459817
 30
0.0
 11
1189.454997221753
 21
389.00373459817
 31
0.0
  0
LINE
  5
137F
330
18
100
AcDbEntity
  8
WAKU
 62
     3
100
AcDbLine
 10
1084.454997221753
 20
389.00373459817
 30
0.0
 11
1084.454997221753
 21
554.00373459817
 31
0.0
  0
LINE
  5
1380
330
18
100
AcDbEntity
  8
WAKU
 62
     3
100
AcDbLine
 10
1129.454997221753
 20
554.00373459817
 30
0.0
 11
1129.454997221753
 21
389.00373459817
 31
0.0
  0
LINE
  5
1381
330
18
100
AcDbEntity
  8
WAKU
 62
     3
100
AcDbLine
 10
1049.454997221753
 20
542.0315008677278
 30
0.0
 11
1049.454997221753
 21
389.00373459817
 31
0.0
  0
TEXT
  5
1382
330
18
100
AcDbEntity
  8
WAKU
 62
     3
100
AcDbText
 10
1056.954997221753
 20
393.6842893317099
 30
0.0
 40
10.0
  1
3
 41
0.8
  7
K
 11
1056.954997221753
 21
398.6842893317099
 31
0.0
100
AcDbText
 73
     2
  0
LINE
  5
1383
330
18
100
AcDbEntity
  8
WAKU
 62
     3
100
AcDbLine
 10
1084.454997221753
 20
554.00373459817
 30
0.0
 11
1269.454997221753
 21
554.00373459817
 31
0.0
  0
LINE
  5
1384
330
18
100
AcDbEntity
  8
WAKU
 62
     3
100
AcDbLine
 10
1084.454997221753
 20
471.5037345981699
 30
0.0
 11
1269.454997221753
 21
471.5037345981699
 31
0.0
  0
LINE
  5
1385
330
18
100
AcDbEntity
  8
WAKU
 62
     3
100
AcDbLine
 10
1269.454997221753
 20
430.25373459817
 30
0.0
 11
1084.454997221753
 21
430.25373459817
 31
0.0
  0
LINE
  5
1386
330
18
100
AcDbEntity
  8
WAKU
 62
     3
100
AcDbLine
 10
1269.454997221753
 20
512.75373459817
 30
0.0
 11
1084.454997221753
 21
512.75373459817
 31
0.0
  0
TEXT
  5
1387
330
18
100
AcDbEntity
  8
WAKU
 62
     3
100
AcDbText
 10
1089.454997221753
 20
440.2537345981699
 30
0.0
 40
15.0
  1
検図
  7
K
100
AcDbText
  0
TEXT
  5
1388
330
18
100
AcDbEntity
  8
WAKU
 62
     3
100
AcDbText
 10
1089.454997221753
 20
481.50373459817
 30
0.0
 40
15.0
  1
製図
  7
K
100
AcDbText
  0
TEXT
  5
1389
330
18
100
AcDbEntity
  8
WAKU
 62
     3
100
AcDbText
 10
1056.954997221753
 20
432.4065082658692
 30
0.0
 40
10.0
  1
1.2
 41
0.8
  7
K
 11
1056.954997221753
 21
437.4065082658693
 31
0.0
100
AcDbText
 73
     2
  0
TEXT
  5
138A
330
18
100
AcDbEntity
  8
WAKU
 62
     3
100
AcDbText
 10
1056.954997221753
 20
451.7676177329489
 30
0.0
 40
10.0
  1
0.8
 41
0.8
  7
K
 11
1056.954997221753
 21
456.7676177329489
 31
0.0
100
AcDbText
 73
     2
  0
TEXT
  5
138B
330
18
100
AcDbEntity
  8
WAKU
 62
     3
100
AcDbText
 10
1056.954997221753
 20
413.0453987987896
 30
0.0
 40
10.0
  1
2
 41
0.8
  7
K
 11
1056.954997221753
 21
418.0453987987895
 31
0.0
100
AcDbText
 73
     2
  0
LINE
  5
138C
330
18
100
AcDbEntity
  8
WAKU
 62
     3
100
AcDbLine
 10
1056.954997221753
 20
514.850946134188
 30
0.0
 11
1074.985163518557
 21
514.850946134188
 31
0.0
  0
TEXT
  5
138D
330
18
100
AcDbEntity
  8
WAKU
 62
     3
100
AcDbText
 10
1056.954997221753
 20
490.4898366671083
 30
0.0
 40
10.0
  1
0.2
 41
0.8
  7
K
 11
1056.954997221753
 21
495.4898366671083
 31
0.0
100
AcDbText
 73
     2
  0
TEXT
  5
138E
330
18
100
AcDbEntity
  8
WAKU
 62
     3
100
AcDbText
 10
1056.954997221753
 20
471.1287272000286
 30
0.0
 40
10.0
  1
0.5
 41
0.8
  7
K
 11
1056.954997221753
 21
476.1287272000286
 31
0.0
100
AcDbText
 73
     2
  0
TEXT
  5
138F
330
18
100
AcDbEntity
  8
WAKU
 62
     3
100
AcDbText
 10
1089.454997221753
 20
584.0037345981699
 30
0.0
 40
15.0
  1
品名
  7
K
100
AcDbText
  0
TEXT
  5
1390
330
18
100
AcDbEntity
  8
WAKU
 62
     3
100
AcDbText
 10
1089.454997221753
 20
522.75373459817
 30
0.0
 40
15.0
  1
設計
  7
K
100
AcDbText
  0
LINE
  5
1391
330
18
100
AcDbEntity
  8
WAKU
 62
     3
100
AcDbLine
 10
1084.454997221753
 20
554.00373459817
 30
0.0
 11
1084.454997221753
 21
634.0037345981699
 31
0.0
  0
TEXT
  5
1392
330
18
100
AcDbEntity
  8
WAKU
 62
     3
100
AcDbText
 10
1060.526425793181
 20
526.5315008677279
 30
0.0
 40
13.5
  1
L
  7
K
 72
     1
 11
1066.954997221753
 21
533.2815008677279
 31
0.0
100
AcDbText
 73
     2
  0
LINE
  5
1393
330
18
100
AcDbEntity
  8
WAKU
 62
     3
100
AcDbLine
 10
1129.454997221753
 20
634.0037345981699
 30
0.0
 11
1129.454997221753
 21
554.00373459817
 31
0.0
  0
LINE
  5
1394
330
18
100
AcDbEntity
  8
WAKU
 62
     3
100
AcDbLine
 10
1269.454997221753
 20
519.00373459817
 30
0.0
 11
1269.454997221753
 21
554.00373459817
 31
0.0
  0
LINE
  5
1395
330
18
100
AcDbEntity
  8
WAKU
 62
     3
100
AcDbLine
 10
1269.454997221753
 20
454.00373459817
 30
0.0
 11
1269.454997221753
 21
519.00373459817
 31
0.0
  0
LINE
  5
1396
330
18
100
AcDbEntity
  8
WAKU
 62
     3
100
AcDbLine
 10
1329.454997221753
 20
519.00373459817
 30
0.0
 11
1329.454997221753
 21
454.00373459817
 31
0.0
  0
TEXT
  5
1397
330
18
100
AcDbEntity
  8
WAKU
 62
     3
100
AcDbText
 10
1291.880833339273
 20
409.0037345981699
 30
0.0
 40
10.0
  1
株式会社
  7
K
100
AcDbText
  0
TEXT
  5
1398
330
18
100
AcDbEntity
  8
WAKU
 62
     3
100
AcDbText
 10
1282.954997221753
 20
479.00373459817
 30
0.0
 40
15.0
  1
図番
  7
K
 72
     4
 11
1299.454997221753
 21
486.50373459817
 31
0.0
100
AcDbText
  0
LINE
  5
1399
330
18
100
AcDbEntity
  8
WAKU
 62
     3
100
AcDbLine
 10
1569.454997221753
 20
634.0037345981699
 30
0.0
 11
1394.454997221753
 21
634.0037345981699
 31
0.0
  0
TEXT
  5
139A
330
18
100
AcDbEntity
  8
WAKU
 62
     3
100
AcDbText
 10
1484.771555011109
 20
526.0900376607538
 30
0.0
 40
12.5
  1
(単位mm)
  7
K
100
AcDbText
  0
LINE
  5
139B
330
18
100
AcDbEntity
  8
WAKU
 62
     3
100
AcDbLine
 10
1394.454997221753
 20
594.00373459817
 30
0.0
 11
1569.454997221753
 21
594.00373459817
 31
0.0
  0
LINE
  5
139C
330
18
100
AcDbEntity
  8
WAKU
 62
     3
100
AcDbLine
 10
1429.454997221753
 20
519.00373459817
 30
0.0
 11
1429.454997221753
 21
554.00373459817
 31
0.0
  0
LINE
  5
139D
330
18
100
AcDbEntity
  8
WAKU
 62
     3
100
AcDbLine
 10
1384.454997221753
 20
554.00373459817
 30
0.0
 11
1384.454997221753
 21
519.00373459817
 31
0.0
  0
TEXT
  5
139E
330
18
100
AcDbEntity
  8
WAKU
 62
     3
100
AcDbText
 10
1399.454997221753
 20
604.00373459817
 30
0.0
 40
15.0
  1
材 質
  7
K
100
AcDbText
  0
TEXT
  5
139F
330
18
100
AcDbEntity
  8
WAKU
 62
     3
100
AcDbText
 10
1399.454997221753
 20
564.00373459817
 30
0.0
 40
15.0
  1
板 厚
  7
K
100
AcDbText
  0
LINE
  5
13A0
330
18
100
AcDbEntity
  8
WAKU
 62
     3
100
AcDbLine
 10
1394.454997221753
 20
634.0037345981699
 30
0.0
 11
1394.454997221753
 21
554.00373459817
 31
0.0
  0
TEXT
  5
13A1
330
18
100
AcDbEntity
  8
WAKU
 62
     3
100
AcDbText
 10
1389.454997221753
 20
529.00373459817
 30
0.0
 40
15.0
  1
尺度
  7
K
100
AcDbText
  0
LINE
  5
13A2
330
18
100
AcDbEntity
  8
WAKU
 62
     3
100
AcDbLine
 10
1449.454997221753
 20
634.0037345981699
 30
0.0
 11
1449.454997221753
 21
554.00373459817
 31
0.0
  0
LINE
  5
13A3
330
18
100
AcDbEntity
  8
WAKU
 62
     3
100
AcDbLine
 10
704.4549972217528
 20
634.0037345981699
 30
0.0
 11
704.4549972217528
 21
389.00373459817
 31
0.0
  0
LINE
  5
1DE6
330
18
100
AcDbEntity
  8
JISSEN
100
AcDbLine
 10
-164.3326274536434
 20
1116.05365446112
 30
0.0
 11
75.66737254635654
 21
1116.05365446112
 31
0.0
  0
LINE
  5
1DE7
330
18
100
AcDbEntity
  8
JISSEN
100
AcDbLine
 10
388.7549492263411
 20
1116.05365446112
 30
0.0
 11
692.754949226341
 21
1116.05365446112
 31
0.0
  0
LINE
  5
1DE8
330
18
100
AcDbEntity
  8
JISSEN
100
AcDbLine
 10
-166.3326274536434
 20
769.0536544641211
 30
0.0
 11
-166.3326274536434
 21
764.0536544641211
 31
0.0
  0
LINE
  5
1DE9
330
18
100
AcDbEntity
  8
JISSEN
100
AcDbLine
 10
-166.3326274536434
 20
764.0536544641211
 30
0.0
 11
-146.3326274536434
 21
764.0536544641211
 31
0.0
  0
LINE
  5
1DEA
330
18
100
AcDbEntity
  8
JISSEN
100
AcDbLine
 10
-146.3326274536434
 20
764.0536544641211
 30
0.0
 11
-146.3326274536434
 21
769.0536544641211
 31
0.0
  0
LINE
  5
1DEB
330
18
100
AcDbEntity
  8
JISSEN
100
AcDbLine
 10
57.66737254635654
 20
764.0536544641211
 30
0.0
 11
57.66737254635654
 21
769.0536544641211
 31
0.0
  0
LINE
  5
1DEC
330
18
100
AcDbEntity
  8
JISSEN
100
AcDbLine
 10
77.66737254635654
 20
764.0536544641211
 30
0.0
 11
57.66737254635654
 21
764.0536544641211
 31
0.0
  0
LINE
  5
1DED
330
18
100
AcDbEntity
  8
JISSEN
100
AcDbLine
 10
77.66737254635654
 20
769.0536544641211
 30
0.0
 11
77.66737254635654
 21
764.0536544641211
 31
0.0
  0
CIRCLE
  5
1DEE
330
18
100
AcDbEntity
  8
JISSEN
100
AcDbCircle
 10
20.66737254635655
 20
1001.55365446112
 30
0.0
 40
9.0
  0
LINE
  5
1DEF
330
18
100
AcDbEntity
  8
JISSEN
100
AcDbLine
 10
4.667372546356546
 20
945.05365446112
 30
0.0
 11
4.667372546356546
 21
958.05365446112
 31
0.0
  0
LINE
  5
1DF0
330
18
100
AcDbEntity
  8
JISSEN
100
AcDbLine
 10
20.66737254635655
 20
974.0536544611201
 30
0.0
 11
20.66737254635655
 21
974.0536544611201
 31
0.0
  0
LINE
  5
1DF1
330
18
100
AcDbEntity
  8
JISSEN
100
AcDbLine
 10
36.66737254635655
 20
958.05365446112
 30
0.0
 11
36.66737254635655
 21
945.0536544611198
 31
0.0
  0
LINE
  5
1DF2
330
18
100
AcDbEntity
  8
JISSEN
100
AcDbLine
 10
20.66737254635655
 20
929.0536544611198
 30
0.0
 11
20.66737254635655
 21
929.0536544611198
 31
0.0
  0
CIRCLE
  5
1DF3
330
18
100
AcDbEntity
  8
JISSEN
100
AcDbCircle
 10
20.66737254635655
 20
951.5536544611199
 30
0.0
 40
7.5
  0
ARC
  5
1DF4
330
18
100
AcDbEntity
  8
JISSEN
100
AcDbCircle
 10
20.66737254635655
 20
958.05365446112
 30
0.0
 40
16.0
100
AcDbArc
 50
0.0
 51
90.0
  0
ARC
  5
1DF5
330
18
100
AcDbEntity
  8
JISSEN
100
AcDbCircle
 10
20.66737254635655
 20
945.0536544611198
 30
0.0
 40
16.0
100
AcDbArc
 50
270.0
 51
0.0
  0
ARC
  5
1DF6
330
18
100
AcDbEntity
  8
JISSEN
100
AcDbCircle
 10
20.66737254635655
 20
945.05365446112
 30
0.0
 40
16.0
100
AcDbArc
 50
180.0
 51
270.0
  0
ARC
  5
1DF7
330
18
100
AcDbEntity
  8
JISSEN
100
AcDbCircle
 10
20.66737254635655
 20
958.05365446112
 30
0.0
 40
16.0
100
AcDbArc
 50
90.0
 51
180.0
  0
CIRCLE
  5
1DF8
330
18
100
AcDbEntity
  8
JISSEN
100
AcDbCircle
 10
-54.33262745364345
 20
929.0536544611198
 30
0.0
 40
18.75
  0
LINE
  5
1DF9
330
18
100
AcDbEntity
  8
JISSEN
100
AcDbLine
 10
-79.33262745364345
 20
929.0536544611198
 30
0.0
 11
-79.33262745364345
 21
929.0536544611198
 31
0.0
  0
LINE
  5
1DFA
330
18
100
AcDbEntity
  8
JISSEN
100
AcDbLine
 10
-54.33262745364345
 20
954.0536544611198
 30
0.0
 11
-54.33262745364345
 21
954.0536544611198
 31
0.0
  0
LINE
  5
1DFB
330
18
100
AcDbEntity
  8
JISSEN
100
AcDbLine
 10
-29.33262745364345
 20
929.0536544611198
 30
0.0
 11
-29.33262745364345
 21
929.0536544611198
 31
0.0
  0
ARC
  5
1DFC
330
18
100
AcDbEntity
  8
JISSEN
100
AcDbCircle
 10
-54.33262745364345
 20
929.0536544611198
 30
0.0
 40
25.0
100
AcDbArc
 50
90.0
 51
180.0
  0
ARC
  5
1DFD
330
18
100
AcDbEntity
  8
JISSEN
100
AcDbCircle
 10
-54.33262745364345
 20
929.0536544611198
 30
0.0
 40
25.0
100
AcDbArc
 50
0.0
 51
90.0
  0
LINE
  5
1DFE
330
18
100
AcDbEntity
  8
JISSEN
100
AcDbLine
 10
-29.33262745364345
 20
929.0536544611198
 30
0.0
 11
-29.33262745364345
 21
914.0536544611199
 31
0.0
  0
LINE
  5
1DFF
330
18
100
AcDbEntity
  8
JISSEN
100
AcDbLine
 10
-79.33262745364345
 20
929.0536544611198
 30
0.0
 11
-79.33262745364345
 21
914.0536544611199
 31
0.0
  0
LINE
  5
1E00
330
18
100
AcDbEntity
  8
JISSEN
100
AcDbLine
 10
-140.3326274536434
 20
789.0536544641211
 30
0.0
 11
-140.3326274536434
 21
902.0536544657002
 31
0.0
  0
LINE
  5
1E01
330
18
100
AcDbEntity
  8
JISSEN
100
AcDbLine
 10
-133.3326274536434
 20
909.0536544611197
 30
0.0
 11
44.66737254635654
 21
909.0536544611197
 31
0.0
  0
LINE
  5
1E02
330
18
100
AcDbEntity
  8
JISSEN
100
AcDbLine
 10
51.66737254635655
 20
902.0536544657002
 30
0.0
 11
51.66737254635655
 21
789.0536544641211
 31
0.0
  0
ARC
  5
1E03
330
18
100
AcDbEntity
  8
JISSEN
100
AcDbCircle
 10
-133.3326274536434
 20
902.0536544611198
 30
0.0
 40
7.0
100
AcDbArc
 50
90.0
 51
180.0
  0
ARC
  5
1E04
330
18
100
AcDbEntity
  8
JISSEN
100
AcDbCircle
 10
44.66737254635654
 20
902.0536544611198
 30
0.0
 40
7.0
100
AcDbArc
 50
0.0
 51
90.0
  0
LINE
  5
1E05
330
18
100
AcDbEntity
  8
JISSEN
100
AcDbLine
 10
-166.3326274536434
 20
1234.15085412112
 30
0.0
 11
77.66737254635677
 21
1234.15085412112
 31
0.0
  0
LINE
  5
1E06
330
18
100
AcDbEntity
  8
JISSEN
100
AcDbLine
 10
82.66737254635676
 20
1239.15085412112
 30
0.0
 11
82.66737254635676
 21
1543.15085412112
 31
0.0
  0
LINE
  5
1E07
330
18
100
AcDbEntity
  8
JISSEN
100
AcDbLine
 10
77.66737254635654
 20
1548.15085412112
 30
0.0
 11
-166.3326274536434
 21
1548.15085412112
 31
0.0
  0
LINE
  5
1E08
330
18
100
AcDbEntity
  8
JISSEN
100
AcDbLine
 10
-171.3326274536434
 20
1543.15085412112
 30
0.0
 11
-171.3326274536434
 21
1239.15085412112
 31
0.0
  0
LINE
  5
1E09
330
18
100
AcDbEntity
  8
JISSEN
100
AcDbLine
 10
-168.3326274536434
 20
769.0536544641211
 30
0.0
 11
79.66737254635654
 21
769.0536544641211
 31
0.0
  0
ARC
  5
1E0A
330
18
100
AcDbEntity
  8
JISSEN
100
AcDbCircle
 10
79.66737254635654
 20
772.0536544641211
 30
0.0
 40
3.0
100
AcDbArc
 50
270.0
 51
0.0
  0
LINE
  5
1E0B
330
18
100
AcDbEntity
  8
JISSEN
100
AcDbLine
 10
82.66737254635655
 20
1094.05365446112
 30
0.0
 11
82.66737254635655
 21
1104.05365446112
 31
0.0
  0
LINE
  5
1E0C
330
18
100
AcDbEntity
  8
JISSEN
100
AcDbLine
 10
62.66737254635654
 20
1143.053654464121
 30
0.0
 11
-151.3326274536434
 21
1143.053654464121
 31
0.0
  0
LINE
  5
1E0D
330
18
100
AcDbEntity
  8
JISSEN
100
AcDbLine
 10
-171.3326274536434
 20
1104.05365446112
 30
0.0
 11
-171.3326274536434
 21
1094.05365446112
 31
0.0
  0
LINE
  5
1E0E
330
18
100
AcDbEntity
  8
JISSEN
100
AcDbLine
 10
697.7549492263412
 20
772.0536544641211
 30
0.0
 11
697.7549492263412
 21
1111.05365446112
 31
0.0
  0
LINE
  5
1E0F
330
18
100
AcDbEntity
  8
JISSEN
100
AcDbLine
 10
677.754949226341
 20
1143.053654464121
 30
0.0
 11
403.754949226341
 21
1143.053654464121
 31
0.0
  0
LINE
  5
1E10
330
18
100
AcDbEntity
  8
JISSEN
100
AcDbLine
 10
383.7549492263411
 20
1111.05365446112
 30
0.0
 11
383.7549492263411
 21
914.0536544657001
 31
0.0
  0
LINE
  5
1E11
330
18
100
AcDbEntity
  8
JISSEN
100
AcDbLine
 10
67.66737254635654
 20
1138.053654464121
 30
0.0
 11
67.66737254635654
 21
1116.05365446112
 31
0.0
  0
LINE
  5
1E12
330
18
100
AcDbEntity
  8
JISSEN
100
AcDbLine
 10
-156.3326274536434
 20
1138.053654464121
 30
0.0
 11
-156.3326274536434
 21
1116.05365446112
 31
0.0
  0
CIRCLE
  5
1E13
330
18
100
AcDbEntity
  8
JISSEN
100
AcDbCircle
 10
-44.33262745364345
 20
1391.15085412112
 30
0.0
 40
50.0
  0
LINE
  5
1E14
330
18
100
AcDbEntity
  8
JISSEN
100
AcDbLine
 10
-9.691611302265982
 20
1401.15085412112
 30
0.0
 11
-78.97364360502115
 21
1401.15085412112
 31
0.0
  0
LINE
  5
1E15
330
18
100
AcDbEntity
  8
JISSEN
100
AcDbLine
 10
-78.97364360502115
 20
1381.15085412112
 30
0.0
 11
-9.691611302265755
 21
1381.15085412112
 31
0.0
  0
ARC
  5
1E16
330
18
100
AcDbEntity
  8
JISSEN
100
AcDbCircle
 10
-9.691611302265982
 20
1411.15085412112
 30
0.0
 40
10.0
100
AcDbArc
 50
270.0
 51
29.99999999999729
  0
ARC
  5
1E17
330
18
100
AcDbEntity
  8
JISSEN
100
AcDbCircle
 10
-78.97364360502115
 20
1411.150854121119
 30
0.0
 40
10.0
100
AcDbArc
 50
150.0000000000027
 51
270.0
  0
ARC
  5
1E18
330
18
100
AcDbEntity
  8
JISSEN
100
AcDbCircle
 10
-78.97364360502115
 20
1371.15085412112
 30
0.0
 40
10.0
100
AcDbArc
 50
90.0
 51
209.9999999999973
  0
ARC
  5
1E19
330
18
100
AcDbEntity
  8
JISSEN
100
AcDbCircle
 10
-9.691611302265755
 20
1371.15085412112
 30
0.0
 40
10.0
100
AcDbArc
 50
330.0000000000027
 51
90.0
  0
LINE
  5
1E1A
330
18
100
AcDbEntity
  8
JISSEN
100
AcDbLine
 10
62.66737254635677
 20
1533.15085412112
 30
0.0
 11
-151.3326274536434
 21
1533.15085412112
 31
0.0
  0
LINE
  5
1E1B
330
18
100
AcDbEntity
  8
JISSEN
100
AcDbLine
 10
67.66737254635654
 20
1254.15085412112
 30
0.0
 11
67.66737254635654
 21
1528.15085412112
 31
0.0
  0
LINE
  5
1E1C
330
18
100
AcDbEntity
  8
JISSEN
100
AcDbLine
 10
-156.3326274536434
 20
1528.15085412112
 30
0.0
 11
-156.3326274536434
 21
1254.15085412112
 31
0.0
  0
LINE
  5
1E1D
330
18
100
AcDbEntity
  8
JISSEN
100
AcDbLine
 10
-151.3326274536434
 20
1249.15085412112
 30
0.0
 11
62.66737254635654
 21
1249.15085412112
 31
0.0
  0
ARC
  5
1E1E
330
18
100
AcDbEntity
  8
JISSEN
100
AcDbCircle
 10
-166.3326274536434
 20
1543.15085412112
 30
0.0
 40
5.0
100
AcDbArc
 50
90.0
 51
180.0
  0
ARC
  5
1E1F
330
18
100
AcDbEntity
  8
JISSEN
100
AcDbCircle
 10
-151.3326274536434
 20
1528.15085412112
 30
0.0
 40
5.0
100
AcDbArc
 50
90.0
 51
180.0
  0
ARC
  5
1E20
330
18
100
AcDbEntity
  8
JISSEN
100
AcDbCircle
 10
62.66737254635677
 20
1528.15085412112
 30
0.0
 40
5.0
100
AcDbArc
 50
0.0
 51
90.0
  0
ARC
  5
1E21
330
18
100
AcDbEntity
  8
JISSEN
100
AcDbCircle
 10
77.66737254635654
 20
1543.15085412112
 30
0.0
 40
5.0
100
AcDbArc
 50
0.0
 51
90.0
  0
ARC
  5
1E22
330
18
100
AcDbEntity
  8
JISSEN
100
AcDbCircle
 10
62.66737254635654
 20
1254.15085412112
 30
0.0
 40
5.0
100
AcDbArc
 50
270.0
 51
0.0
  0
ARC
  5
1E23
330
18
100
AcDbEntity
  8
JISSEN
100
AcDbCircle
 10
77.66737254635677
 20
1239.15085412112
 30
0.0
 40
5.0
100
AcDbArc
 50
270.0
 51
0.0
  0
ARC
  5
1E24
330
18
100
AcDbEntity
  8
JISSEN
100
AcDbCircle
 10
-166.3326274536434
 20
1239.15085412112
 30
0.0
 40
5.0
100
AcDbArc
 50
180.0
 51
270.0
  0
ARC
  5
1E25
330
18
100
AcDbEntity
  8
JISSEN
100
AcDbCircle
 10
-151.3326274536434
 20
1254.15085412112
 30
0.0
 40
5.0
100
AcDbArc
 50
180.0
 51
270.0
  0
ARC
  5
1E26
330
18
100
AcDbEntity
  8
JISSEN
100
AcDbCircle
 10
62.66737254635654
 20
1138.053654464121
 30
0.0
 40
5.0
100
AcDbArc
 50
0.0
 51
90.0
  0
ARC
  5
1E27
330
18
100
AcDbEntity
  8
JISSEN
100
AcDbCircle
 10
-151.3326274536434
 20
1138.053654464121
 30
0.0
 40
5.0
100
AcDbArc
 50
90.0
 51
180.0
  0
LINE
  5
1E28
330
18
100
AcDbEntity
  8
JISSEN
100
AcDbLine
 10
383.7549492263411
 20
1104.05365446112
 30
0.0
 11
697.7549492263411
 21
1104.05365446112
 31
0.0
  0
LINE
  5
1E29
330
18
100
AcDbEntity
  8
JISSEN
100
AcDbLine
 10
-171.3326274536434
 20
1104.05365446112
 30
0.0
 11
82.66737254635676
 21
1104.05365446112
 31
0.0
  0
LINE
  5
1E2A
330
18
100
AcDbEntity
  8
JISSEN
100
AcDbLine
 10
682.754949226341
 20
1116.05365446112
 30
0.0
 11
682.754949226341
 21
1138.053654464121
 31
0.0
  0
LINE
  5
1E2B
330
18
100
AcDbEntity
  8
JISSEN
100
AcDbLine
 10
398.7549492263411
 20
1138.053654464121
 30
0.0
 11
398.7549492263411
 21
1116.05365446112
 31
0.0
  0
ARC
  5
1E2C
330
18
100
AcDbEntity
  8
JISSEN
100
AcDbCircle
 10
403.754949226341
 20
1138.053654464121
 30
0.0
 40
5.0
100
AcDbArc
 50
90.0
 51
180.0
  0
ARC
  5
1E2D
330
18
100
AcDbEntity
  8
JISSEN
100
AcDbCircle
 10
677.754949226341
 20
1138.053654464121
 30
0.0
 40
5.0
100
AcDbArc
 50
0.0
 51
90.0
  0
ARC
  5
1E2E
330
18
100
AcDbEntity
  8
JISSEN
100
AcDbCircle
 10
692.754949226341
 20
1111.05365446112
 30
0.0
 40
5.0
100
AcDbArc
 50
0.0
 51
90.0
  0
ARC
  5
1E2F
330
18
100
AcDbEntity
  8
JISSEN
100
AcDbCircle
 10
388.7549492263411
 20
1111.05365446112
 30
0.0
 40
5.0
100
AcDbArc
 50
90.0
 51
180.0
  0
LINE
  5
1E30
330
18
100
AcDbEntity
  8
JISSEN
100
AcDbLine
 10
-171.3326274536434
 20
1094.05365446112
 30
0.0
 11
82.66737254635676
 21
1094.05365446112
 31
0.0
  0
LINE
  5
1E31
330
18
100
AcDbEntity
  8
JISSEN
100
AcDbLine
 10
79.66737254635654
 20
789.0536544641211
 30
0.0
 11
-168.3326274536434
 21
789.0536544641211
 31
0.0
  0
LINE
  5
1E32
330
18
100
AcDbEntity
  8
JISSEN
100
AcDbLine
 10
383.7549492263411
 20
789.0536544641211
 30
0.0
 11
697.7549492263411
 21
789.0536544641211
 31
0.0
  0
LINE
  5
1E33
330
18
100
AcDbEntity
  8
JISSEN
100
AcDbLine
 10
694.7549492263412
 20
769.0536544641211
 30
0.0
 11
386.7549492263411
 21
769.0536544641211
 31
0.0
  0
LINE
  5
1E34
330
18
100
AcDbEntity
  8
JISSEN
100
AcDbLine
 10
383.7549492263411
 20
1094.05365446112
 30
0.0
 11
697.7549492263412
 21
1094.05365446112
 31
0.0
  0
LINE
  5
1E35
330
18
100
AcDbEntity
  8
JISSEN
100
AcDbLine
 10
408.754949226341
 20
764.0536544641211
 30
0.0
 11
408.754949226341
 21
769.0536544641211
 31
0.0
  0
LINE
  5
1E36
330
18
100
AcDbEntity
  8
JISSEN
100
AcDbLine
 10
388.7549492263411
 20
764.0536544641211
 30
0.0
 11
408.754949226341
 21
764.0536544641211
 31
0.0
  0
LINE
  5
1E37
330
18
100
AcDbEntity
  8
JISSEN
100
AcDbLine
 10
388.7549492263411
 20
769.0536544641211
 30
0.0
 11
388.7549492263411
 21
764.0536544641211
 31
0.0
  0
LINE
  5
1E38
330
18
100
AcDbEntity
  8
JISSEN
100
AcDbLine
 10
692.754949226341
 20
769.0536544641211
 30
0.0
 11
692.754949226341
 21
764.0536544641211
 31
0.0
  0
LINE
  5
1E39
330
18
100
AcDbEntity
  8
JISSEN
100
AcDbLine
 10
692.754949226341
 20
764.0536544641211
 30
0.0
 11
672.7549492263411
 21
764.0536544641211
 31
0.0
  0
LINE
  5
1E3A
330
18
100
AcDbEntity
  8
JISSEN
100
AcDbLine
 10
672.7549492263411
 20
764.0536544641211
 30
0.0
 11
672.7549492263411
 21
769.0536544641211
 31
0.0
  0
ARC
  5
1E3B
330
18
100
AcDbEntity
  8
JISSEN
100
AcDbCircle
 10
694.7549492263412
 20
772.0536544641211
 30
0.0
 40
3.0
100
AcDbArc
 50
270.0
 51
0.0
  0
ARC
  5
1E3C
330
18
100
AcDbEntity
  8
JISSEN
100
AcDbCircle
 10
386.7549492263411
 20
772.0536544641211
 30
0.0
 40
3.0
100
AcDbArc
 50
180.0
 51
270.0
  0
LINE
  5
1E3D
330
18
100
AcDbEntity
  8
JISSEN
100
AcDbLine
 10
75.66737254635654
 20
807.053654464121
 30
0.0
 11
56.66737254635655
 21
807.053654464121
 31
0.0
  0
LINE
  5
1E3E
330
18
100
AcDbEntity
  8
JISSEN
100
AcDbLine
 10
-145.3326274536434
 20
807.053654464121
 30
0.0
 11
-164.3326274536434
 21
807.053654464121
 31
0.0
  0
LINE
  5
1E3F
330
18
100
AcDbEntity
  8
JISSEN
100
AcDbLine
 10
388.7549492263411
 20
807.053654464121
 30
0.0
 11
403.7549492263565
 21
807.053654464121
 31
0.0
  0
DIMENSION
  5
1E40
330
18
100
AcDbEntity
  8
SUNPOU
100
AcDbDimension
  2
*D66
 10
181.5531258654359
 20
764.0536544641211
 30
0.0
 11
181.5531258654359
 21
942.1763745223389
 31
0.0
 70
   160
 71
     5
 42
351.999999997
  3
IMCADLT
100
AcDbAlignedDimension
 13
77.66737254635654
 23
1116.05365446112
 33
0.0
 14
77.66737254635654
 24
764.0536544641211
 34
0.0
 50
90.0
100
AcDbRotatedDimension
  0
DIMENSION
  5
1E41
330
18
100
AcDbEntity
  8
SUNPOU
100
AcDbDimension
  2
*D67
 10
211.5531258654359
 20
1143.053654464121
 30
0.0
 11
199.0531258654359
 21
953.553654464121
 31
0.0
 70
    32
 71
     5
 42
379.0
  3
IMCADLT
100
AcDbAlignedDimension
 13
77.66737254635654
 23
764.0536544641211
 33
0.0
 14
62.66737254635654
 24
1143.053654464121
 34
0.0
 50
90.0
100
AcDbRotatedDimension
  0
DIMENSION
  5
1E42
330
18
100
AcDbEntity
  8
SUNPOU
100
AcDbDimension
  2
*D68
 10
82.66737254635655
 20
685.4684421930646
 30
0.0
 11
-39.224465673331
 21
685.4684421930646
 31
0.0
 70
   160
 71
     5
 42
254.0
  3
IMCADLT
100
AcDbAlignedDimension
 13
-171.3326274536434
 23
772.0536544641211
 33
0.0
 14
82.66737254635655
 24
772.0536544641211
 34
0.0
100
AcDbRotatedDimension
  0
DIMENSION
  5
1E43
330
18
100
AcDbEntity
  8
SUNPOU
100
AcDbDimension
  2
*D69
 10
697.7549492263412
 20
678.4400381922305
 30
0.0
 11
541.1592574030369
 21
678.4400381922305
 31
0.0
 70
   160
 71
     5
 42
314.0
  3
IMCADLT
100
AcDbAlignedDimension
 13
383.7549492263411
 23
772.0536544641211
 33
0.0
 14
697.7549492263412
 24
772.0536544641211
 34
0.0
100
AcDbRotatedDimension
  0
LINE
  5
1E44
330
18
100
AcDbEntity
  8
JISSEN
100
AcDbLine
 10
388.7549492263411
 20
909.0536544657
 30
0.0
 11
403.7549492263565
 21
909.0536544657
 31
0.0
  0
LINE
  5
1E45
330
18
100
AcDbEntity
  8
JISSEN
100
AcDbLine
 10
408.7549492263565
 20
904.0536544657001
 30
0.0
 11
408.7549492263565
 21
812.0536544641211
 31
0.0
  0
LINE
  5
1E46
330
18
100
AcDbEntity
  8
JISSEN
100
AcDbLine
 10
423.7549492263565
 20
1094.05365446112
 30
0.0
 11
423.7549492263565
 21
789.0536544641211
 31
0.0
  0
LINE
  5
1E47
330
18
100
AcDbEntity
  8
JISSEN
100
AcDbLine
 10
383.7549492263411
 20
802.0536544641212
 30
0.0
 11
383.7549492263411
 21
772.0536544641211
 31
0.0
  0
ARC
  5
1E48
330
18
100
AcDbEntity
  8
JISSEN
100
AcDbCircle
 10
388.7549492263411
 20
914.0536544657001
 30
0.0
 40
5.0
100
AcDbArc
 50
180.0
 51
270.0
  0
ARC
  5
1E49
330
18
100
AcDbEntity
  8
JISSEN
100
AcDbCircle
 10
403.7549492263565
 20
904.0536544657001
 30
0.0
 40
5.0
100
AcDbArc
 50
0.0
 51
90.0
  0
ARC
  5
1E4A
330
18
100
AcDbEntity
  8
JISSEN
100
AcDbCircle
 10
403.7549492263565
 20
812.0536544641211
 30
0.0
 40
5.0
100
AcDbArc
 50
270.0
 51
0.0
  0
ARC
  5
1E4B
330
18
100
AcDbEntity
  8
JISSEN
100
AcDbCircle
 10
388.7549492263411
 20
802.0536544641212
 30
0.0
 40
5.0
100
AcDbArc
 50
90.0
 51
180.0
  0
ARC
  5
1E4C
330
18
100
AcDbEntity
  8
JISSEN
100
AcDbCircle
 10
-24.33262745364368
 20
914.0536544611197
 30
0.0
 40
5.0
100
AcDbArc
 50
180.0
 51
270.0
  0
ARC
  5
1E4D
330
18
100
AcDbEntity
  8
JISSEN
100
AcDbCircle
 10
-84.33262745364345
 20
914.0536544611197
 30
0.0
 40
5.0
100
AcDbArc
 50
270.0
 51
0.0
  0
ARC
  5
1E4E
330
18
100
AcDbEntity
  8
JISSEN
100
AcDbCircle
 10
56.66737254635655
 20
802.0536544641212
 30
0.0
 40
5.0
100
AcDbArc
 50
90.0
 51
180.0
  0
ARC
  5
1E4F
330
18
100
AcDbEntity
  8
JISSEN
100
AcDbCircle
 10
75.66737254635654
 20
802.0536544641212
 30
0.0
 40
5.0
100
AcDbArc
 50
0.0
 51
90.0
  0
ARC
  5
1E50
330
18
100
AcDbEntity
  8
JISSEN
100
AcDbCircle
 10
-145.3326274536434
 20
802.0536544641212
 30
0.0
 40
5.0
100
AcDbArc
 50
0.0
 51
90.0
  0
ARC
  5
1E51
330
18
100
AcDbEntity
  8
JISSEN
100
AcDbCircle
 10
-164.3326274536434
 20
802.0536544641212
 30
0.0
 40
5.0
100
AcDbArc
 50
90.0
 51
180.0
  0
INSERT
  5
1E52
330
18
100
AcDbEntity
  8
ITTEN
100
AcDbBlockReference
  2
BATU2
 10
20.66737254635655
 20
1001.55365446112
 30
0.0
 41
14.62950469564851
 42
-14.43962888560679
 43
14.62950469564851
  0
INSERT
  5
1E53
330
18
100
AcDbEntity
  8
ITTEN
100
AcDbBlockReference
  2
BATU2
 10
20.66737254635655
 20
951.5536544611199
 30
0.0
 41
25.51747735869787
 42
-29.46895615605161
 43
25.51747735869787
  0
INSERT
  5
1E54
330
18
100
AcDbEntity
  8
ITTEN
100
AcDbBlockReference
  2
BATU2
 10
-54.33262745364345
 20
929.0536544611198
 30
0.0
 41
32.46765652410159
 42
33.57234036041302
 43
32.46765652410159
  0
INSERT
  5
1E55
330
18
100
AcDbEntity
  8
ITTEN
100
AcDbBlockReference
  2
BATU2
 10
-44.33262745364345
 20
1391.15085412112
 30
0.0
 41
182.3091461687354
 42
204.3744187313535
 43
182.3091461687354
  0
LINE
  5
1E56
330
18
100
AcDbEntity
  8
JISSEN
100
AcDbLine
 10
48.16737254635654
 20
894.0536544657001
 30
0.0
 11
48.16737254635654
 21
894.0536544657001
 31
0.0
  0
LINE
  5
1E57
330
18
100
AcDbEntity
  8
JISSEN
100
AcDbLine
 10
43.16737254635654
 20
899.0536544657
 30
0.0
 11
-131.8326274536434
 21
899.0536544657
 31
0.0
  0
LINE
  5
1E58
330
18
100
AcDbEntity
  8
JISSEN
100
AcDbLine
 10
-136.8326274536434
 20
894.0536544657
 30
0.0
 11
-136.8326274536434
 21
894.0536544657
 31
0.0
  0
LINE
  5
1E59
330
18
100
AcDbEntity
  8
JISSEN
100
AcDbLine
 10
-136.8326274536434
 20
894.0536544657001
 30
0.0
 11
-131.8326274536434
 21
894.0536544657001
 31
0.0
  0
LINE
  5
1E5A
330
18
100
AcDbEntity
  8
JISSEN
100
AcDbLine
 10
-131.8326274536434
 20
894.0536544657001
 30
0.0
 11
-124.6643249357862
 21
793.6974192141868
 31
0.0
  0
LINE
  5
1E5B
330
18
100
AcDbEntity
  8
JISSEN
100
AcDbLine
 10
48.16737254635654
 20
894.0536544657001
 30
0.0
 11
43.16737254635654
 21
894.0536544657001
 31
0.0
  0
LINE
  5
1E5C
330
18
100
AcDbEntity
  8
JISSEN
100
AcDbLine
 10
43.16737254635654
 20
894.0536544657001
 30
0.0
 11
35.99907002849909
 21
793.6974192141868
 31
0.0
  0
LINE
  5
1E5D
330
18
100
AcDbEntity
  8
JISSEN
100
AcDbLine
 10
43.16737254635654
 20
894.0536544657001
 30
0.0
 11
-131.8326274536434
 21
894.0536544657001
 31
0.0
  0
LINE
  5
1E5E
330
18
100
AcDbEntity
  8
JISSEN
100
AcDbLine
 10
408.7549492263565
 20
894.0536544657001
 30
0.0
 11
388.7549492263565
 21
894.0536544657001
 31
0.0
  0
LINE
  5
1E5F
330
18
100
AcDbEntity
  8
JISSEN
100
AcDbLine
 10
388.7549492263565
 20
894.0536544657001
 30
0.0
 11
394.9692349406614
 21
807.053654464121
 31
0.0
  0
LINE
  5
1E60
330
18
100
AcDbEntity
  8
JISSEN
100
AcDbLine
 10
383.7549492263566
 20
894.0536544657001
 30
0.0
 11
388.7549492263565
 21
894.0536544657001
 31
0.0
  0
LINE
  5
1E61
330
18
100
AcDbEntity
  8
JISSEN
100
AcDbLine
 10
383.7549492263566
 20
894.0536544657001
 30
0.0
 11
383.7549492263566
 21
894.0536544657001
 31
0.0
  0
LINE
  5
1E62
330
18
100
AcDbEntity
  8
JISSEN
100
AcDbLine
 10
408.7549492263565
 20
899.0536544657
 30
0.0
 11
388.7549492263565
 21
899.0536544657
 31
0.0
  0
ARC
  5
1E63
330
18
100
AcDbEntity
  8
JISSEN
100
AcDbCircle
 10
388.7549492263565
 20
894.0536544657001
 30
0.0
 40
5.0
100
AcDbArc
 50
90.0
 51
180.0
  0
ARC
  5
1E64
330
18
100
AcDbEntity
  8
JISSEN
100
AcDbCircle
 10
43.16737254635654
 20
894.0536544657001
 30
0.0
 40
5.0
100
AcDbArc
 50
0.0
 51
90.0
  0
ARC
  5
1E65
330
18
100
AcDbEntity
  8
JISSEN
100
AcDbCircle
 10
-131.8326274536434
 20
894.0536544657
 30
0.0
 40
5.0
100
AcDbArc
 50
90.0
 51
180.0
  0
ARC
  5
1E66
330
18
100
AcDbEntity
  8
JISSEN
100
AcDbCircle
 10
-119.6770314366319
 20
794.0536544641211
 30
0.0
 40
5.0
100
AcDbArc
 50
184.0856167799127
 51
270.0
  0
ARC
  5
1E67
330
18
100
AcDbEntity
  8
JISSEN
100
AcDbCircle
 10
31.01177652934507
 20
794.0536544641211
 30
0.0
 40
5.0
100
AcDbArc
 50
270.0
 51
355.9143832200873
  0
INSERT
  5
1E68
330
18
100
AcDbEntity
  8
SUNPOU
100
AcDbBlockReference
  2
ARROW
 10
42.66737254635654
 20
1548.15085412112
 30
0.0
 41
15.0
 42
15.0
 43
15.0
 50
212.120654647116
  0
LINE
  5
1E69
330
18
100
AcDbEntity
  8
SUNPOU
100
AcDbLine
 10
55.37132707065143
 20
1556.126413000888
 30
0.0
 11
139.0395469906611
 21
1608.653428353572
 31
0.0
  0
LINE
  5
1E6A
330
18
100
AcDbEntity
  8
SUNPOU
100
AcDbLine
 10
139.0395469906611
 20
1608.653428353572
 30
0.0
 11
154.0395469906611
 21
1608.653428353572
 31
0.0
  0
LINE
  5
1E6B
330
18
100
AcDbEntity
  8
SUNPOU
100
AcDbLine
 10
154.0395469906611
 20
1608.653428353572
 30
0.0
 11
402.682404133518
 21
1608.653428353572
 31
0.0
  0
MTEXT
  5
1E6C
330
18
100
AcDbEntity
  8
SUNPOU
100
AcDbMText
 10
161.5395469906611
 20
1623.653428353572
 30
0.0
 40
15.0
 41
0.0
 71
     4
 72
     1
  1
\A1;電源コード長さ約2150mm
 73
     1
 44
1.0
1001
ACAD
1000
MTEXTBEGIN
1070
    73
1070
     1
1070
    44
1040
1.0
1070
    74
1070
     0
1000
MTEXTEND
  0
TEXT
  5
1E6D
330
18
100
AcDbEntity
  8
SUNPOU
100
AcDbText
 10
165.551816767439
 20
1583.616014779191
 30
0.0
 40
15.0
  1
立ち上がり40
  7
K
100
AcDbText
  0
DIMENSION
  5
1E6E
330
18
100
AcDbEntity
  8
SUNPOU
100
AcDbDimension
  2
*D70
 10
42.66737254635654
 20
1608.522718404772
 30
0.0
 11
62.66737254635654
 21
1608.522718404772
 31
0.0
 70
   160
 71
     5
 42
40.0
  3
IMCADLT
100
AcDbAlignedDimension
 13
82.66737254635655
 23
1543.15085412112
 33
0.0
 14
42.66737254635654
 24
1548.15085412112
 34
0.0
100
AcDbRotatedDimension
  0
LINE
  5
1E6F
330
18
100
AcDbEntity
  8
JISSEN
100
AcDbLine
 10
80.66737254635654
 20
789.0536544641211
 30
0.0
 11
80.66737254635654
 21
1094.05365446112
 31
0.0
  0
LINE
  5
1E70
330
18
100
AcDbEntity
  8
JISSEN
100
AcDbLine
 10
-169.3326274536434
 20
1111.05365446112
 30
0.0
 11
-169.3326274536434
 21
1104.05365446112
 31
0.0
  0
ARC
  5
1E71
330
18
100
AcDbEntity
  8
JISSEN
100
AcDbCircle
 10
75.66737254635654
 20
1111.05365446112
 30
0.0
 40
5.0
100
AcDbArc
 50
0.0
 51
90.0
  0
ARC
  5
1E72
330
18
100
AcDbEntity
  8
JISSEN
100
AcDbCircle
 10
-164.3326274536434
 20
1111.05365446112
 30
0.0
 40
5.0
100
AcDbArc
 50
90.0
 51
180.0
  0
LINE
  5
1E73
330
18
100
AcDbEntity
  8
JISSEN
100
AcDbLine
 10
-169.3326274536434
 20
1094.05365446112
 30
0.0
 11
-169.3326274536434
 21
789.0536544641211
 31
0.0
  0
LINE
  5
1E74
330
18
100
AcDbEntity
  8
JISSEN
100
AcDbLine
 10
80.66737254635654
 20
1104.05365446112
 30
0.0
 11
80.66737254635654
 21
1111.05365446112
 31
0.0
  0
LINE
  5
1E75
330
18
100
AcDbEntity
  8
JISSEN
100
AcDbLine
 10
82.66737254635655
 20
786.053654464121
 30
0.0
 11
82.66737254635655
 21
772.0536544641211
 31
0.0
  0
LINE
  5
1E76
330
18
100
AcDbEntity
  8
JISSEN
100
AcDbLine
 10
-171.3326274536434
 20
786.053654464121
 30
0.0
 11
-171.3326274536434
 21
772.0536544641211
 31
0.0
  0
ARC
  5
1E77
330
18
100
AcDbEntity
  8
JISSEN
100
AcDbCircle
 10
-168.3326274536434
 20
786.053654464121
 30
0.0
 40
3.0
100
AcDbArc
 50
90.0
 51
180.0
  0
ARC
  5
1E78
330
18
100
AcDbEntity
  8
JISSEN
100
AcDbCircle
 10
79.66737254635654
 20
786.053654464121
 30
0.0
 40
3.0
100
AcDbArc
 50
0.0
 51
90.0
  0
ARC
  5
1E79
330
18
100
AcDbEntity
  8
JISSEN
100
AcDbCircle
 10
-168.3326274536434
 20
772.0536544641211
 30
0.0
 40
3.0
100
AcDbArc
 50
180.0
 51
270.0
  0
MTEXT
  5
1EE8
330
18
100
AcDbEntity
  8
TEXT
100
AcDbMText
 10
1004.323949024979
 20
1500.319945559736
 30
0.0
 40
15.0
 41
0.0
 71
     1
 72
     1
  1
\fＭＳ 明朝|b0|i0|c128|p17;\L　仕様　\P\l外形寸法：254×314×379mm\P重量：16kg\P回転数：93/117rpm\P電源：単相100V　50/60Hz\P定格消費電力　115/125W\Pモーター：コンデンサー誘導電動機　100W\P電源スイッチ：トグル式（防水ゴム付き）\Pプロテクター：モーター内蔵\P定格時間：連続\P氷削能力：最小粗さ1.3kg/min　最大粗さ4kg/min
 73
     1
 44
1.0
1001
ACAD
1000
MTEXTBEGIN
1070
    73
1070
     1
1070
    44
1040
1.0
1070
    74
1070
     0
1000
MTEXTEND
  0
ENDSEC
  0
SECTION
  2
OBJECTS
  0
DICTIONARY
  5
C
330
0
100
AcDbDictionary
281
     1
  3
ACAD_COLOR
350
113E
  3
ACAD_GROUP
350
D
  3
ACAD_LAYOUT
350
CC
  3
ACAD_MATERIAL
350
113A
  3
ACAD_MLEADERSTYLE
350
1141
  3
ACAD_MLINESTYLE
350
1B
  3
ACAD_PLOTSETTINGS
350
CD
  3
ACAD_PLOTSTYLENAME
350
CA
  3
ACAD_SCALELIST
350
1118
  3
ACAD_TABLESTYLE
350
113F
  3
ACDB_RECOMPOSE_DATA
350
1F6A
  3
ACDBHEADERROUNDTRIPXREC
350
1F66
  3
AcDbVariableDictionary
350
10E3
  3
ACGREF_MASTER
350
1020
  3
ACGREFACAD_MASTER
350
1024
  3
AcmDictionary
350
102A
  3
ACME_BOM_MANAGER_NAME
350
1019
  3
ACME_COMMAND_HISTORY
350
1014
  3
ACME_SCOPE_NAME
350
1013
  3
ACMESTATEMGR
350
101E
  3
AcmeSysVarManager
350
1015
  3
AcmSystemVariableManager
350
102E
  3
AMG
350
1026
  3
AMGSNAPSETTINGS
350
1062
  3
AMI_MASTER
350
1025
  3
CONTENTDICTIONARY
350
23
  0
DICTIONARY
  5
1251
330
2
100
AcDbDictionary
280
     1
281
     1
  3
ACAD_LAYERSTATES
360
1252
  0
DICTIONARY
  5
E62
330
18
100
AcDbDictionary
280
     1
281
     1
  3
ACAD_INDEX
360
10CF
  3
ACAD_LAYOUTSELFREF
360
FFE
  3
ACAD_SORTENTS
360
123B
  0
DICTIONARY
  5
E60
330
15
100
AcDbDictionary
280
     1
281
     1
  3
ACAD_LAYOUTSELFREF
360
FFD
  0
DICTIONARY
  5
113E
102
{ACAD_REACTORS
330
C
102
}
330
C
100
AcDbDictionary
281
     1
  0
DICTIONARY
  5
D
102
{ACAD_REACTORS
330
C
102
}
330
C
100
AcDbDictionary
281
     1
  0
DICTIONARY
  5
CC
102
{ACAD_REACTORS
330
C
102
}
330
C
100
AcDbDictionary
281
     1
  3
Model
350
CE
  3
ﾚｲｱｳﾄ1
350
CF
  0
DICTIONARY
  5
113A
102
{ACAD_REACTORS
330
C
102
}
330
C
100
AcDbDictionary
281
     1
  3
ByBlock
350
113C
  3
ByLayer
350
113B
  3
Global
350
113D
  0
DICTIONARY
  5
1141
102
{ACAD_REACTORS
330
C
102
}
330
C
100
AcDbDictionary
281
     1
  3
Standard
350
1142
  0
DICTIONARY
  5
1B
102
{ACAD_REACTORS
330
C
102
}
330
C
100
AcDbDictionary
281
     1
  3
STANDARD
350
1C
  0
DICTIONARY
  5
CD
102
{ACAD_REACTORS
330
C
102
}
330
C
100
AcDbDictionary
281
     1
  0
ACDBDICTIONARYWDFLT
  5
CA
102
{ACAD_REACTORS
330
C
102
}
330
C
100
AcDbDictionary
281
     1
  3
Normal
350
CB
100
AcDbDictionaryWithDefault
340
CB
  0
DICTIONARY
  5
1118
102
{ACAD_REACTORS
330
C
102
}
330
C
100
AcDbDictionary
281
     1
  3
A0
350
1119
  3
A1
350
111A
  3
A2
350
111B
  3
A3
350
111C
  3
A4
350
111D
  3
A5
350
111E
  3
A6
350
111F
  3
A7
350
1120
  3
A8
350
1121
  3
A9
350
1122
  3
B0
350
1123
  3
B1
350
1124
  3
B2
350
1125
  3
B3
350
1126
  3
B4
350
1127
  3
B5
350
1128
  3
B6
350
1129
  3
B7
350
112A
  3
B8
350
112B
  3
B9
350
112C
  3
C0
350
112D
  3
C1
350
112E
  3
C2
350
112F
  3
C3
350
1130
  3
C4
350
1131
  3
C5
350
1132
  3
C6
350
1133
  3
C7
350
1134
  3
C8
350
1135
  3
C9
350
1136
  3
D0
350
1137
  3
D1
350
1138
  3
D2
350
1139
  0
DICTIONARY
  5
113F
102
{ACAD_REACTORS
330
C
102
}
330
C
100
AcDbDictionary
281
     1
  3
Standard
350
1140
  0
XRECORD
  5
1F6A
102
{ACAD_REACTORS
330
C
102
}
330
C
100
AcDbXrecord
280
     1
 90
        1
330
1140
  0
DICTIONARY
  5
1F66
102
{ACAD_REACTORS
330
C
102
}
330
C
100
AcDbDictionary
281
     1
  0
DICTIONARY
  5
10E3
102
{ACAD_REACTORS
330
C
102
}
330
C
100
AcDbDictionary
281
     1
  3
CMLEADERSTYLE
350
116E
  3
CTABLESTYLE
350
116D
  3
DIMASSOC
350
10E5
  3
INDEXCTL
350
10E4
  0
ACAD_PROXY_OBJECT
  5
1020
102
{ACAD_REACTORS
330
C
102
}
330
C
100
AcDbProxyObject
 90
      499
 91
      536
 95
   917527
 70
     0
 93
       34
310
04000042A4
 94
        0
  0
ACAD_PROXY_OBJECT
  5
1024
102
{ACAD_REACTORS
330
C
102
}
330
C
100
AcDbProxyObject
 90
      499
 91
      539
 95
   917527
 70
     0
 93
      114
310
04000041C000000000000000000000
 94
        0
  0
DICTIONARY
  5
102A
102
{ACAD_REACTORS
330
C
102
}
330
C
100
AcDbDictionary
281
     1
  3
AcmBOMDATA
350
102B
  3
AcmStdDictionary
350
1030
  0
ACAD_PROXY_OBJECT
  5
1019
102
{ACAD_REACTORS
330
C
102
}
330
C
100
AcDbProxyObject
 90
      499
 91
      530
 95
   917527
 70
     0
 93
       50
310
00010040400000
330
0
330
0
330
101A
 94
        0
  0
ACAD_PROXY_OBJECT
  5
1014
102
{ACAD_REACTORS
330
C
102
}
330
C
100
AcDbProxyObject
 90
      499
 91
      526
 95
   917527
 70
     0
 93
     2110
310
4780504554E444F80504554E444F80504554E444F80504554E444F80504434F50598050644444544495440405184D5347202D20436F6D6D616E642043414E43454C4C45442E014191111151125510101461354D1C80B4810DBDB5B585B990810D05390D1531311510B80504554E444F805054C4159455280505584C494E458
310
05054C4159455280505584C494E4580504554E444F80504554E444F805054C4159455280505584C494E45805054C4159455280505584C494E4580504554E444F805044C494E45805044C494E458050545524153458050454455854805044D4F564580504554E444F80504554E444F8050545524153458050155805044D4F56
310
45805065341564541538
 94
        0
  0
ACAD_PROXY_OBJECT
  5
1013
102
{ACAD_REACTORS
330
C
102
}
330
C
100
AcDbProxyObject
 90
      499
 91
      525
 95
   917527
 70
     0
 93
      210
310
060000444000000000000000000010541A0000000000AAA406AAB5
360
1016
360
1017
360
1018
360
101A
360
102F
 94
        0
  0
ACAD_PROXY_OBJECT
  5
101E
102
{ACAD_REACTORS
330
C
102
}
330
C
100
AcDbProxyObject
 90
      499
 91
      535
 95
   917527
 70
     0
 93
       50
310
06000041641280
 94
        0
  0
ACAD_PROXY_OBJECT
  5
1015
102
{ACAD_REACTORS
330
C
102
}
330
C
100
AcDbProxyObject
 90
      499
 91
      527
 95
   917527
 70
     0
 93
       48
310
903412000000
330
1016
330
1017
330
1018
 94
        0
  0
ACAD_PROXY_OBJECT
  5
102E
102
{ACAD_REACTORS
330
C
102
}
330
C
100
AcDbProxyObject
 90
      499
 91
      527
 95
   917527
 70
     0
 93
       32
310
90140A00
330
102F
 94
        0
  0
DICTIONARY
  5
1026
102
{ACAD_REACTORS
330
C
102
}
330
C
100
AcDbDictionary
281
     1
  3
AcMgSettings
350
1027
  3
AMGLAYCFG
350
1032
  0
DICTIONARY
  5
1062
102
{ACAD_REACTORS
330
C
102
}
330
C
100
AcDbDictionary
281
     1
  3
DIMENSION
350
1067
  3
FEA
350
1066
  3
HATCH (1)
350
1063
  3
HATCH (2)
350
1064
  3
SIMPLE WELD
350
1068
  3
SYMBOLS
350
1065
  0
ACAD_PROXY_OBJECT
  5
1025
102
{ACAD_REACTORS
330
C
102
}
330
C
100
AcDbProxyObject
 90
      499
 91
      540
 95
   917527
 70
     0
 93
       34
310
0500004280
 94
        0
  0
DICTIONARY
  5
23
102
{ACAD_REACTORS
330
C
102
}
330
C
100
AcDbDictionary
281
     1
  0
DICTIONARY
  5
1252
102
{ACAD_REACTORS
330
1251
102
}
330
1251
100
AcDbDictionary
281
     1
  0
DICTIONARY
  5
10CF
102
{ACAD_REACTORS
330
E62
102
}
330
E62
100
AcDbDictionary
281
     1
  3
*A1
350
10D0
  0
XRECORD
  5
FFE
102
{ACAD_REACTORS
330
E62
102
}
330
E62
100
AcDbXrecord
280
     1
340
18
  0
SORTENTSTABLE
  5
123B
102
{ACAD_REACTORS
330
E62
102
}
330
E62
100
AcDbSortentsTable
330
18
331
1E62
  5
1E72
331
1E43
  5
1E53
331
1E24
  5
1E34
331
1E0D
  5
1E1D
331
1DEE
  5
1DFE
331
1E63
  5
1E73
331
1E44
  5
1E54
331
1E25
  5
1E35
331
1E0E
  5
1E1E
331
1DEF
  5
1DFF
331
1E64
  5
1E74
331
1E45
  5
1E55
331
1E26
  5
1E36
331
1E0F
  5
1E1F
331
1DF0
  5
1E00
331
1300
  5
1310
331
1E65
  5
1E75
331
1E46
  5
1E56
331
1E27
  5
1E37
331
1E10
  5
1E20
331
1DF1
  5
1E01
331
1320
  5
1331
331
1301
  5
1311
331
1E66
  5
1E76
331
1E47
  5
1E57
331
1E28
  5
1E38
331
1E11
  5
1E21
331
1DF2
  5
1E02
331
1338
  5
1348
331
1321
  5
1332
331
1302
  5
1312
331
1E67
  5
1E77
331
1E48
  5
1E58
331
1E29
  5
1E39
331
1E12
  5
1E22
331
1DF3
  5
1E03
331
1358
  5
1368
331
1339
  5
1349
331
1322
  5
1333
331
1303
  5
1313
331
1E68
  5
1E78
331
1E49
  5
1E59
331
1E2A
  5
1E3A
331
1E13
  5
1E23
331
1DF4
  5
1E04
331
1378
  5
1388
331
1359
  5
1369
331
133A
  5
134A
331
1323
  5
1334
331
1304
  5
1314
331
1E69
  5
1E79
331
1E4A
  5
1E5A
331
1E2B
  5
1E3B
331
1E14
  5
1E24
331
1DF5
  5
1E05
331
1398
  5
1A51
331
1379
  5
1389
331
135A
  5
136A
331
133B
  5
134B
331
1324
  5
1335
331
1305
  5
1315
331
1E6A
  5
1EE8
331
1E4B
  5
1E5B
331
1E2C
  5
1E3C
331
1E15
  5
1E25
331
1DF6
  5
1E06
331
1399
  5
1A52
331
137A
  5
138A
331
135B
  5
136B
331
133C
  5
134C
331
1325
  5
1336
331
1306
  5
1316
331
1E6B
  5
1EE9
331
1E4C
  5
1E5C
331
1E2D
  5
1E3D
331
1E16
  5
1E26
331
1DF7
  5
1E07
331
139A
  5
1A53
331
137B
  5
138B
331
135C
  5
136C
331
133D
  5
134D
331
1326
  5
1337
331
1307
  5
1317
331
1E6C
  5
1EEA
331
1E4D
  5
1E5D
331
1E2E
  5
1E3E
331
1E17
  5
1E27
331
1DF8
  5
1E08
331
139B
  5
1A54
331
137C
  5
138C
331
135D
  5
136D
331
133E
  5
134E
331
1308
  5
1318
331
1E6D
  5
1EEB
331
1E4E
  5
1E5E
331
1E2F
  5
1E3F
331
1DF9
  5
1E09
331
139C
  5
1A55
331
137D
  5
138D
331
135E
  5
136E
331
133F
  5
134F
331
1328
  5
1338
331
1309
  5
1319
331
1E6E
  5
1EEC
331
1E4F
  5
1E5F
331
1E30
  5
1E40
331
1DFA
  5
1E0A
331
139D
  5
1A56
331
137E
  5
138E
331
135F
  5
136F
331
1340
  5
1350
331
1329
  5
1339
331
130A
  5
131A
331
1E6F
  5
1EED
331
1E50
  5
1E60
331
1E31
  5
1E41
331
1DFB
  5
1E0B
331
139E
  5
1A57
331
137F
  5
138F
331
1360
  5
1370
331
1341
  5
1351
331
132A
  5
133A
331
130B
  5
131B
331
1E70
  5
1EEE
331
1E51
  5
1E61
331
1E32
  5
1E42
331
1DFC
  5
1E0C
331
139F
  5
1A58
331
1380
  5
1390
331
1361
  5
1371
331
1342
  5
1352
331
132B
  5
133B
331
130C
  5
131C
331
1E71
  5
1EEF
331
1E52
  5
1E62
331
1E33
  5
1E43
331
1DFD
  5
1E0D
331
13A0
  5
1A59
331
1381
  5
1391
331
1362
  5
1372
331
1343
  5
1353
331
132C
  5
133C
331
130D
  5
131D
331
1E72
  5
1EF0
331
1E53
  5
1E63
331
1E34
  5
1E44
331
1DFE
  5
1E0E
331
13A1
  5
1A5A
331
1382
  5
1392
331
1363
  5
1373
331
1344
  5
1354
331
132D
  5
133D
331
130E
  5
131E
331
1E73
  5
1EF1
331
1E54
  5
1E64
331
1E35
  5
1E45
331
1DFF
  5
1E0F
331
13A2
  5
1A5B
331
1383
  5
1393
331
1364
  5
1374
331
1345
  5
1355
331
132E
  5
133E
331
130F
  5
131F
331
1EE8
  5
1EF8
331
1E74
  5
1EF2
331
1E55
  5
1E65
331
1E36
  5
1E46
331
13A3
  5
1A5C
331
1384
  5
1394
331
1365
  5
1375
331
1346
  5
1356
331
132F
  5
133F
331
1310
  5
1320
331
1E75
  5
1EF3
331
1E56
  5
1E66
331
1E37
  5
1E47
331
1385
  5
1395
331
1366
  5
1376
331
1347
  5
1357
331
1330
  5
1340
331
1311
  5
1321
331
1E76
  5
1EF4
331
1E57
  5
1E67
331
1386
  5
1396
331
1367
  5
1377
331
1348
  5
1358
331
1331
  5
1341
331
1312
  5
1322
331
1E77
  5
1EF5
331
1387
  5
1397
331
1368
  5
1378
331
1349
  5
1359
331
1332
  5
1342
331
1313
  5
1323
331
1388
  5
1398
331
1369
  5
1379
331
134A
  5
135A
331
1333
  5
1343
331
1314
  5
1324
331
1389
  5
1399
331
136A
  5
137A
331
134B
  5
135B
331
1334
  5
1344
331
1315
  5
1325
331
138A
  5
139A
331
136B
  5
137B
331
134C
  5
135C
331
1335
  5
1345
331
1316
  5
1326
331
138B
  5
139B
331
136C
  5
137C
331
134D
  5
135D
331
1336
  5
1346
331
1317
  5
1328
331
138C
  5
139C
331
136D
  5
137D
331
134E
  5
135E
331
1337
  5
1347
331
1318
  5
1329
331
D4E
  5
D4E
331
138D
  5
139D
331
136E
  5
137E
331
134F
  5
135F
331
1319
  5
132A
331
138E
  5
139E
331
136F
  5
137F
331
1350
  5
1360
331
131A
  5
132B
331
138F
  5
139F
331
1370
  5
1380
331
1351
  5
1361
331
131B
  5
132C
331
1390
  5
13A0
331
1371
  5
1381
331
1352
  5
1362
331
131C
  5
132D
331
1391
  5
13A1
331
1372
  5
1382
331
1353
  5
1363
331
131D
  5
132E
331
1392
  5
13A2
331
1373
  5
1383
331
1354
  5
1364
331
131E
  5
132F
331
12FF
  5
130F
331
1393
  5
13A3
331
1374
  5
1384
331
1355
  5
1365
331
131F
  5
1330
331
1394
  5
1A4D
331
1375
  5
1385
331
1356
  5
1366
331
1395
  5
1A4E
331
1376
  5
1386
331
1357
  5
1367
331
1396
  5
1A4F
331
1377
  5
1387
331
1397
  5
1A50
331
1E00
  5
1E10
331
1E18
  5
1E28
331
1E01
  5
1E11
331
1E38
  5
1E48
331
1E19
  5
1E29
331
1E02
  5
1E12
331
1E58
  5
1E68
331
1E39
  5
1E49
331
1E1A
  5
1E2A
331
1E03
  5
1E13
331
1E78
  5
1EF6
331
1E59
  5
1E69
331
1E3A
  5
1E4A
331
1E1B
  5
1E2B
331
1E04
  5
1E14
331
1E79
  5
1EF7
331
1E5A
  5
1E6A
331
1E3B
  5
1E4B
331
1E1C
  5
1E2C
331
1E05
  5
1E15
331
1DE6
  5
1DF6
331
1E5B
  5
1E6B
331
1E3C
  5
1E4C
331
1E1D
  5
1E2D
331
1E06
  5
1E16
331
1DE7
  5
1DF7
331
1E5C
  5
1E6C
331
1E3D
  5
1E4D
331
1E1E
  5
1E2E
331
1E07
  5
1E17
331
1DE8
  5
1DF8
331
1E5D
  5
1E6D
331
1E3E
  5
1E4E
331
1E1F
  5
1E2F
331
1E08
  5
1E18
331
1DE9
  5
1DF9
331
1E5E
  5
1E6E
331
1E3F
  5
1E4F
331
1E20
  5
1E30
331
1E09
  5
1E19
331
1DEA
  5
1DFA
331
1E5F
  5
1E6F
331
1E40
  5
1E50
331
1E21
  5
1E31
331
1E0A
  5
1E1A
331
1DEB
  5
1DFB
331
1E60
  5
1E70
331
1E41
  5
1E51
331
1E22
  5
1E32
331
1E0B
  5
1E1B
331
1DEC
  5
1DFC
331
1E61
  5
1E71
331
1E42
  5
1E52
331
1E23
  5
1E33
331
1E0C
  5
1E1C
331
1DED
  5
1DFD
  0
XRECORD
  5
FFD
102
{ACAD_REACTORS
330
E60
102
}
330
E60
100
AcDbXrecord
280
     1
340
15
  0
LAYOUT
  5
CE
102
{ACAD_REACTORS
330
CC
102
}
330
CC
100
AcDbPlotSettings
  1

  2
DWF ePlot.pc3
  4
ANSI_A_(8.50_x_11.00_Inches)
  6

 40
5.793749809265136
 41
17.79375076293945
 42
5.793746948242187
 43
17.79376220703125
 44
215.8999938964844
 45
279.3999938964844
 46
0.0
 47
0.0
 48
0.0
 49
0.0
140
0.0
141
0.0
142
1.0
143
62.59909159938531
 70
 11952
 72
     0
 73
     1
 74
     0
  7
yama1.ctb
 75
     0
147
0.0159746727061103
 76
     0
 77
     2
 78
   300
148
0.0
149
0.0
100
AcDbLayout
  1
Model
 70
     1
 71
     0
 10
0.0
 20
0.0
 11
12.0
 21
9.0
 12
0.0
 22
0.0
 32
0.0
 14
0.0
 24
0.0
 34
0.0
 15
0.0
 25
0.0
 35
0.0
146
0.0
 13
0.0
 23
0.0
 33
0.0
 16
1.0
 26
0.0
 36
0.0
 17
0.0
 27
1.0
 37
0.0
 76
     0
330
18
  0
LAYOUT
  5
CF
102
{ACAD_REACTORS
330
CC
102
}
330
CC
100
AcDbPlotSettings
  1

  2
\\NT1\XEROX 2F
  4

  6

 40
0.0
 41
0.0
 42
0.0
 43
0.0
 44
0.0
 45
0.0
 46
0.0
 47
0.0
 48
0.0
 49
0.0
140
0.0
141
0.0
142
1.0
143
1.0
 70
   688
 72
     0
 73
     0
 74
     5
  7
yama1.ctb
 75
    16
147
1.0
 76
     0
 77
     2
 78
   300
148
0.0
149
0.0
100
AcDbLayout
  1
ﾚｲｱｳﾄ1
 70
     1
 71
     1
 10
0.0
 20
0.0
 11
420.0
 21
297.0
 12
0.0
 22
0.0
 32
0.0
 14
1.000000000000000E+20
 24
1.000000000000000E+20
 34
1.000000000000000E+20
 15
-1.000000000000000E+20
 25
-1.000000000000000E+20
 35
-1.000000000000000E+20
146
0.0
 13
0.0
 23
0.0
 33
0.0
 16
1.0
 26
0.0
 36
0.0
 17
0.0
 27
1.0
 37
0.0
 76
     0
330
15
  0
MATERIAL
  5
113C
102
{ACAD_REACTORS
330
113A
102
}
330
113A
100
AcDbMaterial
  1
ByBlock
  2

  0
MATERIAL
  5
113B
102
{ACAD_REACTORS
330
113A
102
}
330
113A
100
AcDbMaterial
  1
ByLayer
  2

  0
MATERIAL
  5
113D
102
{ACAD_REACTORS
330
113A
102
}
330
113A
100
AcDbMaterial
  1
Global
  2

  0
MLEADERSTYLE
  5
1142
102
{ACAD_REACTORS
330
1141
102
}
330
1141
100
AcDbMLeaderStyle
170
     2
171
     1
172
     0
 90
        2
 40
0.0
 41
0.0
173
     1
 91
-1056964608
340
12
 92
       -2
290
     1
 42
0.09
291
     1
 43
0.36
  3
Standard
341
0
 44
0.18
300

342
F
174
     1
178
     1
175
     1
176
     0
 93
-1056964608
 45
0.18
292
     0
297
     0
 46
0.18
343
0
 94
-1056964608
 47
1.0
 49
1.0
140
1.0
293
     1
141
0.0
294
     1
177
     0
142
1.0
295
     0
296
     0
143
0.125
1001
ACAD_MLEADERVER
1070
     2
  0
MLINESTYLE
  5
1C
102
{ACAD_REACTORS
330
1B
102
}
330
1B
100
AcDbMlineStyle
  2
STANDARD
 70
     0
  3

 62
   256
 51
90.0
 52
90.0
 71
     2
 49
0.5
 62
   256
  6
BYLAYER
 49
-0.5
 62
   256
  6
BYLAYER
  0
ACDBPLACEHOLDER
  5
CB
102
{ACAD_REACTORS
330
CA
102
}
330
CA
  0
SCALE
  5
1119
102
{ACAD_REACTORS
330
1118
102
}
330
1118
100
AcDbScale
 70
     0
300
1:1
140
1.0
141
1.0
290
     1
  0
SCALE
  5
111A
102
{ACAD_REACTORS
330
1118
102
}
330
1118
100
AcDbScale
 70
     0
300
1:2
140
1.0
141
2.0
290
     0
  0
SCALE
  5
111B
102
{ACAD_REACTORS
330
1118
102
}
330
1118
100
AcDbScale
 70
     0
300
1:4
140
1.0
141
4.0
290
     0
  0
SCALE
  5
111C
102
{ACAD_REACTORS
330
1118
102
}
330
1118
100
AcDbScale
 70
     0
300
1:5
140
1.0
141
5.0
290
     0
  0
SCALE
  5
111D
102
{ACAD_REACTORS
330
1118
102
}
330
1118
100
AcDbScale
 70
     0
300
1:8
140
1.0
141
8.0
290
     0
  0
SCALE
  5
111E
102
{ACAD_REACTORS
330
1118
102
}
330
1118
100
AcDbScale
 70
     0
300
1:10
140
1.0
141
10.0
290
     0
  0
SCALE
  5
111F
102
{ACAD_REACTORS
330
1118
102
}
330
1118
100
AcDbScale
 70
     0
300
1:16
140
1.0
141
16.0
290
     0
  0
SCALE
  5
1120
102
{ACAD_REACTORS
330
1118
102
}
330
1118
100
AcDbScale
 70
     0
300
1:20
140
1.0
141
20.0
290
     0
  0
SCALE
  5
1121
102
{ACAD_REACTORS
330
1118
102
}
330
1118
100
AcDbScale
 70
     0
300
1:30
140
1.0
141
30.0
290
     0
  0
SCALE
  5
1122
102
{ACAD_REACTORS
330
1118
102
}
330
1118
100
AcDbScale
 70
     0
300
1:40
140
1.0
141
40.0
290
     0
  0
SCALE
  5
1123
102
{ACAD_REACTORS
330
1118
102
}
330
1118
100
AcDbScale
 70
     0
300
1:50
140
1.0
141
50.0
290
     0
  0
SCALE
  5
1124
102
{ACAD_REACTORS
330
1118
102
}
330
1118
100
AcDbScale
 70
     0
300
1:100
140
1.0
141
100.0
290
     0
  0
SCALE
  5
1125
102
{ACAD_REACTORS
330
1118
102
}
330
1118
100
AcDbScale
 70
     0
300
2:1
140
2.0
141
1.0
290
     0
  0
SCALE
  5
1126
102
{ACAD_REACTORS
330
1118
102
}
330
1118
100
AcDbScale
 70
     0
300
4:1
140
4.0
141
1.0
290
     0
  0
SCALE
  5
1127
102
{ACAD_REACTORS
330
1118
102
}
330
1118
100
AcDbScale
 70
     0
300
8:1
140
8.0
141
1.0
290
     0
  0
SCALE
  5
1128
102
{ACAD_REACTORS
330
1118
102
}
330
1118
100
AcDbScale
 70
     0
300
10:1
140
10.0
141
1.0
290
     0
  0
SCALE
  5
1129
102
{ACAD_REACTORS
330
1118
102
}
330
1118
100
AcDbScale
 70
     0
300
100:1
140
100.0
141
1.0
290
     0
  0
SCALE
  5
112A
102
{ACAD_REACTORS
330
1118
102
}
330
1118
100
AcDbScale
 70
     0
300
1/128" = 1'-0"
140
0.0078125
141
12.0
290
     0
  0
SCALE
  5
112B
102
{ACAD_REACTORS
330
1118
102
}
330
1118
100
AcDbScale
 70
     0
300
1/64" = 1'-0"
140
0.015625
141
12.0
290
     0
  0
SCALE
  5
112C
102
{ACAD_REACTORS
330
1118
102
}
330
1118
100
AcDbScale
 70
     0
300
1/32" = 1'-0"
140
0.03125
141
12.0
290
     0
  0
SCALE
  5
112D
102
{ACAD_REACTORS
330
1118
102
}
330
1118
100
AcDbScale
 70
     0
300
1/16" = 1'-0"
140
0.0625
141
12.0
290
     0
  0
SCALE
  5
112E
102
{ACAD_REACTORS
330
1118
102
}
330
1118
100
AcDbScale
 70
     0
300
3/32" = 1'-0"
140
0.09375
141
12.0
290
     0
  0
SCALE
  5
112F
102
{ACAD_REACTORS
330
1118
102
}
330
1118
100
AcDbScale
 70
     0
300
1/8" = 1'-0"
140
0.125
141
12.0
290
     0
  0
SCALE
  5
1130
102
{ACAD_REACTORS
330
1118
102
}
330
1118
100
AcDbScale
 70
     0
300
3/16" = 1'-0"
140
0.1875
141
12.0
290
     0
  0
SCALE
  5
1131
102
{ACAD_REACTORS
330
1118
102
}
330
1118
100
AcDbScale
 70
     0
300
1/4" = 1'-0"
140
0.25
141
12.0
290
     0
  0
SCALE
  5
1132
102
{ACAD_REACTORS
330
1118
102
}
330
1118
100
AcDbScale
 70
     0
300
3/8" = 1'-0"
140
0.375
141
12.0
290
     0
  0
SCALE
  5
1133
102
{ACAD_REACTORS
330
1118
102
}
330
1118
100
AcDbScale
 70
     0
300
1/2" = 1'-0"
140
0.5
141
12.0
290
     0
  0
SCALE
  5
1134
102
{ACAD_REACTORS
330
1118
102
}
330
1118
100
AcDbScale
 70
     0
300
3/4" = 1'-0"
140
0.75
141
12.0
290
     0
  0
SCALE
  5
1135
102
{ACAD_REACTORS
330
1118
102
}
330
1118
100
AcDbScale
 70
     0
300
1" = 1'-0"
140
1.0
141
12.0
290
     0
  0
SCALE
  5
1136
102
{ACAD_REACTORS
330
1118
102
}
330
1118
100
AcDbScale
 70
     0
300
1-1/2" = 1'-0"
140
1.5
141
12.0
290
     0
  0
SCALE
  5
1137
102
{ACAD_REACTORS
330
1118
102
}
330
1118
100
AcDbScale
 70
     0
300
3" = 1'-0"
140
3.0
141
12.0
290
     0
  0
SCALE
  5
1138
102
{ACAD_REACTORS
330
1118
102
}
330
1118
100
AcDbScale
 70
     0
300
6" = 1'-0"
140
6.0
141
12.0
290
     0
  0
SCALE
  5
1139
102
{ACAD_REACTORS
330
1118
102
}
330
1118
100
AcDbScale
 70
     0
300
1'-0" = 1'-0"
140
12.0
141
12.0
290
     0
  0
TABLESTYLE
  5
1140
102
{ACAD_XDICTIONARY
360
1F67
102
}
102
{ACAD_REACTORS
330
113F
102
}
330
113F
100
AcDbTableStyle
  3
Standard
 70
     0
 71
     0
 40
0.06
 41
0.06
280
     0
281
     0
  7
STANDARD
140
4.5
170
     2
 62
     0
 63
   257
283
     0
274
    -2
284
     1
 64
     0
275
    -2
285
     1
 65
     0
276
    -2
286
     1
 66
     0
277
    -2
287
     1
 67
     0
278
    -2
288
     1
 68
     0
279
    -2
289
     1
 69
     0
  7
STANDARD
140
6.0
170
     5
 62
     0
 63
   257
283
     0
274
    -2
284
     1
 64
     0
275
    -2
285
     1
 65
     0
276
    -2
286
     1
 66
     0
277
    -2
287
     1
 67
     0
278
    -2
288
     1
 68
     0
279
    -2
289
     1
 69
     0
  7
STANDARD
140
4.5
170
     5
 62
     0
 63
   257
283
     0
274
    -2
284
     1
 64
     0
275
    -2
285
     1
 65
     0
276
    -2
286
     1
 66
     0
277
    -2
287
     1
 67
     0
278
    -2
288
     1
 68
     0
279
    -2
289
     1
 69
     0
  0
DICTIONARYVAR
  5
116E
102
{ACAD_REACTORS
330
10E3
102
}
330
10E3
100
DictionaryVariables
280
     0
  1
STANDARD
  0
DICTIONARYVAR
  5
116D
102
{ACAD_REACTORS
330
10E3
102
}
330
10E3
100
DictionaryVariables
280
     0
  1
STANDARD
  0
DICTIONARYVAR
  5
10E5
102
{ACAD_REACTORS
330
10E3
102
}
330
10E3
100
DictionaryVariables
280
     0
  1
1
  0
DICTIONARYVAR
  5
10E4
102
{ACAD_REACTORS
330
10E3
102
}
330
10E3
100
DictionaryVariables
280
     0
  1
1
  0
ACAD_PROXY_OBJECT
  5
102B
102
{ACAD_REACTORS
330
102A
102
}
330
102A
100
AcDbProxyObject
 90
      499
 91
      542
 95
   917527
 70
     0
 93
      118
310
405010040CA904C415CD5B0757102A
350
102C
 94
        0
  0
DICTIONARY
  5
1030
102
{ACAD_REACTORS
330
102A
102
}
330
102A
100
AcDbDictionary
281
     1
  3
ISO
350
1031
  0
ACAD_PROXY_OBJECT
  5
1016
330
0
100
AcDbProxyObject
 90
      499
 91
      528
 95
   917527
 70
     0
 93
      156
310
00010143D050D351505391D5531054925390D494
330
1013
 94
        0
  0
ACAD_PROXY_OBJECT
  5
1017
330
0
100
AcDbProxyObject
 90
      499
 91
      528
 95
   917527
 70
     0
 93
      148
310
000101439050D351531253915054925390D491
330
1013
 94
        0
  0
ACAD_PROXY_OBJECT
  5
1018
330
0
100
AcDbProxyObject
 90
      499
 91
      529
 95
   917527
 70
     0
 93
      156
310
000101439050D35154D6535093D314D25691508C
330
1013
 94
        0
  0
ACAD_PROXY_OBJECT
  5
101A
330
0
100
AcDbProxyObject
 90
      499
 91
      531
 95
   917527
 70
     0
 93
      120
310
000101422565255A6557080C402B00
330
1013
330
0
330
0
 94
        0
  0
ACAD_PROXY_OBJECT
  5
102F
330
0
100
AcDbProxyObject
 90
      499
 91
      544
 95
   917527
 70
     0
 93
      140
310
00010142105350D55494D5110050349534FC
330
1013
 94
        0
  0
DICTIONARY
  5
1027
102
{ACAD_REACTORS
330
1026
102
}
330
1026
100
AcDbDictionary
281
     1
  3
DWGSETTINGS
350
1028
  3
TRANSSETTINGS
350
1029
  0
ACAD_PROXY_OBJECT
  5
1032
102
{ACAD_REACTORS
330
1026
102
}
330
1026
100
AcDbProxyObject
 90
      499
 91
      546
 95
   917527
 70
     0
 93
    12938
310
41102491013041105357CC1074CA404C504414D5F31439329013241105357CC9054CA404CD04414D5F33419199013441105357CD103466404D504414D5F3540D199013641105357CD90248E404DD04414D5F37411199013841105357CE101466404E504414D5F397F641102324141505357CC4C1074CA408D10505414D5F31
310
3140D19902495041505357CC4C9074C902408C13905414D5F304E41D32902314E41505357CC5390E4CA408C93905414D5F324E41532902334E41505357CCD3906466408D13905414D5F344E40D19902354E41505357CD53903466408D93905414D5F364E40923902374E41505357CDD3904466408E13905414D5F384E40519
310
902394E41505357CE539FD90440CC9053906414D5F31304E41D3290334414E41905357CC4C5390346640D25413906414D5F31324E41D32409044B4C494E41505357D0D3101465094112539193D08414D5F50415245464111942D055241484D3541905357D093D49074C9094115925155D08414D5F56494557534051942D064
310
24548494E4441905357D253959FD90D415514905253105414D5F545240D194250348494441905357D212511074650940D59254D06414D5F56495341D324250650415244494D42505357D410549112535034650941949151911253509414D5F52454644494D4111942553411092139590139CFFFFFFFF415092139594D06424
310
548494E44CFFFFFFFF411093D48C9055241484D3540519411093D48CD055241484D3540923411093D48D5055241484D35CFFFFFFFF4110D0530C90134CFFFFFFFF4110D0530CD0134409234110D0530D5013441D324110D0530DD0134479464110D1539390137CFFFFFFFF4110D15395D0137CFFFFFFFF4110D312539044B4
310
C494ECFFFFFFFF4110D3D38C50130CFFFFFFFF4110D3D38C90131CFFFFFFFF4110D3D38CD0132CFFFFFFFF4110D3D38D10132CFFFFFFFF411111551050134CFFFFFFFF4111125051D0135CFFFFFFFF411112531250135CFFFFFFFF411112535410650415244494DCFFFFFFFF411112535490652454644494DCFFFFFFFF4111
310
91535390138CFFFFFFFF4151915354139013840CFFFFFFFF4151915354D41023441CFFFFFFFF4151915354D5102344140D1941519153559390132CFFFFFFFF4151915355951013240D194112105510D0138CFFFFFFFF411212511390133CFFFFFFFF4112125115D0133CFFFFFFFF411213125390134CFFFFFFFF411213D0D3
310
90137CFFFFFFFF411213D0D5D0137CFFFFFFFF4112539193D04494E464FCFFFFFFFF411311505110135CFFFFFFFF419397D0921395902394ECFFFFFFFF419397D0D3D38C502304ECFFFFFFFF419397D0D3D38C902314ECFFFFFFFF419397D0D3D38CD02324ECFFFFFFFF419397D0D3D38D102324ECFFFFFFFF419397D0D153
310
93902374ECFFFFFFFF419397D0D15395D02374ECFFFFFFFF419397D1125312502354ECFFFFFFFF419397D2105510D02384ECFFFFFFFF419397D2125113902334ECFFFFFFFF419397D2125115D02334ECFFFFFFFF419397D3115051102354ECFFFFFFFF419397D391D25410349504ECFFFFFFFF419397D412105390334414EC
310
FFFFFFFF419397D510D3D3902304ECFFFFFFFF419397D5121312502344ECFFFFFFFF419397D5131153902304ECFFFFFFFF419397D594131250332414ECFFFFFFFF411391D2541024950CFFFFFFFF411410530C9055241484D3540519411410530CD055241484D3540923411410530D5055241484D35CFFFFFFFF4114121053
310
9023441CFFFFFFFF411413D4D390135CFFFFFFFF411490D1D390137CFFFFFFFF411490D1D5D0137CFFFFFFFF4114D09492D0134CFFFFFFFF4114D150D510134CFFFFFFFF4114D6508CD013540923411354D6535013540923411510D3D390130CFFFFFFFF411512131250134CFFFFFFFF411512550C9055241484D354051941
310
1512550CD055241484D3540923411512550D5055241484D35CFFFFFFFF411513115390130CFFFFFFFF415514905253105545241494CCFFFFFFFF411514931250134CFFFFFFFF411516150C5013640D19411516150C9013640D19411516150CD0136CFFFFFFFF411516150D5013641D32411516150DD0136479464115925155
310
D0456494557CFFFFFFFF4115915112103484944CFFFFFFFF4115915115903564953CFFFFFFFF41159413125023241CFFFFFFFF411692569050134CFFFFFFFFAA9FD404FE4290E4C9074C906465054C904465034650248D014651E519FD83
340
14
340
14
340
14
340
1033
340
14
340
14
340
14
340
1034
340
14
340
14
340
1034
340
1035
340
14
340
14
340
14
340
14
340
1033
340
14
340
14
340
14
340
1034
340
14
340
14
340
1034
340
1035
340
14
340
1036
340
14
340
14
340
14
340
14
340
14
340
1033
340
14
340
14
340
14
340
13
340
13
340
13
340
13
340
13
340
13
340
13
340
13
340
13
340
1037
340
13
340
13
340
13
340
13
340
13
340
13
340
13
340
13
340
13
340
13
340
13
340
13
340
13
340
14
340
13
340
13
340
13
340
13
340
1038
340
13
340
13
340
1037
340
13
340
13
340
13
340
13
340
13
340
13
340
13
340
13
340
1037
340
13
340
13
340
13
340
1038
340
13
340
13
340
13
340
13
340
13
340
13
340
13
340
13
340
13
340
13
340
13
340
13
340
13
340
13
340
1037
340
13
340
13
340
13
340
13
340
13
340
13
340
13
340
13
340
13
340
13
340
13
340
13
340
13
340
13
340
13
340
13
340
13
340
13
340
13
340
13
340
13
340
13
340
1039
 94
        0
  0
ACAD_PROXY_OBJECT
  5
1067
102
{ACAD_REACTORS
330
1062
102
}
330
1062
100
AcDbProxyObject
 90
      499
 91
      562
 95
   917527
 70
     0
 93
      253
310
43D1444494D454E53494F4E2C414D44545F2A5F44494D404A9012A404A9012AC
 94
        0
  0
ACAD_PROXY_OBJECT
  5
1066
102
{ACAD_REACTORS
330
1062
102
}
330
1062
100
AcDbProxyObject
 90
      499
 91
      562
 95
   917527
 70
     0
 93
      181
310
43D012A42D05357D191504B505357CA9012A404A9012AD
 94
        0
  0
ACAD_PROXY_OBJECT
  5
1063
102
{ACAD_REACTORS
330
1062
102
}
330
1062
100
AcDbProxyObject
 90
      499
 91
      562
 95
   917527
 70
     0
 93
      133
310
43D054841544348404A9012A404A9012AC
 94
        0
  0
ACAD_PROXY_OBJECT
  5
1064
102
{ACAD_REACTORS
330
1062
102
}
330
1062
100
AcDbProxyObject
 90
      499
 91
      562
 95
   917527
 70
     0
 93
      549
310
43D044C494E4549CE0B0E138B0A8B4E0B0A8B4E138B105357CE0B105357CE138B0A8B505357CE0B0A8B505357CE139012A404A910494E534552542C535444504152543244B
 94
        0
  0
ACAD_PROXY_OBJECT
  5
1068
102
{ACAD_REACTORS
330
1062
102
}
330
1062
100
AcDbProxyObject
 90
      499
 91
      562
 95
   917527
 70
     0
 93
      181
310
43D0341524341105357CD5012A404C906494E534552545
 94
        0
  0
ACAD_PROXY_OBJECT
  5
1065
102
{ACAD_REACTORS
330
1062
102
}
330
1062
100
AcDbProxyObject
 90
      499
 91
      562
 95
   917527
 70
     0
 93
     1053
310
43D7841434D46434652414D452C41434D444154554D5441524745542C41434D444154554D49442C41434D57454C4453594D2C41434D5355524653594D2C41434D4645415449442C41434D504152545245462C41434D42414C4C4F4F4E2C414D44544544474553594D2C414D47534352455743414C435441424C45404A9012A
310
404A9012AB
 94
        0
  0
LAYER_INDEX
  5
10D0
102
{ACAD_REACTORS
330
10CF
102
}
330
10CF
100
AcDbIndex
 40
2460733.724023032
100
AcDbLayerIndex
  8
0
360
10D1
 90
        1
  8
DEFPOINTS
360
10D2
 90
        0
  8
HASEN
360
10D3
 90
        0
  8
HATCH
360
10D4
 90
        0
  8
HOJO
360
10D5
 90
        0
  8
HOJOORG
360
10D6
 90
        0
  8
ITTEN
360
10D7
 90
        4
  8
JISSEN
360
10D8
 90
      133
  8
NITEN
360
10D9
 90
        0
  8
POINT
360
10DA
 90
        0
  8
SAISEN
360
10DB
 90
        0
  8
SUNPOU
360
10DC
 90
       11
  8
TENSEN
360
10DD
 90
        0
  8
TEXT
360
10DE
 90
        4
  8
WAKU
360
10DF
 90
      161
  8
氷出口(CS)
360
10E0
 90
        0
  8
AM_CL
360
10E1
 90
        0
  0
DICTIONARY
  5
1F67
330
1140
100
AcDbDictionary
280
     1
281
     1
  3
ACAD_ROUNDTRIP_2008_TABLESTYLE_CELLSTYLEMAP
360
1F69
  3
ACAD_XREC_ROUNDTRIP
360
1F68
  0
ACAD_PROXY_OBJECT
  5
102C
102
{ACAD_REACTORS
330
102B
102
}
330
102B
100
AcDbProxyObject
 90
      499
 91
      543
 95
   917527
 70
     0
 93
      139
310
057356C1D5C406406AA8FFFFFFFF0AE24049
330
18
330
0
330
0
 94
        0
  0
ACAD_PROXY_OBJECT
  5
1031
102
{ACAD_REACTORS
330
1030
102
}
330
1030
100
AcDbProxyObject
 90
      499
 91
      545
 95
   917527
 70
     0
 93
     2211
310
5700000000000000C40D0349534F405901409020000000000000310322287A1682DAC8E88AC8CECAA6E8C8812028720B1B6A9BAB9332A32BC3A29BA3220480A1282C6DA8C868CA6E8C88120286A0B1B6ABB2B63234B733A9BA3220480A1082C6DA92C8A6E8C88120285A0B1B6A230BA3AB6A9BA3220480A1282C6DA849E9AA
310
6E8C8812028820B6B23A2232BA30B4B629BCB6A9BA3220480A2282DAC8E8A6CAC6E8D2DEDCA6F2DAA6E8C88120288A0B6B23A21B2B73A32B92634B732A9BA3220480A1682DAC8E89CDEE8CAA6E8C88120285A0B1A0B6B3A630BCA9BA3220480A1682C682DACE88D2DAA6E8C88120288A0B1A0B6B3A437B632A1B430B93A29B
310
A3220480A1A82C682DACEA8D2E8D8CAA6E8C8812032040
340
103A
360
103B
360
103C
360
103D
360
103E
360
103F
360
1040
360
1041
360
1042
360
1043
360
1044
360
1045
360
104B
360
104C
360
1058
360
1059
 94
        0
  0
ACAD_PROXY_OBJECT
  5
1028
102
{ACAD_REACTORS
330
1027
102
}
330
1027
100
AcDbProxyObject
 90
      499
 91
      541
 95
   917527
 70
     0
 93
     2340
310
4050B44574753455454494E4753A1286829C8E82A4A482B282A106660F8686AF86C608321A2A720A723A0A849A1ABE1C983E18999AA0C868A9C889282940000000000000488083A1A2A72224A0A9A0A8418983E19183E199820E868A9C8892A6A894000000000000010808321A2A72622A7250000000000000122020C868A9
310
C9E8C8C940000000000000488084A1A624A720A92920ACA0A809B2108698929C8AA8B2A082A0AB098929C8A84A22BA3AAA9A1A0A622A50A0E9882A6A89E849482A02608426A0A5A2AB24A2ABA7E8120CA0A68682988A0C00800010652455649534941501304154D0D0531150540CC4E8D50954494D455354414D504A0D0A45
310
AC1A11C734141D5915494D253D3905414C4D4B8C0C1107B44574753455454494E4753454E447D0
 94
        0
  0
ACAD_PROXY_OBJECT
  5
1029
102
{ACAD_REACTORS
330
1027
102
}
330
1027
100
AcDbProxyObject
 90
      499
 91
      541
 95
   917527
 70
     0
 93
      852
310
4050D5452414E5353455454494E4753A2488A482AE929C8EA8A4829CA69882A8929E9C0C00800050D4F524947494E414C4C595F4F4E0600400008529A7AAA921A2A620A723A0A81A52827212AAA0A48AA68AA4AC8A0C0080001107B44574753455454494E4753454E447D8
 94
        0
  0
IDBUFFER
  5
10D1
330
0
100
AcDbIdBuffer
330
D4E
  0
IDBUFFER
  5
10D2
330
0
100
AcDbIdBuffer
  0
IDBUFFER
  5
10D3
330
0
100
AcDbIdBuffer
  0
IDBUFFER
  5
10D4
330
0
100
AcDbIdBuffer
  0
IDBUFFER
  5
10D5
330
0
100
AcDbIdBuffer
  0
IDBUFFER
  5
10D6
330
0
100
AcDbIdBuffer
  0
IDBUFFER
  5
10D7
330
0
100
AcDbIdBuffer
330
1E54
330
1E55
330
1E52
330
1E53
  0
IDBUFFER
  5
10D8
330
0
100
AcDbIdBuffer
330
1DE6
330
1DE7
330
1DE8
330
1DE9
330
1DEA
330
1DEB
330
1DEC
330
1DED
330
1DEE
330
1DEF
330
1DF0
330
1DF1
330
1DF2
330
1DF3
330
1DF4
330
1DF5
330
1DF6
330
1DF7
330
1DF8
330
1DF9
330
1DFA
330
1DFB
330
1DFC
330
1DFD
330
1DFE
330
1DFF
330
1E00
330
1E01
330
1E02
330
1E03
330
1E04
330
1E05
330
1E06
330
1E07
330
1E08
330
1E09
330
1E0A
330
1E0B
330
1E0C
330
1E0D
330
1E0E
330
1E0F
330
1E10
330
1E11
330
1E12
330
1E13
330
1E14
330
1E15
330
1E16
330
1E17
330
1E18
330
1E19
330
1E1A
330
1E1B
330
1E1C
330
1E1D
330
1E1E
330
1E1F
330
1E20
330
1E21
330
1E22
330
1E23
330
1E24
330
1E25
330
1E26
330
1E27
330
1E28
330
1E29
330
1E2A
330
1E2B
330
1E2C
330
1E2D
330
1E2E
330
1E2F
330
1E30
330
1E31
330
1E32
330
1E33
330
1E34
330
1E35
330
1E36
330
1E37
330
1E38
330
1E39
330
1E3A
330
1E3B
330
1E3C
330
1E3D
330
1E3E
330
1E3F
330
1E44
330
1E45
330
1E46
330
1E47
330
1E48
330
1E49
330
1E4A
330
1E4B
330
1E4C
330
1E4D
330
1E4E
330
1E4F
330
1E50
330
1E51
330
1E56
330
1E57
330
1E58
330
1E59
330
1E5A
330
1E5B
330
1E5C
330
1E5D
330
1E5E
330
1E5F
330
1E60
330
1E61
330
1E62
330
1E63
330
1E64
330
1E65
330
1E66
330
1E67
330
1E6F
330
1E70
330
1E71
330
1E72
330
1E73
330
1E74
330
1E75
330
1E76
330
1E77
330
1E78
330
1E79
  0
IDBUFFER
  5
10D9
330
0
100
AcDbIdBuffer
  0
IDBUFFER
  5
10DA
330
0
100
AcDbIdBuffer
  0
IDBUFFER
  5
10DB
330
0
100
AcDbIdBuffer
  0
IDBUFFER
  5
10DC
330
0
100
AcDbIdBuffer
330
1E40
330
1E41
330
1E42
330
1E43
330
1E68
330
1E69
330
1E6A
330
1E6B
330
1E6C
330
1E6D
330
1E6E
  0
IDBUFFER
  5
10DD
330
0
100
AcDbIdBuffer
  0
IDBUFFER
  5
10DE
330
0
100
AcDbIdBuffer
330
12FF
330
1305
330
1306
330
1EE8
  0
IDBUFFER
  5
10DF
330
0
100
AcDbIdBuffer
330
1300
330
1301
330
1302
330
1303
330
1304
330
1307
330
1308
330
1309
330
130A
330
130B
330
130C
330
130D
330
130E
330
130F
330
1310
330
1311
330
1312
330
1313
330
1314
330
1315
330
1316
330
1317
330
1318
330
1319
330
131A
330
131B
330
131C
330
131D
330
131E
330
131F
330
1320
330
1321
330
1322
330
1323
330
1324
330
1325
330
1326
330
1328
330
1329
330
132A
330
132B
330
132C
330
132D
330
132E
330
132F
330
1330
330
1331
330
1332
330
1333
330
1334
330
1335
330
1336
330
1337
330
1338
330
1339
330
133A
330
133B
330
133C
330
133D
330
133E
330
133F
330
1340
330
1341
330
1342
330
1343
330
1344
330
1345
330
1346
330
1347
330
1348
330
1349
330
134A
330
134B
330
134C
330
134D
330
134E
330
134F
330
1350
330
1351
330
1352
330
1353
330
1354
330
1355
330
1356
330
1357
330
1358
330
1359
330
135A
330
135B
330
135C
330
135D
330
135E
330
135F
330
1360
330
1361
330
1362
330
1363
330
1364
330
1365
330
1366
330
1367
330
1368
330
1369
330
136A
330
136B
330
136C
330
136D
330
136E
330
136F
330
1370
330
1371
330
1372
330
1373
330
1374
330
1375
330
1376
330
1377
330
1378
330
1379
330
137A
330
137B
330
137C
330
137D
330
137E
330
137F
330
1380
330
1381
330
1382
330
1383
330
1384
330
1385
330
1386
330
1387
330
1388
330
1389
330
138A
330
138B
330
138C
330
138D
330
138E
330
138F
330
1390
330
1391
330
1392
330
1393
330
1394
330
1395
330
1396
330
1397
330
1398
330
1399
330
139A
330
139B
330
139C
330
139D
330
139E
330
139F
330
13A0
330
13A1
330
13A2
330
13A3
  0
IDBUFFER
  5
10E0
330
0
100
AcDbIdBuffer
  0
IDBUFFER
  5
10E1
330
0
100
AcDbIdBuffer
  0
CELLSTYLEMAP
  5
1F69
102
{ACAD_REACTORS
330
1F67
102
}
330
1F67
100
AcDbCellStyleMap
 90
        3
300
CELLSTYLE
  1
TABLEFORMAT_BEGIN
 90
        5
170
     1
 91
        0
 92
        0
 62
   257
 93
        1
300
CONTENTFORMAT
  1
CONTENTFORMAT_BEGIN
 90
        0
 91
        0
 92
        4
 93
        0
300

 40
0.0
140
1.0
 94
        5
 62
     0
340
F
144
6.0
309
CONTENTFORMAT_END
171
     0
 94
        6
 95
        1
302
GRIDFORMAT
  1
GRIDFORMAT_BEGIN
 90
        0
 91
        1
 62
     0
 92
       -2
340
0
 93
        0
 40
0.045
309
GRIDFORMAT_END
 95
        2
302
GRIDFORMAT
  1
GRIDFORMAT_BEGIN
 90
        0
 91
        1
 62
     0
 92
       -2
340
0
 93
        0
 40
0.045
309
GRIDFORMAT_END
 95
        4
302
GRIDFORMAT
  1
GRIDFORMAT_BEGIN
 90
        0
 91
        1
 62
     0
 92
       -2
340
0
 93
        0
 40
0.045
309
GRIDFORMAT_END
 95
        8
302
GRIDFORMAT
  1
GRIDFORMAT_BEGIN
 90
        0
 91
        1
 62
     0
 92
       -2
340
0
 93
        0
 40
0.045
309
GRIDFORMAT_END
 95
       16
302
GRIDFORMAT
  1
GRIDFORMAT_BEGIN
 90
        0
 91
        1
 62
     0
 92
       -2
340
0
 93
        0
 40
0.045
309
GRIDFORMAT_END
 95
       32
302
GRIDFORMAT
  1
GRIDFORMAT_BEGIN
 90
        0
 91
        1
 62
     0
 92
       -2
340
0
 93
        0
 40
0.045
309
GRIDFORMAT_END
309
TABLEFORMAT_END
  1
CELLSTYLE_BEGIN
 90
        1
 91
        1
300
_TITLE
309
CELLSTYLE_END
300
CELLSTYLE
  1
TABLEFORMAT_BEGIN
 90
        5
170
     1
 91
        0
 92
        0
 62
   257
 93
        1
300
CONTENTFORMAT
  1
CONTENTFORMAT_BEGIN
 90
        0
 91
        0
 92
        4
 93
        0
300

 40
0.0
140
1.0
 94
        5
 62
     0
340
F
144
4.5
309
CONTENTFORMAT_END
171
     0
 94
        6
 95
        1
302
GRIDFORMAT
  1
GRIDFORMAT_BEGIN
 90
        0
 91
        1
 62
     0
 92
       -2
340
0
 93
        0
 40
0.045
309
GRIDFORMAT_END
 95
        2
302
GRIDFORMAT
  1
GRIDFORMAT_BEGIN
 90
        0
 91
        1
 62
     0
 92
       -2
340
0
 93
        0
 40
0.045
309
GRIDFORMAT_END
 95
        4
302
GRIDFORMAT
  1
GRIDFORMAT_BEGIN
 90
        0
 91
        1
 62
     0
 92
       -2
340
0
 93
        0
 40
0.045
309
GRIDFORMAT_END
 95
        8
302
GRIDFORMAT
  1
GRIDFORMAT_BEGIN
 90
        0
 91
        1
 62
     0
 92
       -2
340
0
 93
        0
 40
0.045
309
GRIDFORMAT_END
 95
       16
302
GRIDFORMAT
  1
GRIDFORMAT_BEGIN
 90
        0
 91
        1
 62
     0
 92
       -2
340
0
 93
        0
 40
0.045
309
GRIDFORMAT_END
 95
       32
302
GRIDFORMAT
  1
GRIDFORMAT_BEGIN
 90
        0
 91
        1
 62
     0
 92
       -2
340
0
 93
        0
 40
0.045
309
GRIDFORMAT_END
309
TABLEFORMAT_END
  1
CELLSTYLE_BEGIN
 90
        2
 91
        1
300
_HEADER
309
CELLSTYLE_END
300
CELLSTYLE
  1
TABLEFORMAT_BEGIN
 90
        5
170
     1
 91
        0
 92
        0
 62
   257
 93
        1
300
CONTENTFORMAT
  1
CONTENTFORMAT_BEGIN
 90
        0
 91
        0
 92
        4
 93
        0
300

 40
0.0
140
1.0
 94
        2
 62
     0
340
F
144
4.5
309
CONTENTFORMAT_END
171
     0
 94
        6
 95
        1
302
GRIDFORMAT
  1
GRIDFORMAT_BEGIN
 90
        0
 91
        1
 62
     0
 92
       -2
340
0
 93
        0
 40
0.045
309
GRIDFORMAT_END
 95
        2
302
GRIDFORMAT
  1
GRIDFORMAT_BEGIN
 90
        0
 91
        1
 62
     0
 92
       -2
340
0
 93
        0
 40
0.045
309
GRIDFORMAT_END
 95
        4
302
GRIDFORMAT
  1
GRIDFORMAT_BEGIN
 90
        0
 91
        1
 62
     0
 92
       -2
340
0
 93
        0
 40
0.045
309
GRIDFORMAT_END
 95
        8
302
GRIDFORMAT
  1
GRIDFORMAT_BEGIN
 90
        0
 91
        1
 62
     0
 92
       -2
340
0
 93
        0
 40
0.045
309
GRIDFORMAT_END
 95
       16
302
GRIDFORMAT
  1
GRIDFORMAT_BEGIN
 90
        0
 91
        1
 62
     0
 92
       -2
340
0
 93
        0
 40
0.045
309
GRIDFORMAT_END
 95
       32
302
GRIDFORMAT
  1
GRIDFORMAT_BEGIN
 90
        0
 91
        1
 62
     0
 92
       -2
340
0
 93
        0
 40
0.045
309
GRIDFORMAT_END
309
TABLEFORMAT_END
  1
CELLSTYLE_BEGIN
 90
        3
 91
        2
300
_DATA
309
CELLSTYLE_END
  0
XRECORD
  5
1F68
102
{ACAD_REACTORS
330
1F67
102
}
330
1F67
100
AcDbXrecord
280
     1
102
ACAD_ROUNDTRIP_PRE2007_TABLESTYLE
 90
        4
 91
        0
  1

 92
        4
 93
        0
  2

 94
        4
 95
        0
  3

  0
ACAD_PROXY_OBJECT
  5
103B
330
1031
100
AcDbProxyObject
 90
      499
 91
      547
 95
   917527
 70
     0
 93
       12
310
5710
 94
        0
  0
ACAD_PROXY_OBJECT
  5
103C
330
1031
100
AcDbProxyObject
 90
      499
 91
      548
 95
   917527
 70
     0
 93
       96
310
572A0E80A0280A0280A0280F
 94
        0
  0
ACAD_PROXY_OBJECT
  5
103D
330
1031
100
AcDbProxyObject
 90
      499
 91
      549
 95
   917527
 70
     0
 93
      272
310
5710E4050140501405014050140501405014050140D01405012C0000000000000040
340
1046
 94
        0
  0
ACAD_PROXY_OBJECT
  5
103E
330
1031
100
AcDbProxyObject
 90
      499
 91
      550
 95
   917527
 70
     0
 93
      496
310
5728666666666667A67E199999999999E99FD224050140501405014050140501405014050140501405014050140501405014050140501405014050140501
340
1047
 94
        0
  0
ACAD_PROXY_OBJECT
  5
103F
330
1031
100
AcDbProxyObject
 90
      499
 91
      551
 95
   917527
 70
     0
 93
       10
310
5738
 94
        0
  0
ACAD_PROXY_OBJECT
  5
1040
330
1031
100
AcDbProxyObject
 90
      499
 91
      552
 95
   917527
 70
     0
 93
      223
310
572290EA22A7D90F49F8000000000000108140000000000000420205
340
1048
340
1049
 94
        0
  0
ACAD_PROXY_OBJECT
  5
1041
330
1031
100
AcDbProxyObject
 90
      499
 91
      553
 95
   917527
 70
     0
 93
    12255
310
5710E411255115350141236025B690140501406901000000000000091013347454E545241434F2C4A504E2C302C8D8096DA2C47454E54524154582C25732C2847454E4D53472067656E647767203232322940690120281A8AA2CA0282484A4BE52028120280A0320200000000000012202668E8A9CA8A482869E5894A09C58
310
605921292F94588E8A9CA8A482A8B0584AE658508E8A9C9AA68E40CECADCC8EECE406464665280D202405044E414D454050496BC914F4051C40640A80000000000004E404CD1D15395149050D3CB1294138B0C0B25AF2453CB11D15395149055160B095CCB0A11D1539354D1C819D95B991DD9C80C8C8D8A50190B3D424C4F
310
434B3A4E414D4540480A0A888AA686A480A0921C12D7C80A3A80C81D0000000000100A28099A3A2A72A2920A1A79625282716181648704B5F1623A2A72A2920AA2C1612B9961423A2A726A9A39033B2B7323BB39019189B94A034809014214D51053911054911014122D2E29A50147501904A000000000000125013347454E
310
545241434F2C4A504E2C302C8B4B8A692C47454E54524154582C25732C2847454E4D53472067656E64776720323138294069012028426A0AA22A924A0A62028246EF4BDFA028EA0320B40000000000001CA02668E8A9CA8A482869E5894A09C5860591BBD2F7E588E8A9CA8A482A8B0584AE658508E8A9C9AA68E40CECADCC
310
8EECE406464625280D202405044E4F544540504928D8B4C4051D40641A80000000000003E404CD1D15395149050D3CB1294138B0C0B24A362D30B11D15395149055160B095CCB0A11D1539354D1C819D95B991DD9C80C8C8D4A501240480A0CAC8A9C889EA480A0D9BBDBB81BD6080A3A80C83D00000000000007C809AA3A2
310
A72A2920A1A79625282716181666EF6EE06F581623A2A72A2920AA2C1612B9961423A2A726A9A39033B2B7323BB39019191A14A0248090141911154D0D48C90141A43825AF880C90147501908A000000000020145013447454E545241434F2C4A504E2C302C90E096BE20322C47454E54524154582C25732C2847454E4D534
310
72067656E6477672033362940490120284A9AA20A72220A922192028345A5C53490192028EA03213400000000000024A026A8E8A9CA8A482869E5894A09C586059169714D24064588E8A9CA8A482A8B0584AE658508E8A9C9AA68E40CECADCC8EECE4064646052809202405094D4154455249414C32405068DDE97BF203240
310
51D40642A8713D0AD7A37045404D11D15395149050D3CB1294138B0C0B2377A5EFC80C8B11D15395149055160B095CCB0A11D1539354D1C819D95B991DD9C80D0C0A501240480A089A82A6A680A091D7F2F9480A3A80A0485A068100000000000007C809923A2A72A2920A1A796252827161816475FCBE51623A2A72A2920A
310
A2C1612B9961423A2A726A9A39033B2B7323BB3901A1914A024809014154149250D150141226FE29A501475014090C409020000000000000F9013247454E545241434F2C4A504E2C302C89BF8A692C47454E54524154582C25732C2847454E4D53472067656E6477672034332940490120281A224A6A02824850CB202028EA
310
028121A81A040000000000001F202648E8A9CA8A482869E5894A09C58605921432C80588E8A9CA8A482A8B0584AE658508E8A9C9AA68E40CECADCC8EECE406868528092024050E445020000000000000510107004060000000000000F9000000000000003E4041CF4F125511534F9014060000000000000F90000000000000
310
03E4041CF4F125511534F9014060000000000000D100000000000000344041CF4F125511534F9014060000000000000D100000000000000344041CF4F125511534F90140A4040000000000003E400000000000000F901073D3C4954454D3E405063D3C5154593E4050180000000000003E400000000000000F901073D3C495
310
4454D3E406404000000000000003E400000000000000F902888000000000000208081A0881A068120480A032208521122080D21480D211480A1485214852050000000000003C2FC000000000000F0BF4050241CCDCCCCCCCCCCEC3F3373333333333B0FC0000000000000C40480D0590140D04416406800000000000018808
310
120480A026280A03
340
0
340
0
 94
        0
  0
ACAD_PROXY_OBJECT
  5
1042
330
1031
100
AcDbProxyObject
 90
      499
 91
      554
 95
   917527
 70
     0
 93
      864
310
5704000000000000144048CF4F11115510525317D3105091530F880A0F11115510525317D05094D4D0D053114F8A51141C9A9999999999B93F26A666666666724FC000000000000E03F4000000000000004000000000000005100000000000000244041C0000000000001440
340
14
340
103A
 94
        0
  0
ACAD_PROXY_OBJECT
  5
1043
330
1031
100
AcDbProxyObject
 90
      499
 91
      555
 95
   917527
 70
     0
 93
      745
310
5700B00000000000002880959E9E29A2A1AA24A7A72FA620A122A62FA324A929AA1F169E29A2A1AA24A7A72FA620A122A62FA620A9AA1F00000000000004880FF41C88A0E0000000000001220000000000000028800000000000000A2000
340
36
340
103A
 94
        0
  0
ACAD_PROXY_OBJECT
  5
1044
330
1031
100
AcDbProxyObject
 90
      499
 91
      556
 95
   917527
 70
     0
 93
      151
310
57280000000000000840A3D0A5723F0BD1F200
 94
        0
  0
ACAD_PROXY_OBJECT
  5
1045
330
1031
100
AcDbProxyObject
 90
      499
 91
      557
 95
   917527
 70
     0
 93
     8042
310
571084050B90142A4050240509C3DDCCDFDAB0C420314043A013D2525633C486F6C653A63746469613E2078203C486F6C653A637464657074683E20555C503C696628657175616C28486F6C653A7461707065642C223022292C22252563222C486F6C653A6E6F6D696E616C202220782022293E3C696628657175616C28486
310
F6C653A7461707065642C223022292C486F6C653A6469612C486F6C653A706974636864657363293E3C696628657175616C28486F6C653A7461707065642C223122292C22207820222C2222293E3C696628657175616C28486F6C653A7461707065642C223122292C486F6C653A74617064657074682C2222293E203C69662
310
8657175616C28486F6C653A7465726D696E6174696F6E2C223022292C22202F20222C2222293E3C696628657175616C28486F6C653A7465726D696E6174696F6E2C223022292C486F6C653A64657074682C2222293E4064050340509C3DDCCDFDAB0C420314043B013D2525633C486F6C653A63746469613E2078203C486F6
310
C653A6374616E676C653E2525645C503C696628657175616C28486F6C653A7461707065642C223022292C22252563222C486F6C653A6E6F6D696E616C202220782022293E3C696628657175616C28486F6C653A7461707065642C223022292C486F6C653A6469612C486F6C653A706974636864657363293E3C69662865717
310
5616C28486F6C653A7461707065642C223122292C22207820222C2222293E3C696628657175616C28486F6C653A7461707065642C223122292C486F6C653A74617064657074682C2222293E203C696628657175616C28486F6C653A7465726D696E6174696F6E2C223022292C22202F20222C2222293E3C696628657175616
310
C28486F6C653A7465726D696E6174696F6E2C223022292C486F6C653A64657074682C2222293E4064050140509C3DDCCDFDAB0C4203140416013D3C696628657175616C28486F6C653A7461707065642C223022292C22252563222C486F6C653A6E6F6D696E616C202220782022293E3C696628657175616C28486F6C653A7
310
461707065642C223022292C486F6C653A6469612C486F6C653A706974636864657363293E3C696628657175616C28486F6C653A7461707065642C223122292C22207820222C2222293E3C696628657175616C28486F6C653A7461707065642C223122292C486F6C653A74617064657074682C2222293E203C6966286571756
310
16C28486F6C653A7465726D696E6174696F6E2C223022292C22202F20222C2222293E3C696628657175616C28486F6C653A7465726D696E6174696F6E2C223022292C486F6C653A64657074682C2222293E4064051E40509C3DDCCDFDAB0C420314050C3D3C535444503A444553433E40640515AB5
 94
        0
  0
ACAD_PROXY_OBJECT
  5
104B
330
1031
100
AcDbProxyObject
 90
      499
 91
      558
 95
   917527
 70
     0
 93
       20
310
571013
340
1032
 94
        0
  0
ACAD_PROXY_OBJECT
  5
104C
330
1031
100
AcDbProxyObject
 90
      499
 91
      559
 95
   917527
 70
     0
 93
      250
310
571020000000000000A1000000000000002440408F0F9023C3E409A0DCFFFF88
340
104D
340
0
340
0
340
104E
340
104F
340
1050
340
1051
340
1052
340
1057
340
0
 94
        0
  0
ACAD_PROXY_OBJECT
  5
1058
330
1031
100
AcDbProxyObject
 90
      499
 91
      560
 95
   917527
 70
     0
 93
    13131
310
5711A003FFFFFFFD03030003000000000000031000903030003000000000000031000805098DC0955782CCD8BDC4014E11D15395149050D3CB1294138B0C0B23702555E0B3362F710B11D15395149055160B095CCB0A11D1539354D1C819D95B991A5B5E880CCC0A78000C0000000000000000000000000000000100000000
310
0000031010240000000000000C4040A0141E322B0EC3337B64053647454E545241434F2C4A504E2C302C8C8AC3B0CCDED92C47454E54524154582C25732C2847454E4D53472067656E64696D7A20333129E00030000000000000000000000000000000040000000000000C40409000000000000031010290D4411140903411
310
0541D0C4350F4050E44D03449074510F000141232D24D7C053247454E545241434F2C4A504E2C302C8CB4935F2C47454E54524154582C25732C2847454E4D53472067656E64696D7A20312900010105002214000281464500A608E8A9CA8A482869E5894A09C5860591914588E8A9CA8A482A8B0584AE658508E8A9C9AA68E
310
40CECADCC8D2DAF4406452029F9E9E27B934B3B4B71F1E24A31427A91424A9A12620A7259427B934B3B4B7149624A9A12620A7259424B73232BC149496111116111711149F1E24B73232BC1F00808200111A000140560052F47454E545241434F2C4A504E2C302C582C47454E54524154582C25732C2847454E4D534720676
310
56E64696D7A20332900010100002054000280AC80A5E8E8A9CA8A482869E5894A09C586058B2588E8A9CA8A482A8B0584AE658508E8A9C9AA68E40CECADCC8D2DAF4406852000202000040E800050152014BD1D15395149050D3CB1294138B0C0B148B11D15395149055160B095CCB0A11D1539354D1C819D95B991A5B5E88
310
0D8A400040400008250000A0507A6029823A2A72A2920A1A79625282716181641E99623A2A72A2920AA2C1612B9961423A2A726A9A39033B2B73234B6BD101B948000808180105A000140A0F4C053047454E545241434F2C4A504E2C302C83D32C47454E54524154582C25732C2847454E4D53472067656E64696D7A203829
310
000101010020F400028248704B5F00A668E8A9CA8A482869E5894A09C58605921C12D7C588E8A9CA8A482A8B0584AE658508E8A9C9AA68E40CECADCC8D2DAF440646052000200080043280005048B4B8A69014CD1D15395149050D3CB1294138B0C0B22D2E29A4B11D15395149055160B095CCB0A11D1539354D1C819D95B9
310
91A5B5E880C8C4A4000400100086D0000A09196926BE029923A2A72A2920A1A796252827161816465A49AF9623A2A72A2920AA2C1612B9961423A2A726A9A39033B2B73234B6BD10189480A026202020A0043E80005048D8096DA014CD1D15395149050D3CB1294138B0C0B236025B68B11D15395149055160B095CCB0A11D
310
1539354D1C819D95B991A5B5E880C4D0A4000404140080D0000A0F65BB87BD5F717A029B23A2A72A2920A1A796252827161816596EE1EF57DC5E9623A2A72A2920AA2C1612B9961423A2A726A9A39033B2B73234B6BD10189A94800080828010EA0001426322ACB770F7ABEE2F4053847454E545241434F2C4A504E2C302C8
310
C8AB2DDC3DEAFB8BD2C47454E54524154582C25732C2847454E4D53472067656E64696D7A2031372900010105002274000281464500A628E8A9CA8A482869E5894A09C5860591914588E8A9CA8A482A8B0584AE658508E8A9C9AA68E40CECADCC8D2DAF440626C52000202080044A8000504909497CA014CD1D15395149050
310
D3CB1294138B0C0B242525F28B11D15395149055160B095CCB0A11D1539354D1C819D95B991A5B5E880C4E4A400040418008A521E000000000000001CA040C00000000000034408080000000000006881010000000000000D102040000000000001A2040800000000000034408180000000000007281030000000000001250
310
20600000000004028A040000000000000034408000000000000004881000000000000000D102000000000000001A204000000000000003440818000000000000508143C0000000000000039408180000000000006881030000000000000D102060000000000001A2040C000000000000344081800000000000068810300000
310
00000000E5020600000000000024A040C000000000080514080000000000000068810000000000000009102000000000000001A2040000000000000034408180000000000006881030000000000000A10283A2000000087800000204000000818000002080000008280000020E00000080A240000005
340
0
340
0
340
0
340
0
 94
        0
  0
ACAD_PROXY_OBJECT
  5
1059
330
1031
100
AcDbProxyObject
 90
      499
 91
      561
 95
   917527
 70
     0
 93
     6922
310
5719740D254D3D0649534F5F4133429254D3D7D5125513115051349534F5F42525F5265766973696F6E6C69737446111413478342028323937783834316D6D2920421254D3D7D04D1E0D11141327835202835393478323130326D6D29421254D3D7D04C9E0D51141347839202832393778313839326D6D29421254D3D7D04D
310
1E0E51141337837202834323078323038306D6D29421254D3D7D04CDE0DD1141347838202832393778313638326D6D29421254D3D7D04D1E0E11141327834202835393478313638326D6D29421254D3D7D04C9E0D10E41312028353934783834316D6D29419254D3D7D04C51141347837202832393778313437316D6D29421
310
254D3D7D04D1E0DD1141347836202832393778313236316D6D29421254D3D7D04D1E0D91141347835202832393778313035316D6D29421254D3D7D04D1E0D5104130202838343078313138396D6D2920419254D3D7D04C10E41332028323937783432306D6D29419254D3D7D04CD1141327833202835393478313236316D6D
310
29421254D3D7D04C9E0CD10413478332028323937783633306D6D29421254D3D7D04D1E0CD1141337834202834323078313138396D6D29421254D3D7D04CDE0D11141337836202834323078313738336D6D29421254D3D7D04CDE0D91141337835202834323078313438366D6D29421254D3D7D04CDE0D50E4132202834323
310
0783539346D6D29419254D3D7D04C910413378332028343230783839316D6D29421254D3D7D04CDE0CD0E41342028323937783231306D6D29419254D3D7D04D1124130783220283131383978313638326D6D29421254D3D7D04C1E0C9124130783320283131383978323532336D6D29421254D3D7D04C1E0CD114131783420
310
2838343178323337386D6D29421254D3D7D04C5E0D11141317833202838343178313738336D6D29421254D3D7D04C5E0CD02431254D3C82557247A25E4C81050A49534F5F5449544C4541431254D3C82557247A25E4C81090A49534F5F5449544C45424110B979A97F0D8BDC45F424C5F44D254D3D7D09317D4995D9A5CDA5
310
BDB9B1A5CDD10B979A97F0D8BDC45F544C5F44D254D3D7D51317D4995D9A5CDA5BDB9B1A5CDD10B979A97F0D8BDC45F42525F44D254D3D7D09497D4995D9A5CDA5BDB9B1A5CDD10B979A97F0D8BDC45F54525F44D254D3D7D51497D4995D9A5CDA5BDB9B1A5CDD31
 94
        0
  0
ENDSEC
  0
EOF
