  0
SECTION
  2
HEADER
  9
$ACADVER
  1
AC1015
  9
$ACADMAINTVER
 70
    20
  9
$DWGCODEPAGE
  3
ANSI_932
  9
$INSBASE
 10
0.0
 20
0.0
 30
0.0
  9
$EXTMIN
 10
-14265.76434537658
 20
-65192.74646015884
 30
-0.0000000100019834
  9
$EXTMAX
 10
-9823.721108451973
 20
-62153.93204926344
 30
0.0000000100019837
  9
$LIMMIN
 10
0.0
 20
0.0
  9
$LIMMAX
 10
3600.0
 20
2433.0
  9
$ORTHOMODE
 70
     0
  9
$REGENMODE
 70
     1
  9
$FILLMODE
 70
     1
  9
$QTEXTMODE
 70
     0
  9
$MIRRTEXT
 70
     0
  9
$LTSCALE
 40
1.0
  9
$ATTMODE
 70
     1
  9
$TEXTSIZE
 40
1.0
  9
$TRACEWID
 40
1.0
  9
$TEXTSTYLE
  7
TTF1
  9
$CLAYER
  8
HOJO
  9
$CELTYPE
  6
BYLAYER
  9
$CECOLOR
 62
   256
  9
$CELTSCALE
 40
0.05
  9
$DISPSILH
 70
     0
  9
$DIMSCALE
 40
3.0
  9
$DIMASZ
 40
3.0
  9
$DIMEXO
 40
1.0
  9
$DIMDLI
 40
3.0
  9
$DIMRND
 40
0.0
  9
$DIMDLE
 40
0.0
  9
$DIMEXE
 40
1.0
  9
$DIMTP
 40
0.0
  9
$DIMTM
 40
0.5
  9
$DIMTXT
 40
3.0
  9
$DIMCEN
 40
0.0
  9
$DIMTSZ
 40
0.0
  9
$DIMTOL
 70
     0
  9
$DIMLIM
 70
     0
  9
$DIMTIH
 70
     0
  9
$DIMTOH
 70
     0
  9
$DIMSE1
 70
     0
  9
$DIMSE2
 70
     0
  9
$DIMTAD
 70
     3
  9
$DIMZIN
 70
     8
  9
$DIMBLK
  1
Open30
  9
$DIMASO
 70
     1
  9
$DIMSHO
 70
     1
  9
$DIMPOST
  1

  9
$DIMAPOST
  1

  9
$DIMALT
 70
     0
  9
$DIMALTD
 70
     2
  9
$DIMALTF
 40
25.4
  9
$DIMLFAC
 40
1.0
  9
$DIMTOFL
 70
     1
  9
$DIMTVP
 40
0.0
  9
$DIMTIX
 70
     0
  9
$DIMSOXD
 70
     0
  9
$DIMSAH
 70
     0
  9
$DIMBLK1
  1

  9
$DIMBLK2
  1

  9
$DIMSTYLE
  2
IMCADLT
  9
$DIMCLRD
 70
     0
  9
$DIMCLRE
 70
     0
  9
$DIMCLRT
 70
     0
  9
$DIMTFAC
 40
0.6
  9
$DIMGAP
 40
1.0
  9
$DIMJUST
 70
     0
  9
$DIMSD1
 70
     0
  9
$DIMSD2
 70
     0
  9
$DIMTOLJ
 70
     1
  9
$DIMTZIN
 70
     8
  9
$DIMALTZ
 70
     0
  9
$DIMALTTZ
 70
     0
  9
$DIMUPT
 70
     1
  9
$DIMDEC
 70
     1
  9
$DIMTDEC
 70
     1
  9
$DIMALTU
 70
     2
  9
$DIMALTTD
 70
     2
  9
$DIMTXSTY
  7
STANDARD
  9
$DIMAUNIT
 70
     0
  9
$DIMADEC
 70
     1
  9
$DIMALTRND
 40
0.0
  9
$DIMAZIN
 70
     2
  9
$DIMDSEP
 70
    46
  9
$DIMATFIT
 70
     1
  9
$DIMFRAC
 70
     0
  9
$DIMLDRBLK
  1
ARROW
  9
$DIMLUNIT
 70
     2
  9
$DIMLWD
 70
    -2
  9
$DIMLWE
 70
    -2
  9
$DIMTMOVE
 70
     0
  9
$LUNITS
 70
     2
  9
$LUPREC
 70
     2
  9
$SKETCHINC
 40
1.0
  9
$FILLETRAD
 40
10.0
  9
$AUNITS
 70
     0
  9
$AUPREC
 70
     2
  9
$MENU
  1
acad
  9
$ELEVATION
 40
0.0
  9
$PELEVATION
 40
0.0
  9
$THICKNESS
 40
0.0
  9
$LIMCHECK
 70
     0
  9
$CHAMFERA
 40
5.0
  9
$CHAMFERB
 40
5.0
  9
$CHAMFERC
 40
20.0
  9
$CHAMFERD
 40
0.0
  9
$SKPOLY
 70
     0
  9
$TDCREATE
 40
2451890.975018276
  9
$TDUCREATE
 40
2451890.600018276
  9
$TDUPDATE
 40
2460734.441712072
  9
$TDUUPDATE
 40
2460734.066712072
  9
$TDINDWG
 40
883.3568347454
  9
$TDUSRTIMER
 40
883.3568346296
  9
$USRTIMER
 70
     1
  9
$ANGBASE
 50
0.0
  9
$ANGDIR
 70
     0
  9
$PDMODE
 70
     3
  9
$PDSIZE
 40
0.0
  9
$PLINEWID
 40
0.0
  9
$SPLFRAME
 70
     0
  9
$SPLINETYPE
 70
     5
  9
$SPLINESEGS
 70
     8
  9
$HANDSEED
  5
26B5
  9
$SURFTAB1
 70
     6
  9
$SURFTAB2
 70
     6
  9
$SURFTYPE
 70
     6
  9
$SURFU
 70
     6
  9
$SURFV
 70
     6
  9
$UCSBASE
  2

  9
$UCSNAME
  2

  9
$UCSORG
 10
0.0
 20
0.0
 30
0.0
  9
$UCSXDIR
 10
1.0
 20
0.0
 30
0.0
  9
$UCSYDIR
 10
0.0
 20
1.0
 30
0.0
  9
$UCSORTHOREF
  2

  9
$UCSORTHOVIEW
 70
     0
  9
$UCSORGTOP
 10
0.0
 20
0.0
 30
0.0
  9
$UCSORGBOTTOM
 10
0.0
 20
0.0
 30
0.0
  9
$UCSORGLEFT
 10
0.0
 20
0.0
 30
0.0
  9
$UCSORGRIGHT
 10
0.0
 20
0.0
 30
0.0
  9
$UCSORGFRONT
 10
0.0
 20
0.0
 30
0.0
  9
$UCSORGBACK
 10
0.0
 20
0.0
 30
0.0
  9
$PUCSBASE
  2

  9
$PUCSNAME
  2

  9
$PUCSORG
 10
0.0
 20
0.0
 30
0.0
  9
$PUCSXDIR
 10
1.0
 20
0.0
 30
0.0
  9
$PUCSYDIR
 10
0.0
 20
1.0
 30
0.0
  9
$PUCSORTHOREF
  2

  9
$PUCSORTHOVIEW
 70
     0
  9
$PUCSORGTOP
 10
0.0
 20
0.0
 30
0.0
  9
$PUCSORGBOTTOM
 10
0.0
 20
0.0
 30
0.0
  9
$PUCSORGLEFT
 10
0.0
 20
0.0
 30
0.0
  9
$PUCSORGRIGHT
 10
0.0
 20
0.0
 30
0.0
  9
$PUCSORGFRONT
 10
0.0
 20
0.0
 30
0.0
  9
$PUCSORGBACK
 10
0.0
 20
0.0
 30
0.0
  9
$USERI1
 70
     0
  9
$USERI2
 70
     1
  9
$USERI3
 70
     3
  9
$USERI4
 70
     1
  9
$USERI5
 70
     0
  9
$USERR1
 40
3.0
  9
$USERR2
 40
3.0
  9
$USERR3
 40
3.0
  9
$USERR4
 40
2.5
  9
$USERR5
 40
5.0
  9
$WORLDVIEW
 70
     1
  9
$SHADEDGE
 70
     3
  9
$SHADEDIF
 70
    70
  9
$TILEMODE
 70
     1
  9
$MAXACTVP
 70
    48
  9
$PINSBASE
 10
0.0
 20
0.0
 30
0.0
  9
$PLIMCHECK
 70
     0
  9
$PEXTMIN
 10
1.000000000000000E+20
 20
1.000000000000000E+20
 30
1.000000000000000E+20
  9
$PEXTMAX
 10
-1.000000000000000E+20
 20
-1.000000000000000E+20
 30
-1.000000000000000E+20
  9
$PLIMMIN
 10
-0.2312499519408218
 20
-0.2312499894870548
  9
$PLIMMAX
 10
11.46541685569943
 20
8.040416409650188
  9
$UNITMODE
 70
     0
  9
$VISRETAIN
 70
     0
  9
$PLINEGEN
 70
     0
  9
$PSLTSCALE
 70
     1
  9
$TREEDEPTH
 70
  3020
  9
$CMLSTYLE
  2
STANDARD
  9
$CMLJUST
 70
     0
  9
$CMLSCALE
 40
20.0
  9
$PROXYGRAPHICS
 70
     1
  9
$MEASUREMENT
 70
     0
  9
$CELWEIGHT
370
    -1
  9
$ENDCAPS
280
     0
  9
$JOINSTYLE
280
     0
  9
$LWDISPLAY
290
     0
  9
$INSUNITS
 70
     0
  9
$HYPERLINKBASE
  1

  9
$STYLESHEET
  1
yama1.ctb
  9
$XEDIT
290
     1
  9
$CEPSNTYPE
380
     0
  9
$PSTYLEMODE
290
     1
  9
$FINGERPRINTGUID
  2
{5592E6CF-4399-41BC-83D4-14283FB729BC}
  9
$VERSIONGUID
  2
{C9C9514F-B487-4E73-B535-C84880242920}
  9
$EXTNAMES
290
     1
  9
$PSVPSCALE
 40
0.0
  9
$OLESTARTUP
290
     0
  0
ENDSEC
  0
SECTION
  2
CLASSES
  0
CLASS
  1
DICTIONARYVAR
  2
AcDbDictionaryVar
  3
ObjectDBX Classes
 90
        0
280
     0
281
     0
  0
CLASS
  1
ACDBDICTIONARYWDFLT
  2
AcDbDictionaryWithDefault
  3
ObjectDBX Classes
 90
        0
280
     0
281
     0
  0
CLASS
  1
SCALE
  2
AcDbScale
  3
ObjectDBX Classes
 90
     1153
280
     0
281
     0
  0
CLASS
  1
TABLESTYLE
  2
AcDbTableStyle
  3
ObjectDBX Classes
 90
     4095
280
     0
281
     0
  0
CLASS
  1
MLEADERSTYLE
  2
AcDbMLeaderStyle
  3
ACDB_MLEADERSTYLE_CLASS
 90
     4095
280
     0
281
     0
  0
CLASS
  1
MATERIAL
  2
AcDbMaterial
  3
ObjectDBX Classes
 90
     1153
280
     0
281
     0
  0
CLASS
  1
SORTENTSTABLE
  2
AcDbSortentsTable
  3
ObjectDBX Classes
 90
    32768
280
     0
281
     0
  0
CLASS
  1
CELLSTYLEMAP
  2
AcDbCellStyleMap
  3
NULL
 90
    33920
280
     0
281
     0
  0
CLASS
  1
ACDBPLACEHOLDER
  2
AcDbPlaceHolder
  3
ObjectDBX Classes
 90
        0
280
     0
281
     0
  0
CLASS
  1
LAYOUT
  2
AcDbLayout
  3
ObjectDBX Classes
 90
        0
280
     0
281
     0
  0
ENDSEC
  0
SECTION
  2
TABLES
  0
TABLE
  2
VPORT
  5
1C
330
0
100
AcDbSymbolTable
 70
     1
  0
VPORT
  5
1D
330
1C
100
AcDbSymbolTableRecord
100
AcDbViewportTableRecord
  2
*Active
 70
     0
 10
0.0
 20
0.0
 11
1.0
 21
1.0
 12
-11924.14517500157
 22
-63671.3220648069
 13
0.0
 23
0.0
 14
10.0
 24
10.0
 15
10.0
 25
10.0
 16
0.0
 26
0.0
 36
1.0
 17
0.0
 27
0.0
 37
0.0
 40
3127.382022803026
 41
2.257177033492823
 42
50.0
 43
0.0
 44
0.0
 50
0.0
 51
0.0
 71
     0
 72
   100
 73
     1
 74
     0
 75
     0
 76
     0
 77
     0
 78
     0
281
     0
 65
     1
110
0.0
120
0.0
130
0.0
111
1.0
121
0.0
131
0.0
112
0.0
122
1.0
132
0.0
 79
     0
146
0.0
  0
ENDTAB
  0
TABLE
  2
LTYPE
  5
17
330
0
100
AcDbSymbolTable
 70
     3
  0
LTYPE
  5
18
330
17
100
AcDbSymbolTableRecord
100
AcDbLinetypeTableRecord
  2
BYBLOCK
 70
     0
  3

 72
    65
 73
     0
 40
0.0
  0
LTYPE
  5
19
330
17
100
AcDbSymbolTableRecord
100
AcDbLinetypeTableRecord
  2
BYLAYER
 70
     0
  3

 72
    65
 73
     0
 40
0.0
  0
LTYPE
  5
8
330
17
100
AcDbSymbolTableRecord
100
AcDbLinetypeTableRecord
  2
CONTINUOUS
 70
     0
  3
Solid line
 72
    65
 73
     0
 40
0.0
  0
LTYPE
  5
13C
330
17
100
AcDbSymbolTableRecord
100
AcDbLinetypeTableRecord
  2
CENTER
 70
     0
  3
Center ____ _ ____ _ ____ _ ____ _ ____ _ ____
 72
    65
 73
     4
 40
50.8
 49
31.75
 74
     0
 49
-6.349999999999998
 74
     0
 49
6.349999999999998
 74
     0
 49
-6.349999999999998
 74
     0
  0
LTYPE
  5
F6
330
17
100
AcDbSymbolTableRecord
100
AcDbLinetypeTableRecord
  2
HIDDEN
 70
     0
  3
Hidden __ __ __ __ __ __ __ __ __ __ __ __ __ _
 72
    65
 73
     2
 40
9.524999999999996
 49
6.349999999999998
 74
     0
 49
-3.174999999999998
 74
     0
  0
ENDTAB
  0
TABLE
  2
LAYER
  5
10
102
{ACAD_XDICTIONARY
360
11
102
}
330
0
100
AcDbSymbolTable
 70
    28
  0
LAYER
  5
4
330
10
100
AcDbSymbolTableRecord
100
AcDbLayerTableRecord
  2
0
 70
     0
 62
    71
  6
CONTINUOUS
370
    -3
390
5
  0
LAYER
  5
2E
330
10
100
AcDbSymbolTableRecord
100
AcDbLayerTableRecord
  2
HOJO
 70
     0
 62
     6
  6
CONTINUOUS
370
    -3
390
5
  0
LAYER
  5
1F8
330
10
100
AcDbSymbolTableRecord
100
AcDbLayerTableRecord
  2
ITTEN
 70
     0
 62
     1
  6
CENTER
370
    -3
390
5
  0
LAYER
  5
1FA
330
10
100
AcDbSymbolTableRecord
100
AcDbLayerTableRecord
  2
JISSEN
 70
     0
 62
     7
  6
CONTINUOUS
370
    -3
390
5
  0
LAYER
  5
3B
330
10
100
AcDbSymbolTableRecord
100
AcDbLayerTableRecord
  2
SUNPOU
 70
     0
 62
     3
  6
CONTINUOUS
370
    -3
390
5
  0
LAYER
  5
D6
330
10
100
AcDbSymbolTableRecord
100
AcDbLayerTableRecord
  2
DEFPOINTS
 70
     0
 62
     7
  6
CONTINUOUS
290
     0
370
    -3
390
5
  0
LAYER
  5
1F5
330
10
100
AcDbSymbolTableRecord
100
AcDbLayerTableRecord
  2
HATCH
 70
     0
 62
     4
  6
CONTINUOUS
370
    -3
390
5
  0
LAYER
  5
1FC
330
10
100
AcDbSymbolTableRecord
100
AcDbLayerTableRecord
  2
TENSEN
 70
     0
 62
     2
  6
HIDDEN
370
    -3
390
5
  0
LAYER
  5
38
330
10
100
AcDbSymbolTableRecord
100
AcDbLayerTableRecord
  2
TEXT
 70
     0
 62
     3
  6
CONTINUOUS
370
    -3
390
5
  0
LAYER
  5
470
330
10
100
AcDbSymbolTableRecord
100
AcDbLayerTableRecord
  2
WAKU
 70
     0
 62
     5
  6
CONTINUOUS
370
    -3
390
5
  0
LAYER
  5
139
330
10
100
AcDbSymbolTableRecord
100
AcDbLayerTableRecord
  2
天板
 70
     0
 62
     7
  6
CONTINUOUS
370
    -3
390
5
  0
LAYER
  5
15E
330
10
100
AcDbSymbolTableRecord
100
AcDbLayerTableRecord
  2
アウターリング
 70
     0
 62
   253
  6
CONTINUOUS
370
    -3
390
5
  0
LAYER
  5
2E6
330
10
100
AcDbSymbolTableRecord
100
AcDbLayerTableRecord
  2
トップリング
 70
     0
 62
     7
  6
CONTINUOUS
370
    -3
390
5
  0
LAYER
  5
163
330
10
100
AcDbSymbolTableRecord
100
AcDbLayerTableRecord
  2
外釜
 70
     0
 62
   135
  6
CONTINUOUS
370
    -3
390
5
  0
LAYER
  5
10A
330
10
100
AcDbSymbolTableRecord
100
AcDbLayerTableRecord
  2
コックプレート
 70
     0
 62
    71
  6
CONTINUOUS
370
    -3
390
5
  0
LAYER
  5
122
330
10
100
AcDbSymbolTableRecord
100
AcDbLayerTableRecord
  2
コックカバー
 70
     0
 62
   111
  6
CONTINUOUS
370
    -3
390
5
  0
LAYER
  5
71
330
10
100
AcDbSymbolTableRecord
100
AcDbLayerTableRecord
  2
側板
 70
     0
 62
   161
  6
CONTINUOUS
370
    -3
390
5
  0
LAYER
  5
65
330
10
100
AcDbSymbolTableRecord
100
AcDbLayerTableRecord
  2
キャビネット
 70
     0
 62
   201
  6
CONTINUOUS
370
    -3
390
5
  0
LAYER
  5
2FF
330
10
100
AcDbSymbolTableRecord
100
AcDbLayerTableRecord
  2
点検扉　大
 70
     0
 62
    65
  6
CONTINUOUS
370
    -3
390
5
  0
LAYER
  5
102
330
10
100
AcDbSymbolTableRecord
100
AcDbLayerTableRecord
  2
点検扉　小
 70
     0
 62
    62
  6
CONTINUOUS
370
    -3
390
5
  0
LAYER
  5
16E
330
10
100
AcDbSymbolTableRecord
100
AcDbLayerTableRecord
  2
接続口ステー
 70
     0
 62
    45
  6
CONTINUOUS
370
    -3
390
5
  0
LAYER
  5
180
330
10
100
AcDbSymbolTableRecord
100
AcDbLayerTableRecord
  2
接続口
 70
     0
 62
    23
  6
CONTINUOUS
370
    -3
390
5
  0
LAYER
  5
13E
330
10
100
AcDbSymbolTableRecord
100
AcDbLayerTableRecord
  2
ツマミ
 70
     0
 62
     7
  6
CONTINUOUS
370
    -3
390
5
  0
LAYER
  5
368
330
10
100
AcDbSymbolTableRecord
100
AcDbLayerTableRecord
  2
コック
 70
     0
 62
     7
  6
CONTINUOUS
370
    -3
390
5
  0
LAYER
  5
F5
330
10
100
AcDbSymbolTableRecord
100
AcDbLayerTableRecord
  2
ＦＶＤ
 70
     0
 62
     7
  6
CONTINUOUS
370
    -3
390
5
  0
LAYER
  5
171
330
10
100
AcDbSymbolTableRecord
100
AcDbLayerTableRecord
  2
Φ8袋ﾅｯﾄ
 70
     0
 62
    83
  6
CONTINUOUS
370
    -3
390
5
  0
LAYER
  5
191
330
10
100
AcDbSymbolTableRecord
100
AcDbLayerTableRecord
  2
銅管IN
 70
     0
 62
   213
  6
CONTINUOUS
370
    -3
390
5
  0
LAYER
  5
198
330
10
100
AcDbSymbolTableRecord
100
AcDbLayerTableRecord
  2
銘板
 70
     0
 62
   251
  6
CONTINUOUS
370
    -3
390
5
  0
ENDTAB
  0
TABLE
  2
STYLE
  5
14
330
0
100
AcDbSymbolTable
 70
     4
  0
STYLE
  5
15
330
14
100
AcDbSymbolTableRecord
100
AcDbTextStyleTableRecord
  2
STANDARD
 70
     0
 40
0.0
 41
1.0
 50
0.0
 71
     0
 42
9.0
  3
romans.shx
  4
extfont.shx
  0
STYLE
  5
54
330
14
100
AcDbSymbolTableRecord
100
AcDbTextStyleTableRecord
  2
K
 70
     0
 40
0.0
 41
1.0
 50
0.0
 71
     0
 42
60.0
  3
romans.shx
  4
EXTFONT.shx
  0
STYLE
  5
35
330
14
100
AcDbSymbolTableRecord
100
AcDbTextStyleTableRecord
  2
TTF1
 70
     0
 40
0.0
 41
1.0
 50
0.0
 71
     0
 42
1.0
  3

  4

1001
ACAD
1000
MS Gothic
1071
    32817
  0
ENDTAB
  0
TABLE
  2
VIEW
  5
1A
330
0
100
AcDbSymbolTable
 70
     0
  0
ENDTAB
  0
TABLE
  2
UCS
  5
1B
330
0
100
AcDbSymbolTable
 70
     0
  0
ENDTAB
  0
TABLE
  2
APPID
  5
1E
330
0
100
AcDbSymbolTable
 70
     3
  0
APPID
  5
1F
330
1E
100
AcDbSymbolTableRecord
100
AcDbRegAppTableRecord
  2
ACAD
 70
     0
  0
APPID
  5
5A8
330
1E
100
AcDbSymbolTableRecord
100
AcDbRegAppTableRecord
  2
___LIKI___
 70
     0
  0
APPID
  5
26B4
330
1E
100
AcDbSymbolTableRecord
100
AcDbRegAppTableRecord
  2
ACAD_MLEADERVER
 70
     0
  0
ENDTAB
  0
TABLE
  2
DIMSTYLE
  5
20
330
0
100
AcDbSymbolTable
 70
     2
100
AcDbDimStyleTable
 71
     1
340
21
  0
DIMSTYLE
105
21
102
{ACAD_REACTORS
330
22EF
330
22F0
330
2304
330
23FB
330
23FC
330
23FD
330
20F8
330
21B1
330
21B4
330
21B5
330
21BA
330
2210
330
2211
330
2216
330
2217
330
2218
102
}
330
20
100
AcDbSymbolTableRecord
100
AcDbDimStyleTableRecord
  2
IMCADLT
 70
     0
 40
3.0
 41
2.5
 42
1.0
 43
6.0
 44
1.0
 73
     0
 74
     0
 77
     3
 78
     8
140
3.0
141
0.0
146
0.45
147
1.0
172
     1
173
     1
271
     2
272
     2
284
     8
289
     1
340
15
341
22
343
22
344
22
  0
ENDTAB
  0
TABLE
  2
BLOCK_RECORD
  5
1
330
0
100
AcDbSymbolTable
 70
    19
  0
BLOCK_RECORD
  5
2
330
1
100
AcDbSymbolTableRecord
100
AcDbBlockTableRecord
  2
*MODEL_SPACE
340
A
  0
BLOCK_RECORD
  5
C
330
1
100
AcDbSymbolTableRecord
100
AcDbBlockTableRecord
  2
*PAPER_SPACE
340
F
  0
BLOCK_RECORD
  5
22
330
1
100
AcDbSymbolTableRecord
100
AcDbBlockTableRecord
  2
ARROW
340
0
102
{BLKREFS
331
25EE
331
25EF
331
25F7
331
25F8
331
2600
331
2601
331
2609
331
260A
331
2612
331
2613
331
261B
331
261C
331
2624
331
2625
331
262D
331
262E
331
2638
331
2639
331
2643
331
2644
331
264C
331
264D
331
2655
331
2656
331
265E
331
265F
331
2669
331
266A
331
2672
331
2673
331
267B
331
267C
102
}
  0
BLOCK_RECORD
  5
2F
330
1
100
AcDbSymbolTableRecord
100
AcDbBlockTableRecord
  2
_Open30
340
0
  0
BLOCK_RECORD
  5
2525
330
1
100
AcDbSymbolTableRecord
100
AcDbBlockTableRecord
  2
*D2
340
0
  0
BLOCK_RECORD
  5
2531
330
1
100
AcDbSymbolTableRecord
100
AcDbBlockTableRecord
  2
*D3
340
0
  0
BLOCK_RECORD
  5
253D
330
1
100
AcDbSymbolTableRecord
100
AcDbBlockTableRecord
  2
*D4
340
0
  0
BLOCK_RECORD
  5
2549
330
1
100
AcDbSymbolTableRecord
100
AcDbBlockTableRecord
  2
*D5
340
0
  0
BLOCK_RECORD
  5
2555
330
1
100
AcDbSymbolTableRecord
100
AcDbBlockTableRecord
  2
*D6
340
0
  0
BLOCK_RECORD
  5
2561
330
1
100
AcDbSymbolTableRecord
100
AcDbBlockTableRecord
  2
*D7
340
0
  0
BLOCK_RECORD
  5
256D
330
1
100
AcDbSymbolTableRecord
100
AcDbBlockTableRecord
  2
*D8
340
0
  0
BLOCK_RECORD
  5
2579
330
1
100
AcDbSymbolTableRecord
100
AcDbBlockTableRecord
  2
*D9
340
0
  0
BLOCK_RECORD
  5
2585
330
1
100
AcDbSymbolTableRecord
100
AcDbBlockTableRecord
  2
*D10
340
0
  0
BLOCK_RECORD
  5
2593
330
1
100
AcDbSymbolTableRecord
100
AcDbBlockTableRecord
  2
*D11
340
0
  0
BLOCK_RECORD
  5
25A1
330
1
100
AcDbSymbolTableRecord
100
AcDbBlockTableRecord
  2
*D12
340
0
  0
BLOCK_RECORD
  5
25AD
330
1
100
AcDbSymbolTableRecord
100
AcDbBlockTableRecord
  2
*D13
340
0
  0
BLOCK_RECORD
  5
25B9
330
1
100
AcDbSymbolTableRecord
100
AcDbBlockTableRecord
  2
*D14
340
0
  0
BLOCK_RECORD
  5
25C5
330
1
100
AcDbSymbolTableRecord
100
AcDbBlockTableRecord
  2
*D15
340
0
  0
BLOCK_RECORD
  5
25D3
330
1
100
AcDbSymbolTableRecord
100
AcDbBlockTableRecord
  2
*D16
340
0
  0
BLOCK_RECORD
  5
25DF
330
1
100
AcDbSymbolTableRecord
100
AcDbBlockTableRecord
  2
*D17
340
0
  0
ENDTAB
  0
ENDSEC
  0
SECTION
  2
BLOCKS
  0
BLOCK
  5
3
330
2
100
AcDbEntity
  8
0
100
AcDbBlockBegin
  2
*MODEL_SPACE
 70
     0
 10
0.0
 20
0.0
 30
0.0
  3
*MODEL_SPACE
  1

  0
ENDBLK
  5
9
330
2
100
AcDbEntity
  8
0
100
AcDbBlockEnd
  0
BLOCK
  5
D
330
C
100
AcDbEntity
 67
     1
  8
0
100
AcDbBlockBegin
  2
*PAPER_SPACE
 70
     0
 10
0.0
 20
0.0
 30
0.0
  3
*PAPER_SPACE
  1

  0
ENDBLK
  5
E
330
C
100
AcDbEntity
 67
     1
  8
0
100
AcDbBlockEnd
  0
BLOCK
  5
23
330
22
100
AcDbEntity
  8
0
100
AcDbBlockBegin
  2
ARROW
 70
     0
 10
0.0
 20
0.0
 30
0.0
  3
ARROW
  1

  0
LINE
  5
24
330
22
100
AcDbEntity
  8
0
100
AcDbLine
 10
0.0
 20
0.0
 30
0.0
 11
-1.50000000000002
 21
-0.4019237886466982
 31
0.0
  0
LINE
  5
25
330
22
100
AcDbEntity
  8
0
100
AcDbLine
 10
-1.0
 20
0.0
 30
0.0
 11
0.0
 21
0.0
 31
0.0
  0
LINE
  5
26
330
22
100
AcDbEntity
  8
0
100
AcDbLine
 10
0.0
 20
0.0
 30
0.0
 11
-1.499999999999956
 21
0.401923788646741
 31
0.0
  0
ENDBLK
  5
27
330
22
100
AcDbEntity
  8
0
100
AcDbBlockEnd
  0
BLOCK
  5
30
330
2F
100
AcDbEntity
  8
0
100
AcDbBlockBegin
  2
_Open30
 70
     0
 10
0.0
 20
0.0
 30
0.0
  3
_Open30
  1

  0
LINE
  5
31
330
2F
100
AcDbEntity
  8
0
  6
ByBlock
 62
     0
370
    -2
100
AcDbLine
 10
-1.0
 20
0.26794919
 30
0.0
 11
0.0
 21
0.0
 31
0.0
  0
LINE
  5
32
330
2F
100
AcDbEntity
  8
0
  6
ByBlock
 62
     0
370
    -2
100
AcDbLine
 10
0.0
 20
0.0
 30
0.0
 11
-1.0
 21
-0.26794919
 31
0.0
  0
LINE
  5
33
330
2F
100
AcDbEntity
  8
0
  6
ByBlock
 62
     0
370
    -2
100
AcDbLine
 10
0.0
 20
0.0
 30
0.0
 11
-1.0
 21
0.0
 31
0.0
  0
ENDBLK
  5
34
330
2F
100
AcDbEntity
  8
0
100
AcDbBlockEnd
  0
BLOCK
  5
252F
330
2525
100
AcDbEntity
  8
0
 48
0.05
100
AcDbBlockBegin
  2
*D2
 70
     1
 10
0.0
 20
0.0
 30
0.0
  3
*D2
  1

  0
LINE
  5
25EB
330
2525
100
AcDbEntity
  8
SUNPOU
 62
     0
370
    -2
100
AcDbLine
 10
-13835.74675844993
 20
-62566.97510503267
 30
0.0
 11
-13835.74675844993
 21
-62452.59631587153
 31
0.0
  0
LINE
  5
25EC
330
2525
100
AcDbEntity
  8
SUNPOU
 62
     0
370
    -2
100
AcDbLine
 10
-12635.74675844994
 20
-62566.97510503267
 30
0.0
 11
-12635.74675844994
 21
-62452.59631587153
 31
0.0
  0
LINE
  5
25ED
330
2525
100
AcDbEntity
  8
SUNPOU
 62
     0
370
    -2
100
AcDbLine
 10
-13817.74675844993
 20
-62467.59631587153
 30
0.0
 11
-12653.74675844994
 21
-62467.59631587153
 31
0.0
  0
INSERT
  5
25EE
330
2525
100
AcDbEntity
  8
SUNPOU
 62
     0
 48
0.05
370
    -2
100
AcDbBlockReference
  2
ARROW
 10
-13835.74675844993
 20
-62467.59631587153
 30
0.0
 41
18.0
 42
18.0
 43
18.0
 50
180.0
  0
INSERT
  5
25EF
330
2525
100
AcDbEntity
  8
SUNPOU
 62
     0
 48
0.05
370
    -2
100
AcDbBlockReference
  2
ARROW
 10
-12635.74675844994
 20
-62467.59631587153
 30
0.0
 41
18.0
 42
18.0
 43
18.0
  0
MTEXT
  5
25F0
330
2525
100
AcDbEntity
  8
SUNPOU
 62
     0
 48
0.05
100
AcDbMText
 10
-13235.74675844994
 20
-62433.84631587153
 30
0.0
 40
37.5
 41
0.0
 71
     5
 72
     5
  1
\A1;1200
 73
     1
 44
1.0
1001
ACAD
1000
MTEXTBEGIN
1070
    73
1070
     1
1070
    44
1040
1.0
1070
    74
1070
     0
1000
MTEXTEND
  0
POINT
  5
25F1
330
2525
100
AcDbEntity
  8
DEFPOINTS
 62
     0
100
AcDbPoint
 10
-13835.74675844993
 20
-62581.97510503267
 30
0.0
  0
POINT
  5
25F2
330
2525
100
AcDbEntity
  8
DEFPOINTS
 62
     0
100
AcDbPoint
 10
-12635.74675844994
 20
-62581.97510503267
 30
0.0
  0
POINT
  5
25F3
330
2525
100
AcDbEntity
  8
DEFPOINTS
 62
     0
100
AcDbPoint
 10
-12635.74675844994
 20
-62467.59631587153
 30
0.0
  0
ENDBLK
  5
2530
330
2525
100
AcDbEntity
  8
0
 48
0.05
100
AcDbBlockEnd
  0
BLOCK
  5
253B
330
2531
100
AcDbEntity
  8
0
 48
0.05
100
AcDbBlockBegin
  2
*D3
 70
     1
 10
0.0
 20
0.0
 30
0.0
  3
*D3
  1

  0
LINE
  5
25F4
330
2531
100
AcDbEntity
  8
SUNPOU
 62
     0
370
    -2
100
AcDbLine
 10
-12620.74675844994
 20
-63381.97510503267
 30
0.0
 11
-12490.3895854119
 21
-63381.97510503267
 31
0.0
  0
LINE
  5
25F5
330
2531
100
AcDbEntity
  8
SUNPOU
 62
     0
370
    -2
100
AcDbLine
 10
-12620.74675844994
 20
-62581.97510503267
 30
0.0
 11
-12490.3895854119
 21
-62581.97510503267
 31
0.0
  0
LINE
  5
25F6
330
2531
100
AcDbEntity
  8
SUNPOU
 62
     0
370
    -2
100
AcDbLine
 10
-12505.3895854119
 20
-63363.97510503267
 30
0.0
 11
-12505.3895854119
 21
-62599.97510503266
 31
0.0
  0
INSERT
  5
25F7
330
2531
100
AcDbEntity
  8
SUNPOU
 62
     0
 48
0.05
370
    -2
100
AcDbBlockReference
  2
ARROW
 10
-12505.3895854119
 20
-63381.97510503267
 30
0.0
 41
18.0
 42
18.0
 43
18.0
 50
270.0
  0
INSERT
  5
25F8
330
2531
100
AcDbEntity
  8
SUNPOU
 62
     0
 48
0.05
370
    -2
100
AcDbBlockReference
  2
ARROW
 10
-12505.3895854119
 20
-62581.97510503267
 30
0.0
 41
18.0
 42
18.0
 43
18.0
 50
90.0
  0
MTEXT
  5
25F9
330
2531
100
AcDbEntity
  8
SUNPOU
 62
     0
 48
0.05
100
AcDbMText
 10
-12539.1395854119
 20
-63005.92461949855
 30
0.0
 40
37.5
 41
0.0
 71
     5
 72
     5
  1
\A1;800
 11
0.0
 21
1.0
 31
0.0
 73
     1
 44
1.0
1001
ACAD
1000
MTEXTBEGIN
1070
    73
1070
     1
1070
    44
1040
1.0
1070
    74
1070
     0
1000
MTEXTEND
  0
POINT
  5
25FA
330
2531
100
AcDbEntity
  8
DEFPOINTS
 62
     0
100
AcDbPoint
 10
-12635.74675844994
 20
-63381.97510503267
 30
0.0
  0
POINT
  5
25FB
330
2531
100
AcDbEntity
  8
DEFPOINTS
 62
     0
100
AcDbPoint
 10
-12635.74675844994
 20
-62581.97510503267
 30
0.0
  0
POINT
  5
25FC
330
2531
100
AcDbEntity
  8
DEFPOINTS
 62
     0
100
AcDbPoint
 10
-12505.3895854119
 20
-62581.97510503267
 30
0.0
  0
ENDBLK
  5
253C
330
2531
100
AcDbEntity
  8
0
 48
0.05
100
AcDbBlockEnd
  0
BLOCK
  5
2547
330
253D
100
AcDbEntity
  8
0
 48
0.05
100
AcDbBlockBegin
  2
*D4
 70
     1
 10
0.0
 20
0.0
 30
0.0
  3
*D4
  1

  0
LINE
  5
25FD
330
253D
100
AcDbEntity
  8
SUNPOU
 62
     0
370
    -2
100
AcDbLine
 10
-13460.74675844994
 20
-64359.98584243405
 30
0.0
 11
-13460.74675844994
 21
-64644.03234433911
 31
0.0
  0
LINE
  5
25FE
330
253D
100
AcDbEntity
  8
SUNPOU
 62
     0
370
    -2
100
AcDbLine
 10
-13010.74675844993
 20
-64359.98584243405
 30
0.0
 11
-13010.74675844993
 21
-64644.03234433911
 31
0.0
  0
LINE
  5
25FF
330
253D
100
AcDbEntity
  8
SUNPOU
 62
     0
370
    -2
100
AcDbLine
 10
-13446.34675844994
 20
-64632.03234433911
 30
0.0
 11
-13025.14675844993
 21
-64632.03234433911
 31
0.0
  0
INSERT
  5
2600
330
253D
100
AcDbEntity
  8
SUNPOU
 62
     0
 48
0.05
370
    -2
100
AcDbBlockReference
  2
ARROW
 10
-13460.74675844994
 20
-64632.03234433911
 30
0.0
 41
14.4
 42
14.4
 43
14.4
 50
180.0
  0
INSERT
  5
2601
330
253D
100
AcDbEntity
  8
SUNPOU
 62
     0
 48
0.05
370
    -2
100
AcDbBlockReference
  2
ARROW
 10
-13010.74675844993
 20
-64632.03234433911
 30
0.0
 41
14.4
 42
14.4
 43
14.4
  0
MTEXT
  5
2602
330
253D
100
AcDbEntity
  8
SUNPOU
 62
     0
 48
0.05
100
AcDbMText
 10
-13235.74675844994
 20
-64602.03234433911
 30
0.0
 40
36.0
 41
0.0
 71
     5
 72
     5
  1
点検扉巾\A1;450
 73
     1
 44
1.0
1001
ACAD
1000
MTEXTBEGIN
1070
    73
1070
     1
1070
    44
1040
1.0
1070
    74
1070
     0
1000
MTEXTEND
  0
POINT
  5
2603
330
253D
100
AcDbEntity
  8
DEFPOINTS
 62
     0
100
AcDbPoint
 10
-13460.74675844994
 20
-64347.98584243405
 30
0.0
  0
POINT
  5
2604
330
253D
100
AcDbEntity
  8
DEFPOINTS
 62
     0
100
AcDbPoint
 10
-13010.74675844993
 20
-64347.98584243405
 30
0.0
  0
POINT
  5
2605
330
253D
100
AcDbEntity
  8
DEFPOINTS
 62
     0
100
AcDbPoint
 10
-13010.74675844993
 20
-64632.03234433911
 30
0.0
  0
ENDBLK
  5
2548
330
253D
100
AcDbEntity
  8
0
 48
0.05
100
AcDbBlockEnd
  0
BLOCK
  5
2553
330
2549
100
AcDbEntity
  8
0
 48
0.05
100
AcDbBlockBegin
  2
*D5
 70
     1
 10
0.0
 20
0.0
 30
0.0
  3
*D5
  1

  0
LINE
  5
2606
330
2549
100
AcDbEntity
  8
SUNPOU
 62
     0
370
    -2
100
AcDbLine
 10
-11509.37038759231
 20
-64349.18584243405
 30
0.0
 11
-11411.01958461312
 21
-64349.18584243405
 31
0.0
  0
LINE
  5
2607
330
2549
100
AcDbEntity
  8
SUNPOU
 62
     0
370
    -2
100
AcDbLine
 10
-11528.37038759228
 20
-63881.185842434
 30
0.0
 11
-11411.01958461312
 21
-63881.185842434
 31
0.0
  0
LINE
  5
2608
330
2549
100
AcDbEntity
  8
SUNPOU
 62
     0
370
    -2
100
AcDbLine
 10
-11426.01958461312
 20
-64331.18584243405
 30
0.0
 11
-11426.01958461312
 21
-63899.185842434
 31
0.0
  0
INSERT
  5
2609
330
2549
100
AcDbEntity
  8
SUNPOU
 62
     0
 48
0.05
370
    -2
100
AcDbBlockReference
  2
ARROW
 10
-11426.01958461312
 20
-64349.18584243405
 30
0.0
 41
18.0
 42
18.0
 43
18.0
 50
270.0
  0
INSERT
  5
260A
330
2549
100
AcDbEntity
  8
SUNPOU
 62
     0
 48
0.05
370
    -2
100
AcDbBlockReference
  2
ARROW
 10
-11426.01958461312
 20
-63881.185842434
 30
0.0
 41
18.0
 42
18.0
 43
18.0
 50
90.0
  0
MTEXT
  5
260B
330
2549
100
AcDbEntity
  8
SUNPOU
 62
     0
 48
0.05
100
AcDbMText
 10
-11459.76958461312
 20
-64106.7998424458
 30
0.0
 40
37.5
 41
0.0
 71
     5
 72
     5
  1
\A1;468
 11
0.0
 21
1.0
 31
0.0
 73
     1
 44
1.0
1001
ACAD
1000
MTEXTBEGIN
1070
    73
1070
     1
1070
    44
1040
1.0
1070
    74
1070
     0
1000
MTEXTEND
  0
POINT
  5
260C
330
2549
100
AcDbEntity
  8
DEFPOINTS
 62
     0
100
AcDbPoint
 10
-11524.37038759231
 20
-64349.18584243405
 30
0.0
  0
POINT
  5
260D
330
2549
100
AcDbEntity
  8
DEFPOINTS
 62
     0
100
AcDbPoint
 10
-11543.37038759228
 20
-63881.185842434
 30
0.0
  0
POINT
  5
260E
330
2549
100
AcDbEntity
  8
DEFPOINTS
 62
     0
100
AcDbPoint
 10
-11426.01958461312
 20
-63881.185842434
 30
0.0
  0
ENDBLK
  5
2554
330
2549
100
AcDbEntity
  8
0
 48
0.05
100
AcDbBlockEnd
  0
BLOCK
  5
255F
330
2555
100
AcDbEntity
  8
0
 48
0.05
100
AcDbBlockBegin
  2
*D6
 70
     1
 10
0.0
 20
0.0
 30
0.0
  3
*D6
  1

  0
LINE
  5
260F
330
2555
100
AcDbEntity
  8
SUNPOU
 62
     0
370
    -2
100
AcDbLine
 10
-11893.37038759232
 20
-63665.38584243402
 30
0.0
 11
-11893.37038759232
 21
-63550.53509447898
 31
0.0
  0
LINE
  5
2610
330
2555
100
AcDbEntity
  8
SUNPOU
 62
     0
370
    -2
100
AcDbLine
 10
-11513.37038759231
 20
-63665.38584243402
 30
0.0
 11
-11513.37038759231
 21
-63550.53509447898
 31
0.0
  0
LINE
  5
2611
330
2555
100
AcDbEntity
  8
SUNPOU
 62
     0
370
    -2
100
AcDbLine
 10
-11875.37038759232
 20
-63565.53509447898
 30
0.0
 11
-11531.37038759231
 21
-63565.53509447898
 31
0.0
  0
INSERT
  5
2612
330
2555
100
AcDbEntity
  8
SUNPOU
 62
     0
 48
0.05
370
    -2
100
AcDbBlockReference
  2
ARROW
 10
-11893.37038759232
 20
-63565.53509447898
 30
0.0
 41
18.0
 42
18.0
 43
18.0
 50
180.0
  0
INSERT
  5
2613
330
2555
100
AcDbEntity
  8
SUNPOU
 62
     0
 48
0.05
370
    -2
100
AcDbBlockReference
  2
ARROW
 10
-11513.37038759231
 20
-63565.53509447898
 30
0.0
 41
18.0
 42
18.0
 43
18.0
  0
MTEXT
  5
2614
330
2555
100
AcDbEntity
  8
SUNPOU
 62
     0
 48
0.05
100
AcDbMText
 10
-11703.37038759231
 20
-63531.78509447898
 30
0.0
 40
37.5
 41
0.0
 71
     5
 72
     5
  1
\A1;380
 73
     1
 44
1.0
1001
ACAD
1000
MTEXTBEGIN
1070
    73
1070
     1
1070
    44
1040
1.0
1070
    74
1070
     0
1000
MTEXTEND
  0
POINT
  5
2615
330
2555
100
AcDbEntity
  8
DEFPOINTS
 62
     0
100
AcDbPoint
 10
-11893.37038759232
 20
-63680.38584243402
 30
0.0
  0
POINT
  5
2616
330
2555
100
AcDbEntity
  8
DEFPOINTS
 62
     0
100
AcDbPoint
 10
-11513.37038759231
 20
-63680.38584243402
 30
0.0
  0
POINT
  5
2617
330
2555
100
AcDbEntity
  8
DEFPOINTS
 62
     0
100
AcDbPoint
 10
-11513.37038759231
 20
-63565.53509447898
 30
0.0
  0
ENDBLK
  5
2560
330
2555
100
AcDbEntity
  8
0
 48
0.05
100
AcDbBlockEnd
  0
BLOCK
  5
256B
330
2561
100
AcDbEntity
  8
0
 48
0.05
100
AcDbBlockBegin
  2
*D7
 70
     1
 10
0.0
 20
0.0
 30
0.0
  3
*D7
  1

  0
LINE
  5
2618
330
2561
100
AcDbEntity
  8
SUNPOU
 62
     0
370
    -2
100
AcDbLine
 10
-11853.3703875923
 20
-64364.18584243403
 30
0.0
 11
-11853.3703875923
 21
-64612.42856195213
 31
0.0
  0
LINE
  5
2619
330
2561
100
AcDbEntity
  8
SUNPOU
 62
     0
370
    -2
100
AcDbLine
 10
-11553.37038759233
 20
-64364.18584243403
 30
0.0
 11
-11553.37038759233
 21
-64612.42856195213
 31
0.0
  0
LINE
  5
261A
330
2561
100
AcDbEntity
  8
SUNPOU
 62
     0
370
    -2
100
AcDbLine
 10
-11835.3703875923
 20
-64597.42856195213
 30
0.0
 11
-11571.37038759233
 21
-64597.42856195213
 31
0.0
  0
INSERT
  5
261B
330
2561
100
AcDbEntity
  8
SUNPOU
 62
     0
 48
0.05
370
    -2
100
AcDbBlockReference
  2
ARROW
 10
-11853.3703875923
 20
-64597.42856195213
 30
0.0
 41
18.0
 42
18.0
 43
18.0
 50
180.0
  0
INSERT
  5
261C
330
2561
100
AcDbEntity
  8
SUNPOU
 62
     0
 48
0.05
370
    -2
100
AcDbBlockReference
  2
ARROW
 10
-11553.37038759233
 20
-64597.42856195213
 30
0.0
 41
18.0
 42
18.0
 43
18.0
  0
MTEXT
  5
261D
330
2561
100
AcDbEntity
  8
SUNPOU
 62
     0
 48
0.05
100
AcDbMText
 10
-11698.5647541988
 20
-64563.67856195213
 30
0.0
 40
37.5
 41
0.0
 71
     5
 72
     5
  1
\A1;300
 73
     1
 44
1.0
1001
ACAD
1000
MTEXTBEGIN
1070
    73
1070
     1
1070
    44
1040
1.0
1070
    74
1070
     0
1000
MTEXTEND
  0
POINT
  5
261E
330
2561
100
AcDbEntity
  8
DEFPOINTS
 62
     0
100
AcDbPoint
 10
-11853.3703875923
 20
-64349.18584243405
 30
0.0
  0
POINT
  5
261F
330
2561
100
AcDbEntity
  8
DEFPOINTS
 62
     0
100
AcDbPoint
 10
-11553.37038759233
 20
-64349.18584243405
 30
0.0
  0
POINT
  5
2620
330
2561
100
AcDbEntity
  8
DEFPOINTS
 62
     0
100
AcDbPoint
 10
-11553.37038759233
 20
-64597.42856195213
 30
0.0
  0
ENDBLK
  5
256C
330
2561
100
AcDbEntity
  8
0
 48
0.05
100
AcDbBlockEnd
  0
BLOCK
  5
2577
330
256D
100
AcDbEntity
  8
0
 48
0.05
100
AcDbBlockBegin
  2
*D8
 70
     1
 10
0.0
 20
0.0
 30
0.0
  3
*D8
  1

  0
LINE
  5
2621
330
256D
100
AcDbEntity
  8
SUNPOU
 62
     0
370
    -2
100
AcDbLine
 10
-12870.74675844994
 20
-64349.18584243408
 30
0.0
 11
-12645.87216969952
 21
-64349.18584243408
 31
0.0
  0
LINE
  5
2622
330
256D
100
AcDbEntity
  8
SUNPOU
 62
     0
370
    -2
100
AcDbLine
 10
-12952.85210605982
 20
-64069.18584243409
 30
0.0
 11
-12645.87216969952
 21
-64069.18584243409
 31
0.0
  0
LINE
  5
2623
330
256D
100
AcDbEntity
  8
SUNPOU
 62
     0
370
    -2
100
AcDbLine
 10
-12660.87216969952
 20
-64331.18584243409
 30
0.0
 11
-12660.87216969952
 21
-64087.18584243409
 31
0.0
  0
INSERT
  5
2624
330
256D
100
AcDbEntity
  8
SUNPOU
 62
     0
 48
0.05
370
    -2
100
AcDbBlockReference
  2
ARROW
 10
-12660.87216969952
 20
-64349.18584243408
 30
0.0
 41
18.0
 42
18.0
 43
18.0
 50
270.0
  0
INSERT
  5
2625
330
256D
100
AcDbEntity
  8
SUNPOU
 62
     0
 48
0.05
370
    -2
100
AcDbBlockReference
  2
ARROW
 10
-12660.87216969952
 20
-64069.18584243409
 30
0.0
 41
18.0
 42
18.0
 43
18.0
 50
90.0
  0
MTEXT
  5
2626
330
256D
100
AcDbEntity
  8
SUNPOU
 62
     0
 48
0.05
100
AcDbMText
 10
-12725.87216969952
 20
-64176.13823207293
 30
0.0
 40
37.5
 41
0.0
 71
     5
 72
     5
  1
ガス立上\P\A1;280
 11
0.0
 21
1.0
 31
0.0
 73
     1
 44
1.0
1001
ACAD
1000
MTEXTBEGIN
1070
    73
1070
     1
1070
    44
1040
1.0
1070
    74
1070
     0
1000
MTEXTEND
  0
POINT
  5
2627
330
256D
100
AcDbEntity
  8
DEFPOINTS
 62
     0
100
AcDbPoint
 10
-12885.74675844994
 20
-64349.18584243408
 30
0.0
  0
POINT
  5
2628
330
256D
100
AcDbEntity
  8
DEFPOINTS
 62
     0
100
AcDbPoint
 10
-12967.85210605982
 20
-64069.18584243409
 30
0.0
  0
POINT
  5
2629
330
256D
100
AcDbEntity
  8
DEFPOINTS
 62
     0
100
AcDbPoint
 10
-12660.87216969952
 20
-64069.18584243409
 30
0.0
  0
ENDBLK
  5
2578
330
256D
100
AcDbEntity
  8
0
 48
0.05
100
AcDbBlockEnd
  0
BLOCK
  5
2583
330
2579
100
AcDbEntity
  8
0
 48
0.05
100
AcDbBlockBegin
  2
*D9
 70
     1
 10
0.0
 20
0.0
 30
0.0
  3
*D9
  1

  0
LINE
  5
262A
330
2579
100
AcDbEntity
  8
SUNPOU
 62
     0
370
    -2
100
AcDbLine
 10
-13235.74675844994
 20
-63261.21737136875
 30
0.0
 11
-13235.74675844994
 21
-63329.55169059202
 31
0.0
  0
LINE
  5
262B
330
2579
100
AcDbEntity
  8
SUNPOU
 62
     0
370
    -2
100
AcDbLine
 10
-12985.74675844994
 20
-62946.97510503266
 30
0.0
 11
-12985.74675844994
 21
-63329.55169059202
 31
0.0
  0
LINE
  5
262C
330
2579
100
AcDbEntity
  8
SUNPOU
 62
     0
370
    -2
100
AcDbLine
 10
-13217.74675844994
 20
-63314.55169059202
 30
0.0
 11
-13003.74675844994
 21
-63314.55169059202
 31
0.0
  0
INSERT
  5
262D
330
2579
100
AcDbEntity
  8
SUNPOU
 62
     0
 48
0.05
370
    -2
100
AcDbBlockReference
  2
ARROW
 10
-13235.74675844994
 20
-63314.55169059202
 30
0.0
 41
18.0
 42
18.0
 43
18.0
 50
180.0
  0
INSERT
  5
262E
330
2579
100
AcDbEntity
  8
SUNPOU
 62
     0
 48
0.05
370
    -2
100
AcDbBlockReference
  2
ARROW
 10
-12985.74675844994
 20
-63314.55169059202
 30
0.0
 41
18.0
 42
18.0
 43
18.0
  0
MTEXT
  5
262F
330
2579
100
AcDbEntity
  8
SUNPOU
 62
     0
 48
0.05
100
AcDbMText
 10
-13110.74675844994
 20
-63280.80169059203
 30
0.0
 40
37.5
 41
0.0
 71
     5
 72
     5
  1
\A1;250
 73
     1
 44
1.0
1001
ACAD
1000
MTEXTBEGIN
1070
    73
1070
     1
1070
    44
1040
1.0
1070
    74
1070
     0
1000
MTEXTEND
  0
POINT
  5
2630
330
2579
100
AcDbEntity
  8
DEFPOINTS
 62
     0
100
AcDbPoint
 10
-13235.74675844994
 20
-63246.21737136875
 30
0.0
  0
POINT
  5
2631
330
2579
100
AcDbEntity
  8
DEFPOINTS
 62
     0
100
AcDbPoint
 10
-12985.74675844994
 20
-62931.97510503267
 30
0.0
  0
POINT
  5
2632
330
2579
100
AcDbEntity
  8
DEFPOINTS
 62
     0
100
AcDbPoint
 10
-12985.74675844994
 20
-63314.55169059202
 30
0.0
  0
ENDBLK
  5
2584
330
2579
100
AcDbEntity
  8
0
 48
0.05
100
AcDbBlockEnd
  0
BLOCK
  5
2591
330
2585
100
AcDbEntity
  8
0
 48
0.05
100
AcDbBlockBegin
  2
*D10
 70
     1
 10
0.0
 20
0.0
 30
0.0
  3
*D10
  1

  0
LINE
  5
2633
330
2585
100
AcDbEntity
  8
SUNPOU
 62
     0
370
    -2
100
AcDbLine
 10
-12970.74675844993
 20
-63031.97510503268
 30
0.0
 11
-12779.07547685367
 21
-63031.97510503268
 31
0.0
  0
LINE
  5
2634
330
2585
100
AcDbEntity
  8
SUNPOU
 62
     0
370
    -2
100
AcDbLine
 10
-12827.33776238464
 20
-62981.97510503267
 30
0.0
 11
-12779.07547685367
 21
-62981.97510503267
 31
0.0
  0
LINE
  5
2635
330
2585
100
AcDbEntity
  8
SUNPOU
 62
     0
370
    -2
100
AcDbLine
 10
-12794.07547685367
 20
-63049.97510503267
 30
0.0
 11
-12794.07547685367
 21
-63251.01819782339
 31
0.0
  0
LINE
  5
2636
330
2585
100
AcDbEntity
  8
SUNPOU
 62
     0
370
    -2
100
AcDbLine
 10
-12794.07547685367
 20
-63031.97510503268
 30
0.0
 11
-12794.07547685367
 21
-62981.97510503267
 31
0.0
  0
LINE
  5
2637
330
2585
100
AcDbEntity
  8
SUNPOU
 62
     0
370
    -2
100
AcDbLine
 10
-12794.07547685367
 20
-62963.97510503267
 30
0.0
 11
-12794.07547685367
 21
-62945.97510503264
 31
0.0
  0
INSERT
  5
2638
330
2585
100
AcDbEntity
  8
SUNPOU
 62
     0
 48
0.05
370
    -2
100
AcDbBlockReference
  2
ARROW
 10
-12794.07547685367
 20
-63031.97510503268
 30
0.0
 41
18.0
 42
18.0
 43
18.0
 50
90.0
  0
INSERT
  5
2639
330
2585
100
AcDbEntity
  8
SUNPOU
 62
     0
 48
0.05
370
    -2
100
AcDbBlockReference
  2
ARROW
 10
-12794.07547685367
 20
-62981.97510503267
 30
0.0
 41
18.0
 42
18.0
 43
18.0
 50
270.0
  0
MTEXT
  5
263A
330
2585
100
AcDbEntity
  8
SUNPOU
 62
     0
 48
0.05
100
AcDbMText
 10
-12827.82547685367
 20
-63205.66105496626
 30
0.0
 40
37.5
 41
0.0
 71
     5
 72
     5
  1
\A1;50
 11
0.0
 21
1.0
 31
0.0
 73
     1
 44
1.0
1001
ACAD
1000
MTEXTBEGIN
1070
    73
1070
     1
1070
    44
1040
1.0
1070
    74
1070
     0
1000
MTEXTEND
  0
POINT
  5
263B
330
2585
100
AcDbEntity
  8
DEFPOINTS
 62
     0
100
AcDbPoint
 10
-12985.74675844993
 20
-63031.97510503268
 30
0.0
  0
POINT
  5
263C
330
2585
100
AcDbEntity
  8
DEFPOINTS
 62
     0
100
AcDbPoint
 10
-12842.33776238465
 20
-62981.97510503267
 30
0.0
  0
POINT
  5
263D
330
2585
100
AcDbEntity
  8
DEFPOINTS
 62
     0
100
AcDbPoint
 10
-12794.07547685367
 20
-62981.97510503267
 30
0.0
  0
ENDBLK
  5
2592
330
2585
100
AcDbEntity
  8
0
 48
0.05
100
AcDbBlockEnd
  0
BLOCK
  5
259F
330
2593
100
AcDbEntity
  8
0
 48
0.05
100
AcDbBlockBegin
  2
*D11
 70
     1
 10
0.0
 20
0.0
 30
0.0
  3
*D11
  1

  0
LINE
  5
263E
330
2593
100
AcDbEntity
  8
SUNPOU
 62
     0
370
    -2
100
AcDbLine
 10
-12970.74675844994
 20
-62931.97510503267
 30
0.0
 11
-12779.0754768537
 21
-62931.97510503267
 31
0.0
  0
LINE
  5
263F
330
2593
100
AcDbEntity
  8
SUNPOU
 62
     0
370
    -2
100
AcDbLine
 10
-12827.33776238464
 20
-62981.97510503267
 30
0.0
 11
-12779.0754768537
 21
-62981.97510503267
 31
0.0
  0
LINE
  5
2640
330
2593
100
AcDbEntity
  8
SUNPOU
 62
     0
370
    -2
100
AcDbLine
 10
-12794.0754768537
 20
-62913.97510503267
 30
0.0
 11
-12794.0754768537
 21
-62712.9320122419
 31
0.0
  0
LINE
  5
2641
330
2593
100
AcDbEntity
  8
SUNPOU
 62
     0
370
    -2
100
AcDbLine
 10
-12794.0754768537
 20
-62931.97510503267
 30
0.0
 11
-12794.0754768537
 21
-62981.97510503267
 31
0.0
  0
LINE
  5
2642
330
2593
100
AcDbEntity
  8
SUNPOU
 62
     0
370
    -2
100
AcDbLine
 10
-12794.0754768537
 20
-62999.97510503266
 30
0.0
 11
-12794.0754768537
 21
-63017.97510503265
 31
0.0
  0
INSERT
  5
2643
330
2593
100
AcDbEntity
  8
SUNPOU
 62
     0
 48
0.05
370
    -2
100
AcDbBlockReference
  2
ARROW
 10
-12794.0754768537
 20
-62931.97510503267
 30
0.0
 41
18.0
 42
18.0
 43
18.0
 50
270.0
  0
INSERT
  5
2644
330
2593
100
AcDbEntity
  8
SUNPOU
 62
     0
 48
0.05
370
    -2
100
AcDbBlockReference
  2
ARROW
 10
-12794.0754768537
 20
-62981.97510503267
 30
0.0
 41
18.0
 42
18.0
 43
18.0
 50
90.0
  0
MTEXT
  5
2645
330
2593
100
AcDbEntity
  8
SUNPOU
 62
     0
 48
0.05
100
AcDbMText
 10
-12827.8254768537
 20
-62758.28915509903
 30
0.0
 40
37.5
 41
0.0
 71
     5
 72
     5
  1
\A1;50
 11
0.0
 21
1.0
 31
0.0
 73
     1
 44
1.0
1001
ACAD
1000
MTEXTBEGIN
1070
    73
1070
     1
1070
    44
1040
1.0
1070
    74
1070
     0
1000
MTEXTEND
  0
POINT
  5
2646
330
2593
100
AcDbEntity
  8
DEFPOINTS
 62
     0
100
AcDbPoint
 10
-12985.74675844994
 20
-62931.97510503267
 30
0.0
  0
POINT
  5
2647
330
2593
100
AcDbEntity
  8
DEFPOINTS
 62
     0
100
AcDbPoint
 10
-12842.33776238465
 20
-62981.97510503267
 30
0.0
  0
POINT
  5
2648
330
2593
100
AcDbEntity
  8
DEFPOINTS
 62
     0
100
AcDbPoint
 10
-12794.0754768537
 20
-62981.97510503267
 30
0.0
  0
ENDBLK
  5
25A0
330
2593
100
AcDbEntity
  8
0
 48
0.05
100
AcDbBlockEnd
  0
BLOCK
  5
25AB
330
25A1
100
AcDbEntity
  8
0
 48
0.05
100
AcDbBlockBegin
  2
*D12
 70
     1
 10
0.0
 20
0.0
 30
0.0
  3
*D12
  1

  0
LINE
  5
2649
330
25A1
100
AcDbEntity
  8
SUNPOU
 62
     0
370
    -2
100
AcDbLine
 10
-12870.74675844994
 20
-64349.18584243408
 30
0.0
 11
-12437.23011947088
 21
-64349.18584243408
 31
0.0
  0
LINE
  5
264A
330
25A1
100
AcDbEntity
  8
SUNPOU
 62
     0
370
    -2
100
AcDbLine
 10
-13037.24675844994
 20
-63952.18584243402
 30
0.0
 11
-12437.23011947088
 21
-63952.18584243402
 31
0.0
  0
LINE
  5
264B
330
25A1
100
AcDbEntity
  8
SUNPOU
 62
     0
370
    -2
100
AcDbLine
 10
-12452.23011947088
 20
-64331.18584243409
 30
0.0
 11
-12452.23011947088
 21
-63970.18584243403
 31
0.0
  0
INSERT
  5
264C
330
25A1
100
AcDbEntity
  8
SUNPOU
 62
     0
 48
0.05
370
    -2
100
AcDbBlockReference
  2
ARROW
 10
-12452.23011947088
 20
-64349.18584243408
 30
0.0
 41
18.0
 42
18.0
 43
18.0
 50
270.0
  0
INSERT
  5
264D
330
25A1
100
AcDbEntity
  8
SUNPOU
 62
     0
 48
0.05
370
    -2
100
AcDbBlockReference
  2
ARROW
 10
-12452.23011947088
 20
-63952.18584243402
 30
0.0
 41
18.0
 42
18.0
 43
18.0
 50
90.0
  0
MTEXT
  5
264E
330
25A1
100
AcDbEntity
  8
SUNPOU
 62
     0
 48
0.05
100
AcDbMText
 10
-12517.23011947088
 20
-64163.92697279808
 30
0.0
 40
37.5
 41
0.0
 71
     5
 72
     5
  1
\A1;器具側ガス入口\PC
 11
0.0
 21
1.0
 31
0.0
 73
     1
 44
1.0
1001
ACAD
1000
MTEXTBEGIN
1070
    73
1070
     1
1070
    44
1040
1.0
1070
    74
1070
     0
1000
MTEXTEND
  0
POINT
  5
264F
330
25A1
100
AcDbEntity
  8
DEFPOINTS
 62
     0
100
AcDbPoint
 10
-12885.74675844994
 20
-64349.18584243408
 30
0.0
  0
POINT
  5
2650
330
25A1
100
AcDbEntity
  8
DEFPOINTS
 62
     0
100
AcDbPoint
 10
-13052.24675844995
 20
-63952.18584243402
 30
0.0
  0
POINT
  5
2651
330
25A1
100
AcDbEntity
  8
DEFPOINTS
 62
     0
100
AcDbPoint
 10
-12452.23011947088
 20
-63952.18584243402
 30
0.0
  0
ENDBLK
  5
25AC
330
25A1
100
AcDbEntity
  8
0
 48
0.05
100
AcDbBlockEnd
  0
BLOCK
  5
25B7
330
25AD
100
AcDbEntity
  8
0
 48
0.05
100
AcDbBlockBegin
  2
*D13
 70
     1
 10
0.0
 20
0.0
 30
0.0
  3
*D13
  1

  0
LINE
  5
2652
330
25AD
100
AcDbEntity
  8
SUNPOU
 62
     0
370
    -2
100
AcDbLine
 10
-13681.1138735094
 20
-64349.18584243408
 30
0.0
 11
-13876.68412626454
 21
-64349.18584243408
 31
0.0
  0
LINE
  5
2653
330
25AD
100
AcDbEntity
  8
SUNPOU
 62
     0
370
    -2
100
AcDbLine
 10
-13324.74675844997
 20
-64089.18584243403
 30
0.0
 11
-13876.68412626454
 21
-64089.18584243403
 31
0.0
  0
LINE
  5
2654
330
25AD
100
AcDbEntity
  8
SUNPOU
 62
     0
370
    -2
100
AcDbLine
 10
-13861.68412626454
 20
-64331.18584243407
 30
0.0
 11
-13861.68412626454
 21
-64107.18584243403
 31
0.0
  0
INSERT
  5
2655
330
25AD
100
AcDbEntity
  8
SUNPOU
 62
     0
 48
0.05
370
    -2
100
AcDbBlockReference
  2
ARROW
 10
-13861.68412626454
 20
-64349.18584243408
 30
0.0
 41
18.0
 42
18.0
 43
18.0
 50
270.0
  0
INSERT
  5
2656
330
25AD
100
AcDbEntity
  8
SUNPOU
 62
     0
 48
0.05
370
    -2
100
AcDbBlockReference
  2
ARROW
 10
-13861.68412626454
 20
-64089.18584243403
 30
0.0
 41
18.0
 42
18.0
 43
18.0
 50
90.0
  0
MTEXT
  5
2657
330
25AD
100
AcDbEntity
  8
SUNPOU
 62
     0
 48
0.05
100
AcDbMText
 10
-13926.68412626454
 20
-64219.18584243406
 30
0.0
 40
37.5
 41
0.0
 71
     5
 72
     5
  1
\A1;ダクト立上げ\PA
 11
0.0
 21
1.0
 31
0.0
 73
     1
 44
1.0
1001
ACAD
1000
MTEXTBEGIN
1070
    73
1070
     1
1070
    44
1040
1.0
1070
    74
1070
     0
1000
MTEXTEND
  0
POINT
  5
2658
330
25AD
100
AcDbEntity
  8
DEFPOINTS
 62
     0
100
AcDbPoint
 10
-13666.1138735094
 20
-64349.18584243408
 30
0.0
  0
POINT
  5
2659
330
25AD
100
AcDbEntity
  8
DEFPOINTS
 62
     0
100
AcDbPoint
 10
-13309.74675844997
 20
-64089.18584243403
 30
0.0
  0
POINT
  5
265A
330
25AD
100
AcDbEntity
  8
DEFPOINTS
 62
     0
100
AcDbPoint
 10
-13861.68412626454
 20
-64089.18584243403
 30
0.0
  0
ENDBLK
  5
25B8
330
25AD
100
AcDbEntity
  8
0
 48
0.05
100
AcDbBlockEnd
  0
BLOCK
  5
25C3
330
25B9
100
AcDbEntity
  8
0
 48
0.05
100
AcDbBlockBegin
  2
*D14
 70
     1
 10
0.0
 20
0.0
 30
0.0
  3
*D14
  1

  0
LINE
  5
265B
330
25B9
100
AcDbEntity
  8
SUNPOU
 62
     0
370
    -2
100
AcDbLine
 10
-13600.74675844994
 20
-64349.18584243408
 30
0.0
 11
-13713.78028365103
 21
-64349.18584243408
 31
0.0
  0
LINE
  5
265C
330
25B9
100
AcDbEntity
  8
SUNPOU
 62
     0
370
    -2
100
AcDbLine
 10
-13324.74675844997
 20
-64107.18584243409
 30
0.0
 11
-13713.78028365103
 21
-64107.18584243409
 31
0.0
  0
LINE
  5
265D
330
25B9
100
AcDbEntity
  8
SUNPOU
 62
     0
370
    -2
100
AcDbLine
 10
-13698.78028365103
 20
-64331.18584243407
 30
0.0
 11
-13698.78028365103
 21
-64125.18584243409
 31
0.0
  0
INSERT
  5
265E
330
25B9
100
AcDbEntity
  8
SUNPOU
 62
     0
 48
0.05
370
    -2
100
AcDbBlockReference
  2
ARROW
 10
-13698.78028365103
 20
-64349.18584243408
 30
0.0
 41
18.0
 42
18.0
 43
18.0
 50
270.0
  0
INSERT
  5
265F
330
25B9
100
AcDbEntity
  8
SUNPOU
 62
     0
 48
0.05
370
    -2
100
AcDbBlockReference
  2
ARROW
 10
-13698.78028365103
 20
-64107.18584243409
 30
0.0
 41
18.0
 42
18.0
 43
18.0
 50
90.0
  0
MTEXT
  5
2660
330
25B9
100
AcDbEntity
  8
SUNPOU
 62
     0
 48
0.05
100
AcDbMText
 10
-13732.53028365103
 20
-64235.93584243405
 30
0.0
 40
37.5
 41
0.0
 71
     5
 72
     5
  1
\A1;下端　B
 11
0.0
 21
1.0
 31
0.0
 73
     1
 44
1.0
1001
ACAD
1000
MTEXTBEGIN
1070
    73
1070
     1
1070
    44
1040
1.0
1070
    74
1070
     0
1000
MTEXTEND
  0
POINT
  5
2661
330
25B9
100
AcDbEntity
  8
DEFPOINTS
 62
     0
100
AcDbPoint
 10
-13585.74675844995
 20
-64349.18584243408
 30
0.0
  0
POINT
  5
2662
330
25B9
100
AcDbEntity
  8
DEFPOINTS
 62
     0
100
AcDbPoint
 10
-13309.74675844997
 20
-64107.18584243409
 30
0.0
  0
POINT
  5
2663
330
25B9
100
AcDbEntity
  8
DEFPOINTS
 62
     0
100
AcDbPoint
 10
-13698.78028365103
 20
-64107.18584243409
 30
0.0
  0
ENDBLK
  5
25C4
330
25B9
100
AcDbEntity
  8
0
 48
0.05
100
AcDbBlockEnd
  0
BLOCK
  5
25D1
330
25C5
100
AcDbEntity
  8
0
 48
0.05
100
AcDbBlockBegin
  2
*D15
 70
     1
 10
0.0
 20
0.0
 30
0.0
  3
*D15
  1

  0
LINE
  5
2664
330
25C5
100
AcDbEntity
  8
SUNPOU
 62
     0
370
    -2
100
AcDbLine
 10
-12620.74675844994
 20
-63649.18584243407
 30
0.0
 11
-12540.06880585797
 21
-63649.18584243407
 31
0.0
  0
LINE
  5
2665
330
25C5
100
AcDbEntity
  8
SUNPOU
 62
     0
370
    -2
100
AcDbLine
 10
-12620.74675844994
 20
-63679.18584243407
 30
0.0
 11
-12540.06880585797
 21
-63679.18584243407
 31
0.0
  0
LINE
  5
2666
330
25C5
100
AcDbEntity
  8
SUNPOU
 62
     0
370
    -2
100
AcDbLine
 10
-12555.06880585797
 20
-63697.18584243408
 30
0.0
 11
-12555.06880585797
 21
-63842.95087139336
 31
0.0
  0
LINE
  5
2667
330
25C5
100
AcDbEntity
  8
SUNPOU
 62
     0
370
    -2
100
AcDbLine
 10
-12555.06880585797
 20
-63649.18584243407
 30
0.0
 11
-12555.06880585797
 21
-63679.18584243407
 31
0.0
  0
LINE
  5
2668
330
25C5
100
AcDbEntity
  8
SUNPOU
 62
     0
370
    -2
100
AcDbLine
 10
-12555.06880585797
 20
-63631.18584243407
 30
0.0
 11
-12555.06880585797
 21
-63613.18584243408
 31
0.0
  0
INSERT
  5
2669
330
25C5
100
AcDbEntity
  8
SUNPOU
 62
     0
 48
0.05
370
    -2
100
AcDbBlockReference
  2
ARROW
 10
-12555.06880585797
 20
-63649.18584243407
 30
0.0
 41
18.0
 42
18.0
 43
18.0
 50
270.0
  0
INSERT
  5
266A
330
25C5
100
AcDbEntity
  8
SUNPOU
 62
     0
 48
0.05
370
    -2
100
AcDbBlockReference
  2
ARROW
 10
-12555.06880585797
 20
-63679.18584243407
 30
0.0
 41
18.0
 42
18.0
 43
18.0
 50
90.0
  0
MTEXT
  5
266B
330
25C5
100
AcDbEntity
  8
SUNPOU
 62
     0
 48
0.05
100
AcDbMText
 10
-12588.81880585797
 20
-63815.45087139336
 30
0.0
 40
37.5
 41
0.0
 71
     5
 72
     5
  1
\A1;D
 11
0.0
 21
1.0
 31
0.0
 73
     1
 44
1.0
1001
ACAD
1000
MTEXTBEGIN
1070
    73
1070
     1
1070
    44
1040
1.0
1070
    74
1070
     0
1000
MTEXTEND
  0
POINT
  5
266C
330
25C5
100
AcDbEntity
  8
DEFPOINTS
 62
     0
100
AcDbPoint
 10
-12635.74675844994
 20
-63649.18584243407
 30
0.0
  0
POINT
  5
266D
330
25C5
100
AcDbEntity
  8
DEFPOINTS
 62
     0
100
AcDbPoint
 10
-12635.74675844994
 20
-63679.18584243407
 30
0.0
  0
POINT
  5
266E
330
25C5
100
AcDbEntity
  8
DEFPOINTS
 62
     0
100
AcDbPoint
 10
-12555.06880585797
 20
-63679.18584243407
 30
0.0
  0
ENDBLK
  5
25D2
330
25C5
100
AcDbEntity
  8
0
 48
0.05
100
AcDbBlockEnd
  0
BLOCK
  5
25DD
330
25D3
100
AcDbEntity
  8
0
 48
0.05
100
AcDbBlockBegin
  2
*D16
 70
     1
 10
0.0
 20
0.0
 30
0.0
  3
*D16
  1

  0
LINE
  5
266F
330
25D3
100
AcDbEntity
  8
SUNPOU
 62
     0
370
    -2
100
AcDbLine
 10
-12870.74675844994
 20
-64349.18584243408
 30
0.0
 11
-12343.55248859204
 21
-64349.18584243408
 31
0.0
  0
LINE
  5
2670
330
25D3
100
AcDbEntity
  8
SUNPOU
 62
     0
370
    -2
100
AcDbLine
 10
-12620.74675844994
 20
-63649.18584243407
 30
0.0
 11
-12343.55248859204
 21
-63649.18584243407
 31
0.0
  0
LINE
  5
2671
330
25D3
100
AcDbEntity
  8
SUNPOU
 62
     0
370
    -2
100
AcDbLine
 10
-12358.55248859204
 20
-64331.18584243409
 30
0.0
 11
-12358.55248859204
 21
-63667.18584243407
 31
0.0
  0
INSERT
  5
2672
330
25D3
100
AcDbEntity
  8
SUNPOU
 62
     0
 48
0.05
370
    -2
100
AcDbBlockReference
  2
ARROW
 10
-12358.55248859204
 20
-64349.18584243408
 30
0.0
 41
18.0
 42
18.0
 43
18.0
 50
270.0
  0
INSERT
  5
2673
330
25D3
100
AcDbEntity
  8
SUNPOU
 62
     0
 48
0.05
370
    -2
100
AcDbBlockReference
  2
ARROW
 10
-12358.55248859204
 20
-63649.18584243407
 30
0.0
 41
18.0
 42
18.0
 43
18.0
 50
90.0
  0
MTEXT
  5
2674
330
25D3
100
AcDbEntity
  8
SUNPOU
 62
     0
 48
0.05
100
AcDbMText
 10
-12392.30248859204
 20
-64059.93140625072
 30
0.0
 40
37.5
 41
0.0
 71
     5
 72
     5
  1
\A1;E
 11
0.0
 21
1.0
 31
0.0
 73
     1
 44
1.0
1001
ACAD
1000
MTEXTBEGIN
1070
    73
1070
     1
1070
    44
1040
1.0
1070
    74
1070
     0
1000
MTEXTEND
  0
POINT
  5
2675
330
25D3
100
AcDbEntity
  8
DEFPOINTS
 62
     0
100
AcDbPoint
 10
-12885.74675844994
 20
-64349.18584243408
 30
0.0
  0
POINT
  5
2676
330
25D3
100
AcDbEntity
  8
DEFPOINTS
 62
     0
100
AcDbPoint
 10
-12635.74675844994
 20
-63649.18584243407
 30
0.0
  0
POINT
  5
2677
330
25D3
100
AcDbEntity
  8
DEFPOINTS
 62
     0
100
AcDbPoint
 10
-12358.55248859204
 20
-63649.18584243407
 30
0.0
  0
ENDBLK
  5
25DE
330
25D3
100
AcDbEntity
  8
0
 48
0.05
100
AcDbBlockEnd
  0
BLOCK
  5
25E9
330
25DF
100
AcDbEntity
  8
0
 48
0.05
100
AcDbBlockBegin
  2
*D17
 70
     1
 10
0.0
 20
0.0
 30
0.0
  3
*D17
  1

  0
LINE
  5
2678
330
25DF
100
AcDbEntity
  8
SUNPOU
 62
     0
370
    -2
100
AcDbLine
 10
-13585.74675844994
 20
-64364.18584243408
 30
0.0
 11
-13585.74675844994
 21
-64734.89072428012
 31
0.0
  0
LINE
  5
2679
330
25DF
100
AcDbEntity
  8
SUNPOU
 62
     0
370
    -2
100
AcDbLine
 10
-12885.74675844994
 20
-64364.18584243408
 30
0.0
 11
-12885.74675844994
 21
-64734.89072428012
 31
0.0
  0
LINE
  5
267A
330
25DF
100
AcDbEntity
  8
SUNPOU
 62
     0
370
    -2
100
AcDbLine
 10
-13567.74675844994
 20
-64719.89072428013
 30
0.0
 11
-12903.74675844994
 21
-64719.89072428013
 31
0.0
  0
INSERT
  5
267B
330
25DF
100
AcDbEntity
  8
SUNPOU
 62
     0
 48
0.05
370
    -2
100
AcDbBlockReference
  2
ARROW
 10
-13585.74675844994
 20
-64719.89072428013
 30
0.0
 41
18.0
 42
18.0
 43
18.0
 50
180.0
  0
INSERT
  5
267C
330
25DF
100
AcDbEntity
  8
SUNPOU
 62
     0
 48
0.05
370
    -2
100
AcDbBlockReference
  2
ARROW
 10
-12885.74675844994
 20
-64719.89072428013
 30
0.0
 41
18.0
 42
18.0
 43
18.0
  0
MTEXT
  5
267D
330
25DF
100
AcDbEntity
  8
SUNPOU
 62
     0
 48
0.05
100
AcDbMText
 10
-13235.74675844994
 20
-64686.14072428014
 30
0.0
 40
37.5
 41
0.0
 71
     5
 72
     5
  1
\A1;700
 73
     1
 44
1.0
1001
ACAD
1000
MTEXTBEGIN
1070
    73
1070
     1
1070
    44
1040
1.0
1070
    74
1070
     0
1000
MTEXTEND
  0
POINT
  5
267E
330
25DF
100
AcDbEntity
  8
DEFPOINTS
 62
     0
100
AcDbPoint
 10
-13585.74675844994
 20
-64349.18584243408
 30
0.0
  0
POINT
  5
267F
330
25DF
100
AcDbEntity
  8
DEFPOINTS
 62
     0
100
AcDbPoint
 10
-12885.74675844994
 20
-64349.18584243408
 30
0.0
  0
POINT
  5
2680
330
25DF
100
AcDbEntity
  8
DEFPOINTS
 62
     0
100
AcDbPoint
 10
-12885.74675844994
 20
-64719.89072428013
 30
0.0
  0
ENDBLK
  5
25EA
330
25DF
100
AcDbEntity
  8
0
 48
0.05
100
AcDbBlockEnd
  0
ENDSEC
  0
SECTION
  2
ENTITIES
  0
LINE
  5
20B8
330
2
100
AcDbEntity
  8
JISSEN
100
AcDbLine
 10
-13310.74675844994
 20
-64302.98626314844
 30
0.0
 11
-13310.74675844994
 21
-64365.96138987378
 31
0.0
  0
LINE
  5
20B9
330
2
100
AcDbEntity
  8
JISSEN
100
AcDbLine
 10
-13160.74675844996
 20
-64338.72071212832
 30
0.0
 11
-13160.74675844995
 21
-64401.69583885363
 31
0.0
  0
LINE
  5
20BA
330
2
100
AcDbEntity
  8
JISSEN
100
AcDbLine
 10
-13160.74675844994
 20
-64410.18961008808
 30
0.0
 11
-13160.74675844994
 21
-64473.16473681334
 31
0.0
  0
LINE
  5
20BB
330
2
100
AcDbEntity
  8
JISSEN
100
AcDbLine
 10
-13310.74675844994
 20
-64374.45516110821
 30
0.0
 11
-13310.74675844994
 21
-64437.43028783347
 31
0.0
  0
LINE
  5
20BC
330
2
100
AcDbEntity
  8
JISSEN
100
AcDbLine
 10
-13160.74675844994
 20
-64481.65850804778
 30
0.0
 11
-13160.74675844993
 21
-64534.58049237361
 31
0.0
  0
LINE
  5
20BD
330
2
100
AcDbEntity
  8
JISSEN
100
AcDbLine
 10
-13310.74675844994
 20
-64445.92405906793
 30
0.0
 11
-13310.74675844994
 21
-64508.89918579322
 31
0.0
  0
LINE
  5
20BE
330
2
100
AcDbEntity
  8
JISSEN
100
AcDbLine
 10
-13310.74675844994
 20
-64517.39295702764
 30
0.0
 11
-13310.74675844994
 21
-64534.58049237361
 31
0.0
  0
LINE
  5
20BF
330
2
100
AcDbEntity
  8
JISSEN
100
AcDbLine
 10
-13249.47618834972
 20
-64531.9894241024
 30
0.0
 11
-13310.74675844997
 21
-64517.39295702764
 31
0.0
  0
LINE
  5
20C0
330
2
100
AcDbEntity
  8
JISSEN
100
AcDbLine
 10
-13312.78526354624
 20
-64508.89918579322
 30
0.0
 11
-13310.74675844997
 21
-64508.89918579322
 31
0.0
  0
LINE
  5
20C1
330
2
100
AcDbEntity
  8
JISSEN
100
AcDbLine
 10
-13312.78526354624
 20
-64517.39295702764
 30
0.0
 11
-13312.78526354624
 21
-64508.89918579322
 31
0.0
  0
LINE
  5
20C2
330
2
100
AcDbEntity
  8
JISSEN
100
AcDbLine
 10
-13310.74675844997
 20
-64517.39295702764
 30
0.0
 11
-13312.78526354624
 21
-64517.39295702764
 31
0.0
  0
LINE
  5
20C3
330
2
100
AcDbEntity
  8
JISSEN
100
AcDbLine
 10
-13310.74675844997
 20
-64508.89918579322
 30
0.0
 11
-13244.04915540512
 21
-64524.78853308044
 31
0.0
  0
LINE
  5
20C4
330
2
100
AcDbEntity
  8
JISSEN
100
AcDbLine
 10
-13160.74675844997
 20
-64481.65850804778
 30
0.0
 11
-13310.74675844997
 21
-64445.92405906793
 31
0.0
  0
LINE
  5
20C5
330
2
100
AcDbEntity
  8
JISSEN
100
AcDbLine
 10
-13310.74675844997
 20
-64437.43028783349
 30
0.0
 11
-13160.74675844997
 21
-64473.16473681334
 31
0.0
  0
LINE
  5
20C6
330
2
100
AcDbEntity
  8
JISSEN
100
AcDbLine
 10
-13310.74675844997
 20
-64445.92405906793
 30
0.0
 11
-13312.78526354624
 21
-64445.92405906793
 31
0.0
  0
LINE
  5
20C7
330
2
100
AcDbEntity
  8
JISSEN
100
AcDbLine
 10
-13312.78526354624
 20
-64445.92405906793
 30
0.0
 11
-13312.78526354624
 21
-64437.43028783349
 31
0.0
  0
LINE
  5
20C8
330
2
100
AcDbEntity
  8
JISSEN
100
AcDbLine
 10
-13312.78526354624
 20
-64437.43028783349
 30
0.0
 11
-13310.74675844997
 21
-64437.43028783349
 31
0.0
  0
LINE
  5
20C9
330
2
100
AcDbEntity
  8
JISSEN
100
AcDbLine
 10
-13158.7082533537
 20
-64481.65850804778
 30
0.0
 11
-13158.7082533537
 21
-64473.16473681334
 31
0.0
  0
LINE
  5
20CA
330
2
100
AcDbEntity
  8
JISSEN
100
AcDbLine
 10
-13160.74675844997
 20
-64481.65850804778
 30
0.0
 11
-13158.7082533537
 21
-64481.65850804778
 31
0.0
  0
LINE
  5
20CB
330
2
100
AcDbEntity
  8
JISSEN
100
AcDbLine
 10
-13158.7082533537
 20
-64473.16473681334
 30
0.0
 11
-13160.74675844997
 21
-64473.16473681334
 31
0.0
  0
LINE
  5
20CC
330
2
100
AcDbEntity
  8
JISSEN
100
AcDbLine
 10
-13158.7082533537
 20
-64401.69583885362
 30
0.0
 11
-13160.74675844997
 21
-64401.69583885362
 31
0.0
  0
LINE
  5
20CD
330
2
100
AcDbEntity
  8
JISSEN
100
AcDbLine
 10
-13160.74675844997
 20
-64410.18961008804
 30
0.0
 11
-13158.7082533537
 21
-64410.18961008804
 31
0.0
  0
LINE
  5
20CE
330
2
100
AcDbEntity
  8
JISSEN
100
AcDbLine
 10
-13158.7082533537
 20
-64410.18961008804
 30
0.0
 11
-13158.7082533537
 21
-64401.69583885362
 31
0.0
  0
LINE
  5
20CF
330
2
100
AcDbEntity
  8
JISSEN
100
AcDbLine
 10
-13312.78526354624
 20
-64365.96138987376
 30
0.0
 11
-13310.74675844997
 21
-64365.96138987376
 31
0.0
  0
LINE
  5
20D0
330
2
100
AcDbEntity
  8
JISSEN
100
AcDbLine
 10
-13312.78526354624
 20
-64374.45516110821
 30
0.0
 11
-13312.78526354624
 21
-64365.96138987376
 31
0.0
  0
LINE
  5
20D1
330
2
100
AcDbEntity
  8
JISSEN
100
AcDbLine
 10
-13310.74675844997
 20
-64374.45516110821
 30
0.0
 11
-13312.78526354624
 21
-64374.45516110821
 31
0.0
  0
LINE
  5
20D2
330
2
100
AcDbEntity
  8
JISSEN
100
AcDbLine
 10
-13310.74675844997
 20
-64365.96138987376
 30
0.0
 11
-13160.74675844997
 21
-64401.69583885362
 31
0.0
  0
LINE
  5
20D3
330
2
100
AcDbEntity
  8
JISSEN
100
AcDbLine
 10
-13160.74675844997
 20
-64410.18961008804
 30
0.0
 11
-13310.74675844997
 21
-64374.45516110821
 31
0.0
  0
LINE
  5
20D4
330
2
100
AcDbEntity
  8
JISSEN
100
AcDbLine
 10
-13160.74675844997
 20
-64338.72071212832
 30
0.0
 11
-13310.74675844997
 21
-64302.98626314844
 31
0.0
  0
LINE
  5
20D5
330
2
100
AcDbEntity
  8
JISSEN
100
AcDbLine
 10
-13310.74675844997
 20
-64294.49249191402
 30
0.0
 11
-13160.74675844997
 21
-64330.22694089389
 31
0.0
  0
LINE
  5
20D6
330
2
100
AcDbEntity
  8
JISSEN
100
AcDbLine
 10
-13310.74675844997
 20
-64302.98626314844
 30
0.0
 11
-13312.78526354624
 21
-64302.98626314844
 31
0.0
  0
LINE
  5
20D7
330
2
100
AcDbEntity
  8
JISSEN
100
AcDbLine
 10
-13312.78526354624
 20
-64302.98626314844
 30
0.0
 11
-13312.78526354624
 21
-64294.49249191402
 31
0.0
  0
LINE
  5
20D8
330
2
100
AcDbEntity
  8
JISSEN
100
AcDbLine
 10
-13312.78526354624
 20
-64294.49249191402
 30
0.0
 11
-13310.74675844997
 21
-64294.49249191402
 31
0.0
  0
LINE
  5
20D9
330
2
100
AcDbEntity
  8
JISSEN
100
AcDbLine
 10
-13158.7082533537
 20
-64338.72071212832
 30
0.0
 11
-13158.7082533537
 21
-64330.22694089389
 31
0.0
  0
LINE
  5
20DA
330
2
100
AcDbEntity
  8
JISSEN
100
AcDbLine
 10
-13160.74675844997
 20
-64338.72071212832
 30
0.0
 11
-13158.7082533537
 21
-64338.72071212832
 31
0.0
  0
LINE
  5
20DB
330
2
100
AcDbEntity
  8
JISSEN
100
AcDbLine
 10
-13158.7082533537
 20
-64330.22694089389
 30
0.0
 11
-13160.74675844997
 21
-64330.22694089389
 31
0.0
  0
LINE
  5
20DC
330
2
100
AcDbEntity
  8
JISSEN
100
AcDbLine
 10
-13310.74675844994
 20
-64231.51736518872
 30
0.0
 11
-13310.74675844994
 21
-64294.49249191402
 31
0.0
  0
ARC
  5
20DD
330
2
100
AcDbEntity
  8
JISSEN
100
AcDbCircle
 10
-13198.24675844994
 20
-64488.24231416367
 30
0.0
 40
59.61104561919807
100
AcDbArc
 50
231.0178649716775
 51
308.9821350283227
  0
ARC
  5
20DE
330
2
100
AcDbEntity
  8
JISSEN
100
AcDbCircle
 10
-13198.24675844995
 20
-64580.9186705835
 30
0.0
 40
59.61104561919807
100
AcDbArc
 50
51.01786497167742
 51
128.9821350283226
  0
LINE
  5
20DF
330
2
100
AcDbEntity
  8
JISSEN
100
AcDbLine
 10
-13160.74675844997
 20
-64267.2518141686
 30
0.0
 11
-13160.74675844996
 21
-64330.22694089389
 31
0.0
  0
ARC
  5
20E0
330
2
100
AcDbEntity
  8
JISSEN
100
AcDbCircle
 10
-13273.24675844995
 20
-64488.24231416367
 30
0.0
 40
59.61104561919807
100
AcDbArc
 50
231.0178649716775
 51
308.9821350283227
  0
LINE
  5
20E1
330
2
100
AcDbEntity
  8
JISSEN
100
AcDbLine
 10
-13160.74675844997
 20
-64187.28914497441
 30
0.0
 11
-13160.74675844997
 21
-64131.83295846257
 31
0.0
  0
LINE
  5
20E2
330
2
100
AcDbEntity
  8
JISSEN
100
AcDbLine
 10
-13160.74675844997
 20
-64195.78291620887
 30
0.0
 11
-13310.74675844997
 21
-64160.048467229
 31
0.0
  0
LINE
  5
20E3
330
2
100
AcDbEntity
  8
JISSEN
100
AcDbLine
 10
-13310.74675844997
 20
-64151.55469599457
 30
0.0
 11
-13160.74675844997
 21
-64187.28914497441
 31
0.0
  0
LINE
  5
20E4
330
2
100
AcDbEntity
  8
JISSEN
100
AcDbLine
 10
-13310.74675844997
 20
-64223.0235939543
 30
0.0
 11
-13310.74675844997
 21
-64160.048467229
 31
0.0
  0
LINE
  5
20E5
330
2
100
AcDbEntity
  8
JISSEN
100
AcDbLine
 10
-13158.7082533537
 20
-64187.28914497441
 30
0.0
 11
-13158.7082533537
 21
-64195.78291620887
 31
0.0
  0
LINE
  5
20E6
330
2
100
AcDbEntity
  8
JISSEN
100
AcDbLine
 10
-13158.7082533537
 20
-64195.78291620887
 30
0.0
 11
-13160.74675844997
 21
-64195.78291620887
 31
0.0
  0
LINE
  5
20E7
330
2
100
AcDbEntity
  8
JISSEN
100
AcDbLine
 10
-13160.74675844997
 20
-64187.28914497441
 30
0.0
 11
-13158.7082533537
 21
-64187.28914497441
 31
0.0
  0
LINE
  5
20E8
330
2
100
AcDbEntity
  8
JISSEN
100
AcDbLine
 10
-13158.7082533537
 20
-64258.75804293418
 30
0.0
 11
-13160.74675844997
 21
-64258.75804293418
 31
0.0
  0
LINE
  5
20E9
330
2
100
AcDbEntity
  8
JISSEN
100
AcDbLine
 10
-13160.74675844997
 20
-64267.2518141686
 30
0.0
 11
-13158.7082533537
 21
-64267.2518141686
 31
0.0
  0
LINE
  5
20EA
330
2
100
AcDbEntity
  8
JISSEN
100
AcDbLine
 10
-13158.7082533537
 20
-64267.2518141686
 30
0.0
 11
-13158.7082533537
 21
-64258.75804293418
 31
0.0
  0
LINE
  5
20EB
330
2
100
AcDbEntity
  8
JISSEN
100
AcDbLine
 10
-13312.78526354624
 20
-64223.0235939543
 30
0.0
 11
-13310.74675844997
 21
-64223.0235939543
 31
0.0
  0
LINE
  5
20EC
330
2
100
AcDbEntity
  8
JISSEN
100
AcDbLine
 10
-13312.78526354624
 20
-64231.51736518872
 30
0.0
 11
-13312.78526354624
 21
-64223.0235939543
 31
0.0
  0
LINE
  5
20ED
330
2
100
AcDbEntity
  8
JISSEN
100
AcDbLine
 10
-13310.74675844997
 20
-64231.51736518872
 30
0.0
 11
-13312.78526354624
 21
-64231.51736518872
 31
0.0
  0
LINE
  5
20EE
330
2
100
AcDbEntity
  8
JISSEN
100
AcDbLine
 10
-13310.74675844997
 20
-64223.0235939543
 30
0.0
 11
-13160.74675844997
 21
-64258.75804293418
 31
0.0
  0
LINE
  5
20EF
330
2
100
AcDbEntity
  8
JISSEN
100
AcDbLine
 10
-13160.74675844997
 20
-64267.2518141686
 30
0.0
 11
-13310.74675844997
 21
-64231.51736518872
 31
0.0
  0
LINE
  5
20F0
330
2
100
AcDbEntity
  8
JISSEN
100
AcDbLine
 10
-13160.74675844997
 20
-64258.75804293418
 30
0.0
 11
-13160.74675844997
 21
-64195.78291620887
 31
0.0
  0
ARC
  5
20F1
330
2
100
AcDbEntity
  8
JISSEN
100
AcDbCircle
 10
-13273.24675844996
 20
-64178.1711366726
 30
0.0
 40
59.61104561931158
100
AcDbArc
 50
51.01786497167742
 51
128.9821350283226
  0
ARC
  5
20F2
330
2
100
AcDbEntity
  8
JISSEN
100
AcDbCircle
 10
-13273.24675844996
 20
-64085.49478025267
 30
0.0
 40
59.61104561919732
100
AcDbArc
 50
231.0178649716775
 51
308.9821350283227
  0
LINE
  5
20F3
330
2
100
AcDbEntity
  8
JISSEN
100
AcDbLine
 10
-13310.74675844997
 20
-64151.55469599457
 30
0.0
 11
-13310.74675844998
 21
-64131.83295846257
 31
0.0
  0
LINE
  5
20F4
330
2
100
AcDbEntity
  8
JISSEN
100
AcDbLine
 10
-13312.78526354624
 20
-64151.55469599457
 30
0.0
 11
-13310.74675844997
 21
-64151.55469599457
 31
0.0
  0
LINE
  5
20F5
330
2
100
AcDbEntity
  8
JISSEN
100
AcDbLine
 10
-13312.78526354624
 20
-64160.048467229
 30
0.0
 11
-13312.78526354624
 21
-64151.55469599457
 31
0.0
  0
LINE
  5
20F6
330
2
100
AcDbEntity
  8
JISSEN
100
AcDbLine
 10
-13310.74675844997
 20
-64160.048467229
 30
0.0
 11
-13312.78526354624
 21
-64160.048467229
 31
0.0
  0
ARC
  5
20F7
330
2
100
AcDbEntity
  8
JISSEN
100
AcDbCircle
 10
-13198.24675844996
 20
-64178.17113667247
 30
0.0
 40
59.61104561918372
100
AcDbArc
 50
51.01786497167742
 51
128.9821350283226
  0
DIMENSION
  5
20F8
330
2
100
AcDbEntity
  8
SUNPOU
100
AcDbDimension
  2
*D8
 10
-12660.87216969952
 20
-64069.18584243409
 30
0.0
 11
-12660.87216969952
 21
-64176.13823207293
 31
0.0
 70
   160
  1
ガス立上\P<>
 71
     5
 42
280.0
  3
IMCADLT
100
AcDbAlignedDimension
 13
-12885.74675844994
 23
-64349.18584243408
 33
0.0
 14
-12967.85210605982
 24
-64069.18584243409
 34
0.0
 50
90.0
100
AcDbRotatedDimension
1001
ACAD
1000
DSTYLE
1002
{
1070
   140
1040
2.5
1070
    40
1040
15.0
1070
    41
1040
1.199999999999999
1070
    47
1040
0.5
1070
   146
1040
0.6
1070
   271
1070
     1
1070
   272
1070
     1
1070
   288
1070
     1
1002
}
  0
LINE
  5
20F9
330
2
100
AcDbEntity
  8
JISSEN
  6
HIDDEN
 62
     2
100
AcDbLine
 10
-12967.85210605982
 20
-64069.18584243409
 30
0.0
 11
-12985.74675844994
 21
-64087.0804948242
 31
0.0
  0
LINE
  5
20FA
330
2
100
AcDbEntity
  8
JISSEN
  6
HIDDEN
 62
     2
100
AcDbLine
 10
-12967.85210605982
 20
-64104.97514721432
 30
0.0
 11
-12985.74675844994
 21
-64087.0804948242
 31
0.0
  0
LINE
  5
20FB
330
2
100
AcDbEntity
  8
JISSEN
  6
HIDDEN
 62
     2
100
AcDbLine
 10
-12967.85210605982
 20
-64104.97514721432
 30
0.0
 11
-12967.85210605982
 21
-64069.18584243409
 31
0.0
  0
LINE
  5
20FC
330
2
100
AcDbEntity
  8
JISSEN
  6
HIDDEN
 62
     2
100
AcDbLine
 10
-13003.64141084005
 20
-64104.97514721432
 30
0.0
 11
-13003.64141084005
 21
-64069.18584243409
 31
0.0
  0
LINE
  5
20FD
330
2
100
AcDbEntity
  8
JISSEN
  6
HIDDEN
 62
     2
100
AcDbLine
 10
-13003.64141084005
 20
-64104.97514721432
 30
0.0
 11
-12985.74675844994
 21
-64087.0804948242
 31
0.0
  0
LINE
  5
20FE
330
2
100
AcDbEntity
  8
JISSEN
  6
HIDDEN
 62
     2
100
AcDbLine
 10
-13003.64141084005
 20
-64069.18584243409
 30
0.0
 11
-12985.74675844994
 21
-64087.0804948242
 31
0.0
  0
LINE
  5
20FF
330
2
100
AcDbEntity
  8
JISSEN
  6
HIDDEN
 62
     2
100
AcDbLine
 10
-12993.24675844994
 20
-64349.18584243405
 30
0.0
 11
-12993.24675844994
 21
-64094.5804948242
 31
0.0
  0
LINE
  5
2100
330
2
100
AcDbEntity
  8
JISSEN
  6
HIDDEN
 62
     2
100
AcDbLine
 10
-12978.24675844994
 20
-64349.18584243405
 30
0.0
 11
-12978.24675844994
 21
-64094.5804948242
 31
0.0
  0
TEXT
  5
210B
330
2
100
AcDbEntity
  8
TEXT
100
AcDbText
 10
-10173.03513316741
 20
-65050.74673755688
 30
0.0
 40
30.0
  1
RX15001-K
  7
K
100
AcDbText
  0
TEXT
  5
210C
330
2
100
AcDbEntity
  8
TEXT
100
AcDbText
 10
-10279.69348779798
 20
-64898.66402424885
 30
0.0
 40
30.0
  1
仕様図
  7
K
100
AcDbText
  0
LINE
  5
210D
330
2
100
AcDbEntity
  8
WAKU
 62
     3
100
AcDbLine
 10
-9824.674038757635
 20
-65188.61941596688
 30
0.0
 11
-14264.67403875763
 21
-65188.61941596688
 31
0.0
  0
LINE
  5
210E
330
2
100
AcDbEntity
  8
WAKU
 62
     3
100
AcDbLine
 10
-14264.67403875763
 20
-62156.6194159669
 30
0.0
 11
-9824.674038757635
 21
-62156.6194159669
 31
0.0
  0
LINE
  5
210F
330
2
100
AcDbEntity
  8
WAKU
 62
     3
100
AcDbLine
 10
-14264.67403875763
 20
-65188.61941596688
 30
0.0
 11
-14264.67403875763
 21
-62156.6194159669
 31
0.0
  0
LINE
  5
2110
330
2
100
AcDbEntity
  8
WAKU
 62
     3
100
AcDbLine
 10
-13440.67403875763
 20
-64996.6194159669
 30
0.0
 11
-14264.67403875763
 21
-64996.6194159669
 31
0.0
  0
LINE
  5
2111
330
2
100
AcDbEntity
  8
WAKU
 62
     3
100
AcDbLine
 10
-13440.67403875763
 20
-65140.6194159669
 30
0.0
 11
-14184.67403875763
 21
-65140.6194159669
 31
0.0
  0
LINE
  5
2112
330
2
100
AcDbEntity
  8
WAKU
 62
     3
100
AcDbLine
 10
-14184.67403875763
 20
-65092.61941596688
 30
0.0
 11
-13440.67403875763
 21
-65092.61941596688
 31
0.0
  0
LINE
  5
2113
330
2
100
AcDbEntity
  8
WAKU
 62
     3
100
AcDbLine
 10
-13440.67403875763
 20
-65044.61941596688
 30
0.0
 11
-14184.67403875763
 21
-65044.61941596688
 31
0.0
  0
LINE
  5
2114
330
2
100
AcDbEntity
  8
WAKU
 62
     3
100
AcDbLine
 10
-14184.67403875763
 20
-65140.6194159669
 30
0.0
 11
-13440.67403875763
 21
-65140.6194159669
 31
0.0
  0
LINE
  5
2115
330
2
100
AcDbEntity
  8
WAKU
 62
     3
100
AcDbLine
 10
-13440.67403875763
 20
-65092.61941596688
 30
0.0
 11
-14184.67403875763
 21
-65092.61941596688
 31
0.0
  0
LINE
  5
2116
330
2
100
AcDbEntity
  8
WAKU
 62
     3
100
AcDbLine
 10
-14184.67403875763
 20
-65044.61941596688
 30
0.0
 11
-13440.67403875763
 21
-65044.61941596688
 31
0.0
  0
LINE
  5
2117
330
2
100
AcDbEntity
  8
WAKU
 62
     3
100
AcDbLine
 10
-14228.67403875763
 20
-65092.61941596688
 30
0.0
 11
-14264.67403875763
 21
-65140.6194159669
 31
0.0
  0
LINE
  5
2118
330
2
100
AcDbEntity
  8
WAKU
 62
     3
100
AcDbLine
 10
-14228.67403875763
 20
-65092.61941596688
 30
0.0
 11
-14192.67403875763
 21
-65140.6194159669
 31
0.0
  0
LINE
  5
2119
330
2
100
AcDbEntity
  8
WAKU
 62
     3
100
AcDbLine
 10
-14184.67403875763
 20
-65188.61941596688
 30
0.0
 11
-14184.67403875763
 21
-64852.61941596688
 31
0.0
  0
LINE
  5
211A
330
2
100
AcDbEntity
  8
WAKU
 62
     3
100
AcDbLine
 10
-14192.67403875763
 20
-64852.61941596688
 30
0.0
 11
-14192.67403875763
 21
-65188.61941596688
 31
0.0
  0
LINE
  5
211B
330
2
100
AcDbEntity
  8
WAKU
 62
     3
100
AcDbLine
 10
-14192.67403875763
 20
-65188.61941596688
 30
0.0
 11
-14192.67403875763
 21
-64852.61941596688
 31
0.0
  0
LINE
  5
211C
330
2
100
AcDbEntity
  8
WAKU
 62
     3
100
AcDbLine
 10
-14184.67403875763
 20
-64852.61941596688
 30
0.0
 11
-14184.67403875763
 21
-65188.61941596688
 31
0.0
  0
LINE
  5
211D
330
2
100
AcDbEntity
  8
WAKU
 62
     3
100
AcDbLine
 10
-14192.67403875763
 20
-65140.6194159669
 30
0.0
 11
-14264.67403875763
 21
-65140.6194159669
 31
0.0
  0
LINE
  5
211E
330
2
100
AcDbEntity
  8
WAKU
 62
     3
100
AcDbLine
 10
-14192.67403875763
 20
-65140.6194159669
 30
0.0
 11
-14264.67403875763
 21
-65140.6194159669
 31
0.0
  0
TEXT
  5
211F
330
2
100
AcDbEntity
  8
WAKU
 62
     3
100
AcDbText
 10
-14254.27403875763
 20
-65176.6194159669
 30
0.0
 40
24.0
  1
記号
  7
K
 72
     4
 11
-14228.67403875763
 21
-65164.6194159669
 31
0.0
100
AcDbText
  0
LINE
  5
2120
330
2
100
AcDbEntity
  8
WAKU
 62
     3
100
AcDbLine
 10
-14228.67403875763
 20
-64996.6194159669
 30
0.0
 11
-14264.67403875763
 21
-65044.61941596688
 31
0.0
  0
LINE
  5
2121
330
2
100
AcDbEntity
  8
WAKU
 62
     3
100
AcDbLine
 10
-14192.67403875763
 20
-65044.61941596688
 30
0.0
 11
-14228.67403875763
 21
-64996.6194159669
 31
0.0
  0
LINE
  5
2122
330
2
100
AcDbEntity
  8
WAKU
 62
     3
100
AcDbLine
 10
-14228.67403875763
 20
-65044.61941596688
 30
0.0
 11
-14264.67403875763
 21
-65092.61941596688
 31
0.0
  0
LINE
  5
2123
330
2
100
AcDbEntity
  8
WAKU
 62
     3
100
AcDbLine
 10
-14192.67403875763
 20
-65044.61941596688
 30
0.0
 11
-14264.67403875763
 21
-65044.61941596688
 31
0.0
  0
LINE
  5
2124
330
2
100
AcDbEntity
  8
WAKU
 62
     3
100
AcDbLine
 10
-14264.67403875763
 20
-65092.61941596688
 30
0.0
 11
-14192.67403875763
 21
-65092.61941596688
 31
0.0
  0
LINE
  5
2125
330
2
100
AcDbEntity
  8
WAKU
 62
     3
100
AcDbLine
 10
-14192.67403875763
 20
-65092.61941596688
 30
0.0
 11
-14264.67403875763
 21
-65092.61941596688
 31
0.0
  0
LINE
  5
2126
330
2
100
AcDbEntity
  8
WAKU
 62
     3
100
AcDbLine
 10
-14192.67403875763
 20
-65044.61941596688
 30
0.0
 11
-14264.67403875763
 21
-65044.61941596688
 31
0.0
  0
LINE
  5
2127
330
2
100
AcDbEntity
  8
WAKU
 62
     3
100
AcDbLine
 10
-14228.67403875763
 20
-65044.61941596688
 30
0.0
 11
-14192.67403875763
 21
-65092.61941596688
 31
0.0
  0
LINE
  5
2128
330
2
100
AcDbEntity
  8
WAKU
 62
     3
100
AcDbLine
 10
-13440.67403875763
 20
-64804.61941596688
 30
0.0
 11
-13440.67403875763
 21
-65188.61941596688
 31
0.0
  0
LINE
  5
2129
330
2
100
AcDbEntity
  8
WAKU
 62
     3
100
AcDbLine
 10
-13512.67403875763
 20
-65188.61941596688
 30
0.0
 11
-13512.67403875763
 21
-64852.61941596688
 31
0.0
  0
LINE
  5
212A
330
2
100
AcDbEntity
  8
WAKU
 62
     3
100
AcDbLine
 10
-13584.67403875763
 20
-64852.61941596688
 30
0.0
 11
-13584.67403875763
 21
-65188.61941596688
 31
0.0
  0
LINE
  5
212B
330
2
100
AcDbEntity
  8
WAKU
 62
     3
100
AcDbLine
 10
-13704.67403875763
 20
-65188.61941596688
 30
0.0
 11
-13704.67403875763
 21
-64852.61941596688
 31
0.0
  0
LINE
  5
212C
330
2
100
AcDbEntity
  8
WAKU
 62
     3
100
AcDbLine
 10
-13864.67403875763
 20
-64852.61941596688
 30
0.0
 11
-13864.67403875763
 21
-65188.61941596688
 31
0.0
  0
TEXT
  5
212D
330
2
100
AcDbEntity
  8
WAKU
 62
     3
100
AcDbText
 10
-13839.07403875763
 20
-65176.6194159669
 30
0.0
 40
24.0
  1
設変番号
  7
K
 72
     4
 11
-13784.67403875763
 21
-65164.6194159669
 31
0.0
100
AcDbText
  0
TEXT
  5
212E
330
2
100
AcDbEntity
  8
WAKU
 62
     3
100
AcDbText
 10
-14121.47403875763
 20
-65176.6194159669
 30
0.0
 40
24.0
  1
変更内容・理由
  7
K
 72
     4
 11
-14024.67403875763
 21
-65164.6194159669
 31
0.0
100
AcDbText
  0
TEXT
  5
212F
330
2
100
AcDbEntity
  8
WAKU
 62
     3
100
AcDbText
 10
-13711.87403875763
 20
-65176.6194159669
 30
0.0
 40
24.0
  1
 年 月 日
  7
K
 72
     4
 11
-13644.67403875763
 21
-65164.6194159669
 31
0.0
100
AcDbText
  0
TEXT
  5
2130
330
2
100
AcDbEntity
  8
WAKU
 62
     3
100
AcDbText
 10
-13501.47403875763
 20
-65176.6194159669
 30
0.0
 40
24.0
  1
検図
  7
K
 72
     4
 11
-13476.67403875763
 21
-65164.6194159669
 31
0.0
100
AcDbText
  0
TEXT
  5
2131
330
2
100
AcDbEntity
  8
WAKU
 62
     3
100
AcDbText
 10
-13573.75975304334
 20
-65176.6194159669
 30
0.0
 40
24.0
  1
担当
  7
K
 72
     4
 11
-13548.67403875763
 21
-65164.6194159669
 31
0.0
100
AcDbText
  0
LINE
  5
2132
330
2
100
AcDbEntity
  8
WAKU
 62
     3
100
AcDbLine
 10
-9824.674038757635
 20
-62156.6194159669
 30
0.0
 11
-9824.674038757635
 21
-65188.61941596688
 31
0.0
  0
LINE
  5
2133
330
2
100
AcDbEntity
  8
WAKU
 62
     3
100
AcDbLine
 10
-10600.67403875763
 20
-64796.61941596688
 30
0.0
 11
-10104.67403875763
 21
-64796.61941596688
 31
0.0
  0
LINE
  5
2134
330
2
100
AcDbEntity
  8
WAKU
 62
     3
100
AcDbLine
 10
-10600.67403875763
 20
-64924.61941596688
 30
0.0
 11
-10304.67403875763
 21
-64924.61941596688
 31
0.0
  0
LINE
  5
2135
330
2
100
AcDbEntity
  8
WAKU
 62
     3
100
AcDbLine
 10
-10600.67403875763
 20
-65056.6194159669
 30
0.0
 11
-10304.67403875763
 21
-65056.6194159669
 31
0.0
  0
LINE
  5
2136
330
2
100
AcDbEntity
  8
WAKU
 62
     3
100
AcDbLine
 10
-10304.67403875763
 20
-65122.6194159669
 30
0.0
 11
-10600.67403875763
 21
-65122.6194159669
 31
0.0
  0
LINE
  5
2137
330
2
100
AcDbEntity
  8
WAKU
 62
     3
100
AcDbLine
 10
-10304.67403875763
 20
-64990.61941596688
 30
0.0
 11
-10600.67403875763
 21
-64990.61941596688
 31
0.0
  0
LINE
  5
2138
330
2
100
AcDbEntity
  8
WAKU
 62
     3
100
AcDbLine
 10
-11208.67403875763
 20
-64796.61941596688
 30
0.0
 11
-11208.67403875763
 21
-65188.61941596688
 31
0.0
  0
TEXT
  5
2139
330
2
100
AcDbEntity
  8
WAKU
 62
     3
100
AcDbText
 10
-11196.67403875763
 20
-65121.12328577732
 30
0.0
 40
16.0
  1
▽▽
  7
K
 11
-11196.67403875763
 21
-65113.12328577732
 31
0.0
100
AcDbText
 73
     2
  0
TEXT
  5
213A
330
2
100
AcDbEntity
  8
WAKU
 62
     3
100
AcDbText
 10
-11184.1477470726
 20
-64833.14534496168
 30
0.0
 40
24.0
  1
表面処理
  7
K
 11
-11184.1477470726
 21
-64821.14534496168
 31
0.0
100
AcDbText
 73
     2
  0
TEXT
  5
213B
330
2
100
AcDbEntity
  8
WAKU
 62
     3
100
AcDbText
 10
-11184.1477470726
 20
-64882.19720295124
 30
0.0
 40
24.0
  1
色調
  7
K
 11
-11184.1477470726
 21
-64870.19720295124
 31
0.0
100
AcDbText
 73
     2
  0
TEXT
  5
213C
330
2
100
AcDbEntity
  8
WAKU
 62
     3
100
AcDbText
 10
-11196.67403875763
 20
-65060.72638162566
 30
0.0
 40
16.0
  1
▽▽▽▽
  7
K
 11
-11196.67403875763
 21
-65052.72638162566
 31
0.0
100
AcDbText
 73
     2
  0
TEXT
  5
213D
330
2
100
AcDbEntity
  8
WAKU
 62
     3
100
AcDbText
 10
-11196.67403875763
 20
-65090.92483370149
 30
0.0
 40
16.0
  1
▽▽▽
  7
K
 11
-11196.67403875763
 21
-65082.92483370149
 31
0.0
100
AcDbText
 73
     2
  0
LINE
  5
213E
330
2
100
AcDbEntity
  8
WAKU
 62
     3
100
AcDbLine
 10
-10600.67403875763
 20
-64796.61941596688
 30
0.0
 11
-11208.67403875763
 21
-64796.61941596688
 31
0.0
  0
LINE
  5
213F
330
2
100
AcDbEntity
  8
WAKU
 62
     3
100
AcDbLine
 10
-10600.67403875763
 20
-64943.7749899356
 30
0.0
 11
-11208.67403875763
 21
-64943.7749899356
 31
0.0
  0
LINE
  5
2140
330
2
100
AcDbEntity
  8
WAKU
 62
     3
100
AcDbLine
 10
-11208.67403875763
 20
-64845.67127395648
 30
0.0
 11
-10600.67403875763
 21
-64845.67127395648
 31
0.0
  0
LINE
  5
2141
330
2
100
AcDbEntity
  8
WAKU
 62
     3
100
AcDbLine
 10
-10600.67403875763
 20
-64894.72313194603
 30
0.0
 11
-11208.67403875763
 21
-64894.72313194603
 31
0.0
  0
TEXT
  5
2142
330
2
100
AcDbEntity
  8
WAKU
 62
     3
100
AcDbText
 10
-11184.1477470726
 20
-64931.24906094081
 30
0.0
 40
24.0
  1
適用規格など
  7
K
 11
-11184.1477470726
 21
-64919.24906094081
 31
0.0
100
AcDbText
 73
     2
  0
LINE
  5
2143
330
2
100
AcDbEntity
  8
WAKU
 62
     3
100
AcDbLine
 10
-11208.67403875763
 20
-64991.15570068568
 30
0.0
 11
-10992.67403875763
 21
-64991.15570068568
 31
0.0
  0
LINE
  5
2144
330
2
100
AcDbEntity
  8
WAKU
 62
     3
100
AcDbLine
 10
-11208.67403875763
 20
-65037.62715558773
 30
0.0
 11
-10992.67403875763
 21
-65037.62715558773
 31
0.0
  0
TEXT
  5
2145
330
2
100
AcDbEntity
  8
WAKU
 62
     3
100
AcDbText
 10
-11196.67403875763
 20
-64979.46534531063
 30
0.0
 40
24.0
  1
標準加工アラサ
  7
K
 72
     4
 11
-11100.67403875763
 21
-64967.46534531063
 31
0.0
100
AcDbText
  0
TEXT
  5
2146
330
2
100
AcDbEntity
  8
WAKU
 62
     3
100
AcDbText
 10
-11194.11403875763
 20
-65024.40900006304
 30
0.0
 40
24.0
  1
(標準外ﾊ指定ﾉｺﾄ)
 41
0.8
  7
K
 72
     4
 11
-11100.67403875763
 21
-65014.12328577732
 31
0.0
100
AcDbText
  0
TEXT
  5
2147
330
2
100
AcDbEntity
  8
WAKU
 62
     3
100
AcDbText
 10
-11196.67403875763
 20
-65151.32173785316
 30
0.0
 40
16.0
  1
▽
  7
K
 11
-11196.67403875763
 21
-65143.32173785315
 31
0.0
100
AcDbText
 73
     2
  0
TEXT
  5
2148
330
2
100
AcDbEntity
  8
WAKU
 62
     3
100
AcDbText
 10
-11196.67403875763
 20
-65181.52018992897
 30
0.0
 40
16.0
  1
～
  7
K
 11
-11196.67403875763
 21
-65173.52018992897
 31
0.0
100
AcDbText
 73
     2
  0
LINE
  5
2149
330
2
100
AcDbEntity
  8
WAKU
 62
     3
100
AcDbLine
 10
-10432.67403875763
 20
-64924.61941596688
 30
0.0
 11
-10432.67403875763
 21
-65188.61941596688
 31
0.0
  0
LINE
  5
214A
330
2
100
AcDbEntity
  8
WAKU
 62
     3
100
AcDbLine
 10
-10600.67403875763
 20
-65188.61941596688
 30
0.0
 11
-10600.67403875763
 21
-64924.61941596688
 31
0.0
  0
LINE
  5
214B
330
2
100
AcDbEntity
  8
WAKU
 62
     3
100
AcDbLine
 10
-10528.67403875763
 20
-64924.61941596688
 30
0.0
 11
-10528.67403875763
 21
-65188.61941596688
 31
0.0
  0
LINE
  5
214C
330
2
100
AcDbEntity
  8
WAKU
 62
     3
100
AcDbLine
 10
-10712.67403875763
 20
-65188.61941596688
 30
0.0
 11
-10712.67403875763
 21
-64943.7749899356
 31
0.0
  0
LINE
  5
214D
330
2
100
AcDbEntity
  8
WAKU
 62
     3
100
AcDbLine
 10
-10656.67403875763
 20
-64943.7749899356
 30
0.0
 11
-10656.67403875763
 21
-65188.61941596688
 31
0.0
  0
TEXT
  5
214E
330
2
100
AcDbEntity
  8
WAKU
 62
     3
100
AcDbText
 10
-10947.68580954566
 20
-65147.32418343912
 30
0.0
 40
16.0
  1
)
  7
K
 11
-10947.68580954566
 21
-65139.32418343912
 31
0.0
100
AcDbText
 73
     2
  0
TEXT
  5
214F
330
2
100
AcDbEntity
  8
WAKU
 62
     3
100
AcDbText
 10
-10974.57880066239
 20
-65139.32418343912
 30
0.0
 40
16.0
  1
±
  7
K
 72
     1
 11
-10964.67403875763
 21
-65139.32418343912
 31
0.0
100
AcDbText
  0
TEXT
  5
2150
330
2
100
AcDbEntity
  8
WAKU
 62
     3
100
AcDbText
 10
-10993.05499113858
 20
-65147.32418343912
 30
0.0
 40
16.0
  1
(
  7
K
 72
     2
 11
-10984.67403875763
 21
-65139.32418343912
 31
0.0
100
AcDbText
 73
     2
  0
LINE
  5
2151
330
2
100
AcDbEntity
  8
WAKU
 62
     3
100
AcDbLine
 10
-10992.67403875763
 20
-64990.61941596688
 30
0.0
 11
-10992.67403875763
 21
-65188.61941596688
 31
0.0
  0
LINE
  5
2152
330
2
100
AcDbEntity
  8
WAKU
 62
     3
100
AcDbLine
 10
-10936.67403875763
 20
-64943.7749899356
 30
0.0
 11
-10936.67403875763
 21
-65188.61941596688
 31
0.0
  0
LINE
  5
2153
330
2
100
AcDbEntity
  8
WAKU
 62
     3
100
AcDbLine
 10
-10768.67403875763
 20
-64943.7749899356
 30
0.0
 11
-10768.67403875763
 21
-65188.61941596688
 31
0.0
  0
TEXT
  5
2154
330
2
100
AcDbEntity
  8
WAKU
 62
     3
100
AcDbText
 10
-10852.20424939312
 20
-65150.1527532459
 30
0.0
 40
16.0
  1
1000以下
 41
0.8
  7
K
 72
     2
 11
-10776.13567796455
 21
-65142.1527532459
 31
0.0
100
AcDbText
 73
     2
  0
TEXT
  5
2155
330
2
100
AcDbEntity
  8
WAKU
 62
     3
100
AcDbText
 10
-10852.20424939312
 20
-65181.13052839322
 30
0.0
 40
16.0
  1
2000以下
 41
0.8
  7
K
 72
     2
 11
-10776.13567796455
 21
-65173.13052839322
 31
0.0
100
AcDbText
 73
     2
  0
LINE
  5
2156
330
2
100
AcDbEntity
  8
WAKU
 62
     3
100
AcDbLine
 10
-10600.67403875763
 20
-65157.64164081955
 30
0.0
 11
-10936.67403875763
 21
-65157.64164081955
 31
0.0
  0
TEXT
  5
2157
330
2
100
AcDbEntity
  8
WAKU
 62
     3
100
AcDbText
 10
-11048.1026101862
 20
-65151.32173785316
 30
0.0
 40
16.0
  1
50Z
  7
K
 72
     2
 11
-11004.67403875763
 21
-65143.32173785315
 31
0.0
100
AcDbText
 73
     2
  0
TEXT
  5
2158
330
2
100
AcDbEntity
  8
WAKU
 62
     3
100
AcDbText
 10
-10918.27504621256
 20
-65150.1527532459
 30
0.0
 40
16.0
  1
315ｦｺｴ
 41
0.8
  7
K
 72
     2
 11
-10861.22361764113
 21
-65142.1527532459
 31
0.0
100
AcDbText
 73
     2
  0
TEXT
  5
2159
330
2
100
AcDbEntity
  8
WAKU
 62
     3
100
AcDbText
 10
-10930.46552240303
 20
-65181.13052839322
 30
0.0
 40
16.0
  1
1000ｦｺｴ
 41
0.8
  7
K
 72
     2
 11
-10861.22361764113
 21
-65173.13052839322
 31
0.0
100
AcDbText
 73
     2
  0
TEXT
  5
215A
330
2
100
AcDbEntity
  8
WAKU
 62
     3
100
AcDbText
 10
-10981.81689590048
 20
-65154.67174282922
 30
0.0
 40
12.0
  1
mm
  7
K
 72
     1
 11
-10964.67403875763
 21
-65154.67174282922
 31
0.0
100
AcDbText
  0
TEXT
  5
215B
330
2
100
AcDbEntity
  8
WAKU
 62
     3
100
AcDbText
 10
-10756.67403875763
 20
-65150.1527532459
 30
0.0
 40
16.0
  1
0.3
 41
0.8
  7
K
 11
-10756.67403875763
 21
-65142.1527532459
 31
0.0
100
AcDbText
 73
     2
  0
TEXT
  5
215C
330
2
100
AcDbEntity
  8
WAKU
 62
     3
100
AcDbText
 10
-10756.67403875763
 20
-65181.13052839322
 30
0.0
 40
16.0
  1
0.5
 41
0.8
  7
K
 11
-10756.67403875763
 21
-65173.13052839322
 31
0.0
100
AcDbText
 73
     2
  0
TEXT
  5
215D
330
2
100
AcDbEntity
  8
WAKU
 62
     3
100
AcDbText
 10
-10700.67403875763
 20
-65150.1527532459
 30
0.0
 40
16.0
  1
0.8
 41
0.8
  7
K
 11
-10700.67403875763
 21
-65142.1527532459
 31
0.0
100
AcDbText
 73
     2
  0
TEXT
  5
215E
330
2
100
AcDbEntity
  8
WAKU
 62
     3
100
AcDbText
 10
-10700.67403875763
 20
-65181.13052839322
 30
0.0
 40
16.0
  1
1.2
 41
0.8
  7
K
 11
-10700.67403875763
 21
-65173.13052839322
 31
0.0
100
AcDbText
 73
     2
  0
TEXT
  5
215F
330
2
100
AcDbEntity
  8
WAKU
 62
     3
100
AcDbText
 10
-10644.67403875763
 20
-65150.1527532459
 30
0.0
 40
16.0
  1
2
 41
0.8
  7
K
 11
-10644.67403875763
 21
-65142.1527532459
 31
0.0
100
AcDbText
 73
     2
  0
TEXT
  5
2160
330
2
100
AcDbEntity
  8
WAKU
 62
     3
100
AcDbText
 10
-10644.67403875763
 20
-65181.13052839322
 30
0.0
 40
16.0
  1
3
 41
0.8
  7
K
 11
-10644.67403875763
 21
-65173.13052839322
 31
0.0
100
AcDbText
 73
     2
  0
TEXT
  5
2161
330
2
100
AcDbEntity
  8
WAKU
 62
     3
100
AcDbText
 10
-10592.67403875763
 20
-65172.61941596688
 30
0.0
 40
24.0
  1
承認
  7
K
100
AcDbText
  0
TEXT
  5
2162
330
2
100
AcDbEntity
  8
WAKU
 62
     3
100
AcDbText
 10
-10815.63282082169
 20
-64995.26387750925
 30
0.0
 40
16.0
  1
3以下
 41
0.8
  7
K
 72
     2
 11
-10776.13567796455
 21
-64987.26387750926
 31
0.0
100
AcDbText
 73
     2
  0
TEXT
  5
2163
330
2
100
AcDbEntity
  8
WAKU
 62
     3
100
AcDbText
 10
-10815.63282082169
 20
-65026.24165265659
 30
0.0
 40
16.0
  1
6以下
 41
0.8
  7
K
 72
     2
 11
-10776.13567796455
 21
-65018.24165265659
 31
0.0
100
AcDbText
 73
     2
  0
TEXT
  5
2164
330
2
100
AcDbEntity
  8
WAKU
 62
     3
100
AcDbText
 10
-10827.82329701217
 20
-65057.21942780392
 30
0.0
 40
16.0
  1
30以下
 41
0.8
  7
K
 72
     2
 11
-10776.13567796455
 21
-65049.21942780392
 31
0.0
100
AcDbText
 73
     2
  0
TEXT
  5
2165
330
2
100
AcDbEntity
  8
WAKU
 62
     3
100
AcDbText
 10
-10840.01377320264
 20
-65088.19720295124
 30
0.0
 40
16.0
  1
120以下
 41
0.8
  7
K
 72
     2
 11
-10776.13567796455
 21
-65080.19720295124
 31
0.0
100
AcDbText
 73
     2
  0
TEXT
  5
2166
330
2
100
AcDbEntity
  8
WAKU
 62
     3
100
AcDbText
 10
-10840.01377320264
 20
-65119.17497809856
 30
0.0
 40
16.0
  1
315以下
 41
0.8
  7
K
 72
     2
 11
-10776.13567796455
 21
-65111.17497809856
 31
0.0
100
AcDbText
 73
     2
  0
TEXT
  5
2167
330
2
100
AcDbEntity
  8
WAKU
 62
     3
100
AcDbText
 10
-10921.07403875763
 20
-64968.5749899356
 30
0.0
 40
21.6
  1
呼 ビ 寸 法
  7
K
 72
     1
 11
-10852.67403875763
 21
-64957.7749899356
 31
0.0
100
AcDbText
 73
     2
  0
LINE
  5
2168
330
2
100
AcDbEntity
  8
WAKU
 62
     3
100
AcDbLine
 10
-10936.67403875763
 20
-64971.7749899356
 30
0.0
 11
-10600.67403875763
 21
-64971.7749899356
 31
0.0
  0
LINE
  5
2169
330
2
100
AcDbEntity
  8
WAKU
 62
     3
100
AcDbLine
 10
-10936.67403875763
 20
-65002.75276508292
 30
0.0
 11
-10600.67403875763
 21
-65002.75276508292
 31
0.0
  0
LINE
  5
216A
330
2
100
AcDbEntity
  8
WAKU
 62
     3
100
AcDbLine
 10
-10600.67403875763
 20
-65033.73054023025
 30
0.0
 11
-10936.67403875763
 21
-65033.73054023025
 31
0.0
  0
LINE
  5
216B
330
2
100
AcDbEntity
  8
WAKU
 62
     3
100
AcDbLine
 10
-10936.67403875763
 20
-65064.70831537757
 30
0.0
 11
-10600.67403875763
 21
-65064.70831537757
 31
0.0
  0
LINE
  5
216C
330
2
100
AcDbEntity
  8
WAKU
 62
     3
100
AcDbLine
 10
-10600.67403875763
 20
-65095.68609052492
 30
0.0
 11
-10936.67403875763
 21
-65095.68609052492
 31
0.0
  0
LINE
  5
216D
330
2
100
AcDbEntity
  8
WAKU
 62
     3
100
AcDbLine
 10
-10936.67403875763
 20
-65126.66386567222
 30
0.0
 11
-10600.67403875763
 21
-65126.66386567222
 31
0.0
  0
LINE
  5
216E
330
2
100
AcDbEntity
  8
WAKU
 62
     3
100
AcDbLine
 10
-10992.67403875763
 20
-64796.61941596688
 30
0.0
 11
-10992.67403875763
 21
-64990.61941596688
 31
0.0
  0
TEXT
  5
216F
330
2
100
AcDbEntity
  8
WAKU
 62
     3
100
AcDbText
 10
-11048.1026101862
 20
-65121.12328577732
 30
0.0
 40
16.0
  1
18Z
  7
K
 72
     2
 11
-11004.67403875763
 21
-65113.12328577732
 31
0.0
100
AcDbText
 73
     2
  0
TEXT
  5
2170
330
2
100
AcDbEntity
  8
WAKU
 62
     3
100
AcDbText
 10
-11032.86451494811
 20
-65090.92483370149
 30
0.0
 40
16.0
  1
6Z
  7
K
 72
     2
 11
-11004.67403875763
 21
-65082.92483370149
 31
0.0
100
AcDbText
 73
     2
  0
TEXT
  5
2171
330
2
100
AcDbEntity
  8
WAKU
 62
     3
100
AcDbText
 10
-11055.72165780525
 20
-65060.72638162566
 30
0.0
 40
16.0
  1
0.8Z
  7
K
 72
     2
 11
-11004.67403875763
 21
-65052.72638162566
 31
0.0
100
AcDbText
 73
     2
  0
TEXT
  5
2172
330
2
100
AcDbEntity
  8
WAKU
 62
     3
100
AcDbText
 10
-10974.75403875763
 20
-65010.94951990251
 30
0.0
 40
21.6
  1
普
  7
K
 72
     1
 11
-10964.67403875763
 21
-65010.94951990251
 31
0.0
100
AcDbText
  0
TEXT
  5
2173
330
2
100
AcDbEntity
  8
WAKU
 62
     3
100
AcDbText
 10
-10918.27504621256
 20
-65119.17497809856
 30
0.0
 40
16.0
  1
120ｦｺｴ
 41
0.8
  7
K
 72
     2
 11
-10861.22361764113
 21
-65111.17497809856
 31
0.0
100
AcDbText
 73
     2
  0
TEXT
  5
2174
330
2
100
AcDbEntity
  8
WAKU
 62
     3
100
AcDbText
 10
-10906.08457002208
 20
-65088.19720295124
 30
0.0
 40
16.0
  1
30ｦｺｴ
 41
0.8
  7
K
 72
     2
 11
-10861.22361764113
 21
-65080.19720295124
 31
0.0
100
AcDbText
 73
     2
  0
TEXT
  5
2175
330
2
100
AcDbEntity
  8
WAKU
 62
     3
100
AcDbText
 10
-10893.8940938316
 20
-65026.24165265659
 30
0.0
 40
16.0
  1
3ｦｺｴ
 41
0.8
  7
K
 72
     2
 11
-10861.22361764113
 21
-65018.24165265659
 31
0.0
100
AcDbText
 73
     2
  0
TEXT
  5
2176
330
2
100
AcDbEntity
  8
WAKU
 62
     3
100
AcDbText
 10
-10974.75403875763
 20
-65085.34951990252
 30
0.0
 40
21.6
  1
法
  7
K
 72
     1
 11
-10964.67403875763
 21
-65085.34951990252
 31
0.0
100
AcDbText
  0
TEXT
  5
2177
330
2
100
AcDbEntity
  8
WAKU
 62
     3
100
AcDbText
 10
-10974.75403875763
 20
-65110.14951990251
 30
0.0
 40
21.6
  1
差
  7
K
 72
     1
 11
-10964.67403875763
 21
-65110.14951990251
 31
0.0
100
AcDbText
  0
TEXT
  5
2178
330
2
100
AcDbEntity
  8
WAKU
 62
     3
100
AcDbText
 10
-10974.75403875763
 20
-65035.7495199025
 30
0.0
 40
21.6
  1
通
  7
K
 72
     1
 11
-10964.67403875763
 21
-65035.7495199025
 31
0.0
100
AcDbText
  0
TEXT
  5
2179
330
2
100
AcDbEntity
  8
WAKU
 62
     3
100
AcDbText
 10
-10974.75403875763
 20
-65060.5495199025
 30
0.0
 40
21.6
  1
寸
  7
K
 72
     1
 11
-10964.67403875763
 21
-65060.5495199025
 31
0.0
100
AcDbText
  0
TEXT
  5
217A
330
2
100
AcDbEntity
  8
WAKU
 62
     3
100
AcDbText
 10
-10893.8940938316
 20
-65057.21942780392
 30
0.0
 40
16.0
  1
6ｦｺｴ
 41
0.8
  7
K
 72
     2
 11
-10861.22361764113
 21
-65049.21942780392
 31
0.0
100
AcDbText
 73
     2
  0
TEXT
  5
217B
330
2
100
AcDbEntity
  8
WAKU
 62
     3
100
AcDbText
 10
-10919.00647478398
 20
-64995.26387750925
 30
0.0
 40
16.0
  1
0.5以上
 41
0.8
  7
K
 72
     2
 11
-10861.22361764113
 21
-64987.26387750926
 31
0.0
100
AcDbText
 73
     2
  0
LINE
  5
217C
330
2
100
AcDbEntity
  8
WAKU
 62
     3
100
AcDbLine
 10
-10528.67403875763
 20
-64796.61941596688
 30
0.0
 11
-10528.67403875763
 21
-64924.61941596688
 31
0.0
  0
LINE
  5
217D
330
2
100
AcDbEntity
  8
WAKU
 62
     3
100
AcDbLine
 10
-10600.67403875763
 20
-64924.61941596688
 30
0.0
 11
-10600.67403875763
 21
-64796.61941596688
 31
0.0
  0
TEXT
  5
217E
330
2
100
AcDbEntity
  8
WAKU
 62
     3
100
AcDbText
 10
-10592.67403875763
 20
-64876.61941596688
 30
0.0
 40
24.0
  1
品名
  7
K
100
AcDbText
  0
TEXT
  5
217F
330
2
100
AcDbEntity
  8
WAKU
 62
     3
100
AcDbText
 10
-10756.67403875763
 20
-65119.17497809856
 30
0.0
 40
16.0
  1
0.2
 41
0.8
  7
K
 11
-10756.67403875763
 21
-65111.17497809856
 31
0.0
100
AcDbText
 73
     2
  0
TEXT
  5
2180
330
2
100
AcDbEntity
  8
WAKU
 62
     3
100
AcDbText
 10
-10756.67403875763
 20
-65088.19720295124
 30
0.0
 40
16.0
  1
0.15
 41
0.8
  7
K
 11
-10756.67403875763
 21
-65080.19720295124
 31
0.0
100
AcDbText
 73
     2
  0
TEXT
  5
2181
330
2
100
AcDbEntity
  8
WAKU
 62
     3
100
AcDbText
 10
-10756.67403875763
 20
-65057.21942780392
 30
0.0
 40
16.0
  1
0.1
 41
0.8
  7
K
 11
-10756.67403875763
 21
-65049.21942780392
 31
0.0
100
AcDbText
 73
     2
  0
TEXT
  5
2182
330
2
100
AcDbEntity
  8
WAKU
 62
     3
100
AcDbText
 10
-10756.67403875763
 20
-65026.24165265659
 30
0.0
 40
16.0
  1
0.05
 41
0.8
  7
K
 11
-10756.67403875763
 21
-65018.24165265659
 31
0.0
100
AcDbText
 73
     2
  0
TEXT
  5
2183
330
2
100
AcDbEntity
  8
WAKU
 62
     3
100
AcDbText
 10
-10700.67403875763
 20
-65088.19720295124
 30
0.0
 40
16.0
  1
0.3
 41
0.8
  7
K
 11
-10700.67403875763
 21
-65080.19720295124
 31
0.0
100
AcDbText
 73
     2
  0
TEXT
  5
2184
330
2
100
AcDbEntity
  8
WAKU
 62
     3
100
AcDbText
 10
-10700.67403875763
 20
-65119.17497809856
 30
0.0
 40
16.0
  1
0.5
 41
0.8
  7
K
 11
-10700.67403875763
 21
-65111.17497809856
 31
0.0
100
AcDbText
 73
     2
  0
TEXT
  5
2185
330
2
100
AcDbEntity
  8
WAKU
 62
     3
100
AcDbText
 10
-10644.67403875763
 20
-65088.19720295124
 30
0.0
 40
16.0
  1
0.8
 41
0.8
  7
K
 11
-10644.67403875763
 21
-65080.19720295124
 31
0.0
100
AcDbText
 73
     2
  0
TEXT
  5
2186
330
2
100
AcDbEntity
  8
WAKU
 62
     3
100
AcDbText
 10
-10644.67403875763
 20
-65119.17497809856
 30
0.0
 40
16.0
  1
1.2
 41
0.8
  7
K
 11
-10644.67403875763
 21
-65111.17497809856
 31
0.0
100
AcDbText
 73
     2
  0
TEXT
  5
2187
330
2
100
AcDbEntity
  8
WAKU
 62
     3
100
AcDbText
 10
-10700.67403875763
 20
-65026.24165265659
 30
0.0
 40
16.0
  1
0.1
 41
0.8
  7
K
 11
-10700.67403875763
 21
-65018.24165265659
 31
0.0
100
AcDbText
 73
     2
  0
TEXT
  5
2188
330
2
100
AcDbEntity
  8
WAKU
 62
     3
100
AcDbText
 10
-10700.67403875763
 20
-65057.21942780392
 30
0.0
 40
16.0
  1
0.2
 41
0.8
  7
K
 11
-10700.67403875763
 21
-65049.21942780392
 31
0.0
100
AcDbText
 73
     2
  0
TEXT
  5
2189
330
2
100
AcDbEntity
  8
WAKU
 62
     3
100
AcDbText
 10
-10644.67403875763
 20
-65026.24165265659
 30
0.0
 40
16.0
  1
0.2
 41
0.8
  7
K
 11
-10644.67403875763
 21
-65018.24165265659
 31
0.0
100
AcDbText
 73
     2
  0
TEXT
  5
218A
330
2
100
AcDbEntity
  8
WAKU
 62
     3
100
AcDbText
 10
-10644.67403875763
 20
-65057.21942780392
 30
0.0
 40
16.0
  1
0.5
 41
0.8
  7
K
 11
-10644.67403875763
 21
-65049.21942780392
 31
0.0
100
AcDbText
 73
     2
  0
TEXT
  5
218B
330
2
100
AcDbEntity
  8
WAKU
 62
     3
100
AcDbText
 10
-10756.67403875763
 20
-64995.26387750925
 30
0.0
 40
16.0
  1
0.05
 41
0.8
  7
K
 11
-10756.67403875763
 21
-64987.26387750926
 31
0.0
100
AcDbText
 73
     2
  0
TEXT
  5
218C
330
2
100
AcDbEntity
  8
WAKU
 62
     3
100
AcDbText
 10
-10747.87403875763
 20
-64968.5749899356
 30
0.0
 40
21.6
  1
J
  7
K
 72
     1
 11
-10740.67403875763
 21
-64957.7749899356
 31
0.0
100
AcDbText
 73
     2
  0
TEXT
  5
218D
330
2
100
AcDbEntity
  8
WAKU
 62
     3
100
AcDbText
 10
-10700.67403875763
 20
-64995.26387750925
 30
0.0
 40
16.0
  1
0.1
 41
0.8
  7
K
 11
-10700.67403875763
 21
-64987.26387750926
 31
0.0
100
AcDbText
 73
     2
  0
TEXT
  5
218E
330
2
100
AcDbEntity
  8
WAKU
 62
     3
100
AcDbText
 10
-10695.98832447191
 20
-64968.5749899356
 30
0.0
 40
21.6
  1
K
  7
K
 72
     1
 11
-10684.67403875763
 21
-64957.7749899356
 31
0.0
100
AcDbText
 73
     2
  0
TEXT
  5
218F
330
2
100
AcDbEntity
  8
WAKU
 62
     3
100
AcDbText
 10
-10638.95975304334
 20
-64968.5749899356
 30
0.0
 40
21.6
  1
L
  7
K
 72
     1
 11
-10628.67403875763
 21
-64957.7749899356
 31
0.0
100
AcDbText
 73
     2
  0
LINE
  5
2190
330
2
100
AcDbEntity
  8
WAKU
 62
     3
100
AcDbLine
 10
-10644.67403875763
 20
-64987.26387750926
 30
0.0
 11
-10615.82577268275
 21
-64987.26387750926
 31
0.0
  0
TEXT
  5
2191
330
2
100
AcDbEntity
  8
WAKU
 62
     3
100
AcDbText
 10
-10592.67403875763
 20
-65106.6194159669
 30
0.0
 40
24.0
  1
検図
  7
K
100
AcDbText
  0
TEXT
  5
2192
330
2
100
AcDbEntity
  8
WAKU
 62
     3
100
AcDbText
 10
-10592.67403875763
 20
-65040.61941596688
 30
0.0
 40
24.0
  1
製図
  7
K
100
AcDbText
  0
TEXT
  5
2193
330
2
100
AcDbEntity
  8
WAKU
 62
     3
100
AcDbText
 10
-10592.67403875763
 20
-64974.61941596688
 30
0.0
 40
24.0
  1
設計
  7
K
100
AcDbText
  0
LINE
  5
2194
330
2
100
AcDbEntity
  8
WAKU
 62
     3
100
AcDbLine
 10
-10304.67403875763
 20
-65188.61941596688
 30
0.0
 11
-10304.67403875763
 21
-65084.6194159669
 31
0.0
  0
TEXT
  5
2195
330
2
100
AcDbEntity
  8
WAKU
 62
     3
100
AcDbText
 10
-10290.2910857423
 20
-65156.6194159669
 30
0.0
 40
26.0
  1
株式会社　中部コーポレーション
  7
K
100
AcDbText
  0
TEXT
  5
2198
330
2
100
AcDbEntity
  8
WAKU
 62
     3
100
AcDbText
 10
-10096.67403875763
 20
-64844.61941596688
 30
0.0
 40
24.0
  1
材 質
  7
K
100
AcDbText
  0
TEXT
  5
2199
330
2
100
AcDbEntity
  8
WAKU
 62
     3
100
AcDbText
 10
-10096.67403875763
 20
-64908.61941596691
 30
0.0
 40
24.0
  1
板 厚
  7
K
100
AcDbText
  0
LINE
  5
219A
330
2
100
AcDbEntity
  8
WAKU
 62
     3
100
AcDbLine
 10
-10304.67403875763
 20
-65084.6194159669
 30
0.0
 11
-9824.674038757635
 21
-65084.6194159669
 31
0.0
  0
LINE
  5
219B
330
2
100
AcDbEntity
  8
WAKU
 62
     3
100
AcDbLine
 10
-9824.674038757635
 20
-64980.6194159669
 30
0.0
 11
-10304.67403875763
 21
-64980.6194159669
 31
0.0
  0
LINE
  5
219C
330
2
100
AcDbEntity
  8
WAKU
 62
     3
100
AcDbLine
 10
-10304.67403875763
 20
-64924.61941596688
 30
0.0
 11
-9824.674038757635
 21
-64924.61941596688
 31
0.0
  0
LINE
  5
219D
330
2
100
AcDbEntity
  8
WAKU
 62
     3
100
AcDbLine
 10
-9824.674038757635
 20
-64796.61941596688
 30
0.0
 11
-10104.67403875763
 21
-64796.61941596688
 31
0.0
  0
LINE
  5
219E
330
2
100
AcDbEntity
  8
WAKU
 62
     3
100
AcDbLine
 10
-10104.67403875763
 20
-64860.61941596688
 30
0.0
 11
-9824.674038757635
 21
-64860.61941596688
 31
0.0
  0
LINE
  5
219F
330
2
100
AcDbEntity
  8
WAKU
 62
     3
100
AcDbLine
 10
-10104.67403875763
 20
-64796.61941596688
 30
0.0
 11
-10104.67403875763
 21
-64924.61941596688
 31
0.0
  0
TEXT
  5
21A0
330
2
100
AcDbEntity
  8
WAKU
 62
     3
100
AcDbText
 10
-10263.81583496158
 20
-64964.61941596688
 30
0.0
 40
24.0
  1
三 角 法
  7
K
100
AcDbText
  0
TEXT
  5
21A1
330
2
100
AcDbEntity
  8
WAKU
 62
     3
100
AcDbText
 10
-10283.07403875763
 20
-65044.61941596688
 30
0.0
 40
24.0
  1
図番
  7
K
 72
     4
 11
-10256.67403875763
 21
-65032.61941596688
 31
0.0
100
AcDbText
  0
LINE
  5
21A2
330
2
100
AcDbEntity
  8
WAKU
 62
     3
100
AcDbLine
 10
-10304.67403875763
 20
-65084.6194159669
 30
0.0
 11
-10304.67403875763
 21
-64980.6194159669
 31
0.0
  0
LINE
  5
21A9
330
2
100
AcDbEntity
  8
WAKU
 62
     3
100
AcDbLine
 10
-10304.67403875763
 20
-64980.6194159669
 30
0.0
 11
-10304.67403875763
 21
-64924.61941596688
 31
0.0
  0
LINE
  5
21AA
330
2
100
AcDbEntity
  8
WAKU
 62
     3
100
AcDbLine
 10
-10208.67403875763
 20
-64980.6194159669
 30
0.0
 11
-10208.67403875763
 21
-65084.6194159669
 31
0.0
  0
LINE
  5
21AB
330
2
100
AcDbEntity
  8
WAKU
 62
     3
100
AcDbLine
 10
-10120.67403875763
 20
-64924.61941596688
 30
0.0
 11
-10120.67403875763
 21
-64980.6194159669
 31
0.0
  0
TEXT
  5
21AC
330
2
100
AcDbEntity
  8
WAKU
 62
     3
100
AcDbText
 10
-10112.67403875763
 20
-64964.61941596688
 30
0.0
 40
24.0
  1
尺度
  7
K
100
AcDbText
  0
LINE
  5
21AD
330
2
100
AcDbEntity
  8
WAKU
 62
     3
100
AcDbLine
 10
-10016.67403875763
 20
-64796.61941596688
 30
0.0
 11
-10016.67403875763
 21
-64924.61941596688
 31
0.0
  0
TEXT
  5
21AE
330
2
100
AcDbEntity
  8
WAKU
 62
     3
100
AcDbText
 10
-9960.167546294666
 20
-64969.28133106675
 30
0.0
 40
20.0
  1
(単位mm)
  7
K
100
AcDbText
  0
LINE
  5
21AF
330
2
100
AcDbEntity
  8
WAKU
 62
     3
100
AcDbLine
 10
-10048.67403875763
 20
-64980.6194159669
 30
0.0
 11
-10048.67403875763
 21
-64924.61941596688
 31
0.0
  0
TEXT
  5
21B0
330
2
100
AcDbEntity
  8
SUNPOU
100
AcDbText
 10
-12327.46125574654
 20
-64368.09504138079
 30
0.0
 40
35.0
  1
FL
100
AcDbText
  0
DIMENSION
  5
21B1
330
2
100
AcDbEntity
  8
SUNPOU
100
AcDbDimension
  2
*D9
 10
-12985.74675844994
 20
-63314.55169059202
 30
0.0
 11
-13110.74675844994
 21
-63314.55169059202
 31
0.0
 70
   160
 71
     5
 42
250.0
  3
IMCADLT
100
AcDbAlignedDimension
 13
-13235.74675844994
 23
-63246.21737136875
 33
0.0
 14
-12985.74675844994
 24
-62931.97510503267
 34
0.0
100
AcDbRotatedDimension
1001
ACAD
1000
DSTYLE
1002
{
1070
   140
1040
2.5
1070
    40
1040
15.0
1070
    41
1040
1.199999999999999
1070
    47
1040
0.5
1070
   146
1040
0.6
1070
   271
1070
     1
1070
   272
1070
     1
1070
   288
1070
     1
1002
}
  0
LEADER
  5
21B2
330
2
100
AcDbEntity
  8
SUNPOU
100
AcDbLeader
  3
IMCADLT
 76
     2
 10
-12975.04353301059
 20
-63043.86079825576
 30
0.0
 10
-12449.8870581472
 20
-63281.52057166061
 30
0.0
210
0.0
220
0.0
230
-1.0
213
0.0
223
-22.5
233
0.0
1001
ACAD
1000
DSTYLE
1002
{
1070
   147
1040
1.0
1070
    77
1070
     0
1070
    40
1040
15.0
1070
    41
1040
1.5
1070
    47
1040
0.5
1070
   146
1040
0.6
1070
   271
1070
     1
1070
   272
1070
     1
1070
   288
1070
     1
1002
}
  0
TEXT
  5
21B3
330
2
100
AcDbEntity
  8
SUNPOU
100
AcDbText
 10
-12436.6524804224
 20
-63301.8224565087
 30
0.0
 40
35.0
  1
電源立上げ　AC100Vコンセント
100
AcDbText
  0
DIMENSION
  5
21B4
330
2
100
AcDbEntity
  8
SUNPOU
100
AcDbDimension
  2
*D10
 10
-12794.07547685367
 20
-62981.97510503267
 30
0.0
 11
-12794.07547685367
 21
-63205.66105496626
 31
0.0
 70
   160
 71
     5
 42
50.0
  3
IMCADLT
100
AcDbAlignedDimension
 13
-12985.74675844993
 23
-63031.97510503268
 33
0.0
 14
-12842.33776238465
 24
-62981.97510503267
 34
0.0
 50
270.0
100
AcDbRotatedDimension
1001
ACAD
1000
DSTYLE
1002
{
1070
   140
1040
2.5
1070
    40
1040
15.0
1070
    41
1040
1.199999999999999
1070
    47
1040
0.5
1070
   146
1040
0.6
1070
   271
1070
     1
1070
   272
1070
     1
1070
   288
1070
     1
1002
}
  0
DIMENSION
  5
21B5
330
2
100
AcDbEntity
  8
SUNPOU
100
AcDbDimension
  2
*D11
 10
-12794.0754768537
 20
-62981.97510503267
 30
0.0
 11
-12794.0754768537
 21
-62758.28915509903
 31
0.0
 70
   160
 71
     5
 42
50.0
  3
IMCADLT
100
AcDbAlignedDimension
 13
-12985.74675844994
 23
-62931.97510503267
 33
0.0
 14
-12842.33776238465
 24
-62981.97510503267
 34
0.0
 50
90.0
100
AcDbRotatedDimension
1001
ACAD
1000
DSTYLE
1002
{
1070
   140
1040
2.5
1070
    40
1040
15.0
1070
    41
1040
1.199999999999999
1070
    47
1040
0.5
1070
   146
1040
0.6
1070
   271
1070
     1
1070
   272
1070
     1
1070
   288
1070
     1
1002
}
  0
TEXT
  5
21B6
330
2
100
AcDbEntity
  8
SUNPOU
100
AcDbText
 10
-12436.6524804224
 20
-62697.12775355658
 30
0.0
 40
35.0
  1
ガス立上げ
100
AcDbText
  0
LEADER
  5
21B7
330
2
100
AcDbEntity
  8
SUNPOU
100
AcDbLeader
  3
IMCADLT
 76
     2
 10
-12975.04353301059
 20
-62920.08941180954
 30
0.0
 10
-12449.8870581472
 20
-62682.42963840469
 30
0.0
213
0.0
223
22.5
233
0.0
1001
ACAD
1000
DSTYLE
1002
{
1070
   147
1040
1.0
1070
    77
1070
     0
1070
    40
1040
15.0
1070
    41
1040
1.5
1070
    47
1040
0.5
1070
   146
1040
0.6
1070
   271
1070
     1
1070
   272
1070
     1
1070
   288
1070
     1
1002
}
  0
CIRCLE
  5
21B8
330
2
100
AcDbEntity
  8
JISSEN
100
AcDbCircle
 10
-12985.74675844994
 20
-63031.97510503267
 30
0.0
 40
15.99464717333467
  0
CIRCLE
  5
21B9
330
2
100
AcDbEntity
  8
JISSEN
100
AcDbCircle
 10
-12985.74675844994
 20
-62931.97510503267
 30
0.0
 40
15.99464717333467
  0
DIMENSION
  5
21BA
330
2
100
AcDbEntity
  8
SUNPOU
100
AcDbDimension
  2
*D12
 10
-12452.23011947088
 20
-63952.18584243402
 30
0.0
 11
-12452.23011947088
 21
-64163.92697279808
 31
0.0
 70
   160
  1
器具側ガス入口\PC
 71
     5
 42
397.0000000001001
  3
IMCADLT
100
AcDbAlignedDimension
 13
-12885.74675844994
 23
-64349.18584243408
 33
0.0
 14
-13052.24675844995
 24
-63952.18584243402
 34
0.0
 50
90.0
100
AcDbRotatedDimension
1001
ACAD
1000
DSTYLE
1002
{
1070
   140
1040
2.5
1070
    40
1040
15.0
1070
    41
1040
1.199999999999999
1070
    47
1040
0.5
1070
   146
1040
0.6
1070
   271
1070
     1
1070
   272
1070
     1
1070
   288
1070
     1
1002
}
  0
LINE
  5
21BB
330
2
100
AcDbEntity
  8
ＦＶＤ
  6
HIDDEN
 62
     2
100
AcDbLine
 10
-13235.74675844994
 20
-63991.88584243403
 30
0.0
 11
-13139.74675844994
 21
-63991.88584243403
 31
0.0
  0
LINE
  5
21BC
330
2
100
AcDbEntity
  8
ＦＶＤ
  6
HIDDEN
 62
     2
100
AcDbLine
 10
-13139.74675844994
 20
-63988.68584243403
 30
0.0
 11
-13139.74675844994
 21
-63991.88584243403
 31
0.0
  0
LINE
  5
21BD
330
2
100
AcDbEntity
  8
ＦＶＤ
  6
HIDDEN
 62
     2
100
AcDbLine
 10
-13161.74675844994
 20
-63991.88584243401
 30
0.0
 11
-13161.74675844991
 21
-64108.68584243403
 31
0.0
  0
LINE
  5
21BE
330
2
100
AcDbEntity
  8
ＦＶＤ
  6
HIDDEN
 62
     2
100
AcDbLine
 10
-13161.74675844991
 20
-64108.68584243403
 30
0.0
 11
-13235.74675844991
 21
-64108.68584243408
 31
0.0
  0
LINE
  5
21BF
330
2
100
AcDbEntity
  8
ＦＶＤ
  6
HIDDEN
 62
     2
100
AcDbLine
 10
-13315.04675844994
 20
-64012.96054543407
 30
0.0
 11
-13321.54675844994
 21
-64012.96054543407
 31
0.0
  0
LINE
  5
21C0
330
2
100
AcDbEntity
  8
ＦＶＤ
  6
HIDDEN
 62
     2
100
AcDbLine
 10
-13331.74675844993
 20
-63988.68584243402
 30
0.0
 11
-13331.74675844993
 21
-63991.88584243401
 31
0.0
  0
LINE
  5
21C1
330
2
100
AcDbEntity
  8
ＦＶＤ
  6
HIDDEN
 62
     2
100
AcDbLine
 10
-13235.74675844993
 20
-63991.88584243403
 30
0.0
 11
-13331.74675844993
 21
-63991.88584243401
 31
0.0
  0
LINE
  5
21C2
330
2
100
AcDbEntity
  8
ＦＶＤ
  6
HIDDEN
 62
     2
100
AcDbLine
 10
-13309.74675844994
 20
-64108.68584243408
 30
0.0
 11
-13235.74675844994
 21
-64108.68584243408
 31
0.0
  0
LINE
  5
21C3
330
2
100
AcDbEntity
  8
ＦＶＤ
  6
HIDDEN
 62
     2
100
AcDbLine
 10
-13309.74675844994
 20
-64041.18897243407
 30
0.0
 11
-13309.74675844994
 21
-64108.68584243408
 31
0.0
  0
LINE
  5
21C4
330
2
100
AcDbEntity
  8
ＦＶＤ
  6
HIDDEN
 62
     2
100
AcDbLine
 10
-13324.24675844994
 20
-64114.68584243407
 30
0.0
 11
-13324.24675844994
 21
-64030.18584243407
 31
0.0
  0
LINE
  5
21C5
330
2
100
AcDbEntity
  8
ＦＶＤ
  6
HIDDEN
 62
     2
100
AcDbLine
 10
-13321.94675844993
 20
-64114.68584243407
 30
0.0
 11
-13321.94675844994
 21
-64034.18897243407
 31
0.0
  0
LINE
  5
21C6
330
2
100
AcDbEntity
  8
ＦＶＤ
  6
HIDDEN
 62
     2
100
AcDbLine
 10
-13321.94675844993
 20
-64114.68584243407
 30
0.0
 11
-13324.24675844994
 21
-64114.68584243407
 31
0.0
  0
LINE
  5
21C7
330
2
100
AcDbEntity
  8
ＦＶＤ
  6
HIDDEN
 62
     2
100
AcDbLine
 10
-13346.74036044994
 20
-64038.23992643407
 30
0.0
 11
-13346.74036044994
 21
-64041.23992643407
 31
0.0
  0
ARC
  5
21C8
330
2
100
AcDbEntity
  8
ＦＶＤ
  6
HIDDEN
 62
     2
100
AcDbCircle
 10
-13338.88581644994
 20
-64039.73992643407
 30
0.0
 40
2.839057999999998
100
AcDbArc
 50
298.2883500002134
 51
61.7116499997866
  0
LINE
  5
21C9
330
2
100
AcDbEntity
  8
ＦＶＤ
  6
HIDDEN
 62
     2
100
AcDbLine
 10
-13335.84675844994
 20
-64033.73992643407
 30
0.0
 11
-13335.84675844994
 21
-64045.73992643407
 31
0.0
  0
LINE
  5
21CA
330
2
100
AcDbEntity
  8
ＦＶＤ
  6
HIDDEN
 62
     2
100
AcDbLine
 10
-13334.24675844994
 20
-64033.73992643407
 30
0.0
 11
-13334.24675844994
 21
-64045.73992643407
 31
0.0
  0
LINE
  5
21CB
330
2
100
AcDbEntity
  8
ＦＶＤ
  6
HIDDEN
 62
     2
100
AcDbLine
 10
-13335.84675844994
 20
-64034.73992643407
 30
0.0
 11
-13335.84675844994
 21
-64044.73992643407
 31
0.0
  0
LINE
  5
21CC
330
2
100
AcDbEntity
  8
ＦＶＤ
  6
HIDDEN
 62
     2
100
AcDbLine
 10
-13313.04675844994
 20
-64041.68897243407
 30
0.0
 11
-13313.04675844994
 21
-64031.68897243407
 31
0.0
  0
LINE
  5
21CD
330
2
100
AcDbEntity
  8
ＦＶＤ
  6
HIDDEN
 62
     2
100
AcDbLine
 10
-13315.04675844994
 20
-64041.68897243407
 30
0.0
 11
-13315.04675844994
 21
-64031.68897243407
 31
0.0
  0
ARC
  5
21CE
330
2
100
AcDbEntity
  8
ＦＶＤ
  6
HIDDEN
 62
     2
100
AcDbCircle
 10
-13301.91896631921
 20
-64031.68897243407
 30
0.0
 40
10.70099286926962
100
AcDbArc
 50
297.4058877618617
 51
62.59411223813835
  0
LINE
  5
21CF
330
2
100
AcDbEntity
  8
ＦＶＤ
  6
HIDDEN
 62
     2
100
AcDbLine
 10
-13316.94675844994
 20
-64051.32429043407
 30
0.0
 11
-13316.94675844994
 21
-64034.18897243407
 31
0.0
  0
LINE
  5
21D0
330
2
100
AcDbEntity
  8
ＦＶＤ
  6
HIDDEN
 62
     2
100
AcDbLine
 10
-13319.24675844994
 20
-64078.84567343407
 30
0.0
 11
-13319.24675844994
 21
-64034.18897243407
 31
0.0
  0
LINE
  5
21D1
330
2
100
AcDbEntity
  8
ＦＶＤ
  6
HIDDEN
 62
     2
100
AcDbLine
 10
-13321.54675844994
 20
-64078.84567343407
 30
0.0
 11
-13321.54675844994
 21
-64034.18897243407
 31
0.0
  0
LINE
  5
21D2
330
2
100
AcDbEntity
  8
ＦＶＤ
  6
HIDDEN
 62
     2
100
AcDbLine
 10
-13324.24675844994
 20
-64044.73992643407
 30
0.0
 11
-13334.24675844994
 21
-64044.73992643407
 31
0.0
  0
LINE
  5
21D3
330
2
100
AcDbEntity
  8
ＦＶＤ
  6
HIDDEN
 62
     2
100
AcDbLine
 10
-13324.24675844994
 20
-64050.68584243407
 30
0.0
 11
-13338.24675844994
 21
-64050.68584243407
 31
0.0
  0
LINE
  5
21D4
330
2
100
AcDbEntity
  8
ＦＶＤ
  6
HIDDEN
 62
     2
100
AcDbLine
 10
-13324.24675844994
 20
-64068.68584243407
 30
0.0
 11
-13338.24675844994
 21
-64068.68584243407
 31
0.0
  0
LINE
  5
21D5
330
2
100
AcDbEntity
  8
ＦＶＤ
  6
HIDDEN
 62
     2
100
AcDbLine
 10
-13319.24675844994
 20
-64078.84567343407
 30
0.0
 11
-13321.54675844994
 21
-64078.84567343407
 31
0.0
  0
LINE
  5
21D6
330
2
100
AcDbEntity
  8
ＦＶＤ
  6
HIDDEN
 62
     2
100
AcDbLine
 10
-13313.04675844994
 20
-64041.18897243407
 30
0.0
 11
-13296.99339544994
 21
-64041.18897243407
 31
0.0
  0
LINE
  5
21D7
330
2
100
AcDbEntity
  8
ＦＶＤ
  6
HIDDEN
 62
     2
100
AcDbLine
 10
-13315.04675844994
 20
-64041.68897243407
 30
0.0
 11
-13313.04675844994
 21
-64041.68897243407
 31
0.0
  0
LINE
  5
21D8
330
2
100
AcDbEntity
  8
ＦＶＤ
  6
HIDDEN
 62
     2
100
AcDbLine
 10
-13321.54675844994
 20
-64068.68584243407
 30
0.0
 11
-13321.94675844993
 21
-64068.68584243407
 31
0.0
  0
LINE
  5
21D9
330
2
100
AcDbEntity
  8
ＦＶＤ
  6
HIDDEN
 62
     2
100
AcDbLine
 10
-13316.94675844994
 20
-64051.32429043407
 30
0.0
 11
-13319.24675844994
 21
-64051.32429043407
 31
0.0
  0
LINE
  5
21DA
330
2
100
AcDbEntity
  8
ＦＶＤ
  6
HIDDEN
 62
     2
100
AcDbLine
 10
-13309.74675844994
 20
-64068.68584243407
 30
0.0
 11
-13319.24675844994
 21
-64068.68584243407
 31
0.0
  0
LINE
  5
21DB
330
2
100
AcDbEntity
  8
ＦＶＤ
  6
HIDDEN
 62
     2
100
AcDbLine
 10
-13309.74675844994
 20
-64050.68584243407
 30
0.0
 11
-13316.94675844994
 21
-64050.68584243407
 31
0.0
  0
LINE
  5
21DC
330
2
100
AcDbEntity
  8
ＦＶＤ
  6
HIDDEN
 62
     2
100
AcDbLine
 10
-13344.24675844994
 20
-64041.51096943406
 30
0.0
 11
-13344.24675844994
 21
-64042.73992643407
 31
0.0
  0
LINE
  5
21DD
330
2
100
AcDbEntity
  8
ＦＶＤ
  6
HIDDEN
 62
     2
100
AcDbLine
 10
-13335.84675844994
 20
-64044.73992643407
 30
0.0
 11
-13336.04675844994
 21
-64044.73992643407
 31
0.0
  0
LINE
  5
21DE
330
2
100
AcDbEntity
  8
ＦＶＤ
  6
HIDDEN
 62
     2
100
AcDbLine
 10
-13334.24675844994
 20
-64045.73992643407
 30
0.0
 11
-13335.84675844994
 21
-64045.73992643407
 31
0.0
  0
LINE
  5
21DF
330
2
100
AcDbEntity
  8
ＦＶＤ
  6
HIDDEN
 62
     2
100
AcDbLine
 10
-13337.54036044994
 20
-64045.73992643407
 30
0.0
 11
-13340.94675844994
 21
-64044.73992643407
 31
0.0
  0
LINE
  5
21E0
330
2
100
AcDbEntity
  8
ＦＶＤ
  6
HIDDEN
 62
     2
100
AcDbLine
 10
-13340.94675844994
 20
-64041.86966543408
 30
0.0
 11
-13340.94675844994
 21
-64044.73992643407
 31
0.0
  0
LINE
  5
21E1
330
2
100
AcDbEntity
  8
ＦＶＤ
  6
HIDDEN
 62
     2
100
AcDbLine
 10
-13340.94675844994
 20
-64042.73992643407
 30
0.0
 11
-13344.24675844994
 21
-64042.73992643407
 31
0.0
  0
LINE
  5
21E2
330
2
100
AcDbEntity
  8
ＦＶＤ
  6
HIDDEN
 62
     2
100
AcDbLine
 10
-13346.74036044994
 20
-64041.23992643407
 30
0.0
 11
-13337.54036044994
 21
-64042.23992643407
 31
0.0
  0
LINE
  5
21E3
330
2
100
AcDbEntity
  8
ＦＶＤ
  6
HIDDEN
 62
     2
100
AcDbLine
 10
-13338.24675844994
 20
-64054.68584243408
 30
0.0
 11
-13342.24675844994
 21
-64054.68584243408
 31
0.0
  0
LINE
  5
21E4
330
2
100
AcDbEntity
  8
ＦＶＤ
  6
HIDDEN
 62
     2
100
AcDbLine
 10
-13338.24675844994
 20
-64064.68584243407
 30
0.0
 11
-13342.24675844994
 21
-64064.68584243407
 31
0.0
  0
LINE
  5
21E5
330
2
100
AcDbEntity
  8
ＦＶＤ
  6
HIDDEN
 62
     2
100
AcDbLine
 10
-13342.24675844994
 20
-64054.68584243408
 30
0.0
 11
-13342.24675844994
 21
-64064.68584243407
 31
0.0
  0
LINE
  5
21E6
330
2
100
AcDbEntity
  8
ＦＶＤ
  6
HIDDEN
 62
     2
100
AcDbLine
 10
-13338.24675844994
 20
-64068.68584243407
 30
0.0
 11
-13338.24675844994
 21
-64050.68584243407
 31
0.0
  0
ARC
  5
21E7
330
2
100
AcDbEntity
  8
ＦＶＤ
  6
HIDDEN
 62
     2
100
AcDbCircle
 10
-13337.53675844994
 20
-64044.04992643407
 30
0.0
 40
1.689999999999999
100
AcDbArc
 50
270.0
 51
0.0
  0
LINE
  5
21E8
330
2
100
AcDbEntity
  8
ＦＶＤ
  6
HIDDEN
 62
     2
100
AcDbLine
 10
-13324.24675844994
 20
-64034.73992643407
 30
0.0
 11
-13334.24675844994
 21
-64034.73992643407
 31
0.0
  0
LINE
  5
21E9
330
2
100
AcDbEntity
  8
ＦＶＤ
  6
HIDDEN
 62
     2
100
AcDbLine
 10
-13309.74675844994
 20
-63991.88584243403
 30
0.0
 11
-13309.74675844994
 21
-64022.18897243407
 31
0.0
  0
LINE
  5
21EA
330
2
100
AcDbEntity
  8
ＦＶＤ
  6
HIDDEN
 62
     2
100
AcDbLine
 10
-13313.04675844994
 20
-64022.18897243407
 30
0.0
 11
-13296.99339544994
 21
-64022.18897243407
 31
0.0
  0
LINE
  5
21EB
330
2
100
AcDbEntity
  8
ＦＶＤ
  6
HIDDEN
 62
     2
100
AcDbLine
 10
-13322.84675844994
 20
-64029.18897243407
 30
0.0
 11
-13322.84675844994
 21
-64031.68897243407
 31
0.0
  0
LINE
  5
21EC
330
2
100
AcDbEntity
  8
ＦＶＤ
  6
HIDDEN
 62
     2
100
AcDbLine
 10
-13322.84675844994
 20
-64034.18897243407
 30
0.0
 11
-13322.84675844994
 21
-64031.68897243407
 31
0.0
  0
LINE
  5
21ED
330
2
100
AcDbEntity
  8
ＦＶＤ
  6
HIDDEN
 62
     2
100
AcDbLine
 10
-13324.54675844994
 20
-64022.27259043407
 30
0.0
 11
-13324.54675844994
 21
-64027.94085043407
 31
0.0
  0
LINE
  5
21EE
330
2
100
AcDbEntity
  8
ＦＶＤ
  6
HIDDEN
 62
     2
100
AcDbLine
 10
-13322.84675844994
 20
-64030.18584243407
 30
0.0
 11
-13324.24675844994
 21
-64030.18584243407
 31
0.0
  0
ARC
  5
21EF
330
2
100
AcDbEntity
  8
ＦＶＤ
  6
HIDDEN
 62
     2
100
AcDbCircle
 10
-13322.54675844994
 20
-64018.91131943408
 30
0.0
 40
1.0
100
AcDbArc
 50
90.0
 51
180.0
  0
LINE
  5
21F0
330
2
100
AcDbEntity
  8
ＦＶＤ
  6
HIDDEN
 62
     2
100
AcDbLine
 10
-13323.54675844994
 20
-64018.91131943408
 30
0.0
 11
-13323.54675844994
 21
-64022.27259043407
 31
0.0
  0
LINE
  5
21F1
330
2
100
AcDbEntity
  8
ＦＶＤ
  6
HIDDEN
 62
     2
100
AcDbLine
 10
-13321.54675844994
 20
-64027.94085043407
 30
0.0
 11
-13324.54675844994
 21
-64027.94085043407
 31
0.0
  0
LINE
  5
21F2
330
2
100
AcDbEntity
  8
ＦＶＤ
  6
HIDDEN
 62
     2
100
AcDbLine
 10
-13321.54675844994
 20
-64025.67185743407
 30
0.0
 11
-13324.54675844994
 21
-64025.67185743407
 31
0.0
  0
ARC
  5
21F3
330
2
100
AcDbEntity
  8
ＦＶＤ
  6
HIDDEN
 62
     2
100
AcDbCircle
 10
-13322.54675844994
 20
-64018.91131943408
 30
0.0
 40
1.0
100
AcDbArc
 50
0.0
 51
90.0
  0
LINE
  5
21F4
330
2
100
AcDbEntity
  8
ＦＶＤ
  6
HIDDEN
 62
     2
100
AcDbLine
 10
-13321.54675844994
 20
-64022.83772743407
 30
0.0
 11
-13324.54675844994
 21
-64022.83772743407
 31
0.0
  0
LINE
  5
21F5
330
2
100
AcDbEntity
  8
ＦＶＤ
  6
HIDDEN
 62
     2
100
AcDbLine
 10
-13321.54675844994
 20
-64022.27259043407
 30
0.0
 11
-13324.54675844994
 21
-64022.27259043407
 31
0.0
  0
LINE
  5
21F6
330
2
100
AcDbEntity
  8
ＦＶＤ
  6
HIDDEN
 62
     2
100
AcDbLine
 10
-13321.54675844994
 20
-64027.94085043407
 30
0.0
 11
-13321.54675844994
 21
-64012.96054543407
 31
0.0
  0
LINE
  5
21F7
330
2
100
AcDbEntity
  8
ＦＶＤ
  6
HIDDEN
 62
     2
100
AcDbLine
 10
-13315.04675844994
 20
-64025.37495943406
 30
0.0
 11
-13319.24675844994
 21
-64025.37495943406
 31
0.0
  0
LINE
  5
21F8
330
2
100
AcDbEntity
  8
ＦＶＤ
  6
HIDDEN
 62
     2
100
AcDbLine
 10
-13315.04675844994
 20
-64021.68897243407
 30
0.0
 11
-13313.04675844994
 21
-64021.68897243407
 31
0.0
  0
LINE
  5
21F9
330
2
100
AcDbEntity
  8
ＦＶＤ
  6
HIDDEN
 62
     2
100
AcDbLine
 10
-13315.04675844994
 20
-64021.68897243407
 30
0.0
 11
-13315.04675844994
 21
-64031.68897243407
 31
0.0
  0
LINE
  5
21FA
330
2
100
AcDbEntity
  8
ＦＶＤ
  6
HIDDEN
 62
     2
100
AcDbLine
 10
-13313.04675844994
 20
-64021.68897243407
 30
0.0
 11
-13313.04675844994
 21
-64031.68897243407
 31
0.0
  0
LINE
  5
21FB
330
2
100
AcDbEntity
  8
ＦＶＤ
  6
HIDDEN
 62
     2
100
AcDbLine
 10
-13316.94675844994
 20
-64029.18897243407
 30
0.0
 11
-13316.94675844994
 21
-64025.37495943406
 31
0.0
  0
LINE
  5
21FC
330
2
100
AcDbEntity
  8
ＦＶＤ
  6
HIDDEN
 62
     2
100
AcDbLine
 10
-13319.24675844994
 20
-64029.18897243407
 30
0.0
 11
-13319.24675844994
 21
-64025.37495943406
 31
0.0
  0
LINE
  5
21FD
330
2
100
AcDbEntity
  8
ＦＶＤ
  6
HIDDEN
 62
     2
100
AcDbLine
 10
-13315.04675844994
 20
-64025.37495943406
 30
0.0
 11
-13315.04675844994
 21
-64012.96054543407
 31
0.0
  0
LINE
  5
21FE
330
2
100
AcDbEntity
  8
ＦＶＤ
  6
HIDDEN
 62
     2
100
AcDbLine
 10
-13322.84675844994
 20
-64029.18897243407
 30
0.0
 11
-13315.04675844994
 21
-64029.18897243407
 31
0.0
  0
LINE
  5
21FF
330
2
100
AcDbEntity
  8
ＦＶＤ
  6
HIDDEN
 62
     2
100
AcDbLine
 10
-13322.84675844994
 20
-64034.18897243407
 30
0.0
 11
-13315.04675844994
 21
-64034.18897243407
 31
0.0
  0
LINE
  5
2200
330
2
100
AcDbEntity
  8
ＦＶＤ
  6
HIDDEN
 62
     2
100
AcDbLine
 10
-13315.04675844994
 20
-64023.63539843407
 30
0.0
 11
-13321.54675844994
 21
-64023.63539843407
 31
0.0
  0
LINE
  5
2201
330
2
100
AcDbEntity
  8
ＦＶＤ
  6
HIDDEN
 62
     2
100
AcDbLine
 10
-13344.24675844994
 20
-64036.73992643406
 30
0.0
 11
-13344.24675844994
 21
-64037.96888243407
 31
0.0
  0
ARC
  5
2202
330
2
100
AcDbEntity
  8
ＦＶＤ
  6
HIDDEN
 62
     2
100
AcDbCircle
 10
-13337.53675844994
 20
-64035.42992643407
 30
0.0
 40
1.689999999999999
100
AcDbArc
 50
0.0
 51
90.0
  0
LINE
  5
2203
330
2
100
AcDbEntity
  8
ＦＶＤ
  6
HIDDEN
 62
     2
100
AcDbLine
 10
-13337.54036044994
 20
-64033.73992643407
 30
0.0
 11
-13340.94675844994
 21
-64034.73992643407
 31
0.0
  0
LINE
  5
2204
330
2
100
AcDbEntity
  8
ＦＶＤ
  6
HIDDEN
 62
     2
100
AcDbLine
 10
-13336.04675844994
 20
-64034.73992643407
 30
0.0
 11
-13335.84675844994
 21
-64034.73992643407
 31
0.0
  0
LINE
  5
2205
330
2
100
AcDbEntity
  8
ＦＶＤ
  6
HIDDEN
 62
     2
100
AcDbLine
 10
-13340.94675844994
 20
-64034.73992643407
 30
0.0
 11
-13340.94675844994
 21
-64037.61018643407
 31
0.0
  0
LINE
  5
2206
330
2
100
AcDbEntity
  8
ＦＶＤ
  6
HIDDEN
 62
     2
100
AcDbLine
 10
-13334.24675844994
 20
-64033.73992643407
 30
0.0
 11
-13335.84675844994
 21
-64033.73992643407
 31
0.0
  0
LINE
  5
2207
330
2
100
AcDbEntity
  8
ＦＶＤ
  6
HIDDEN
 62
     2
100
AcDbLine
 10
-13337.53675844994
 20
-64033.73992643407
 30
0.0
 11
-13337.54036044994
 21
-64033.73992643407
 31
0.0
  0
LINE
  5
2208
330
2
100
AcDbEntity
  8
ＦＶＤ
  6
HIDDEN
 62
     2
100
AcDbLine
 10
-13340.94675844994
 20
-64036.73992643406
 30
0.0
 11
-13344.24675844994
 21
-64036.73992643406
 31
0.0
  0
LINE
  5
2209
330
2
100
AcDbEntity
  8
ＦＶＤ
  6
HIDDEN
 62
     2
100
AcDbLine
 10
-13346.74036044994
 20
-64038.23992643407
 30
0.0
 11
-13337.54036044994
 21
-64037.23992643407
 31
0.0
  0
ARC
  5
220A
330
2
100
AcDbEntity
  8
ＦＶＤ
  6
HIDDEN
 62
     2
100
AcDbCircle
 10
-13246.96516344994
 20
-64059.68584243406
 30
0.0
 40
61.5
100
AcDbArc
 50
174.1671889998018
 51
185.8328110001981
  0
ARC
  5
220B
330
2
100
AcDbEntity
  8
ＦＶＤ
  6
HIDDEN
 62
     2
100
AcDbCircle
 10
-13307.16733544994
 20
-64056.43584243407
 30
0.0
 40
3.0
100
AcDbArc
 50
0.0
 51
90.0
  0
ARC
  5
220C
330
2
100
AcDbEntity
  8
ＦＶＤ
  6
HIDDEN
 62
     2
100
AcDbCircle
 10
-13307.16733544994
 20
-64062.93584243408
 30
0.0
 40
3.0
100
AcDbArc
 50
270.0
 51
0.0
  0
LINE
  5
220D
330
2
100
AcDbEntity
  8
ＦＶＤ
  6
HIDDEN
 62
     2
100
AcDbLine
 10
-13304.16733544994
 20
-64056.43584243407
 30
0.0
 11
-13304.16733544994
 21
-64062.93584243408
 31
0.0
  0
LINE
  5
220E
330
2
100
AcDbEntity
  8
ＦＶＤ
  6
HIDDEN
 62
     2
100
AcDbLine
 10
-13307.16733544994
 20
-64053.43584243407
 30
0.0
 11
-13308.14675844994
 21
-64053.43584243407
 31
0.0
  0
LINE
  5
220F
330
2
100
AcDbEntity
  8
ＦＶＤ
  6
HIDDEN
 62
     2
100
AcDbLine
 10
-13307.16733544994
 20
-64065.93584243407
 30
0.0
 11
-13308.14675844994
 21
-64065.93584243407
 31
0.0
  0
DIMENSION
  5
2210
330
2
100
AcDbEntity
  8
SUNPOU
100
AcDbDimension
  2
*D13
 10
-13861.68412626454
 20
-64089.18584243403
 30
0.0
 11
-13861.68412626454
 21
-64219.18584243406
 31
0.0
 70
   160
  1
ダクト立上げ\PA
 71
     5
 42
260.0
  3
IMCADLT
100
AcDbAlignedDimension
 13
-13666.1138735094
 23
-64349.18584243408
 33
0.0
 14
-13309.74675844997
 24
-64089.18584243403
 34
0.0
 50
90.0
100
AcDbRotatedDimension
1001
ACAD
1000
DSTYLE
1002
{
1070
   140
1040
2.5
1070
    40
1040
15.0
1070
    41
1040
1.199999999999999
1070
    47
1040
0.5
1070
   146
1040
0.6
1070
   271
1070
     1
1070
   272
1070
     1
1070
   288
1070
     1
1002
}
  0
DIMENSION
  5
2211
330
2
100
AcDbEntity
  8
SUNPOU
100
AcDbDimension
  2
*D14
 10
-13698.78028365103
 20
-64107.18584243409
 30
0.0
 11
-13698.78028365103
 21
-64235.93584243405
 31
0.0
 70
   160
  1
下端　B
 71
     5
 42
242.0
  3
IMCADLT
100
AcDbAlignedDimension
 13
-13585.74675844995
 23
-64349.18584243408
 33
0.0
 14
-13309.74675844997
 24
-64107.18584243409
 34
0.0
 50
90.0
100
AcDbRotatedDimension
1001
ACAD
1000
DSTYLE
1002
{
1070
   140
1040
2.5
1070
    40
1040
15.0
1070
    41
1040
1.199999999999999
1070
    47
1040
0.5
1070
   146
1040
0.6
1070
   271
1070
     1
1070
   272
1070
     1
1070
   288
1070
     1
1002
}
  0
TEXT
  5
2212
330
2
100
AcDbEntity
  8
SUNPOU
100
AcDbText
 10
-13878.12120530454
 20
-63972.53296713027
 30
0.0
 40
35.0
  1
FVD
100
AcDbText
  0
TEXT
  5
2213
330
2
100
AcDbEntity
  8
SUNPOU
100
AcDbText
 10
-13917.29913535341
 20
-64532.83248748584
 30
0.0
 40
35.0
  1
φ150
100
AcDbText
  0
LEADER
  5
2214
330
2
100
AcDbEntity
  8
SUNPOU
100
AcDbLeader
  3
IMCADLT
 76
     2
 10
-13314.89589705746
 20
-64419.74102573376
 30
0.0
 10
-13755.57146575744
 20
-64502.27585596818
 30
0.0
213
0.0
223
22.5
233
0.0
1001
ACAD
1000
DSTYLE
1002
{
1070
   147
1040
1.0
1070
    77
1070
     0
1070
    40
1040
15.0
1070
    41
1040
1.5
1070
    47
1040
0.5
1070
   146
1040
0.6
1070
   271
1070
     1
1070
   272
1070
     1
1070
   288
1070
     1
1002
}
  0
LEADER
  5
2215
330
2
100
AcDbEntity
  8
SUNPOU
100
AcDbLeader
  3
IMCADLT
 76
     2
 10
-13342.24675844994
 20
-64064.68584243407
 30
0.0
 10
-13750.42232714992
 20
-63960.73727311043
 30
0.0
213
0.0
223
22.5
233
0.0
1001
ACAD
1000
DSTYLE
1002
{
1070
   147
1040
1.0
1070
    77
1070
     0
1070
    40
1040
15.0
1070
    41
1040
1.5
1070
    47
1040
0.5
1070
   146
1040
0.6
1070
   271
1070
     1
1070
   272
1070
     1
1070
   288
1070
     1
1002
}
  0
DIMENSION
  5
2216
330
2
100
AcDbEntity
  8
SUNPOU
100
AcDbDimension
  2
*D15
 10
-12555.06880585797
 20
-63679.18584243407
 30
0.0
 11
-12555.06880585797
 21
-63815.45087139336
 31
0.0
 70
   160
  1
D
 71
     5
 42
30.0
  3
IMCADLT
100
AcDbAlignedDimension
 13
-12635.74675844994
 23
-63649.18584243407
 33
0.0
 14
-12635.74675844994
 24
-63679.18584243407
 34
0.0
 50
90.0
100
AcDbRotatedDimension
1001
ACAD
1000
DSTYLE
1002
{
1070
   140
1040
2.5
1070
    40
1040
15.0
1070
    41
1040
1.199999999999999
1070
    47
1040
0.5
1070
   146
1040
0.6
1070
   271
1070
     1
1070
   272
1070
     1
1070
   288
1070
     1
1002
}
  0
DIMENSION
  5
2217
330
2
100
AcDbEntity
  8
SUNPOU
100
AcDbDimension
  2
*D16
 10
-12358.55248859204
 20
-63649.18584243407
 30
0.0
 11
-12358.55248859204
 21
-64059.93140625072
 31
0.0
 70
   160
  1
E
 71
     5
 42
700.0
  3
IMCADLT
100
AcDbAlignedDimension
 13
-12885.74675844994
 23
-64349.18584243408
 33
0.0
 14
-12635.74675844994
 24
-63649.18584243407
 34
0.0
 50
90.0
100
AcDbRotatedDimension
1001
ACAD
1000
DSTYLE
1002
{
1070
   140
1040
2.5
1070
    40
1040
15.0
1070
    41
1040
1.199999999999999
1070
    47
1040
0.5
1070
   146
1040
0.6
1070
   271
1070
     1
1070
   272
1070
     1
1070
   288
1070
     1
1002
}
  0
DIMENSION
  5
2218
330
2
100
AcDbEntity
  8
SUNPOU
100
AcDbDimension
  2
*D17
 10
-12885.74675844994
 20
-64719.89072428013
 30
0.0
 11
-13235.74675844994
 21
-64719.89072428013
 31
0.0
 70
   160
 71
     5
 42
700.0
  3
IMCADLT
100
AcDbAlignedDimension
 13
-13585.74675844994
 23
-64349.18584243408
 33
0.0
 14
-12885.74675844994
 24
-64349.18584243408
 34
0.0
100
AcDbRotatedDimension
1001
ACAD
1000
DSTYLE
1002
{
1070
   140
1040
2.5
1070
    40
1040
15.0
1070
    41
1040
1.199999999999999
1070
    47
1040
0.5
1070
   146
1040
0.6
1070
   271
1070
     1
1070
   272
1070
     1
1070
   288
1070
     1
1002
}
  0
LINE
  5
2219
330
2
100
AcDbEntity
  8
コックカバー
 62
     7
100
AcDbLine
 10
-12666.94675844994
 20
-63747.18584243407
 30
0.0
 11
-12885.74675844994
 21
-63747.18584243407
 31
0.0
  0
LINE
  5
221A
330
2
100
AcDbEntity
  8
コックカバー
 62
     7
100
AcDbLine
 10
-12666.94675844994
 20
-63679.68584243407
 30
0.0
 11
-12895.74675844994
 21
-63679.68584243407
 31
0.0
  0
LINE
  5
221B
330
2
100
AcDbEntity
  8
コックカバー
 62
     7
100
AcDbLine
 10
-12666.94675844994
 20
-63679.18584243407
 30
0.0
 11
-12666.94675844994
 21
-63747.18584243407
 31
0.0
  0
LINE
  5
221C
330
2
100
AcDbEntity
  8
コックカバー
 62
     7
100
AcDbLine
 10
-12666.94675844994
 20
-63679.18584243407
 30
0.0
 11
-12916.94675844994
 21
-63679.18584243407
 31
0.0
  0
LINE
  5
221D
330
2
100
AcDbEntity
  8
コックカバー
  6
HIDDEN
 62
     2
 48
3.0
100
AcDbLine
 10
-12666.94675844993
 20
-62911.97510503264
 30
0.0
 11
-12885.74675844994
 21
-62911.97510503264
 31
0.0
  0
LINE
  5
221E
330
2
100
AcDbEntity
  8
点検扉　大
 62
     7
100
AcDbLine
 10
-13011.94675845003
 20
-63868.18584243432
 30
0.0
 11
-13011.94675845002
 21
-63864.18584243434
 31
0.0
  0
ARC
  5
221F
330
2
100
AcDbEntity
  8
点検扉　大
 62
     7
100
AcDbCircle
 10
-13016.94675845002
 20
-63864.18584243434
 30
0.0
 40
5.0
100
AcDbArc
 50
0.0
 51
89.99999999989578
  0
LINE
  5
2220
330
2
100
AcDbEntity
  8
点検扉　大
 62
     7
100
AcDbLine
 10
-13016.94675845001
 20
-63859.18584243434
 30
0.0
 11
-13148.74675845003
 21
-63859.18584243418
 31
0.0
  0
LINE
  5
2221
330
2
100
AcDbEntity
  8
キャビネット
 62
     7
100
AcDbLine
 10
-13008.74675844994
 20
-63839.18584243406
 30
0.0
 11
-13009.94675844994
 21
-63839.18584243406
 31
0.0
  0
LINE
  5
2222
330
2
100
AcDbEntity
  8
キャビネット
 62
     7
100
AcDbLine
 10
-13009.94675844993
 20
-63679.18584243407
 30
0.0
 11
-13009.94675844993
 21
-63680.38584243407
 31
0.0
  0
LINE
  5
2223
330
2
100
AcDbEntity
  8
キャビネット
 62
     7
100
AcDbLine
 10
-13008.74675844994
 20
-63857.98584243407
 30
0.0
 11
-13009.94675844993
 21
-63857.98584243407
 31
0.0
  0
LINE
  5
2224
330
2
100
AcDbEntity
  8
キャビネット
 62
     7
100
AcDbLine
 10
-13009.94675844993
 20
-63859.18584243407
 30
0.0
 11
-13009.94675844993
 21
-63839.18584243406
 31
0.0
  0
LINE
  5
2225
330
2
100
AcDbEntity
  8
キャビネット
 62
     7
100
AcDbLine
 10
-13009.94675844993
 20
-63859.18584243407
 30
0.0
 11
-13235.74675844994
 21
-63859.18584243407
 31
0.0
  0
LINE
  5
2226
330
2
100
AcDbEntity
  8
キャビネット
 62
     7
100
AcDbLine
 10
-13008.74675844994
 20
-63680.38584243407
 30
0.0
 11
-13235.74675844994
 21
-63680.38584243407
 31
0.0
  0
LINE
  5
2227
330
2
100
AcDbEntity
  8
キャビネット
 62
     7
100
AcDbLine
 10
-13009.94675844993
 20
-63679.18584243407
 30
0.0
 11
-13235.74675844994
 21
-63679.18584243407
 31
0.0
  0
LINE
  5
2228
330
2
100
AcDbEntity
  8
キャビネット
 62
     7
100
AcDbLine
 10
-13008.74675844994
 20
-63680.38584243407
 30
0.0
 11
-13008.74675844994
 21
-63857.98584243407
 31
0.0
  0
LINE
  5
2229
330
2
100
AcDbEntity
  8
側板
 62
     7
100
AcDbLine
 10
-13008.74675844986
 20
-63970.18584243348
 30
0.0
 11
-13010.74675844993
 21
-63970.18584243348
 31
0.0
  0
LINE
  5
222A
330
2
100
AcDbEntity
  8
側板
 62
     7
100
AcDbLine
 10
-13008.74675844986
 20
-63940.18584243348
 30
0.0
 11
-13010.74675844993
 21
-63940.18584243348
 31
0.0
  0
LINE
  5
222B
330
2
100
AcDbEntity
  8
側板
 62
     7
100
AcDbLine
 10
-13008.74675844984
 20
-64259.18584243349
 30
0.0
 11
-13010.74675844993
 21
-64259.18584243349
 31
0.0
  0
LINE
  5
222C
330
2
100
AcDbEntity
  8
側板
 62
     7
100
AcDbLine
 10
-13008.74675844984
 20
-64289.1858424335
 30
0.0
 11
-13010.74675844993
 21
-64289.1858424335
 31
0.0
  0
LINE
  5
222D
330
2
100
AcDbEntity
  8
側板
 62
     7
100
AcDbLine
 10
-12895.74675844994
 20
-63679.18584243409
 30
0.0
 11
-13007.54675844994
 21
-63679.18584243409
 31
0.0
  0
LINE
  5
222E
330
2
100
AcDbEntity
  8
側板
 62
     7
100
AcDbLine
 10
-12895.74675844994
 20
-63680.38584243407
 30
0.0
 11
-13008.74675844994
 21
-63680.38584243407
 31
0.0
  0
LINE
  5
222F
330
2
100
AcDbEntity
  8
側板
 62
     7
100
AcDbLine
 10
-12895.74675844994
 20
-64349.18584243408
 30
0.0
 11
-13007.54675844994
 21
-64349.18584243408
 31
0.0
  0
LINE
  5
2230
330
2
100
AcDbEntity
  8
側板
 62
     7
100
AcDbLine
 10
-12893.74675844995
 20
-64347.98584243415
 30
0.0
 11
-13008.74675844994
 21
-64347.98584243407
 31
0.0
  0
LINE
  5
2231
330
2
100
AcDbEntity
  8
側板
 62
     7
100
AcDbLine
 10
-13007.54675844994
 20
-63679.18584243409
 30
0.0
 11
-13007.54675844994
 21
-63680.38584243407
 31
0.0
  0
LINE
  5
2232
330
2
100
AcDbEntity
  8
側板
 62
     7
100
AcDbLine
 10
-12895.74675844994
 20
-63679.18584243409
 30
0.0
 11
-12895.74675844994
 21
-63682.18584243406
 31
0.0
  0
LINE
  5
2233
330
2
100
AcDbEntity
  8
側板
 62
     7
100
AcDbLine
 10
-13007.54675844994
 20
-64347.98584243407
 30
0.0
 11
-13007.54675844994
 21
-64349.18584243408
 31
0.0
  0
LINE
  5
2234
330
2
100
AcDbEntity
  8
側板
 62
     7
100
AcDbLine
 10
-12895.74675844995
 20
-64347.98584243407
 30
0.0
 11
-12895.74675844994
 21
-64349.18584243408
 31
0.0
  0
LINE
  5
2235
330
2
100
AcDbEntity
  8
側板
 62
     7
100
AcDbLine
 10
-13008.74675844994
 20
-63680.38584243407
 30
0.0
 11
-13008.74675844994
 21
-64347.98584243407
 31
0.0
  0
LINE
  5
2236
330
2
100
AcDbEntity
  8
側板
 62
     7
100
AcDbLine
 10
-12885.74675844994
 20
-63682.18584243406
 30
0.0
 11
-12885.74675844994
 21
-64349.18584243408
 31
0.0
  0
LINE
  5
2237
330
2
100
AcDbEntity
  8
側板
 62
     7
100
AcDbLine
 10
-12895.74675844994
 20
-63682.18584243406
 30
0.0
 11
-12885.74675844994
 21
-63682.18584243406
 31
0.0
  0
LINE
  5
2238
330
2
100
AcDbEntity
  8
側板
 62
     7
100
AcDbLine
 10
-12893.74675844995
 20
-64347.98584243407
 30
0.0
 11
-12893.74675844995
 21
-64349.18584243408
 31
0.0
  0
LINE
  5
2239
330
2
100
AcDbEntity
  8
側板
 62
     7
100
AcDbLine
 10
-12893.74675844995
 20
-64349.18584243408
 30
0.0
 11
-12885.74675844994
 21
-64349.18584243408
 31
0.0
  0
LINE
  5
223A
330
2
100
AcDbEntity
  8
コック
 62
     7
100
AcDbLine
 10
-12665.44675844994
 20
-63715.68584243408
 30
0.0
 11
-12662.20813235048
 21
-63715.68584243408
 31
0.0
  0
LINE
  5
223B
330
2
100
AcDbEntity
  8
コック
 62
     7
100
AcDbLine
 10
-12665.74675844994
 20
-63708.43584243408
 30
0.0
 11
-12665.44675844994
 21
-63708.43584243408
 31
0.0
  0
LINE
  5
223C
330
2
100
AcDbEntity
  8
コック
 62
     7
100
AcDbLine
 10
-12665.44675844994
 20
-63717.93584243407
 30
0.0
 11
-12665.74675844994
 21
-63717.93584243407
 31
0.0
  0
LINE
  5
223D
330
2
100
AcDbEntity
  8
コック
 62
     7
100
AcDbLine
 10
-12665.44675844994
 20
-63708.43584243408
 30
0.0
 11
-12665.44675844994
 21
-63717.93584243407
 31
0.0
  0
LINE
  5
223E
330
2
100
AcDbEntity
  8
コック
 62
     7
100
AcDbLine
 10
-12665.44675844994
 20
-63709.18584243407
 30
0.0
 11
-12662.20813235048
 21
-63709.18584243407
 31
0.0
  0
LINE
  5
223F
330
2
100
AcDbEntity
  8
点検扉　大
 62
     7
100
AcDbLine
 10
-13011.94675844993
 20
-64349.18584243405
 30
0.0
 11
-13235.74675844994
 21
-64349.18584243405
 31
0.0
  0
LINE
  5
2240
330
2
100
AcDbEntity
  8
点検扉　大
 62
     7
100
AcDbLine
 10
-13010.74675844993
 20
-64347.98584243405
 30
0.0
 11
-13010.74675844993
 21
-63869.38584243407
 31
0.0
  0
LINE
  5
2241
330
2
100
AcDbEntity
  8
点検扉　大
 62
     7
100
AcDbLine
 10
-13011.94675844993
 20
-64347.98584243405
 30
0.0
 11
-13011.94675844993
 21
-64349.18584243405
 31
0.0
  0
LINE
  5
2242
330
2
100
AcDbEntity
  8
点検扉　大
 62
     7
100
AcDbLine
 10
-13011.94675844993
 20
-64347.98584243405
 30
0.0
 11
-13010.74675844993
 21
-64347.98584243405
 31
0.0
  0
LINE
  5
2243
330
2
100
AcDbEntity
  8
点検扉　大
 62
     7
100
AcDbLine
 10
-13011.94675844993
 20
-63869.38584243407
 30
0.0
 11
-13010.74675844993
 21
-63869.38584243407
 31
0.0
  0
LINE
  5
2244
330
2
100
AcDbEntity
  8
点検扉　大
 62
     7
100
AcDbLine
 10
-13011.94675844993
 20
-63869.38584243407
 30
0.0
 11
-13011.94675844993
 21
-63868.18584243408
 31
0.0
  0
LINE
  5
2245
330
2
100
AcDbEntity
  8
点検扉　大
 62
     7
100
AcDbLine
 10
-13011.94675844993
 20
-63868.18584243408
 30
0.0
 11
-13235.74675844994
 21
-63868.18584243408
 31
0.0
  0
LINE
  5
2246
330
2
100
AcDbEntity
  8
コックプレート
 62
     7
100
AcDbLine
 10
-12665.74675844994
 20
-63680.38584243407
 30
0.0
 11
-12666.94675844994
 21
-63680.38584243407
 31
0.0
  0
LINE
  5
2247
330
2
100
AcDbEntity
  8
コックプレート
  6
HIDDEN
 62
     2
 48
3.0
100
AcDbLine
 10
-12665.74675844992
 20
-62914.17510503266
 30
0.0
 11
-12665.74675844994
 21
-62981.97510503267
 31
0.0
  0
LINE
  5
2248
330
2
100
AcDbEntity
  8
コックプレート
  6
HIDDEN
 62
     2
 48
3.0
100
AcDbLine
 10
-12665.74675844992
 20
-62914.17510503266
 30
0.0
 11
-12665.74675844992
 21
-62914.17510503266
 31
0.0
  0
ARC
  5
2249
330
2
100
AcDbEntity
  8
コックプレート
  6
HIDDEN
 62
     2
 48
3.0
100
AcDbCircle
 10
-12666.94675844992
 20
-62914.17510503266
 30
0.0
 40
1.199999999999999
100
AcDbArc
 50
0.0
 51
90.0
  0
LINE
  5
224A
330
2
100
AcDbEntity
  8
コックプレート
 62
     7
100
AcDbLine
 10
-12646.94675844994
 20
-63679.18584243407
 30
0.0
 11
-12646.94675844994
 21
-63680.38584243407
 31
0.0
  0
LINE
  5
224B
330
2
100
AcDbEntity
  8
コックプレート
 62
     7
100
AcDbLine
 10
-12665.74675844994
 20
-63680.38584243407
 30
0.0
 11
-12665.74675844994
 21
-63744.98584243407
 31
0.0
  0
LINE
  5
224C
330
2
100
AcDbEntity
  8
コックプレート
 62
     7
100
AcDbLine
 10
-12646.94675844994
 20
-63679.18584243407
 30
0.0
 11
-12665.74675844994
 21
-63679.18584243407
 31
0.0
  0
LINE
  5
224D
330
2
100
AcDbEntity
  8
コックプレート
 62
     7
100
AcDbLine
 10
-12646.94675844994
 20
-63680.38584243407
 30
0.0
 11
-12665.74675844994
 21
-63680.38584243407
 31
0.0
  0
ARC
  5
224E
330
2
100
AcDbEntity
  8
コックプレート
 62
     7
100
AcDbCircle
 10
-12665.74675844994
 20
-63680.38584243407
 30
0.0
 40
1.199999999999999
100
AcDbArc
 50
90.0
 51
180.0
  0
ARC
  5
224F
330
2
100
AcDbEntity
  8
コックプレート
 62
     7
100
AcDbCircle
 10
-12666.94675844994
 20
-63744.98584243406
 30
0.0
 40
1.199999999999999
100
AcDbArc
 50
270.0
 51
0.0
  0
LINE
  5
2250
330
2
100
AcDbEntity
  8
天板
  6
CENTER
 62
     1
 48
2.0
100
AcDbLine
 10
-13235.74675844994
 20
-62562.2295297607
 30
0.0
 11
-13235.74675844994
 21
-63401.7206803046
 31
0.0
  0
LINE
  5
2251
330
2
100
AcDbEntity
  8
天板
  6
CENTER
 62
     1
 48
2.0
100
AcDbLine
 10
-14018.23777234497
 20
-62981.97510503267
 30
0.0
 11
-12453.2557445549
 21
-62981.97510503267
 31
0.0
  0
LINE
  5
2252
330
2
100
AcDbEntity
  8
天板
 62
     7
100
AcDbLine
 10
-13235.74675844994
 20
-63679.18584243407
 30
0.0
 11
-12635.74675844994
 21
-63679.18584243407
 31
0.0
  0
LINE
  5
2253
330
2
100
AcDbEntity
  8
天板
 62
     7
100
AcDbLine
 10
-12635.74675844994
 20
-63679.18584243407
 30
0.0
 11
-12635.74675844994
 21
-63649.18584243407
 31
0.0
  0
LINE
  5
2254
330
2
100
AcDbEntity
  8
天板
  6
CENTER
 62
     1
 48
2.0
100
AcDbLine
 10
-13235.74675844994
 20
-63601.084740966
 30
0.0
 11
-13235.74675844994
 21
-64822.12045673134
 31
0.0
  0
LINE
  5
2255
330
2
100
AcDbEntity
  8
天板
 62
     7
100
AcDbLine
 10
-13235.74675844994
 20
-63649.18584243407
 30
0.0
 11
-12635.74675844994
 21
-63649.18584243407
 31
0.0
  0
LINE
  5
2256
330
2
100
AcDbEntity
  8
天板
 62
     7
100
AcDbLine
 10
-12635.74675844994
 20
-62581.97510503267
 30
0.0
 11
-12635.74675844994
 21
-62981.97510503267
 31
0.0
  0
LINE
  5
2257
330
2
100
AcDbEntity
  8
天板
 62
     7
100
AcDbLine
 10
-13235.74675844994
 20
-62581.97510503267
 30
0.0
 11
-12635.74675844994
 21
-62581.97510503267
 31
0.0
  0
ARC
  5
2258
330
2
100
AcDbEntity
  8
ツマミ
  6
HIDDEN
 62
     2
100
AcDbCircle
 10
-12661.20813235047
 20
-63003.88127519693
 30
0.0
 40
1.0
100
AcDbArc
 50
180.0
 51
275.1317056919451
  0
LINE
  5
2259
330
2
100
AcDbEntity
  8
ツマミ
  6
HIDDEN
 62
     2
100
AcDbLine
 10
-12656.20813235048
 20
-63004.34646704824
 30
0.0
 11
-12661.11868688929
 21
-63004.87726691852
 31
0.0
  0
ARC
  5
225A
330
2
100
AcDbEntity
  8
ツマミ
  6
HIDDEN
 62
     2
100
AcDbCircle
 10
-12894.38574463558
 20
-62990.76688048534
 30
0.0
 40
240.2076521068813
100
AcDbArc
 50
2.097535857055004
 51
7.454230594209435
  0
LINE
  5
225B
330
2
100
AcDbEntity
  8
ツマミ
  6
HIDDEN
 62
     2
100
AcDbLine
 10
-12656.20813235048
 20
-62981.97510503267
 30
0.0
 11
-12656.20813235048
 21
-62959.60374301706
 31
0.0
  0
LINE
  5
225C
330
2
100
AcDbEntity
  8
ツマミ
  6
HIDDEN
 62
     2
100
AcDbLine
 10
-12662.20813235048
 20
-62981.97510503267
 30
0.0
 11
-12662.20813235048
 21
-62960.06893486835
 31
0.0
  0
ARC
  5
225D
330
2
100
AcDbEntity
  8
ツマミ
  6
HIDDEN
 62
     2
100
AcDbCircle
 10
-12661.20813235047
 20
-62960.06893486835
 30
0.0
 40
1.0
100
AcDbArc
 50
84.86829430805492
 51
180.0
  0
LINE
  5
225E
330
2
100
AcDbEntity
  8
ツマミ
  6
HIDDEN
 62
     2
100
AcDbLine
 10
-12656.20813235048
 20
-62959.60374301706
 30
0.0
 11
-12661.11868688929
 21
-62959.07294314675
 31
0.0
  0
LINE
  5
225F
330
2
100
AcDbEntity
  8
ツマミ
  6
HIDDEN
 62
     2
100
AcDbLine
 10
-12636.20813235048
 20
-62981.97510503267
 30
0.0
 11
-12636.20813235048
 21
-62977.97510503267
 31
0.0
  0
LINE
  5
2260
330
2
100
AcDbEntity
  8
ツマミ
  6
HIDDEN
 62
     2
100
AcDbLine
 10
-12636.20813235048
 20
-62981.97510503267
 30
0.0
 11
-12636.20813235048
 21
-62985.97510503267
 31
0.0
  0
LINE
  5
2261
330
2
100
AcDbEntity
  8
ツマミ
  6
HIDDEN
 62
     2
100
AcDbLine
 10
-12654.67653663934
 20
-62987.64980081671
 30
0.0
 11
-12636.20813235048
 21
-62985.97510503267
 31
0.0
  0
LINE
  5
2262
330
2
100
AcDbEntity
  8
ツマミ
  6
HIDDEN
 62
     2
100
AcDbLine
 10
-12654.67653663934
 20
-62976.30040924858
 30
0.0
 11
-12636.20813235048
 21
-62977.97510503267
 31
0.0
  0
ARC
  5
2263
330
2
100
AcDbEntity
  8
ツマミ
  6
HIDDEN
 62
     2
100
AcDbCircle
 10
-12894.38574463558
 20
-62973.18332957996
 30
0.0
 40
240.2076521068813
100
AcDbArc
 50
352.5457694057906
 51
357.902464142945
  0
LINE
  5
2264
330
2
100
AcDbEntity
  8
ツマミ
  6
HIDDEN
 62
     2
100
AcDbLine
 10
-12656.20813235048
 20
-62981.97510503267
 30
0.0
 11
-12656.20813235048
 21
-63004.34646704824
 31
0.0
  0
LINE
  5
2265
330
2
100
AcDbEntity
  8
ツマミ
  6
HIDDEN
 62
     2
100
AcDbLine
 10
-12662.20813235048
 20
-62981.97510503267
 30
0.0
 11
-12662.20813235048
 21
-63003.88127519693
 31
0.0
  0
LINE
  5
2266
330
2
100
AcDbEntity
  8
天板
 62
     7
100
AcDbLine
 10
-13235.74675844994
 20
-62581.97510503267
 30
0.0
 11
-13835.74675844993
 21
-62581.97510503267
 31
0.0
  0
LINE
  5
2267
330
2
100
AcDbEntity
  8
天板
 62
     7
100
AcDbLine
 10
-13835.74675844993
 20
-62581.97510503267
 30
0.0
 11
-13835.74675844993
 21
-62981.97510503267
 31
0.0
  0
LINE
  5
2268
330
2
100
AcDbEntity
  8
天板
 62
     7
100
AcDbLine
 10
-13235.74675844994
 20
-63381.97510503267
 30
0.0
 11
-12635.74675844994
 21
-63381.97510503267
 31
0.0
  0
LINE
  5
2269
330
2
100
AcDbEntity
  8
天板
 62
     7
100
AcDbLine
 10
-12635.74675844994
 20
-63381.97510503267
 30
0.0
 11
-12635.74675844994
 21
-62981.97510503267
 31
0.0
  0
LINE
  5
226A
330
2
100
AcDbEntity
  8
天板
 62
     7
100
AcDbLine
 10
-13835.74675844993
 20
-63381.97510503267
 30
0.0
 11
-13835.74675844993
 21
-62981.97510503267
 31
0.0
  0
LINE
  5
226B
330
2
100
AcDbEntity
  8
天板
 62
     7
100
AcDbLine
 10
-13235.74675844994
 20
-63381.97510503267
 30
0.0
 11
-13835.74675844993
 21
-63381.97510503267
 31
0.0
  0
ARC
  5
226C
330
2
100
AcDbEntity
  8
コックプレート
  6
HIDDEN
 62
     2
 48
3.0
100
AcDbCircle
 10
-12666.94675844992
 20
-63049.77510503265
 30
0.0
 40
1.199999999999999
100
AcDbArc
 50
270.0
 51
0.0
  0
LINE
  5
226D
330
2
100
AcDbEntity
  8
コックプレート
  6
HIDDEN
 62
     2
 48
3.0
100
AcDbLine
 10
-12665.74675844992
 20
-63049.77510503265
 30
0.0
 11
-12665.74675844992
 21
-63049.77510503265
 31
0.0
  0
LINE
  5
226E
330
2
100
AcDbEntity
  8
コックプレート
  6
HIDDEN
 62
     2
 48
3.0
100
AcDbLine
 10
-12665.74675844992
 20
-63049.77510503265
 30
0.0
 11
-12665.74675844994
 21
-62981.97510503263
 31
0.0
  0
LINE
  5
226F
330
2
100
AcDbEntity
  8
コックカバー
  6
HIDDEN
 62
     2
 48
3.0
100
AcDbLine
 10
-12666.94675844993
 20
-63051.97510503266
 30
0.0
 11
-12885.74675844994
 21
-63051.97510503266
 31
0.0
  0
CIRCLE
  5
2270
330
2
100
AcDbEntity
  8
トップリング
 62
     7
100
AcDbCircle
 10
-13235.74675844994
 20
-62981.97510503263
 30
0.0
 40
143.0
  0
CIRCLE
  5
2271
330
2
100
AcDbEntity
  8
トップリング
 62
     7
100
AcDbCircle
 10
-13235.74675844994
 20
-62981.97510503263
 30
0.0
 40
179.0000000010368
  0
CIRCLE
  5
2272
330
2
100
AcDbEntity
  8
アウターリング
 62
     7
100
AcDbCircle
 10
-13235.74675844994
 20
-62981.97510503263
 30
0.0
 40
192.0000000010077
  0
CIRCLE
  5
2273
330
2
100
AcDbEntity
  8
アウターリング
 62
     7
100
AcDbCircle
 10
-13235.74675844994
 20
-62981.97510503263
 30
0.0
 40
180.0000000010186
  0
ARC
  5
2274
330
2
100
AcDbEntity
  8
ツマミ
 62
     7
100
AcDbCircle
 10
-12730.51637128211
 20
-63713.91706394659
 30
0.0
 40
77.39373341808445
100
AcDbArc
 50
344.7288719058978
 51
0.5413426650695259
  0
LINE
  5
2275
330
2
100
AcDbEntity
  8
ツマミ
 62
     7
100
AcDbLine
 10
-12656.20813235048
 20
-63735.15743991836
 30
0.0
 11
-12638.80370625555
 21
-63732.92560763029
 31
0.0
  0
LINE
  5
2276
330
2
100
AcDbEntity
  8
ツマミ
 62
     7
100
AcDbLine
 10
-12656.20813235048
 20
-63691.21424494977
 30
0.0
 11
-12638.80370625555
 21
-63693.44607723785
 31
0.0
  0
ARC
  5
2277
330
2
100
AcDbEntity
  8
ツマミ
 62
     7
100
AcDbCircle
 10
-12730.51637128211
 20
-63712.45462092156
 30
0.0
 40
77.39373341808445
100
AcDbArc
 50
359.4586573349305
 51
15.27112809410226
  0
LINE
  5
2278
330
2
100
AcDbEntity
  8
ツマミ
 62
     7
100
AcDbLine
 10
-12656.20813235048
 20
-63713.18584243407
 30
0.0
 11
-12656.20813235048
 21
-63735.55720444968
 31
0.0
  0
LINE
  5
2279
330
2
100
AcDbEntity
  8
ツマミ
 62
     7
100
AcDbLine
 10
-12662.20813235048
 20
-63713.18584243407
 30
0.0
 11
-12662.20813235048
 21
-63735.09201259837
 31
0.0
  0
ARC
  5
227A
330
2
100
AcDbEntity
  8
ツマミ
 62
     7
100
AcDbCircle
 10
-12661.20813235048
 20
-63735.09201259837
 30
0.0
 40
1.0
100
AcDbArc
 50
180.0
 51
275.1317056919451
  0
LINE
  5
227B
330
2
100
AcDbEntity
  8
ツマミ
 62
     7
100
AcDbLine
 10
-12656.20813235048
 20
-63735.55720444968
 30
0.0
 11
-12661.11868688929
 21
-63736.08800431996
 31
0.0
  0
ARC
  5
227C
330
2
100
AcDbEntity
  8
ツマミ
 62
     7
100
AcDbCircle
 10
-12661.20813235048
 20
-63691.27967226977
 30
0.0
 40
1.0
100
AcDbArc
 50
84.86829430805492
 51
180.0
  0
LINE
  5
227D
330
2
100
AcDbEntity
  8
ツマミ
 62
     7
100
AcDbLine
 10
-12656.20813235048
 20
-63690.81448041848
 30
0.0
 11
-12661.11868688929
 21
-63690.28368054818
 31
0.0
  0
LINE
  5
227E
330
2
100
AcDbEntity
  8
ツマミ
 62
     7
100
AcDbLine
 10
-12656.20813235048
 20
-63713.18584243407
 30
0.0
 11
-12656.20813235048
 21
-63690.81448041848
 31
0.0
  0
LINE
  5
227F
330
2
100
AcDbEntity
  8
ツマミ
 62
     7
100
AcDbLine
 10
-12662.20813235048
 20
-63713.18584243407
 30
0.0
 11
-12662.20813235048
 21
-63691.27967226977
 31
0.0
  0
LINE
  5
2280
330
2
100
AcDbEntity
  8
ツマミ
 62
     7
100
AcDbLine
 10
-12636.20813235048
 20
-63713.18584243407
 30
0.0
 11
-12636.20813235048
 21
-63729.95299269832
 31
0.0
  0
ARC
  5
2281
330
2
100
AcDbEntity
  8
ツマミ
 62
     7
100
AcDbCircle
 10
-12639.20813235048
 20
-63729.95299269832
 30
0.0
 40
3.0
100
AcDbArc
 50
277.7475579881801
 51
0.0
  0
ARC
  5
2282
330
2
100
AcDbEntity
  8
ツマミ
 62
     7
100
AcDbCircle
 10
-12639.20813235048
 20
-63696.41869216981
 30
0.0
 40
3.0
100
AcDbArc
 50
0.0
 51
82.25244201181984
  0
LINE
  5
2283
330
2
100
AcDbEntity
  8
ツマミ
 62
     7
100
AcDbLine
 10
-12636.20813235048
 20
-63713.18584243407
 30
0.0
 11
-12636.20813235048
 21
-63696.41869216981
 31
0.0
  0
LINE
  5
2284
330
2
100
AcDbEntity
  8
点検扉　大
 62
     7
100
AcDbLine
 10
-13459.54675844995
 20
-63868.18584243408
 30
0.0
 11
-13235.74675844993
 21
-63868.18584243408
 31
0.0
  0
LINE
  5
2285
330
2
100
AcDbEntity
  8
点検扉　大
 62
     7
100
AcDbLine
 10
-13459.54675844995
 20
-63869.38584243407
 30
0.0
 11
-13459.54675844995
 21
-63868.18584243408
 31
0.0
  0
LINE
  5
2286
330
2
100
AcDbEntity
  8
点検扉　大
 62
     7
100
AcDbLine
 10
-13459.54675844995
 20
-63869.38584243407
 30
0.0
 11
-13460.74675844994
 21
-63869.38584243407
 31
0.0
  0
LINE
  5
2287
330
2
100
AcDbEntity
  8
点検扉　大
 62
     7
100
AcDbLine
 10
-13459.54675844995
 20
-64347.98584243405
 30
0.0
 11
-13460.74675844994
 21
-64347.98584243405
 31
0.0
  0
LINE
  5
2288
330
2
100
AcDbEntity
  8
点検扉　大
 62
     7
100
AcDbLine
 10
-13459.54675844995
 20
-64347.98584243405
 30
0.0
 11
-13459.54675844995
 21
-64349.18584243405
 31
0.0
  0
LINE
  5
2289
330
2
100
AcDbEntity
  8
点検扉　大
 62
     7
100
AcDbLine
 10
-13460.74675844994
 20
-64347.98584243405
 30
0.0
 11
-13460.74675844994
 21
-63869.38584243407
 31
0.0
  0
LINE
  5
228A
330
2
100
AcDbEntity
  8
点検扉　大
 62
     7
100
AcDbLine
 10
-13459.54675844995
 20
-64349.18584243405
 30
0.0
 11
-13235.74675844994
 21
-64349.18584243405
 31
0.0
  0
LINE
  5
228B
330
2
100
AcDbEntity
  8
側板
 62
     7
100
AcDbLine
 10
-13577.74675844993
 20
-64349.18584243408
 30
0.0
 11
-13585.74675844994
 21
-64349.18584243408
 31
0.0
  0
LINE
  5
228C
330
2
100
AcDbEntity
  8
側板
 62
     7
100
AcDbLine
 10
-13577.74675844993
 20
-64347.98584243407
 30
0.0
 11
-13577.74675844993
 21
-64349.18584243408
 31
0.0
  0
LINE
  5
228D
330
2
100
AcDbEntity
  8
側板
 62
     7
100
AcDbLine
 10
-13575.74675844993
 20
-63682.18584243406
 30
0.0
 11
-13585.74675844994
 21
-63682.18584243406
 31
0.0
  0
LINE
  5
228E
330
2
100
AcDbEntity
  8
側板
 62
     7
100
AcDbLine
 10
-13585.74675844994
 20
-63682.18584243406
 30
0.0
 11
-13585.74675844994
 21
-64349.18584243408
 31
0.0
  0
LINE
  5
228F
330
2
100
AcDbEntity
  8
側板
 62
     7
100
AcDbLine
 10
-13462.74675844994
 20
-63680.38584243407
 30
0.0
 11
-13462.74675844994
 21
-64347.98584243407
 31
0.0
  0
LINE
  5
2290
330
2
100
AcDbEntity
  8
側板
 62
     7
100
AcDbLine
 10
-13575.74675844993
 20
-64347.98584243407
 30
0.0
 11
-13575.74675844993
 21
-64349.18584243408
 31
0.0
  0
LINE
  5
2291
330
2
100
AcDbEntity
  8
側板
 62
     7
100
AcDbLine
 10
-13463.94675844994
 20
-64347.98584243407
 30
0.0
 11
-13463.94675844994
 21
-64349.18584243408
 31
0.0
  0
LINE
  5
2292
330
2
100
AcDbEntity
  8
側板
 62
     7
100
AcDbLine
 10
-13575.74675844993
 20
-63679.18584243409
 30
0.0
 11
-13575.74675844993
 21
-63682.18584243406
 31
0.0
  0
LINE
  5
2293
330
2
100
AcDbEntity
  8
側板
 62
     7
100
AcDbLine
 10
-13463.94675844993
 20
-63679.18584243409
 30
0.0
 11
-13463.94675844994
 21
-63680.38584243407
 31
0.0
  0
LINE
  5
2294
330
2
100
AcDbEntity
  8
側板
 62
     7
100
AcDbLine
 10
-13577.74675844993
 20
-64347.98584243415
 30
0.0
 11
-13462.74675844994
 21
-64347.98584243407
 31
0.0
  0
LINE
  5
2295
330
2
100
AcDbEntity
  8
側板
 62
     7
100
AcDbLine
 10
-13575.74675844993
 20
-64349.18584243408
 30
0.0
 11
-13463.94675844994
 21
-64349.18584243408
 31
0.0
  0
LINE
  5
2296
330
2
100
AcDbEntity
  8
側板
 62
     7
100
AcDbLine
 10
-13575.74675844993
 20
-63680.38584243407
 30
0.0
 11
-13462.74675844994
 21
-63680.38584243407
 31
0.0
  0
LINE
  5
2297
330
2
100
AcDbEntity
  8
側板
 62
     7
100
AcDbLine
 10
-13575.74675844993
 20
-63679.18584243409
 30
0.0
 11
-13463.94675844993
 21
-63679.18584243409
 31
0.0
  0
LINE
  5
2298
330
2
100
AcDbEntity
  8
側板
 62
     7
100
AcDbLine
 10
-13462.74675845004
 20
-64289.1858424335
 30
0.0
 11
-13460.74675844994
 21
-64289.1858424335
 31
0.0
  0
LINE
  5
2299
330
2
100
AcDbEntity
  8
側板
 62
     7
100
AcDbLine
 10
-13462.74675845004
 20
-64259.18584243349
 30
0.0
 11
-13460.74675844994
 21
-64259.18584243349
 31
0.0
  0
LINE
  5
229A
330
2
100
AcDbEntity
  8
側板
 62
     7
100
AcDbLine
 10
-13462.74675845001
 20
-63940.18584243348
 30
0.0
 11
-13460.74675844994
 21
-63940.18584243348
 31
0.0
  0
LINE
  5
229B
330
2
100
AcDbEntity
  8
側板
 62
     7
100
AcDbLine
 10
-13462.74675845002
 20
-63970.18584243348
 30
0.0
 11
-13460.74675844994
 21
-63970.18584243348
 31
0.0
  0
LINE
  5
229C
330
2
100
AcDbEntity
  8
キャビネット
 62
     7
100
AcDbLine
 10
-13462.74675844994
 20
-63680.38584243407
 30
0.0
 11
-13462.74675844994
 21
-63857.98584243407
 31
0.0
  0
LINE
  5
229D
330
2
100
AcDbEntity
  8
キャビネット
 62
     7
100
AcDbLine
 10
-13461.54675844994
 20
-63679.18584243407
 30
0.0
 11
-13235.74675844994
 21
-63679.18584243407
 31
0.0
  0
LINE
  5
229E
330
2
100
AcDbEntity
  8
キャビネット
 62
     7
100
AcDbLine
 10
-13462.74675844994
 20
-63680.38584243407
 30
0.0
 11
-13235.74675844994
 21
-63680.38584243407
 31
0.0
  0
LINE
  5
229F
330
2
100
AcDbEntity
  8
キャビネット
 62
     7
100
AcDbLine
 10
-13461.54675844994
 20
-63859.18584243407
 30
0.0
 11
-13235.74675844994
 21
-63859.18584243407
 31
0.0
  0
LINE
  5
22A0
330
2
100
AcDbEntity
  8
キャビネット
 62
     7
100
AcDbLine
 10
-13461.54675844994
 20
-63859.18584243407
 30
0.0
 11
-13461.54675844994
 21
-63839.18584243406
 31
0.0
  0
LINE
  5
22A1
330
2
100
AcDbEntity
  8
キャビネット
 62
     7
100
AcDbLine
 10
-13462.74675844994
 20
-63857.98584243407
 30
0.0
 11
-13461.54675844994
 21
-63857.98584243407
 31
0.0
  0
LINE
  5
22A2
330
2
100
AcDbEntity
  8
キャビネット
 62
     7
100
AcDbLine
 10
-13461.54675844994
 20
-63679.18584243407
 30
0.0
 11
-13461.54675844994
 21
-63680.38584243407
 31
0.0
  0
LINE
  5
22A3
330
2
100
AcDbEntity
  8
キャビネット
 62
     7
100
AcDbLine
 10
-13462.74675844994
 20
-63839.18584243406
 30
0.0
 11
-13461.54675844993
 21
-63839.18584243406
 31
0.0
  0
LINE
  5
22A4
330
2
100
AcDbEntity
  8
点検扉　大
 62
     7
100
AcDbLine
 10
-13454.54675844986
 20
-63859.18584243434
 30
0.0
 11
-13322.74675844984
 21
-63859.18584243418
 31
0.0
  0
ARC
  5
22A5
330
2
100
AcDbEntity
  8
点検扉　大
 62
     7
100
AcDbCircle
 10
-13454.54675844985
 20
-63864.18584243434
 30
0.0
 40
5.0
100
AcDbArc
 50
90.0000000001042
 51
180.0
  0
LINE
  5
22A6
330
2
100
AcDbEntity
  8
点検扉　大
 62
     7
100
AcDbLine
 10
-13459.54675844984
 20
-63868.18584243432
 30
0.0
 11
-13459.54675844985
 21
-63864.18584243434
 31
0.0
  0
LINE
  5
22A7
330
2
100
AcDbEntity
  8
天板
 62
     7
100
AcDbLine
 10
-13235.74675844994
 20
-63649.18584243407
 30
0.0
 11
-13835.74675844993
 21
-63649.18584243409
 31
0.0
  0
LINE
  5
22A8
330
2
100
AcDbEntity
  8
天板
 62
     7
100
AcDbLine
 10
-13835.74675844993
 20
-63679.18584243409
 30
0.0
 11
-13835.74675844993
 21
-63649.18584243409
 31
0.0
  0
LINE
  5
22A9
330
2
100
AcDbEntity
  8
天板
 62
     7
100
AcDbLine
 10
-13235.74675844994
 20
-63679.18584243407
 30
0.0
 11
-13835.74675844993
 21
-63679.18584243409
 31
0.0
  0
LINE
  5
22AA
330
2
100
AcDbEntity
  8
アウターリング
 62
     7
100
AcDbLine
 10
-13427.74675845095
 20
-63648.18584243412
 30
0.0
 11
-13235.74675844994
 21
-63648.18584243412
 31
0.0
  0
LINE
  5
22AB
330
2
100
AcDbEntity
  8
アウターリング
 62
     7
100
AcDbLine
 10
-13427.74675845095
 20
-63648.18584243412
 30
0.0
 11
-13427.74675845095
 21
-63649.18584243407
 31
0.0
  0
LINE
  5
22AC
330
2
100
AcDbEntity
  8
アウターリング
 62
     7
100
AcDbLine
 10
-13043.74675844893
 20
-63648.18584243412
 30
0.0
 11
-13043.74675844893
 21
-63649.18584243407
 31
0.0
  0
LINE
  5
22AD
330
2
100
AcDbEntity
  8
アウターリング
 62
     7
100
AcDbLine
 10
-13043.74675844893
 20
-63648.18584243412
 30
0.0
 11
-13235.74675844994
 21
-63648.18584243412
 31
0.0
  0
CIRCLE
  5
22AE
330
2
100
AcDbEntity
  8
JISSEN
100
AcDbCircle
 10
-13235.74675844994
 20
-62981.97510503263
 30
0.0
 40
140.0
  0
HATCH
  5
22AF
330
2
100
AcDbEntity
  8
JISSEN
100
AcDbHatch
 10
0.0
 20
0.0
 30
0.0
210
0.0
220
0.0
230
1.0
  2
NET
 70
     0
 71
     0
 91
        2
 92
        7
 72
     1
 73
     1
 93
        5
 10
-13283.87005785121
 20
-62939.66082336456
 42
0.0
 10
-13314.01231982999
 20
-62922.37436675637
 42
0.0
 10
-13332.38225526265
 20
-62880.67564424554
 42
0.205042340545815
 10
-13375.74675844994
 20
-62981.97510503267
 42
0.0
 10
-13287.56594315976
 20
-62981.97510503267
 42
0.0
 97
        0
 92
        7
 72
     1
 73
     1
 93
        7
 10
-13289.30553781114
 20
-63001.8917669204
 42
0.0
 10
-13287.56594315976
 20
-62981.97510503267
 42
0.0
 10
-13375.74675844994
 20
-62981.97510503267
 42
0.3550897283510022
 10
-13264.38167947013
 20
-63119.01539581666
 42
0.0
 10
-13258.17498843932
 20
-63089.31156869348
 42
0.0
 10
-13246.80978412112
 20
-63066.09837342719
 42
0.0
 10
-13272.99909793135
 20
-63043.87294708769
 42
0.0
 97
        0
 75
     0
 76
     1
 52
0.0
 41
100.0
 77
     0
 78
     2
 53
0.0
 43
-20778.33553174448
 44
-58636.47087909145
 45
0.0
 46
12.5
 79
     0
 53
90.0
 43
-20778.33553174448
 44
-58636.47087909145
 45
-12.5
 46
0.0000000000000008
 79
     0
 47
0.4938966056655822
 98
        2
 10
-13325.37752414816
 20
-62943.11801460827
 10
-13323.4009493621
 20
-63003.37342031058
  0
LINE
  5
22B0
330
2
100
AcDbEntity
  8
外釜
  6
HIDDEN
 62
     2
100
AcDbLine
 10
-13350.74675844997
 20
-63988.68584243403
 30
0.0
 11
-13235.74675844994
 21
-63988.68584243403
 31
0.0
  0
ARC
  5
22B1
330
2
100
AcDbEntity
  8
外釜
  6
HIDDEN
 62
     2
100
AcDbCircle
 10
-13350.74675844997
 20
-63972.68584243406
 30
0.0
 40
16.00000000000091
100
AcDbArc
 50
180.0
 51
270.0
  0
LINE
  5
22B2
330
2
100
AcDbEntity
  8
外釜
  6
HIDDEN
 62
     2
100
AcDbLine
 10
-13366.74675844996
 20
-63888.57631753499
 30
0.0
 11
-13366.74675844996
 21
-63972.68584243406
 31
0.0
  0
ARC
  5
22B3
330
2
100
AcDbEntity
  8
外釜
  6
HIDDEN
 62
     2
100
AcDbCircle
 10
-13385.74675844996
 20
-63888.57631753499
 30
0.0
 40
18.99999999999646
100
AcDbArc
 50
0.0
 51
22.01583879847509
  0
LINE
  5
22B4
330
2
100
AcDbEntity
  8
外釜
  6
HIDDEN
 62
     2
100
AcDbLine
 10
-13413.24675845095
 20
-63769.88036618943
 30
0.0
 11
-13368.13223344912
 21
-63881.45392264318
 31
0.0
  0
LINE
  5
22B5
330
2
100
AcDbEntity
  8
外釜
  6
HIDDEN
 62
     2
100
AcDbLine
 10
-13413.24675845095
 20
-63713.33879401567
 30
0.0
 11
-13413.24675845095
 21
-63769.88036618945
 31
0.0
  0
LINE
  5
22B6
330
2
100
AcDbEntity
  8
外釜
  6
HIDDEN
 62
     2
100
AcDbLine
 10
-13058.24675844893
 20
-63713.33879401567
 30
0.0
 11
-13058.24675844893
 21
-63769.88036618945
 31
0.0
  0
LINE
  5
22B7
330
2
100
AcDbEntity
  8
外釜
  6
HIDDEN
 62
     2
100
AcDbLine
 10
-13058.24675844893
 20
-63769.88036618943
 30
0.0
 11
-13103.36128345076
 21
-63881.45392264318
 31
0.0
  0
ARC
  5
22B8
330
2
100
AcDbEntity
  8
外釜
  6
HIDDEN
 62
     2
100
AcDbCircle
 10
-13085.74675844992
 20
-63888.57631753499
 30
0.0
 40
18.99999999999646
100
AcDbArc
 50
157.9841612015249
 51
180.0
  0
LINE
  5
22B9
330
2
100
AcDbEntity
  8
外釜
  6
HIDDEN
 62
     2
100
AcDbLine
 10
-13104.74675844992
 20
-63888.57631753499
 30
0.0
 11
-13104.74675844991
 21
-63972.68584243406
 31
0.0
  0
ARC
  5
22BA
330
2
100
AcDbEntity
  8
外釜
  6
HIDDEN
 62
     2
100
AcDbCircle
 10
-13120.74675844991
 20
-63972.68584243406
 30
0.0
 40
16.0
100
AcDbArc
 50
270.0
 51
0.0
  0
LINE
  5
22BB
330
2
100
AcDbEntity
  8
外釜
  6
HIDDEN
 62
     2
100
AcDbLine
 10
-13120.74675844991
 20
-63988.68584243403
 30
0.0
 11
-13235.74675844994
 21
-63988.68584243403
 31
0.0
  0
ARC
  5
22BC
330
2
100
AcDbEntity
  8
トップリング
100
AcDbCircle
 10
-13235.74675844994
 20
-62981.97510503267
 30
0.0
 40
171.6651585745459
100
AcDbArc
 50
50.89909352194332
 51
62.13479320941481
  0
ARC
  5
22BD
330
2
100
AcDbEntity
  8
トップリング
100
AcDbCircle
 10
-13235.74675845006
 20
-62981.97510503285
 30
0.0
 40
165.4572445961396
100
AcDbArc
 50
52.0493932521586
 51
60.36419068138694
  0
ARC
  5
22BE
330
2
100
AcDbEntity
  8
トップリング
100
AcDbCircle
 10
-13235.74675844981
 20
-62981.97510503247
 30
0.0
 40
159.7137562712352
100
AcDbArc
 50
52.91177860661974
 51
60.05825215725526
  0
LINE
  5
22BF
330
2
100
AcDbEntity
  8
銅管IN
  6
HIDDEN
 62
     2
100
AcDbLine
 10
-13014.74675844993
 20
-63873.22820357958
 30
0.0
 11
-13014.74675844993
 21
-63790.06939980514
 31
0.0
  0
LINE
  5
22C0
330
2
100
AcDbEntity
  8
銅管IN
  6
HIDDEN
 62
     2
100
AcDbLine
 10
-13022.74675844993
 20
-63873.22820357958
 30
0.0
 11
-13022.74675844993
 21
-63790.06939980514
 31
0.0
  0
ARC
  5
22C1
330
2
100
AcDbEntity
  8
銅管IN
  6
HIDDEN
 62
     2
100
AcDbCircle
 10
-13031.21931726391
 20
-63875.59341720992
 30
0.0
 40
16.64149721020244
100
AcDbArc
 50
271.6272133065473
 51
8.17097160089137
  0
ARC
  5
22C2
330
2
100
AcDbEntity
  8
銅管IN
  6
HIDDEN
 62
     2
100
AcDbCircle
 10
-13031.24874585286
 20
-63875.45403092293
 30
0.0
 40
8.78852076073694
100
AcDbArc
 50
273.274432942734
 51
14.67082028669431
  0
ARC
  5
22C3
330
2
100
AcDbEntity
  8
銅管IN
  6
HIDDEN
 62
     2
100
AcDbCircle
 10
-13050.74675844994
 20
-63903.22820357958
 30
0.0
 40
11.0
100
AcDbArc
 50
90.0
 51
180.0
  0
ARC
  5
22C4
330
2
100
AcDbEntity
  8
銅管IN
  6
HIDDEN
 62
     2
100
AcDbCircle
 10
-13050.74675844994
 20
-63903.22820357958
 30
0.0
 40
19.0
100
AcDbArc
 50
90.0
 51
180.0
  0
LINE
  5
22C5
330
2
100
AcDbEntity
  8
銅管IN
  6
HIDDEN
 62
     2
100
AcDbLine
 10
-13061.74675844994
 20
-63907.93962525448
 30
0.0
 11
-13061.74675844994
 21
-63903.22820357958
 31
0.0
  0
LINE
  5
22C6
330
2
100
AcDbEntity
  8
銅管IN
  6
HIDDEN
 62
     2
100
AcDbLine
 10
-13050.74675844994
 20
-63892.22820357958
 30
0.0
 11
-13030.74675844992
 21
-63892.22820357958
 31
0.0
  0
LINE
  5
22C7
330
2
100
AcDbEntity
  8
銅管IN
  6
HIDDEN
 62
     2
100
AcDbLine
 10
-13050.74675844994
 20
-63884.22820357958
 30
0.0
 11
-13030.74675844992
 21
-63884.22820357958
 31
0.0
  0
LINE
  5
22C8
330
2
100
AcDbEntity
  8
銅管IN
  6
HIDDEN
 62
     2
100
AcDbLine
 10
-13069.74675844994
 20
-63907.93962525448
 30
0.0
 11
-13069.74675844994
 21
-63903.22820357958
 31
0.0
  0
LINE
  5
22C9
330
2
100
AcDbEntity
  8
接続口
  6
HIDDEN
 62
     2
100
AcDbLine
 10
-13048.24675844994
 20
-63937.18584243402
 30
0.0
 11
-13048.24675844994
 21
-63934.33920575027
 31
0.0
  0
LINE
  5
22CA
330
2
100
AcDbEntity
  8
接続口
  6
HIDDEN
 62
     2
100
AcDbLine
 10
-13079.24675844994
 20
-63952.18584243402
 30
0.0
 11
-13079.24675844994
 21
-63940.968821374
 31
0.0
  0
LINE
  5
22CB
330
2
100
AcDbEntity
  8
接続口
  6
HIDDEN
 62
     2
100
AcDbLine
 10
-13052.24675844995
 20
-63952.18584243402
 30
0.0
 11
-13052.24675844995
 21
-63940.968821374
 31
0.0
  0
ARC
  5
22CC
330
2
100
AcDbEntity
  8
接続口
  6
HIDDEN
 62
     2
100
AcDbCircle
 10
-13081.28274405456
 20
-63941.22416210063
 30
0.0
 40
2.051934762338675
100
AcDbArc
 50
7.148360373958774
 51
83.39600652388645
  0
ARC
  5
22CD
330
2
100
AcDbEntity
  8
接続口
  6
HIDDEN
 62
     2
100
AcDbCircle
 10
-13055.41846955959
 20
-63929.76117115798
 30
0.0
 40
2.642290217219851
100
AcDbArc
 50
192.6363719266893
 51
257.3384462966365
  0
ARC
  5
22CE
330
2
100
AcDbEntity
  8
接続口
  6
HIDDEN
 62
     2
100
AcDbCircle
 10
-13076.07504734029
 20
-63929.76117115798
 30
0.0
 40
2.642290217219851
100
AcDbArc
 50
282.6615537033635
 51
347.3636280733106
  0
LINE
  5
22CF
330
2
100
AcDbEntity
  8
接続口
  6
HIDDEN
 62
     2
100
AcDbLine
 10
-13057.99675844995
 20
-63930.33920575026
 30
0.0
 11
-13073.49675844994
 21
-63930.33920575027
 31
0.0
  0
ARC
  5
22D0
330
2
100
AcDbEntity
  8
接続口
  6
HIDDEN
 62
     2
100
AcDbCircle
 10
-13081.24675844994
 20
-63934.33920575027
 30
0.0
 40
2.0
100
AcDbArc
 50
90.0
 51
180.0
  0
LINE
  5
22D1
330
2
100
AcDbEntity
  8
接続口
  6
HIDDEN
 62
     2
100
AcDbLine
 10
-13083.24675844994
 20
-63937.18584243402
 30
0.0
 11
-13083.24675844994
 21
-63934.33920575027
 31
0.0
  0
LINE
  5
22D2
330
2
100
AcDbEntity
  8
接続口
  6
HIDDEN
 62
     2
100
AcDbLine
 10
-13043.74675844991
 20
-63937.18584243402
 30
0.0
 11
-13104.74675844992
 21
-63937.18584243402
 31
0.0
  0
LINE
  5
22D3
330
2
100
AcDbEntity
  8
接続口
  6
HIDDEN
 62
     2
100
AcDbLine
 10
-13081.24675844994
 20
-63932.33920575027
 30
0.0
 11
-13050.24675844994
 21
-63932.33920575027
 31
0.0
  0
ARC
  5
22D4
330
2
100
AcDbEntity
  8
接続口
  6
HIDDEN
 62
     2
100
AcDbCircle
 10
-13050.21077284532
 20
-63941.22416210063
 30
0.0
 40
2.051934762338675
100
AcDbArc
 50
96.60399347611352
 51
172.8516396260412
  0
LINE
  5
22D5
330
2
100
AcDbEntity
  8
接続口
  6
HIDDEN
 62
     2
100
AcDbLine
 10
-13065.74675844994
 20
-63952.18584243402
 30
0.0
 11
-13052.24675844995
 21
-63952.18584243402
 31
0.0
  0
LINE
  5
22D6
330
2
100
AcDbEntity
  8
接続口
  6
HIDDEN
 62
     2
100
AcDbLine
 10
-13065.74675844994
 20
-63952.18584243402
 30
0.0
 11
-13079.24675844994
 21
-63952.18584243402
 31
0.0
  0
LINE
  5
22D7
330
2
100
AcDbEntity
  8
接続口
  6
HIDDEN
 62
     2
100
AcDbLine
 10
-13059.24675844994
 20
-63930.22820357903
 30
0.0
 11
-13059.24675844994
 21
-63921.93962525445
 31
0.0
  0
LINE
  5
22D8
330
2
100
AcDbEntity
  8
接続口
  6
HIDDEN
 62
     2
100
AcDbLine
 10
-13072.24675844995
 20
-63930.22820357903
 30
0.0
 11
-13072.24675844995
 21
-63921.93962525447
 31
0.0
  0
ARC
  5
22D9
330
2
100
AcDbEntity
  8
接続口
  6
HIDDEN
 62
     2
100
AcDbCircle
 10
-13050.24675844994
 20
-63934.33920575027
 30
0.0
 40
2.0
100
AcDbArc
 50
0.0
 51
90.0
  0
LINE
  5
22DA
330
2
100
AcDbEntity
  8
Φ8袋ﾅｯﾄ
  6
HIDDEN
 62
     2
100
AcDbLine
 10
-13059.25210629809
 20
-63919.93962525448
 30
0.0
 11
-13072.24141060179
 21
-63919.93962525448
 31
0.0
  0
LINE
  5
22DB
330
2
100
AcDbEntity
  8
Φ8袋ﾅｯﾄ
  6
HIDDEN
 62
     2
100
AcDbLine
 10
-13059.25210629809
 20
-63907.93962525448
 30
0.0
 11
-13072.24141060179
 21
-63907.93962525448
 31
0.0
  0
ARC
  5
22DC
330
2
100
AcDbEntity
  8
Φ8袋ﾅｯﾄ
  6
HIDDEN
 62
     2
100
AcDbCircle
 10
-13065.74675844994
 20
-63916.93346228103
 30
0.0
 40
8.99383702655035
100
AcDbArc
 50
61.17934518229361
 51
118.8206548177064
  0
LINE
  5
22DD
330
2
100
AcDbEntity
  8
Φ8袋ﾅｯﾄ
  6
HIDDEN
 62
     2
100
AcDbLine
 10
-13072.94675844994
 20
-63921.93962525447
 30
0.0
 11
-13058.54675844995
 21
-63921.93962525447
 31
0.0
  0
LINE
  5
22DE
330
2
100
AcDbEntity
  8
Φ8袋ﾅｯﾄ
  6
HIDDEN
 62
     2
100
AcDbLine
 10
-13058.54675844995
 20
-63919.84399557879
 30
0.0
 11
-13058.54675844995
 21
-63921.93962525445
 31
0.0
  0
ARC
  5
22DF
330
2
100
AcDbEntity
  8
Φ8袋ﾅｯﾄ
  6
HIDDEN
 62
     2
100
AcDbCircle
 10
-13059.25210629809
 20
-63917.29054891787
 30
0.0
 40
2.649076336582171
100
AcDbArc
 50
215.4126381108298
 51
324.5873618891701
  0
LINE
  5
22E0
330
2
100
AcDbEntity
  8
Φ8袋ﾅｯﾄ
  6
HIDDEN
 62
     2
100
AcDbLine
 10
-13057.09310908377
 20
-63909.05366528345
 30
0.0
 11
-13057.09310908377
 21
-63918.82558522548
 31
0.0
  0
LINE
  5
22E1
330
2
100
AcDbEntity
  8
Φ8袋ﾅｯﾄ
  6
HIDDEN
 62
     2
100
AcDbLine
 10
-13061.4111035124
 20
-63918.82558522548
 30
0.0
 11
-13061.4111035124
 21
-63909.05366528345
 31
0.0
  0
ARC
  5
22E2
330
2
100
AcDbEntity
  8
Φ8袋ﾅｯﾄ
  6
HIDDEN
 62
     2
100
AcDbCircle
 10
-13059.25210629809
 20
-63910.58870159105
 30
0.0
 40
2.649076336582171
100
AcDbArc
 50
35.41263811082985
 51
144.5873618891701
  0
ARC
  5
22E3
330
2
100
AcDbEntity
  8
Φ8袋ﾅｯﾄ
  6
HIDDEN
 62
     2
100
AcDbCircle
 10
-13072.24141060179
 20
-63917.29054891787
 30
0.0
 40
2.64907633658191
100
AcDbArc
 50
215.4126381108298
 51
324.5873618891701
  0
LINE
  5
22E4
330
2
100
AcDbEntity
  8
Φ8袋ﾅｯﾄ
  6
HIDDEN
 62
     2
100
AcDbLine
 10
-13072.94675844994
 20
-63919.8439955788
 30
0.0
 11
-13072.94675844994
 21
-63921.93962525447
 31
0.0
  0
LINE
  5
22E5
330
2
100
AcDbEntity
  8
Φ8袋ﾅｯﾄ
  6
HIDDEN
 62
     2
100
AcDbLine
 10
-13074.40040781611
 20
-63918.82558522548
 30
0.0
 11
-13074.40040781611
 21
-63909.05366528345
 31
0.0
  0
LINE
  5
22E6
330
2
100
AcDbEntity
  8
Φ8袋ﾅｯﾄ
  6
HIDDEN
 62
     2
100
AcDbLine
 10
-13070.08241338748
 20
-63918.82558522548
 30
0.0
 11
-13070.08241338748
 21
-63909.05366528345
 31
0.0
  0
ARC
  5
22E7
330
2
100
AcDbEntity
  8
Φ8袋ﾅｯﾄ
  6
HIDDEN
 62
     2
100
AcDbCircle
 10
-13072.24141060179
 20
-63910.58870159105
 30
0.0
 40
2.64907633658191
100
AcDbArc
 50
35.41263811082985
 51
144.5873618891701
  0
LINE
  5
22E8
330
2
100
AcDbEntity
  8
接続口ステー
  6
HIDDEN
 62
     2
100
AcDbLine
 10
-13043.74675844991
 20
-63937.18584243402
 30
0.0
 11
-13043.74675844991
 21
-63938.68584243402
 31
0.0
  0
LINE
  5
22E9
330
2
100
AcDbEntity
  8
接続口ステー
  6
HIDDEN
 62
     2
100
AcDbLine
 10
-13088.74675844992
 20
-63938.68584243402
 30
0.0
 11
-13043.74675844991
 21
-63938.68584243402
 31
0.0
  0
LINE
  5
22EA
330
2
100
AcDbEntity
  8
接続口ステー
  6
HIDDEN
100
AcDbLine
 10
-13104.24675844992
 20
-63898.68584243402
 30
0.0
 11
-13104.24675844992
 21
-63900.18584243402
 31
0.0
  0
LINE
  5
22EB
330
2
100
AcDbEntity
  8
接続口ステー
  6
HIDDEN
 62
     2
100
AcDbLine
 10
-13088.74675844992
 20
-63900.18584243402
 30
0.0
 11
-13088.74675844992
 21
-63937.18584243402
 31
0.0
  0
LINE
  5
22EC
330
2
100
AcDbEntity
  8
接続口ステー
  6
HIDDEN
 62
     2
100
AcDbLine
 10
-13104.24675844992
 20
-63898.68584243402
 30
0.0
 11
-13090.24675844992
 21
-63898.68584243402
 31
0.0
  0
ARC
  5
22ED
330
2
100
AcDbEntity
  8
接続口ステー
  6
HIDDEN
 62
     2
100
AcDbCircle
 10
-13090.24675844992
 20
-63900.18584243402
 30
0.0
 40
1.5
100
AcDbArc
 50
0.0
 51
90.0
  0
ARC
  5
22EE
330
2
100
AcDbEntity
  8
接続口ステー
  6
HIDDEN
 62
     2
100
AcDbCircle
 10
-13088.74675844992
 20
-63937.18584243402
 30
0.0
 40
1.5
100
AcDbArc
 50
180.0
 51
270.0
  0
DIMENSION
  5
22EF
330
2
100
AcDbEntity
  8
SUNPOU
100
AcDbDimension
  2
*D2
 10
-12635.74675844994
 20
-62467.59631587153
 30
0.0
 11
-13235.74675844994
 21
-62467.59631587153
 31
0.0
 70
   160
 71
     5
 42
1200.0
  3
IMCADLT
100
AcDbAlignedDimension
 13
-13835.74675844993
 23
-62581.97510503267
 33
0.0
 14
-12635.74675844994
 24
-62581.97510503267
 34
0.0
100
AcDbRotatedDimension
1001
ACAD
1000
DSTYLE
1002
{
1070
   140
1040
2.5
1070
    40
1040
15.0
1070
    41
1040
1.199999999999999
1070
    47
1040
0.5
1070
   146
1040
0.6
1070
   271
1070
     1
1070
   272
1070
     1
1070
   288
1070
     1
1002
}
  0
DIMENSION
  5
22F0
330
2
100
AcDbEntity
  8
SUNPOU
100
AcDbDimension
  2
*D3
 10
-12505.3895854119
 20
-62581.97510503267
 30
0.0
 11
-12505.3895854119
 21
-63005.92461949855
 31
0.0
 70
   160
 71
     5
 42
800.0
  3
IMCADLT
100
AcDbAlignedDimension
 13
-12635.74675844994
 23
-63381.97510503267
 33
0.0
 14
-12635.74675844994
 24
-62581.97510503267
 34
0.0
 50
90.0
100
AcDbRotatedDimension
1001
ACAD
1000
DSTYLE
1002
{
1070
   140
1040
2.5
1070
    40
1040
15.0
1070
    41
1040
1.199999999999999
1070
    47
1040
0.5
1070
   146
1040
0.6
1070
   271
1070
     1
1070
   272
1070
     1
1070
   288
1070
     1
1002
}
  0
LINE
  5
22F1
330
2
100
AcDbEntity
  8
WAKU
 62
     3
100
AcDbLine
 10
-10897.53651183776
 20
-64826.28394127213
 30
0.0
 11
-10712.01033526521
 21
-64826.28394127213
 31
0.0
  0
LINE
  5
22F2
330
2
100
AcDbEntity
  8
WAKU
 62
     3
100
AcDbLine
 10
-10897.53651183776
 20
-64875.33579926171
 30
0.0
 11
-10712.01033526521
 21
-64875.33579926171
 31
0.0
  0
LINE
  5
22F3
330
2
100
AcDbEntity
  8
WAKU
 62
     3
100
AcDbLine
 10
-10897.53651183776
 20
-64924.38765725128
 30
0.0
 11
-10712.01033526521
 21
-64924.38765725128
 31
0.0
  0
LINE
  5
22F4
330
2
100
AcDbEntity
  8
WAKU
 62
     3
100
AcDbLine
 10
-9981.410616655999
 20
-64827.84360638556
 30
0.0
 11
-9875.103505978849
 21
-64827.84360638556
 31
0.0
  0
LINE
  5
22F5
330
2
100
AcDbEntity
  8
WAKU
 62
     3
100
AcDbLine
 10
-9981.410616655999
 20
-64891.84360638557
 30
0.0
 11
-9875.103505978849
 21
-64891.84360638557
 31
0.0
  0
TEXT
  5
22F6
330
2
100
AcDbEntity
  8
TEXT
100
AcDbText
 10
-10032.96671282224
 20
-64969.28133106675
 30
0.0
 40
20.0
  1
Free
  7
K
100
AcDbText
  0
TEXT
  5
22F7
330
2
100
AcDbEntity
  8
TEXT
100
AcDbText
 10
-10488.22706728918
 20
-64849.09702603769
 30
0.0
 40
30.0
  1
JX-T14
  7
K
100
AcDbText
  0
LEADER
  5
22FA
330
2
100
AcDbEntity
  8
SUNPOU
100
AcDbLeader
  3
IMCADLT
 76
     2
 10
-13065.74675844994
 20
-63952.18584243402
 30
0.0
 10
-12633.68633921502
 20
-64453.33968094887
 30
0.0
213
0.0
223
22.5
233
0.0
1001
ACAD
1000
DSTYLE
1002
{
1070
   147
1040
1.0
1070
    77
1070
     0
1070
    40
1040
15.0
1070
    41
1040
1.5
1070
    47
1040
0.5
1070
   146
1040
0.6
1070
   271
1070
     1
1070
   272
1070
     1
1070
   288
1070
     1
1002
}
  0
TEXT
  5
22FB
330
2
100
AcDbEntity
  8
SUNPOU
100
AcDbText
 10
-12612.71847700158
 20
-64475.51764160062
 30
0.0
 40
35.0
  1
Rc1/2
100
AcDbText
  0
LINE
  5
22FC
330
2
100
AcDbEntity
  8
WAKU
 62
     3
100
AcDbLine
 10
-14192.67403875763
 20
-64996.6194159669
 30
0.0
 11
-14228.67403875763
 21
-64948.61941596688
 31
0.0
  0
LINE
  5
22FD
330
2
100
AcDbEntity
  8
WAKU
 62
     3
100
AcDbLine
 10
-14228.67403875763
 20
-64948.61941596688
 30
0.0
 11
-14264.67403875763
 21
-64996.6194159669
 31
0.0
  0
LINE
  5
22FF
330
2
100
AcDbEntity
  8
WAKU
 62
     3
100
AcDbLine
 10
-13440.67403875763
 20
-64948.61941596688
 30
0.0
 11
-14264.67403875763
 21
-64948.61941596688
 31
0.0
  0
DIMENSION
  5
2304
330
2
100
AcDbEntity
  8
SUNPOU
100
AcDbDimension
  2
*D4
 10
-13010.74675844993
 20
-64632.03234433911
 30
0.0
 11
-13235.74675844994
 21
-64632.03234433911
 31
0.0
 70
   160
  1
点検扉巾<>
 71
     5
 42
450.0
  3
IMCADLT
100
AcDbAlignedDimension
 13
-13460.74675844994
 23
-64347.98584243405
 33
0.0
 14
-13010.74675844993
 24
-64347.98584243405
 34
0.0
100
AcDbRotatedDimension
1001
ACAD
1000
DSTYLE
1002
{
1070
    40
1040
12.0
1070
    41
1040
1.199999999999999
1070
    48
1040
0.8
1070
    79
1070
     2
1070
   146
1040
0.6
1070
   179
1070
     1
1070
   271
1070
     1
1070
   272
1070
     1
1070
   288
1070
     1
1002
}
  0
LINE
  5
2305
330
2
100
AcDbEntity
  8
WAKU
 62
     3
100
AcDbLine
 10
-10299.19484939349
 20
-65188.61941596688
 30
0.0
 11
-10299.04104414101
 21
-65188.61941596688
 31
0.0
  0
LINE
  5
2306
330
2
100
AcDbEntity
  8
WAKU
 62
     3
100
AcDbLine
 10
-10299.04104414101
 20
-65188.61941596688
 30
0.0
 11
-10298.91910461764
 21
-65188.61941596688
 31
0.0
  0
LINE
  5
2307
330
2
100
AcDbEntity
  8
WAKU
 62
     3
100
AcDbLine
 10
-10298.91910461764
 20
-65188.61941596688
 30
0.0
 11
-10298.75998841031
 21
-65188.61941596688
 31
0.0
  0
LINE
  5
2308
330
2
100
AcDbEntity
  8
WAKU
 62
     3
100
AcDbLine
 10
-10298.75998841031
 20
-65188.61941596688
 30
0.0
 11
-10298.63273793207
 21
-65188.61941596688
 31
0.0
  0
LINE
  5
2309
330
2
100
AcDbEntity
  8
WAKU
 62
     3
100
AcDbLine
 10
-10298.63273793207
 20
-65188.61941596688
 30
0.0
 11
-10298.48424363445
 21
-65188.61941596688
 31
0.0
  0
LINE
  5
230A
330
2
100
AcDbEntity
  8
WAKU
 62
     3
100
AcDbLine
 10
-10298.48424363445
 20
-65188.61941596688
 30
0.0
 11
-10298.38347711775
 21
-65188.61941596688
 31
0.0
  0
LINE
  5
230B
330
2
100
AcDbEntity
  8
WAKU
 62
     3
100
AcDbLine
 10
-13440.67403875763
 20
-64852.61941596688
 30
0.0
 11
-14264.67403875763
 21
-64852.61941596688
 31
0.0
  0
LINE
  5
2310
330
2
100
AcDbEntity
  8
WAKU
 62
     3
100
AcDbLine
 10
-14228.67403875763
 20
-64900.6194159669
 30
0.0
 11
-14264.67403875763
 21
-64948.61941596688
 31
0.0
  0
LINE
  5
2311
330
2
100
AcDbEntity
  8
WAKU
 62
     3
100
AcDbLine
 10
-14192.67403875763
 20
-64948.61941596688
 30
0.0
 11
-14228.67403875763
 21
-64900.6194159669
 31
0.0
  0
LINE
  5
2313
330
2
100
AcDbEntity
  8
キャビネット
  6
HIDDEN
 62
     2
 48
3.0
100
AcDbLine
 10
-13462.74675844992
 20
-63170.77510503268
 30
0.0
 11
-13462.74675844992
 21
-63130.77510503265
 31
0.0
  0
ARC
  5
2314
330
2
100
AcDbEntity
  8
キャビネット
  6
HIDDEN
 62
     2
 48
3.0
100
AcDbCircle
 10
-13461.54675844992
 20
-63170.77510503268
 30
0.0
 40
1.200000000000442
100
AcDbArc
 50
180.0
 51
270.0
  0
LINE
  5
2315
330
2
100
AcDbEntity
  8
キャビネット
  6
HIDDEN
 62
     2
 48
3.0
100
AcDbLine
 10
-13235.74675844992
 20
-63171.97510503269
 30
0.0
 11
-13461.54675844992
 21
-63171.97510503267
 31
0.0
  0
LINE
  5
2316
330
2
100
AcDbEntity
  8
側板
  6
HIDDEN
 62
     2
 48
3.0
100
AcDbLine
 10
-13585.74675844991
 20
-62981.97510503263
 30
0.0
 11
-13585.74675844991
 21
-63121.97510503266
 31
0.0
  0
LINE
  5
2317
330
2
100
AcDbEntity
  8
側板
  6
HIDDEN
 62
     2
 48
3.0
100
AcDbLine
 10
-13573.93766032237
 20
-63131.97510503266
 30
0.0
 11
-13463.9467584499
 21
-63131.97510503266
 31
0.0
  0
LINE
  5
2318
330
2
100
AcDbEntity
  8
側板
  6
HIDDEN
 62
     2
 48
3.0
100
AcDbLine
 10
-12897.55585657747
 20
-63131.97510503266
 30
0.0
 11
-13007.54675844994
 21
-63131.97510503266
 31
0.0
  0
LINE
  5
2319
330
2
100
AcDbEntity
  8
側板
  6
HIDDEN
 62
     2
 48
3.0
100
AcDbLine
 10
-12885.74675844994
 20
-62981.97510503267
 30
0.0
 11
-12885.74675844994
 21
-63121.97510503266
 31
0.0
  0
LINE
  5
231A
330
2
100
AcDbEntity
  8
キャビネット
  6
HIDDEN
 62
     2
 48
3.0
100
AcDbLine
 10
-13235.74675844992
 20
-63171.97510503269
 30
0.0
 11
-13009.94675844992
 21
-63171.97510503267
 31
0.0
  0
ARC
  5
231B
330
2
100
AcDbEntity
  8
キャビネット
  6
HIDDEN
 62
     2
 48
3.0
100
AcDbCircle
 10
-13009.94675844992
 20
-63170.77510503268
 30
0.0
 40
1.200000000000442
100
AcDbArc
 50
270.0
 51
0.0
  0
LINE
  5
231C
330
2
100
AcDbEntity
  8
キャビネット
  6
HIDDEN
 62
     2
 48
3.0
100
AcDbLine
 10
-13008.74675844992
 20
-63170.77510503268
 30
0.0
 11
-13008.74675844992
 21
-63130.77510503265
 31
0.0
  0
LINE
  5
231D
330
2
100
AcDbEntity
  8
キャビネット
  6
HIDDEN
 62
     2
 48
3.0
100
AcDbLine
 10
-13008.74675844992
 20
-62793.17510503263
 30
0.0
 11
-13008.74675844992
 21
-62833.17510503264
 31
0.0
  0
ARC
  5
231E
330
2
100
AcDbEntity
  8
キャビネット
  6
HIDDEN
 62
     2
 48
3.0
100
AcDbCircle
 10
-13009.94675844992
 20
-62793.17510503263
 30
0.0
 40
1.200000000000442
100
AcDbArc
 50
0.0
 51
90.0
  0
LINE
  5
231F
330
2
100
AcDbEntity
  8
キャビネット
  6
HIDDEN
 62
     2
 48
3.0
100
AcDbLine
 10
-13235.74675844992
 20
-62791.97510503261
 30
0.0
 11
-13009.94675844992
 21
-62791.97510503263
 31
0.0
  0
LINE
  5
2320
330
2
100
AcDbEntity
  8
側板
  6
HIDDEN
 62
     2
 48
3.0
100
AcDbLine
 10
-12885.74675844994
 20
-62981.97510503267
 30
0.0
 11
-12885.74675844994
 21
-62841.97510503267
 31
0.0
  0
LINE
  5
2321
330
2
100
AcDbEntity
  8
側板
  6
HIDDEN
 62
     2
 48
3.0
100
AcDbLine
 10
-12897.55585657747
 20
-62831.97510503266
 30
0.0
 11
-13007.54675844994
 21
-62831.97510503264
 31
0.0
  0
LINE
  5
2322
330
2
100
AcDbEntity
  8
側板
  6
HIDDEN
 62
     2
 48
3.0
100
AcDbLine
 10
-13573.93766032237
 20
-62831.97510503264
 30
0.0
 11
-13463.9467584499
 21
-62831.97510503264
 31
0.0
  0
LINE
  5
2323
330
2
100
AcDbEntity
  8
側板
  6
HIDDEN
 62
     2
 48
3.0
100
AcDbLine
 10
-13585.74675844991
 20
-62981.97510503263
 30
0.0
 11
-13585.74675844991
 21
-62841.97510503264
 31
0.0
  0
LINE
  5
2324
330
2
100
AcDbEntity
  8
キャビネット
  6
HIDDEN
 62
     2
 48
3.0
100
AcDbLine
 10
-13235.74675844992
 20
-62791.97510503261
 30
0.0
 11
-13461.54675844992
 21
-62791.97510503263
 31
0.0
  0
ARC
  5
2325
330
2
100
AcDbEntity
  8
キャビネット
  6
HIDDEN
 62
     2
 48
3.0
100
AcDbCircle
 10
-13461.54675844992
 20
-62793.17510503263
 30
0.0
 40
1.200000000000442
100
AcDbArc
 50
90.0
 51
180.0
  0
LINE
  5
2326
330
2
100
AcDbEntity
  8
キャビネット
  6
HIDDEN
 62
     2
 48
3.0
100
AcDbLine
 10
-13462.74675844992
 20
-62793.17510503263
 30
0.0
 11
-13462.74675844992
 21
-62833.17510503263
 31
0.0
  0
LINE
  5
2327
330
2
100
AcDbEntity
  8
側板
  6
HIDDEN
 62
     2
 48
3.0
100
AcDbLine
 10
-13585.74675844991
 20
-62841.97510503264
 30
0.0
 11
-13573.93766032237
 21
-62831.97510503264
 31
0.0
  0
LINE
  5
2328
330
2
100
AcDbEntity
  8
側板
  6
HIDDEN
 62
     2
 48
3.0
100
AcDbLine
 10
-13585.74675844999
 20
-63121.97510503266
 30
0.0
 11
-13573.93766032246
 21
-63131.97510503266
 31
0.0
  0
LINE
  5
2329
330
2
100
AcDbEntity
  8
側板
  6
HIDDEN
 62
     2
 48
3.0
100
AcDbLine
 10
-12885.74675844997
 20
-62841.97510503264
 30
0.0
 11
-12897.5558565775
 21
-62831.97510503264
 31
0.0
  0
LINE
  5
232A
330
2
100
AcDbEntity
  8
側板
  6
HIDDEN
 62
     2
 48
3.0
100
AcDbLine
 10
-12885.74675844989
 20
-63121.97510503266
 30
0.0
 11
-12897.55585657742
 21
-63131.97510503266
 31
0.0
  0
POLYLINE
  5
232B
330
2
100
AcDbEntity
  8
天板
100
AcDb2dPolyline
 66
     1
 10
0.0
 20
0.0
 30
0.0
 70
     4
 75
     5
  0
VERTEX
  5
232C
330
232B
100
AcDbEntity
  8
天板
100
AcDbVertex
100
AcDb2dVertex
 10
-11438.14464361051
 20
-63649.18584243405
 30
0.0
 70
    16
  0
VERTEX
  5
232D
330
232B
100
AcDbEntity
  8
天板
100
AcDbVertex
100
AcDb2dVertex
 10
-11438.14464361051
 20
-63649.18584243405
 30
0.0
 70
     8
  0
VERTEX
  5
232E
330
232B
100
AcDbEntity
  8
天板
100
AcDbVertex
100
AcDb2dVertex
 10
-11440.95627410079
 20
-63651.58572263125
 30
0.0
 70
     8
  0
VERTEX
  5
232F
330
232B
100
AcDbEntity
  8
天板
100
AcDbVertex
100
AcDb2dVertex
 10
-11443.26002376126
 20
-63653.86302775102
 30
0.0
 70
     8
  0
VERTEX
  5
2330
330
232B
100
AcDbEntity
  8
天板
100
AcDbVertex
100
AcDb2dVertex
 10
-11445.05589259193
 20
-63656.01775779335
 30
0.0
 70
     8
  0
VERTEX
  5
2331
330
232B
100
AcDbEntity
  8
天板
100
AcDbVertex
100
AcDb2dVertex
 10
-11446.34388059279
 20
-63658.04991275822
 30
0.0
 70
     8
  0
VERTEX
  5
2332
330
232B
100
AcDbEntity
  8
天板
100
AcDbVertex
100
AcDb2dVertex
 10
-11447.12398776385
 20
-63659.95949264567
 30
0.0
 70
     8
  0
VERTEX
  5
2333
330
232B
100
AcDbEntity
  8
天板
100
AcDbVertex
100
AcDb2dVertex
 10
-11447.3962141051
 20
-63661.74649745569
 30
0.0
 70
     8
  0
VERTEX
  5
2334
330
232B
100
AcDbEntity
  8
天板
100
AcDbVertex
100
AcDb2dVertex
 10
-11447.16055961655
 20
-63663.41092718826
 30
0.0
 70
     8
  0
VERTEX
  5
2335
330
232B
100
AcDbEntity
  8
天板
100
AcDbVertex
100
AcDb2dVertex
 10
-11446.41702429819
 20
-63664.95278184339
 30
0.0
 70
     8
  0
VERTEX
  5
2336
330
232B
100
AcDbEntity
  8
天板
100
AcDbVertex
100
AcDb2dVertex
 10
-11445.54969726042
 20
-63666.47066964198
 30
0.0
 70
     8
  0
VERTEX
  5
2337
330
232B
100
AcDbEntity
  8
天板
100
AcDbVertex
100
AcDb2dVertex
 10
-11444.94266761363
 20
-63668.06319880491
 30
0.0
 70
     8
  0
VERTEX
  5
2338
330
232B
100
AcDbEntity
  8
天板
100
AcDbVertex
100
AcDb2dVertex
 10
-11444.59593535783
 20
-63669.73036933222
 30
0.0
 70
     8
  0
VERTEX
  5
2339
330
232B
100
AcDbEntity
  8
天板
100
AcDbVertex
100
AcDb2dVertex
 10
-11444.509500493
 20
-63671.47218122387
 30
0.0
 70
     8
  0
VERTEX
  5
233A
330
232B
100
AcDbEntity
  8
天板
100
AcDbVertex
100
AcDb2dVertex
 10
-11444.68336301916
 20
-63673.28863447987
 30
0.0
 70
     8
  0
VERTEX
  5
233B
330
232B
100
AcDbEntity
  8
天板
100
AcDbVertex
100
AcDb2dVertex
 10
-11445.1175229363
 20
-63675.17972910023
 30
0.0
 70
     8
  0
VERTEX
  5
233C
330
232B
100
AcDbEntity
  8
天板
100
AcDbVertex
100
AcDb2dVertex
 10
-11445.81198024442
 20
-63677.14546508496
 30
0.0
 70
     8
  0
VERTEX
  5
233D
330
232B
100
AcDbEntity
  8
天板
100
AcDbVertex
100
AcDb2dVertex
 10
-11446.76673494352
 20
-63679.18584243406
 30
0.0
 70
     8
  0
VERTEX
  5
233E
330
232B
100
AcDbEntity
  8
天板
100
AcDbVertex
100
AcDb2dVertex
 10
-11450.40692723123
 20
-63659.03051337774
 30
0.0
 70
    16
  0
VERTEX
  5
233F
330
232B
100
AcDbEntity
  8
天板
100
AcDbVertex
100
AcDb2dVertex
 10
-11442.42712136515
 20
-63670.87505030903
 30
0.0
 70
    16
  0
VERTEX
  5
2340
330
232B
100
AcDbEntity
  8
天板
100
AcDbVertex
100
AcDb2dVertex
 10
-11446.76673494352
 20
-63679.18584243406
 30
0.0
 70
    16
  0
SEQEND
  5
2341
330
232B
100
AcDbEntity
  8
天板
  0
POLYLINE
  5
2342
330
2
100
AcDbEntity
  8
天板
100
AcDb2dPolyline
 66
     1
 10
0.0
 20
0.0
 30
0.0
 70
     4
 75
     5
  0
VERTEX
  5
2343
330
2342
100
AcDbEntity
  8
天板
100
AcDbVertex
100
AcDb2dVertex
 10
-11963.81244640788
 20
-63649.18584243405
 30
0.0
 70
    16
  0
VERTEX
  5
2344
330
2342
100
AcDbEntity
  8
天板
100
AcDbVertex
100
AcDb2dVertex
 10
-11963.81244640788
 20
-63649.18584243405
 30
0.0
 70
     8
  0
VERTEX
  5
2345
330
2342
100
AcDbEntity
  8
天板
100
AcDbVertex
100
AcDb2dVertex
 10
-11966.62407689816
 20
-63651.58572263125
 30
0.0
 70
     8
  0
VERTEX
  5
2346
330
2342
100
AcDbEntity
  8
天板
100
AcDbVertex
100
AcDb2dVertex
 10
-11968.92782655863
 20
-63653.86302775102
 30
0.0
 70
     8
  0
VERTEX
  5
2347
330
2342
100
AcDbEntity
  8
天板
100
AcDbVertex
100
AcDb2dVertex
 10
-11970.7236953893
 20
-63656.01775779335
 30
0.0
 70
     8
  0
VERTEX
  5
2348
330
2342
100
AcDbEntity
  8
天板
100
AcDbVertex
100
AcDb2dVertex
 10
-11972.01168339016
 20
-63658.04991275822
 30
0.0
 70
     8
  0
VERTEX
  5
2349
330
2342
100
AcDbEntity
  8
天板
100
AcDbVertex
100
AcDb2dVertex
 10
-11972.79179056122
 20
-63659.95949264567
 30
0.0
 70
     8
  0
VERTEX
  5
234A
330
2342
100
AcDbEntity
  8
天板
100
AcDbVertex
100
AcDb2dVertex
 10
-11973.06401690247
 20
-63661.74649745569
 30
0.0
 70
     8
  0
VERTEX
  5
234B
330
2342
100
AcDbEntity
  8
天板
100
AcDbVertex
100
AcDb2dVertex
 10
-11972.82836241391
 20
-63663.41092718826
 30
0.0
 70
     8
  0
VERTEX
  5
234C
330
2342
100
AcDbEntity
  8
天板
100
AcDbVertex
100
AcDb2dVertex
 10
-11972.08482709556
 20
-63664.95278184339
 30
0.0
 70
     8
  0
VERTEX
  5
234D
330
2342
100
AcDbEntity
  8
天板
100
AcDbVertex
100
AcDb2dVertex
 10
-11971.21750005779
 20
-63666.47066964198
 30
0.0
 70
     8
  0
VERTEX
  5
234E
330
2342
100
AcDbEntity
  8
天板
100
AcDbVertex
100
AcDb2dVertex
 10
-11970.610470411
 20
-63668.06319880491
 30
0.0
 70
     8
  0
VERTEX
  5
234F
330
2342
100
AcDbEntity
  8
天板
100
AcDbVertex
100
AcDb2dVertex
 10
-11970.26373815519
 20
-63669.73036933222
 30
0.0
 70
     8
  0
VERTEX
  5
2350
330
2342
100
AcDbEntity
  8
天板
100
AcDbVertex
100
AcDb2dVertex
 10
-11970.17730329037
 20
-63671.47218122387
 30
0.0
 70
     8
  0
VERTEX
  5
2351
330
2342
100
AcDbEntity
  8
天板
100
AcDbVertex
100
AcDb2dVertex
 10
-11970.35116581653
 20
-63673.28863447987
 30
0.0
 70
     8
  0
VERTEX
  5
2352
330
2342
100
AcDbEntity
  8
天板
100
AcDbVertex
100
AcDb2dVertex
 10
-11970.78532573366
 20
-63675.17972910023
 30
0.0
 70
     8
  0
VERTEX
  5
2353
330
2342
100
AcDbEntity
  8
天板
100
AcDbVertex
100
AcDb2dVertex
 10
-11971.47978304178
 20
-63677.14546508496
 30
0.0
 70
     8
  0
VERTEX
  5
2354
330
2342
100
AcDbEntity
  8
天板
100
AcDbVertex
100
AcDb2dVertex
 10
-11972.43453774089
 20
-63679.18584243406
 30
0.0
 70
     8
  0
VERTEX
  5
2355
330
2342
100
AcDbEntity
  8
天板
100
AcDbVertex
100
AcDb2dVertex
 10
-11976.0747300286
 20
-63659.03051337774
 30
0.0
 70
    16
  0
VERTEX
  5
2356
330
2342
100
AcDbEntity
  8
天板
100
AcDbVertex
100
AcDb2dVertex
 10
-11968.09492416252
 20
-63670.87505030903
 30
0.0
 70
    16
  0
VERTEX
  5
2357
330
2342
100
AcDbEntity
  8
天板
100
AcDbVertex
100
AcDb2dVertex
 10
-11972.43453774089
 20
-63679.18584243406
 30
0.0
 70
    16
  0
SEQEND
  5
2358
330
2342
100
AcDbEntity
  8
天板
  0
LINE
  5
2359
330
2
100
AcDbEntity
  8
銘板
 62
     7
100
AcDbLine
 10
-11743.37038759232
 20
-63683.68584243406
 30
0.0
 11
-11633.37038759232
 21
-63683.68584243406
 31
0.0
  0
LINE
  5
235A
330
2
100
AcDbEntity
  8
銘板
 62
     7
100
AcDbLine
 10
-11633.37038759232
 20
-63683.68584243406
 30
0.0
 11
-11633.37038759232
 21
-63741.18584243406
 31
0.0
  0
LINE
  5
235B
330
2
100
AcDbEntity
  8
銘板
 62
     7
100
AcDbLine
 10
-11633.37038759232
 20
-63741.18584243406
 30
0.0
 11
-11743.37038759232
 21
-63741.18584243406
 31
0.0
  0
LINE
  5
235C
330
2
100
AcDbEntity
  8
銘板
 62
     7
100
AcDbLine
 10
-11743.37038759232
 20
-63741.18584243406
 30
0.0
 11
-11743.37038759232
 21
-63683.68584243406
 31
0.0
  0
CIRCLE
  5
235D
330
2
100
AcDbEntity
  8
銘板
 62
     7
100
AcDbCircle
 10
-11703.37038759231
 20
-63713.18584243406
 30
0.0
 40
26.0
  0
CIRCLE
  5
235E
330
2
100
AcDbEntity
  8
銘板
 62
     7
100
AcDbCircle
 10
-11663.37038759232
 20
-63733.18584243406
 30
0.0
 40
5.25
  0
HATCH
  5
235F
330
2
100
AcDbEntity
  8
銘板
 62
     7
100
AcDbHatch
 10
0.0
 20
0.0
 30
0.0
210
0.0
220
0.0
230
1.0
  2
SOLID
 70
     1
 71
     0
 91
        8
 92
        7
 72
     1
 73
     1
 93
       16
 10
-11642.37038759232
 20
-63688.18584243406
 42
0.4142135623730896
 10
-11645.37038759232
 20
-63691.18584243406
 42
0.0
 10
-11645.37038759232
 20
-63697.18584243406
 42
0.4142135623730934
 10
-11642.37038759232
 20
-63700.18584243406
 42
0.4142135623731007
 10
-11639.37038759232
 20
-63697.18584243406
 42
0.0
 10
-11639.37038759232
 20
-63695.18584243406
 42
0.0
 10
-11640.37038759232
 20
-63695.18584243406
 42
0.0
 10
-11640.37038759232
 20
-63697.18584243406
 42
-0.4142135623730951
 10
-11642.37038759232
 20
-63699.18584243406
 42
-0.414213562373091
 10
-11644.37038759232
 20
-63697.18584243406
 42
0.0
 10
-11644.37038759232
 20
-63691.18584243406
 42
-0.414213562373091
 10
-11642.37038759232
 20
-63689.18584243406
 42
-0.4142135623730951
 10
-11640.37038759232
 20
-63691.18584243406
 42
0.0
 10
-11640.37038759232
 20
-63693.18584243406
 42
0.0
 10
-11639.37038759232
 20
-63693.18584243406
 42
0.0
 10
-11639.37038759232
 20
-63691.18584243406
 42
0.4142135623730951
 97
        0
 92
        7
 72
     0
 73
     1
 93
       12
 10
-11646.37038759232
 20
-63688.18584243406
 10
-11651.37038759232
 20
-63688.18584243406
 10
-11651.37038759232
 20
-63700.18584243406
 10
-11646.37038759232
 20
-63700.18584243406
 10
-11646.37038759232
 20
-63699.18584243406
 10
-11650.37038759232
 20
-63699.18584243406
 10
-11650.37038759232
 20
-63694.66885040889
 10
-11647.30743459265
 20
-63694.66885040889
 10
-11647.30743459265
 20
-63693.66885040888
 10
-11650.37038759232
 20
-63693.66885040888
 10
-11650.37038759232
 20
-63689.18584243406
 10
-11646.37038759232
 20
-63689.18584243406
 97
        0
 92
        7
 72
     0
 73
     1
 93
        7
 10
-11652.37038759232
 20
-63688.18584243406
 10
-11655.86195738444
 20
-63688.18584243406
 10
-11656.37038759232
 20
-63689.40261922944
 10
-11656.37038759232
 20
-63700.18584243406
 10
-11655.37038759232
 20
-63700.18584243406
 10
-11655.37038759232
 20
-63689.18584243406
 10
-11652.37038759232
 20
-63689.18584243406
 97
        0
 92
        7
 72
     0
 73
     1
 93
        8
 10
-11657.37038759232
 20
-63688.18584243406
 10
-11658.45417661189
 20
-63688.18584243406
 10
-11660.87038759232
 20
-63693.96832625997
 10
-11660.87038759232
 20
-63694.16885040888
 10
-11660.87038759232
 20
-63700.18584243406
 10
-11659.87038759232
 20
-63700.18584243406
 10
-11659.87038759232
 20
-63694.43986239597
 10
-11659.87038759232
 20
-63694.16885040888
 97
        0
 92
        7
 72
     0
 73
     1
 93
        3
 10
-11659.53796563147
 20
-63688.18584243406
 10
-11662.20280955318
 20
-63688.18584243406
 10
-11660.87038759232
 20
-63691.37459892113
 97
        0
 92
        7
 72
     1
 73
     1
 93
        8
 10
-11666.07038759232
 20
-63688.18584243406
 42
0.0
 10
-11666.67038759232
 20
-63688.18584243406
 42
0.4142135623730951
 10
-11668.37038759232
 20
-63689.88584243406
 42
0.0
 10
-11668.37038759232
 20
-63698.52389418709
 42
0.4142135623730951
 10
-11666.67038759232
 20
-63700.22389418709
 42
0.0
 10
-11666.07038759232
 20
-63700.22389418709
 42
0.4142135623730951
 10
-11664.37038759232
 20
-63698.52389418709
 42
0.0
 10
-11664.37038759232
 20
-63689.88584243406
 42
0.4142135623730854
 97
        0
 92
       22
 72
     1
 73
     1
 93
        8
 10
-11665.37038759232
 20
-63689.88584243406
 42
0.0
 10
-11665.37038759232
 20
-63698.52389418709
 42
-0.4142135623730704
 10
-11666.07038759232
 20
-63699.22389418709
 42
0.0
 10
-11666.67038759232
 20
-63699.22389418709
 42
-0.4142135623730959
 10
-11667.37038759232
 20
-63698.52389418709
 42
0.0
 10
-11667.37038759232
 20
-63689.88584243406
 42
-0.4142135623730951
 10
-11666.67038759232
 20
-63689.18584243406
 42
0.0
 10
-11666.07038759232
 20
-63689.18584243406
 42
-0.4142135623730951
 97
        0
 92
        7
 72
     1
 73
     1
 93
       11
 10
-11670.32792561906
 20
-63688.18584243406
 42
0.0
 10
-11671.32792561906
 20
-63688.18584243406
 42
0.0
 10
-11671.32792561906
 20
-63697.66584243407
 42
-0.4142135623798698
 10
-11672.84792561909
 20
-63699.18584243406
 42
0.0
 10
-11672.85038759232
 20
-63699.18584243406
 42
-0.4142135623730951
 10
-11674.37038759232
 20
-63697.66584243407
 42
0.0
 10
-11674.37038759232
 20
-63695.86618681736
 42
0.0
 10
-11675.37038759232
 20
-63695.86618681736
 42
0.0
 10
-11675.37038759232
 20
-63697.66584243407
 42
0.4143566440693224
 10
-11672.84915660575
 20
-63700.18584213339
 42
0.4143566440828578
 10
-11670.32792561906
 20
-63697.66584243407
 42
0.0
 97
        0
 75
     0
 76
     1
 47
0.0575903371449088
 98
        8
 10
-11642.00826898768
 20
-63689.01545899647
 10
-11648.86483717962
 20
-63688.66991747324
 10
-11654.3961868893
 20
-63688.84268734166
 10
-11658.48708022641
 20
-63689.8217237416
 10
-11660.56133636754
 20
-63689.07304895262
 10
-11664.65222970464
 20
-63689.41859226223
 10
-11664.65222970464
 20
-63689.41859226223
 10
-11670.87499812803
 20
-63689.30341056357
  0
TEXT
  5
2360
330
2
100
AcDbEntity
  8
銘板
 62
     7
100
AcDbText
 10
-11668.048894052
 20
-63726.71261970066
 30
0.0
 40
3.5
  1
燃 焼
  7
TTF1
100
AcDbText
  0
TEXT
  5
2361
330
2
100
AcDbEntity
  8
銘板
 62
     7
100
AcDbText
 10
-11727.86225228531
 20
-63691.93395804068
 30
0.0
 40
3.0
  1
弱
  7
TTF1
100
AcDbText
  0
LINE
  5
2362
330
2
100
AcDbEntity
  8
銘板
 62
     7
100
AcDbLine
 10
-11730.26764444079
 20
-63710.83263737987
 30
0.0
 11
-11732.26003383698
 21
-63710.65832589437
 31
0.0
  0
TEXT
  5
2363
330
2
100
AcDbEntity
  8
銘板
 62
     7
100
AcDbText
 10
-11736.69940128169
 20
-63714.90906317093
 30
0.0
 40
3.0
  1
中
  7
TTF1
100
AcDbText
  0
TEXT
  5
2364
330
2
100
AcDbEntity
  8
銘板
 62
     7
100
AcDbText
 10
-11727.81616807712
 20
-63737.22061574401
 30
0.0
 40
3.0
  1
強
  7
TTF1
100
AcDbText
  0
HATCH
  5
2365
330
2
100
AcDbEntity
  8
銘板
 62
     7
100
AcDbHatch
 10
0.0
 20
0.0
 30
0.0
210
0.0
220
0.0
230
1.0
  2
SOLID
 70
     1
 71
     0
 91
        7
 92
        7
 72
     0
 73
     1
 93
        4
 10
-11702.37038759232
 20
-63684.18584243406
 10
-11704.37038759232
 20
-63684.18584243406
 10
-11704.37038759232
 20
-63686.18584243406
 10
-11702.37038759232
 20
-63686.18584243406
 97
        0
 92
        7
 72
     1
 73
     1
 93
        4
 10
-11705.77641267587
 20
-63685.79129839153
 42
0.0
 10
-11705.86390449709
 20
-63684.79513315365
 42
0.1544651976782704
 10
-11721.744099442
 20
-63691.39922468681
 42
0.0
 10
-11721.10130977026
 20
-63692.16527158738
 42
-0.154488356953031
 97
        0
 92
        7
 72
     1
 73
     1
 93
        2
 10
-11724.66937746555
 20
-63693.38685256084
 42
1.0
 10
-11721.66937746555
 20
-63693.38685256084
 42
1.0
 97
        0
 92
        7
 72
     1
 73
     1
 93
        4
 10
-11724.05358755653
 20
-63695.83057697252
 42
0.0
 10
-11725.58567644277
 20
-63694.54500175315
 42
0.1539147210598333
 10
-11732.26003383698
 20
-63710.65832589437
 42
0.0
 10
-11730.26764444079
 20
-63710.83263737987
 42
-0.1539147210598321
 97
        0
 92
        7
 72
     1
 73
     1
 93
        2
 10
-11732.87038759232
 20
-63713.18584243406
 42
1.0
 10
-11729.87038759232
 20
-63713.18584243406
 42
1.0
 97
        0
 92
        7
 72
     1
 73
     1
 93
        4
 10
-11730.2676444408
 20
-63715.53904748824
 42
0.0
 10
-11732.26003383698
 20
-63715.71335897375
 42
0.1539147210598292
 10
-11725.58567644277
 20
-63731.82668311497
 42
0.0
 10
-11724.05358755653
 20
-63730.54110789558
 42
-0.1539147210598322
 97
        0
 92
        7
 72
     1
 73
     1
 93
        2
 10
-11724.66937746555
 20
-63732.98483230729
 42
1.0
 10
-11721.66937746555
 20
-63732.98483230729
 42
1.0
 97
        0
 75
     0
 76
     1
 47
0.1318031539106057
 98
        7
 10
-11703.4665444442
 20
-63685.01042035722
 10
-11715.33456885276
 20
-63688.04189433907
 10
-11722.85098814625
 20
-63692.78680796197
 10
-11725.48832466677
 20
-63696.21368903052
 10
-11731.15860523224
 20
-63713.08449322161
 10
-11730.76300345994
 20
-63717.69760448227
 10
-11723.2465870425
 20
-63732.98676960811
  0
LINE
  5
2366
330
2
100
AcDbEntity
  8
接続口ステー
  6
HIDDEN
 62
     2
100
AcDbLine
 10
-11703.37038759232
 20
-63938.68584243402
 30
0.0
 11
-11773.37038759232
 21
-63938.68584243402
 31
0.0
  0
LINE
  5
2367
330
2
100
AcDbEntity
  8
接続口ステー
  6
HIDDEN
 62
     2
100
AcDbLine
 10
-11773.37038759232
 20
-63937.18584243401
 30
0.0
 11
-11773.37038759233
 21
-63938.68584243402
 31
0.0
  0
LINE
  5
2368
330
2
100
AcDbEntity
  8
接続口
  6
HIDDEN
 62
     2
100
AcDbLine
 10
-11773.37038759232
 20
-63937.18584243401
 30
0.0
 11
-11703.37038759232
 21
-63937.18584243401
 31
0.0
  0
LINE
  5
2369
330
2
100
AcDbEntity
  8
接続口
  6
HIDDEN
 62
     2
100
AcDbLine
 10
-11678.87038759232
 20
-63937.18584243401
 30
0.0
 11
-11678.87038759232
 21
-63934.33920575026
 31
0.0
  0
LINE
  5
236A
330
2
100
AcDbEntity
  8
銅管IN
  6
HIDDEN
 62
     2
100
AcDbLine
 10
-11657.37038759231
 20
-63907.93962525445
 30
0.0
 11
-11657.37038759231
 21
-63877.31553191117
 31
0.0
  0
LINE
  5
236B
330
2
100
AcDbEntity
  8
銅管IN
  6
HIDDEN
 62
     2
100
AcDbLine
 10
-11665.37038759231
 20
-63907.93962525445
 30
0.0
 11
-11665.37038759231
 21
-63877.31553191117
 31
0.0
  0
LINE
  5
236C
330
2
100
AcDbEntity
  8
接続口
  6
HIDDEN
 62
     2
100
AcDbLine
 10
-11643.87038759232
 20
-63937.18584243401
 30
0.0
 11
-11643.87038759232
 21
-63934.33920575026
 31
0.0
  0
LINE
  5
236D
330
2
100
AcDbEntity
  8
接続口
  6
HIDDEN
 62
     2
100
AcDbLine
 10
-11674.87038759232
 20
-63952.18584243401
 30
0.0
 11
-11674.87038759232
 21
-63940.968821374
 31
0.0
  0
LINE
  5
236E
330
2
100
AcDbEntity
  8
接続口
  6
HIDDEN
 62
     2
100
AcDbLine
 10
-11647.87038759232
 20
-63952.18584243401
 30
0.0
 11
-11647.87038759232
 21
-63940.968821374
 31
0.0
  0
ARC
  5
236F
330
2
100
AcDbEntity
  8
接続口
  6
HIDDEN
 62
     2
100
AcDbCircle
 10
-11676.90637319694
 20
-63941.22416210063
 30
0.0
 40
2.051934762338675
100
AcDbArc
 50
7.148360373958774
 51
83.39600652388645
  0
ARC
  5
2370
330
2
100
AcDbEntity
  8
接続口
  6
HIDDEN
 62
     2
100
AcDbCircle
 10
-11651.04209870196
 20
-63929.76117115798
 30
0.0
 40
2.642290217219851
100
AcDbArc
 50
192.6363719266893
 51
257.3384462967382
  0
ARC
  5
2371
330
2
100
AcDbEntity
  8
接続口
  6
HIDDEN
 62
     2
100
AcDbCircle
 10
-11671.69867648267
 20
-63929.76117115798
 30
0.0
 40
2.642290217219851
100
AcDbArc
 50
282.6615537032618
 51
347.3636280733106
  0
LINE
  5
2372
330
2
100
AcDbEntity
  8
接続口
  6
HIDDEN
 62
     2
100
AcDbLine
 10
-11653.62038759232
 20
-63930.33920575025
 30
0.0
 11
-11669.12038759232
 21
-63930.33920575026
 31
0.0
  0
ARC
  5
2373
330
2
100
AcDbEntity
  8
接続口
  6
HIDDEN
 62
     2
100
AcDbCircle
 10
-11676.87038759232
 20
-63934.33920575026
 30
0.0
 40
2.0
100
AcDbArc
 50
90.0
 51
180.0
  0
LINE
  5
2374
330
2
100
AcDbEntity
  8
接続口
  6
HIDDEN
 62
     2
100
AcDbLine
 10
-11633.37038759231
 20
-63937.18584243401
 30
0.0
 11
-11703.37038759231
 21
-63937.18584243401
 31
0.0
  0
LINE
  5
2375
330
2
100
AcDbEntity
  8
接続口
  6
HIDDEN
 62
     2
100
AcDbLine
 10
-11676.87038759232
 20
-63932.33920575026
 30
0.0
 11
-11645.87038759232
 21
-63932.33920575026
 31
0.0
  0
ARC
  5
2376
330
2
100
AcDbEntity
  8
接続口
  6
HIDDEN
 62
     2
100
AcDbCircle
 10
-11645.8344019877
 20
-63941.22416210063
 30
0.0
 40
2.051934762338675
100
AcDbArc
 50
96.60399347611352
 51
172.8516396260412
  0
LINE
  5
2377
330
2
100
AcDbEntity
  8
接続口
  6
HIDDEN
 62
     2
100
AcDbLine
 10
-11661.37038759232
 20
-63952.18584243401
 30
0.0
 11
-11647.87038759232
 21
-63952.18584243401
 31
0.0
  0
LINE
  5
2378
330
2
100
AcDbEntity
  8
接続口
  6
HIDDEN
 62
     2
100
AcDbLine
 10
-11661.37038759232
 20
-63952.18584243401
 30
0.0
 11
-11674.87038759232
 21
-63952.18584243401
 31
0.0
  0
LINE
  5
2379
330
2
100
AcDbEntity
  8
接続口
  6
HIDDEN
 62
     2
100
AcDbLine
 10
-11654.87038759232
 20
-63930.22820357902
 30
0.0
 11
-11654.87038759232
 21
-63921.93962525443
 31
0.0
  0
LINE
  5
237A
330
2
100
AcDbEntity
  8
接続口
  6
HIDDEN
 62
     2
100
AcDbLine
 10
-11667.87038759232
 20
-63930.22820357902
 30
0.0
 11
-11667.87038759232
 21
-63921.93962525445
 31
0.0
  0
ARC
  5
237B
330
2
100
AcDbEntity
  8
接続口
  6
HIDDEN
 62
     2
100
AcDbCircle
 10
-11645.87038759232
 20
-63934.33920575026
 30
0.0
 40
2.0
100
AcDbArc
 50
0.0
 51
90.0
  0
LINE
  5
237C
330
2
100
AcDbEntity
  8
Φ8袋ﾅｯﾄ
  6
HIDDEN
 62
     2
100
AcDbLine
 10
-11654.87573544046
 20
-63919.93962525445
 30
0.0
 11
-11667.86503974417
 21
-63919.93962525445
 31
0.0
  0
LINE
  5
237D
330
2
100
AcDbEntity
  8
Φ8袋ﾅｯﾄ
  6
HIDDEN
 62
     2
100
AcDbLine
 10
-11654.87573544046
 20
-63907.93962525445
 30
0.0
 11
-11667.86503974417
 21
-63907.93962525445
 31
0.0
  0
ARC
  5
237E
330
2
100
AcDbEntity
  8
Φ8袋ﾅｯﾄ
  6
HIDDEN
 62
     2
100
AcDbCircle
 10
-11661.37038759232
 20
-63916.93346228101
 30
0.0
 40
8.99383702655035
100
AcDbArc
 50
61.17934518220232
 51
118.8206548177977
  0
LINE
  5
237F
330
2
100
AcDbEntity
  8
Φ8袋ﾅｯﾄ
  6
HIDDEN
 62
     2
100
AcDbLine
 10
-11668.57038759232
 20
-63921.93962525445
 30
0.0
 11
-11654.17038759232
 21
-63921.93962525445
 31
0.0
  0
LINE
  5
2380
330
2
100
AcDbEntity
  8
Φ8袋ﾅｯﾄ
  6
HIDDEN
 62
     2
100
AcDbLine
 10
-11654.17038759232
 20
-63919.84399557878
 30
0.0
 11
-11654.17038759232
 21
-63921.93962525443
 31
0.0
  0
ARC
  5
2381
330
2
100
AcDbEntity
  8
Φ8袋ﾅｯﾄ
  6
HIDDEN
 62
     2
100
AcDbCircle
 10
-11654.87573544046
 20
-63917.29054891787
 30
0.0
 40
2.649076336582171
100
AcDbArc
 50
215.4126381108298
 51
324.5873618891701
  0
LINE
  5
2382
330
2
100
AcDbEntity
  8
Φ8袋ﾅｯﾄ
  6
HIDDEN
 62
     2
100
AcDbLine
 10
-11652.71673822615
 20
-63909.05366528343
 30
0.0
 11
-11652.71673822615
 21
-63918.82558522548
 31
0.0
  0
LINE
  5
2383
330
2
100
AcDbEntity
  8
Φ8袋ﾅｯﾄ
  6
HIDDEN
 62
     2
100
AcDbLine
 10
-11657.03473265478
 20
-63918.82558522548
 30
0.0
 11
-11657.03473265477
 21
-63909.05366528343
 31
0.0
  0
ARC
  5
2384
330
2
100
AcDbEntity
  8
Φ8袋ﾅｯﾄ
  6
HIDDEN
 62
     2
100
AcDbCircle
 10
-11654.87573544046
 20
-63910.58870159104
 30
0.0
 40
2.649076336582171
100
AcDbArc
 50
35.41263811082985
 51
144.5873618891701
  0
ARC
  5
2385
330
2
100
AcDbEntity
  8
Φ8袋ﾅｯﾄ
  6
HIDDEN
 62
     2
100
AcDbCircle
 10
-11667.86503974417
 20
-63917.29054891787
 30
0.0
 40
2.64907633658191
100
AcDbArc
 50
215.4126381108298
 51
324.5873618891701
  0
LINE
  5
2386
330
2
100
AcDbEntity
  8
Φ8袋ﾅｯﾄ
  6
HIDDEN
 62
     2
100
AcDbLine
 10
-11668.57038759232
 20
-63919.84399557879
 30
0.0
 11
-11668.57038759232
 21
-63921.93962525445
 31
0.0
  0
LINE
  5
2387
330
2
100
AcDbEntity
  8
Φ8袋ﾅｯﾄ
  6
HIDDEN
 62
     2
100
AcDbLine
 10
-11670.02403695848
 20
-63918.82558522548
 30
0.0
 11
-11670.02403695848
 21
-63909.05366528343
 31
0.0
  0
LINE
  5
2388
330
2
100
AcDbEntity
  8
Φ8袋ﾅｯﾄ
  6
HIDDEN
 62
     2
100
AcDbLine
 10
-11665.70604252985
 20
-63918.82558522548
 30
0.0
 11
-11665.70604252985
 21
-63909.05366528343
 31
0.0
  0
ARC
  5
2389
330
2
100
AcDbEntity
  8
Φ8袋ﾅｯﾄ
  6
HIDDEN
 62
     2
100
AcDbCircle
 10
-11667.86503974417
 20
-63910.58870159104
 30
0.0
 40
2.64907633658191
100
AcDbArc
 50
35.41263811082985
 51
144.5873618891701
  0
LINE
  5
238A
330
2
100
AcDbEntity
  8
接続口ステー
  6
HIDDEN
 62
     2
100
AcDbLine
 10
-11633.37038759231
 20
-63937.18584243401
 30
0.0
 11
-11633.37038759231
 21
-63938.68584243402
 31
0.0
  0
LINE
  5
238B
330
2
100
AcDbEntity
  8
接続口ステー
  6
HIDDEN
 62
     2
100
AcDbLine
 10
-11703.37038759231
 20
-63938.68584243402
 30
0.0
 11
-11633.37038759231
 21
-63938.68584243402
 31
0.0
  0
LINE
  5
238C
330
2
100
AcDbEntity
  8
外釜
  6
HIDDEN
 62
     2
100
AcDbLine
 10
-11525.8703875913
 20
-63769.88036618943
 30
0.0
 11
-11570.98491259313
 21
-63881.45392264316
 31
0.0
  0
ARC
  5
238D
330
2
100
AcDbEntity
  8
外釜
  6
HIDDEN
 62
     2
100
AcDbCircle
 10
-11553.37038759229
 20
-63888.57631753497
 30
0.0
 40
18.99999999999646
100
AcDbArc
 50
157.9841612015249
 51
180.0
  0
LINE
  5
238E
330
2
100
AcDbEntity
  8
外釜
  6
HIDDEN
 62
     2
100
AcDbLine
 10
-11572.37038759229
 20
-63888.57631753497
 30
0.0
 11
-11572.37038759228
 21
-63972.68584243401
 31
0.0
  0
ARC
  5
238F
330
2
100
AcDbEntity
  8
外釜
  6
HIDDEN
 62
     2
100
AcDbCircle
 10
-11588.37038759228
 20
-63972.68584243401
 30
0.0
 40
16.0
100
AcDbArc
 50
270.0
 51
0.0
  0
LINE
  5
2390
330
2
100
AcDbEntity
  8
外釜
  6
HIDDEN
 62
     2
100
AcDbLine
 10
-11588.37038759228
 20
-63988.68584243402
 30
0.0
 11
-11703.37038759231
 21
-63988.685842434
 31
0.0
  0
LINE
  5
2391
330
2
100
AcDbEntity
  8
外釜
  6
HIDDEN
 62
     2
100
AcDbLine
 10
-11818.37038759234
 20
-63988.68584243402
 30
0.0
 11
-11703.37038759231
 21
-63988.68584243402
 31
0.0
  0
ARC
  5
2392
330
2
100
AcDbEntity
  8
外釜
  6
HIDDEN
 62
     2
100
AcDbCircle
 10
-11818.37038759234
 20
-63972.68584243401
 30
0.0
 40
16.0
100
AcDbArc
 50
180.0
 51
270.0
  0
LINE
  5
2393
330
2
100
AcDbEntity
  8
外釜
  6
HIDDEN
 62
     2
100
AcDbLine
 10
-11834.37038759233
 20
-63888.57631753497
 30
0.0
 11
-11834.37038759234
 21
-63972.68584243401
 31
0.0
  0
ARC
  5
2394
330
2
100
AcDbEntity
  8
外釜
  6
HIDDEN
 62
     2
100
AcDbCircle
 10
-11853.37038759233
 20
-63888.57631753497
 30
0.0
 40
18.99999999999646
100
AcDbArc
 50
0.0
 51
22.01583879847509
  0
LINE
  5
2395
330
2
100
AcDbEntity
  8
外釜
  6
HIDDEN
 62
     2
100
AcDbLine
 10
-11880.87038759332
 20
-63769.88036618943
 30
0.0
 11
-11835.75586259149
 21
-63881.45392264316
 31
0.0
  0
LINE
  5
2396
330
2
100
AcDbEntity
  8
アウターリング
 62
     7
100
AcDbLine
 10
-11895.37038759332
 20
-63648.18584243412
 30
0.0
 11
-11703.37038759232
 21
-63648.18584243412
 31
0.0
  0
LINE
  5
2397
330
2
100
AcDbEntity
  8
アウターリング
 62
     7
100
AcDbLine
 10
-11895.37038759332
 20
-63648.18584243412
 30
0.0
 11
-11895.37038759332
 21
-63649.18584243405
 31
0.0
  0
LINE
  5
2398
330
2
100
AcDbEntity
  8
アウターリング
 62
     7
100
AcDbLine
 10
-11511.37038759131
 20
-63648.18584243412
 30
0.0
 11
-11511.37038759131
 21
-63649.18584243405
 31
0.0
  0
LINE
  5
2399
330
2
100
AcDbEntity
  8
アウターリング
 62
     7
100
AcDbLine
 10
-11511.37038759131
 20
-63648.18584243412
 30
0.0
 11
-11703.37038759232
 21
-63648.18584243412
 31
0.0
  0
LINE
  5
239A
330
2
100
AcDbEntity
  8
ツマミ
 62
     7
100
AcDbLine
 10
-11707.37038759232
 20
-63713.18584243406
 30
0.0
 11
-11707.37038759232
 21
-63693.79920666852
 31
0.0
  0
LINE
  5
239B
330
2
100
AcDbEntity
  8
ツマミ
 62
     7
100
AcDbLine
 10
-11699.37038759232
 20
-63713.18584243406
 30
0.0
 11
-11699.37038759232
 21
-63693.79920666852
 31
0.0
  0
LINE
  5
239C
330
2
100
AcDbEntity
  8
天板
 62
     7
100
AcDbLine
 10
-11703.3703875923
 20
-63649.18584243405
 30
0.0
 11
-11438.14464361051
 21
-63649.18584243405
 31
0.0
  0
LINE
  5
239D
330
2
100
AcDbEntity
  8
天板
 62
     7
100
AcDbLine
 10
-11703.37038759231
 20
-63679.18584243406
 30
0.0
 11
-11446.76673494352
 21
-63679.18584243406
 31
0.0
  0
LINE
  5
239E
330
2
100
AcDbEntity
  8
側板
 62
     7
100
AcDbLine
 10
-11593.37038759233
 20
-63967.98584243405
 30
0.0
 11
-11593.37038759233
 21
-63967.08482191963
 31
0.0
  0
LINE
  5
239F
330
2
100
AcDbEntity
  8
側板
 62
     7
100
AcDbLine
 10
-11703.37038759233
 20
-63967.98584243405
 30
0.0
 11
-11593.37038759233
 21
-63967.98584243405
 31
0.0
  0
LINE
  5
23A0
330
2
100
AcDbEntity
  8
点検扉　小
 62
     7
100
AcDbLine
 10
-11594.37038759231
 20
-63967.18584243403
 30
0.0
 11
-11594.37038759231
 21
-63967.98584243405
 31
0.0
  0
ARC
  5
23A1
330
2
100
AcDbEntity
  8
点検扉　小
 62
     7
100
AcDbCircle
 10
-11594.37038759231
 20
-63800.18584243403
 30
0.0
 40
5.0
100
AcDbArc
 50
0.0
 51
90.0
  0
ARC
  5
23A2
330
2
100
AcDbEntity
  8
点検扉　小
 62
     7
100
AcDbCircle
 10
-11594.37038759231
 20
-63962.18584243403
 30
0.0
 40
5.0
100
AcDbArc
 50
270.0
 51
0.0
  0
LINE
  5
23A3
330
2
100
AcDbEntity
  8
点検扉　小
 62
     7
100
AcDbLine
 10
-11594.37038759231
 20
-63967.18584243403
 30
0.0
 11
-11703.37038759231
 21
-63967.18584243403
 31
0.0
  0
LINE
  5
23A4
330
2
100
AcDbEntity
  8
点検扉　小
 62
     7
100
AcDbLine
 10
-11589.37038759231
 20
-63800.18584243403
 30
0.0
 11
-11589.37038759231
 21
-63962.18584243403
 31
0.0
  0
LINE
  5
23A5
330
2
100
AcDbEntity
  8
点検扉　小
 62
     7
100
AcDbLine
 10
-11703.37038759231
 20
-63795.18584243403
 30
0.0
 11
-11594.37038759231
 21
-63795.18584243403
 31
0.0
  0
CIRCLE
  5
23A6
330
2
100
AcDbEntity
  8
ツマミ
 62
     7
100
AcDbCircle
 10
-11703.37038759231
 20
-63713.18584243406
 30
0.0
 40
22.37136201558981
  0
CIRCLE
  5
23A7
330
2
100
AcDbEntity
  8
ツマミ
 62
     7
100
AcDbCircle
 10
-11703.37038759231
 20
-63713.18584243406
 30
0.0
 40
23.0
  0
ARC
  5
23A8
330
2
100
AcDbEntity
  8
ツマミ
 62
     7
100
AcDbCircle
 10
-11704.72182558035
 20
-63711.79568411505
 30
0.0
 40
23.40762387700694
100
AcDbArc
 50
273.3098094681043
 51
285.9956868150947
  0
ARC
  5
23A9
330
2
100
AcDbEntity
  8
ツマミ
 62
     7
100
AcDbCircle
 10
-11702.0189496043
 20
-63711.79568411505
 30
0.0
 40
23.40762387700701
100
AcDbArc
 50
254.0043131849054
 51
266.6901905318957
  0
LINE
  5
23AA
330
2
100
AcDbEntity
  8
ツマミ
 62
     7
100
AcDbLine
 10
-11699.37038759232
 20
-63713.18584243406
 30
0.0
 11
-11699.37038759232
 21
-63732.57247819961
 31
0.0
  0
LINE
  5
23AB
330
2
100
AcDbEntity
  8
ツマミ
 62
     7
100
AcDbLine
 10
-11707.37038759232
 20
-63713.18584243406
 30
0.0
 11
-11707.37038759232
 21
-63732.57247819961
 31
0.0
  0
ARC
  5
23AC
330
2
100
AcDbEntity
  8
ツマミ
 62
     7
100
AcDbCircle
 10
-11517.14671577947
 20
-63713.18584243406
 30
0.0
 40
192.4837711307372
100
AcDbArc
 50
173.7032626020624
 51
186.2967373979375
  0
ARC
  5
23AD
330
2
100
AcDbEntity
  8
ツマミ
 62
     7
100
AcDbCircle
 10
-11889.59405940516
 20
-63713.18584243405
 30
0.0
 40
192.4837711307282
100
AcDbArc
 50
353.7032626020624
 51
6.296737397937564
  0
LINE
  5
23AE
330
2
100
AcDbEntity
  8
ツマミ
 62
     7
100
AcDbLine
 10
-11707.37038759232
 20
-63732.57247819961
 30
0.0
 11
-11699.37038759232
 21
-63732.57247819961
 31
0.0
  0
LINE
  5
23AF
330
2
100
AcDbEntity
  8
ツマミ
 62
     7
100
AcDbLine
 10
-11699.37038759232
 20
-63732.57247819961
 30
0.0
 11
-11698.27150389517
 21
-63734.29702198026
 31
0.0
  0
LINE
  5
23B0
330
2
100
AcDbEntity
  8
ツマミ
 62
     7
100
AcDbLine
 10
-11707.37038759232
 20
-63732.57247819961
 30
0.0
 11
-11708.46927128948
 21
-63734.29702198026
 31
0.0
  0
LINE
  5
23B1
330
2
100
AcDbEntity
  8
ツマミ
 62
     7
100
AcDbLine
 10
-11700.67313426539
 20
-63705.14899305835
 30
0.0
 11
-11706.06764091926
 21
-63705.14899305835
 31
0.0
  0
LINE
  5
23B2
330
2
100
AcDbEntity
  8
ツマミ
 62
     7
100
AcDbLine
 10
-11707.37038759232
 20
-63693.79920666852
 30
0.0
 11
-11699.37038759232
 21
-63693.79920666852
 31
0.0
  0
LINE
  5
23B3
330
2
100
AcDbEntity
  8
ツマミ
 62
     7
100
AcDbLine
 10
-11707.37038759232
 20
-63693.79920666852
 30
0.0
 11
-11708.46927128948
 21
-63692.07466288787
 31
0.0
  0
ARC
  5
23B4
330
2
100
AcDbEntity
  8
ツマミ
 62
     7
100
AcDbCircle
 10
-11702.0189496043
 20
-63714.57600075308
 30
0.0
 40
23.40762387700705
100
AcDbArc
 50
93.30980946810431
 51
105.9956868150946
  0
ARC
  5
23B5
330
2
100
AcDbEntity
  8
ツマミ
 62
     7
100
AcDbCircle
 10
-11704.72182558035
 20
-63714.57600075308
 30
0.0
 40
23.40762387700696
100
AcDbArc
 50
74.00431318490539
 51
86.6901905318957
  0
LINE
  5
23B6
330
2
100
AcDbEntity
  8
ツマミ
 62
     7
100
AcDbLine
 10
-11699.37038759232
 20
-63693.79920666852
 30
0.0
 11
-11698.27150389517
 21
-63692.07466288787
 31
0.0
  0
LINE
  5
23B7
330
2
100
AcDbEntity
  8
ツマミ
 62
     7
100
AcDbLine
 10
-11703.37038759232
 20
-63695.25617220396
 30
0.0
 11
-11706.06764091926
 21
-63705.14899305835
 31
0.0
  0
LINE
  5
23B8
330
2
100
AcDbEntity
  8
ツマミ
 62
     7
100
AcDbLine
 10
-11703.37038759232
 20
-63695.25617220396
 30
0.0
 11
-11700.67313426539
 21
-63705.14899305835
 31
0.0
  0
LINE
  5
23B9
330
2
100
AcDbEntity
  8
天板
  6
CENTER
 62
     1
 48
2.0
100
AcDbLine
 10
-11703.37038759232
 20
-63500.91702670095
 30
0.0
 11
-11703.37038759231
 21
-64439.62724768657
 31
0.0
  0
LINE
  5
23BA
330
2
100
AcDbEntity
  8
天板
 62
     7
100
AcDbLine
 10
-11703.37038759232
 20
-63679.18584243406
 30
0.0
 11
-11972.43453774089
 21
-63679.18584243406
 31
0.0
  0
LINE
  5
23BB
330
2
100
AcDbEntity
  8
天板
 62
     7
100
AcDbLine
 10
-11703.37038759233
 20
-63649.18584243405
 30
0.0
 11
-11963.81244640789
 21
-63649.18584243405
 31
0.0
  0
LINE
  5
23BC
330
2
100
AcDbEntity
  8
コックカバー
 62
     7
100
AcDbLine
 10
-11703.37038759231
 20
-63746.68584243406
 30
0.0
 11
-11772.37038759231
 21
-63746.68584243406
 31
0.0
  0
LINE
  5
23BD
330
2
100
AcDbEntity
  8
コックカバー
 62
     7
100
AcDbLine
 10
-11703.37038759231
 20
-63747.18584243406
 30
0.0
 11
-11772.37038759231
 21
-63747.18584243406
 31
0.0
  0
LINE
  5
23BE
330
2
100
AcDbEntity
  8
コックカバー
 62
     7
100
AcDbLine
 10
-11773.37038759231
 20
-63746.18584243406
 30
0.0
 11
-11773.37038759231
 21
-63680.18584243406
 31
0.0
  0
LINE
  5
23BF
330
2
100
AcDbEntity
  8
コックカバー
 62
     7
100
AcDbLine
 10
-11772.87038759231
 20
-63746.18584243406
 30
0.0
 11
-11772.87038759231
 21
-63680.18584243406
 31
0.0
  0
LINE
  5
23C0
330
2
100
AcDbEntity
  8
コックカバー
 62
     7
100
AcDbLine
 10
-11788.37038759231
 20
-63679.68584243405
 30
0.0
 11
-11788.37038759231
 21
-63679.18584243406
 31
0.0
  0
LINE
  5
23C1
330
2
100
AcDbEntity
  8
コックカバー
 62
     7
100
AcDbLine
 10
-11773.87038759231
 20
-63679.18584243406
 30
0.0
 11
-11788.37038759231
 21
-63679.18584243406
 31
0.0
  0
LINE
  5
23C2
330
2
100
AcDbEntity
  8
コックカバー
 62
     7
100
AcDbLine
 10
-11773.87038759231
 20
-63679.68584243405
 30
0.0
 11
-11788.37038759231
 21
-63679.68584243405
 31
0.0
  0
ARC
  5
23C3
330
2
100
AcDbEntity
  8
コックカバー
 62
     7
100
AcDbCircle
 10
-11772.37038759231
 20
-63746.18584243406
 30
0.0
 40
1.0
100
AcDbArc
 50
180.0
 51
270.0
  0
ARC
  5
23C4
330
2
100
AcDbEntity
  8
コックカバー
 62
     7
100
AcDbCircle
 10
-11772.37038759231
 20
-63746.18584243406
 30
0.0
 40
0.5
100
AcDbArc
 50
180.0
 51
270.0
  0
ARC
  5
23C5
330
2
100
AcDbEntity
  8
コックカバー
 62
     7
100
AcDbCircle
 10
-11773.87038759231
 20
-63680.18584243406
 30
0.0
 40
0.5
100
AcDbArc
 50
0.0
 51
90.0
  0
ARC
  5
23C6
330
2
100
AcDbEntity
  8
コックカバー
 62
     7
100
AcDbCircle
 10
-11773.87038759231
 20
-63680.18584243406
 30
0.0
 40
1.0
100
AcDbArc
 50
0.0
 51
90.0
  0
ARC
  5
23C7
330
2
100
AcDbEntity
  8
コックカバー
 62
     7
100
AcDbCircle
 10
-11632.87038759231
 20
-63680.18584243406
 30
0.0
 40
1.0
100
AcDbArc
 50
90.0
 51
180.0
  0
ARC
  5
23C8
330
2
100
AcDbEntity
  8
コックカバー
 62
     7
100
AcDbCircle
 10
-11632.87038759231
 20
-63680.18584243406
 30
0.0
 40
0.5
100
AcDbArc
 50
90.0
 51
180.0
  0
ARC
  5
23C9
330
2
100
AcDbEntity
  8
コックカバー
 62
     7
100
AcDbCircle
 10
-11634.3703875923
 20
-63746.18584243406
 30
0.0
 40
0.5
100
AcDbArc
 50
270.0
 51
0.0
  0
ARC
  5
23CA
330
2
100
AcDbEntity
  8
コックカバー
 62
     7
100
AcDbCircle
 10
-11634.3703875923
 20
-63746.18584243406
 30
0.0
 40
1.0
100
AcDbArc
 50
270.0
 51
0.0
  0
LINE
  5
23CB
330
2
100
AcDbEntity
  8
コックカバー
 62
     7
100
AcDbLine
 10
-11632.87038759231
 20
-63679.68584243405
 30
0.0
 11
-11618.3703875923
 21
-63679.68584243405
 31
0.0
  0
LINE
  5
23CC
330
2
100
AcDbEntity
  8
コックカバー
 62
     7
100
AcDbLine
 10
-11632.87038759231
 20
-63679.18584243406
 30
0.0
 11
-11618.3703875923
 21
-63679.18584243406
 31
0.0
  0
LINE
  5
23CD
330
2
100
AcDbEntity
  8
コックカバー
 62
     7
100
AcDbLine
 10
-11618.3703875923
 20
-63679.68584243405
 30
0.0
 11
-11618.3703875923
 21
-63679.18584243406
 31
0.0
  0
LINE
  5
23CE
330
2
100
AcDbEntity
  8
コックカバー
 62
     7
100
AcDbLine
 10
-11633.87038759231
 20
-63746.18584243406
 30
0.0
 11
-11633.87038759231
 21
-63680.18584243406
 31
0.0
  0
LINE
  5
23CF
330
2
100
AcDbEntity
  8
コックカバー
 62
     7
100
AcDbLine
 10
-11633.37038759231
 20
-63746.18584243406
 30
0.0
 11
-11633.37038759231
 21
-63680.18584243406
 31
0.0
  0
LINE
  5
23D0
330
2
100
AcDbEntity
  8
コックカバー
 62
     7
100
AcDbLine
 10
-11703.37038759231
 20
-63747.18584243406
 30
0.0
 11
-11634.3703875923
 21
-63747.18584243406
 31
0.0
  0
LINE
  5
23D1
330
2
100
AcDbEntity
  8
コックカバー
 62
     7
100
AcDbLine
 10
-11703.37038759231
 20
-63746.68584243406
 30
0.0
 11
-11634.3703875923
 21
-63746.68584243406
 31
0.0
  0
CIRCLE
  5
23D2
330
2
100
AcDbEntity
  8
コックプレート
 62
     7
100
AcDbCircle
 10
-11663.37038759233
 20
-63733.18584243406
 30
0.0
 40
4.75
  0
LINE
  5
23D3
330
2
100
AcDbEntity
  8
コックプレート
 62
     7
100
AcDbLine
 10
-11771.17038759232
 20
-63679.18584243406
 30
0.0
 11
-11771.17038759232
 21
-63680.38584243405
 31
0.0
  0
LINE
  5
23D4
330
2
100
AcDbEntity
  8
コックプレート
 62
     7
100
AcDbLine
 10
-11771.17038759232
 20
-63746.18584243406
 30
0.0
 11
-11703.37038759233
 21
-63746.18584243406
 31
0.0
  0
LINE
  5
23D5
330
2
100
AcDbEntity
  8
コックプレート
 62
     7
100
AcDbLine
 10
-11771.17038759232
 20
-63680.38584243405
 30
0.0
 11
-11703.37038759233
 21
-63680.38584243405
 31
0.0
  0
LINE
  5
23D6
330
2
100
AcDbEntity
  8
コックプレート
 62
     7
100
AcDbLine
 10
-11771.17038759232
 20
-63679.18584243406
 30
0.0
 11
-11703.37038759233
 21
-63679.18584243406
 31
0.0
  0
LINE
  5
23D7
330
2
100
AcDbEntity
  8
コックプレート
 62
     7
100
AcDbLine
 10
-11772.37038759233
 20
-63680.38584243405
 30
0.0
 11
-11772.37038759233
 21
-63744.98584243406
 31
0.0
  0
LINE
  5
23D8
330
2
100
AcDbEntity
  8
コックプレート
 62
     7
100
AcDbLine
 10
-11771.17038759232
 20
-63680.38584243405
 30
0.0
 11
-11772.37038759233
 21
-63680.38584243405
 31
0.0
  0
LINE
  5
23D9
330
2
100
AcDbEntity
  8
コックプレート
 62
     7
100
AcDbLine
 10
-11771.17038759232
 20
-63744.98584243406
 30
0.0
 11
-11772.37038759233
 21
-63744.98584243406
 31
0.0
  0
LINE
  5
23DA
330
2
100
AcDbEntity
  8
コックプレート
 62
     7
100
AcDbLine
 10
-11771.17038759232
 20
-63744.98584243406
 30
0.0
 11
-11771.17038759232
 21
-63746.18584243406
 31
0.0
  0
LINE
  5
23DB
330
2
100
AcDbEntity
  8
コックプレート
 62
     7
100
AcDbLine
 10
-11635.57038759235
 20
-63744.98584243409
 30
0.0
 11
-11635.57038759236
 21
-63746.18584243409
 31
0.0
  0
LINE
  5
23DC
330
2
100
AcDbEntity
  8
コックプレート
 62
     7
100
AcDbLine
 10
-11635.57038759235
 20
-63744.98584243409
 30
0.0
 11
-11634.37038759236
 21
-63744.98584243409
 31
0.0
  0
LINE
  5
23DD
330
2
100
AcDbEntity
  8
コックプレート
 62
     7
100
AcDbLine
 10
-11635.57038759233
 20
-63680.38584243407
 30
0.0
 11
-11634.37038759233
 21
-63680.38584243407
 31
0.0
  0
LINE
  5
23DE
330
2
100
AcDbEntity
  8
コックプレート
 62
     7
100
AcDbLine
 10
-11634.37038759233
 20
-63680.38584243407
 30
0.0
 11
-11634.37038759236
 21
-63744.98584243409
 31
0.0
  0
LINE
  5
23DF
330
2
100
AcDbEntity
  8
コックプレート
 62
     7
100
AcDbLine
 10
-11635.57038759233
 20
-63679.18584243409
 30
0.0
 11
-11703.37038759234
 21
-63679.18584243406
 31
0.0
  0
LINE
  5
23E0
330
2
100
AcDbEntity
  8
コックプレート
 62
     7
100
AcDbLine
 10
-11635.57038759233
 20
-63680.38584243407
 30
0.0
 11
-11703.37038759234
 21
-63680.38584243405
 31
0.0
  0
LINE
  5
23E1
330
2
100
AcDbEntity
  8
コックプレート
 62
     7
100
AcDbLine
 10
-11635.57038759236
 20
-63746.18584243409
 30
0.0
 11
-11703.37038759236
 21
-63746.18584243406
 31
0.0
  0
LINE
  5
23E2
330
2
100
AcDbEntity
  8
コックプレート
 62
     7
100
AcDbLine
 10
-11635.57038759233
 20
-63679.18584243409
 30
0.0
 11
-11635.57038759233
 21
-63680.38584243407
 31
0.0
  0
LINE
  5
23E3
330
2
100
AcDbEntity
  8
コックプレート
 62
     7
100
AcDbLine
 10
-11764.87038759233
 20
-63691.18584243406
 30
0.0
 11
-11764.87038759233
 21
-63710.28584243407
 31
0.0
  0
LINE
  5
23E4
330
2
100
AcDbEntity
  8
コックプレート
 62
     7
100
AcDbLine
 10
-11751.87038759233
 20
-63710.28584243407
 30
0.0
 11
-11751.87038759233
 21
-63691.18584243406
 31
0.0
  0
LINE
  5
23E5
330
2
100
AcDbEntity
  8
コックプレート
 62
     7
100
AcDbLine
 10
-11751.87038759233
 20
-63710.28584243407
 30
0.0
 11
-11764.87038759233
 21
-63710.28584243407
 31
0.0
  0
LINE
  5
23E6
330
2
100
AcDbEntity
  8
コックプレート
 62
     7
100
AcDbLine
 10
-11751.87038759233
 20
-63691.18584243406
 30
0.0
 11
-11764.87038759233
 21
-63691.18584243406
 31
0.0
  0
CIRCLE
  5
23E7
330
2
100
AcDbEntity
  8
コックプレート
 62
     7
100
AcDbCircle
 10
-11758.37038759233
 20
-63739.18584243406
 30
0.0
 40
1.5
  0
CIRCLE
  5
23E8
330
2
100
AcDbEntity
  8
コックプレート
 62
     7
100
AcDbCircle
 10
-11758.37038759233
 20
-63729.18584243405
 30
0.0
 40
5.0
  0
LINE
  5
23E9
330
2
100
AcDbEntity
  8
点検扉　小
 62
     7
100
AcDbLine
 10
-11703.37038759232
 20
-63795.18584243403
 30
0.0
 11
-11812.37038759232
 21
-63795.18584243403
 31
0.0
  0
LINE
  5
23EA
330
2
100
AcDbEntity
  8
点検扉　小
 62
     7
100
AcDbLine
 10
-11817.37038759232
 20
-63800.18584243403
 30
0.0
 11
-11817.37038759232
 21
-63962.18584243403
 31
0.0
  0
LINE
  5
23EB
330
2
100
AcDbEntity
  8
点検扉　小
 62
     7
100
AcDbLine
 10
-11812.37038759232
 20
-63967.18584243403
 30
0.0
 11
-11703.37038759232
 21
-63967.18584243403
 31
0.0
  0
ARC
  5
23EC
330
2
100
AcDbEntity
  8
点検扉　小
 62
     7
100
AcDbCircle
 10
-11812.37038759232
 20
-63962.18584243403
 30
0.0
 40
5.0
100
AcDbArc
 50
180.0
 51
270.0
  0
ARC
  5
23ED
330
2
100
AcDbEntity
  8
点検扉　小
 62
     7
100
AcDbCircle
 10
-11812.37038759232
 20
-63800.18584243403
 30
0.0
 40
5.0
100
AcDbArc
 50
90.0
 51
180.0
  0
CIRCLE
  5
23EE
330
2
100
AcDbEntity
  8
点検扉　小
 62
     7
100
AcDbCircle
 10
-11703.37038759233
 20
-63803.18584243403
 30
0.0
 40
3.0
  0
LINE
  5
23EF
330
2
100
AcDbEntity
  8
点検扉　小
 62
     7
100
AcDbLine
 10
-11812.37038759232
 20
-63967.18584243403
 30
0.0
 11
-11812.37038759232
 21
-63967.98584243405
 31
0.0
  0
CIRCLE
  5
23F0
330
2
100
AcDbEntity
  8
側板
 62
     7
100
AcDbCircle
 10
-11703.37038759231
 20
-63803.18584243403
 30
0.0
 40
3.0
  0
LINE
  5
23F1
330
2
100
AcDbEntity
  8
側板
 62
     7
100
AcDbLine
 10
-11703.3703875923
 20
-63967.98584243405
 30
0.0
 11
-11813.3703875923
 21
-63967.98584243405
 31
0.0
  0
LINE
  5
23F2
330
2
100
AcDbEntity
  8
側板
 62
     7
100
AcDbLine
 10
-11813.3703875923
 20
-63967.98584243405
 30
0.0
 11
-11813.3703875923
 21
-63967.08482191963
 31
0.0
  0
LINE
  5
23F3
330
2
100
AcDbEntity
  8
ＦＶＤ
  6
HIDDEN
 62
     2
100
AcDbLine
 10
-11629.37038759232
 20
-63991.88584243399
 30
0.0
 11
-11629.37038759228
 21
-64108.68584243406
 31
0.0
  0
LINE
  5
23F4
330
2
100
AcDbEntity
  8
ＦＶＤ
  6
HIDDEN
 62
     2
100
AcDbLine
 10
-11629.37038759228
 20
-64108.68584243406
 30
0.0
 11
-11703.37038759228
 21
-64108.68584243408
 31
0.0
  0
LINE
  5
23F5
330
2
100
AcDbEntity
  8
ＦＶＤ
  6
HIDDEN
 62
     2
100
AcDbLine
 10
-11703.37038759231
 20
-63991.88584243401
 30
0.0
 11
-11607.37038759231
 21
-63991.88584243401
 31
0.0
  0
LINE
  5
23F6
330
2
100
AcDbEntity
  8
ＦＶＤ
  6
HIDDEN
 62
     2
100
AcDbLine
 10
-11607.37038759231
 20
-63988.685842434
 30
0.0
 11
-11607.37038759231
 21
-63991.88584243401
 31
0.0
  0
LINE
  5
23F7
330
2
100
AcDbEntity
  8
ＦＶＤ
  6
HIDDEN
 62
     2
100
AcDbLine
 10
-11799.37038759231
 20
-63988.685842434
 30
0.0
 11
-11799.37038759231
 21
-63991.88584243399
 31
0.0
  0
LINE
  5
23F8
330
2
100
AcDbEntity
  8
ＦＶＤ
  6
HIDDEN
 62
     2
100
AcDbLine
 10
-11703.37038759231
 20
-63991.88584243401
 30
0.0
 11
-11799.37038759231
 21
-63991.88584243399
 31
0.0
  0
LINE
  5
23F9
330
2
100
AcDbEntity
  8
ＦＶＤ
  6
HIDDEN
 62
     2
100
AcDbLine
 10
-11777.37038759235
 20
-64108.68584243406
 30
0.0
 11
-11703.37038759235
 21
-64108.68584243408
 31
0.0
  0
LINE
  5
23FA
330
2
100
AcDbEntity
  8
ＦＶＤ
  6
HIDDEN
 62
     2
100
AcDbLine
 10
-11777.3703875923
 20
-63991.88584243399
 30
0.0
 11
-11777.37038759235
 21
-64108.68584243406
 31
0.0
  0
DIMENSION
  5
23FB
330
2
100
AcDbEntity
  8
SUNPOU
100
AcDbDimension
  2
*D5
 10
-11426.01958461312
 20
-63881.185842434
 30
0.0
 11
-11426.01958461312
 21
-64106.7998424458
 31
0.0
 70
   160
 71
     5
 42
468.0
  3
IMCADLT
100
AcDbAlignedDimension
 13
-11524.37038759231
 23
-64349.18584243405
 33
0.0
 14
-11543.37038759228
 24
-63881.185842434
 34
0.0
 50
90.0
100
AcDbRotatedDimension
1001
ACAD
1000
DSTYLE
1002
{
1070
   140
1040
2.5
1070
    40
1040
15.0
1070
    41
1040
1.199999999999999
1070
    47
1040
0.5
1070
   146
1040
0.6
1070
   271
1070
     1
1070
   272
1070
     1
1070
   288
1070
     1
1002
}
  0
DIMENSION
  5
23FC
330
2
100
AcDbEntity
  8
SUNPOU
100
AcDbDimension
  2
*D6
 10
-11513.37038759231
 20
-63565.53509447898
 30
0.0
 11
-11703.37038759231
 21
-63565.53509447898
 31
0.0
 70
   160
 71
     5
 42
380.0
  3
IMCADLT
100
AcDbAlignedDimension
 13
-11893.37038759232
 23
-63680.38584243402
 33
0.0
 14
-11513.37038759231
 24
-63680.38584243402
 34
0.0
100
AcDbRotatedDimension
1001
ACAD
1000
DSTYLE
1002
{
1070
   140
1040
2.5
1070
    40
1040
15.0
1070
    41
1040
1.199999999999999
1070
    47
1040
0.5
1070
   146
1040
0.6
1070
   271
1070
     1
1070
   272
1070
     1
1070
   288
1070
     1
1002
}
  0
DIMENSION
  5
23FD
330
2
100
AcDbEntity
  8
SUNPOU
100
AcDbDimension
  2
*D7
 10
-11553.37038759233
 20
-64597.42856195213
 30
0.0
 11
-11698.5647541988
 21
-64597.42856195213
 31
0.0
 70
   160
 71
     5
 42
300.0
  3
IMCADLT
100
AcDbAlignedDimension
 13
-11853.3703875923
 23
-64349.18584243405
 33
0.0
 14
-11553.37038759233
 24
-64349.18584243405
 34
0.0
100
AcDbRotatedDimension
1001
ACAD
1000
DSTYLE
1002
{
1070
   140
1040
2.5
1070
    40
1040
15.0
1070
    41
1040
1.199999999999999
1070
    47
1040
0.5
1070
   146
1040
0.6
1070
   271
1070
     1
1070
   272
1070
     1
1070
   288
1070
     1
1002
}
  0
ARC
  5
23FE
330
2
100
AcDbEntity
  8
キャビネット
 62
     7
100
AcDbCircle
 10
-11544.12283987803
 20
-63879.985842434
 30
0.0
 40
1.199999999999999
100
AcDbArc
 50
270.0
 51
334.1790080258016
  0
LINE
  5
23FF
330
2
100
AcDbEntity
  8
キャビネット
 62
     7
100
AcDbLine
 10
-11543.37038759228
 20
-63881.185842434
 30
0.0
 11
-11543.60101237744
 21
-63881.185842434
 31
0.0
  0
LINE
  5
2400
330
2
100
AcDbEntity
  8
キャビネット
 62
     7
100
AcDbLine
 10
-11543.27618844057
 20
-63880.99116418715
 30
0.0
 11
-11543.37038759228
 21
-63881.185842434
 31
0.0
  0
LINE
  5
2401
330
2
100
AcDbEntity
  8
キャビネット
 62
     7
100
AcDbLine
 10
-11553.37038759231
 20
-63881.18584243401
 30
0.0
 11
-11544.12283987803
 21
-63881.18584243401
 31
0.0
  0
LINE
  5
2402
330
2
100
AcDbEntity
  8
キャビネット
 62
     7
100
AcDbLine
 10
-11513.37038759228
 20
-63819.18584243401
 30
0.0
 11
-11543.04264877634
 21
-63880.50851554774
 31
0.0
  0
LINE
  5
2403
330
2
100
AcDbEntity
  8
キャビネット
 62
     7
100
AcDbLine
 10
-11484.57038759228
 20
-63679.18584243401
 30
0.0
 11
-11484.57038759228
 21
-63680.385842434
 31
0.0
  0
LINE
  5
2404
330
2
100
AcDbEntity
  8
キャビネット
 62
     7
100
AcDbLine
 10
-11513.37038759227
 20
-63680.385842434
 30
0.0
 11
-11513.37038759228
 21
-63819.18584243401
 31
0.0
  0
LINE
  5
2405
330
2
100
AcDbEntity
  8
キャビネット
 62
     7
100
AcDbLine
 10
-11513.37038759227
 20
-63679.18584243401
 30
0.0
 11
-11484.57038759228
 21
-63679.18584243401
 31
0.0
  0
LINE
  5
2406
330
2
100
AcDbEntity
  8
キャビネット
 62
     7
100
AcDbLine
 10
-11514.57038759227
 20
-63680.385842434
 30
0.0
 11
-11484.57038759228
 21
-63680.385842434
 31
0.0
  0
ARC
  5
2407
330
2
100
AcDbEntity
  8
キャビネット
 62
     7
100
AcDbCircle
 10
-11513.37038759227
 20
-63680.385842434
 30
0.0
 40
1.199999999999999
100
AcDbArc
 50
90.0
 51
180.0
  0
LINE
  5
2408
330
2
100
AcDbEntity
  8
キャビネット
 62
     7
100
AcDbLine
 10
-11514.57038759227
 20
-63680.385842434
 30
0.0
 11
-11544.57038759229
 21
-63680.385842434
 31
0.0
  0
LINE
  5
2409
330
2
100
AcDbEntity
  8
側板
 62
     7
100
AcDbLine
 10
-11563.37038759234
 20
-63682.18584243405
 30
0.0
 11
-11563.37038759234
 21
-63765.98584243402
 31
0.0
  0
LINE
  5
240A
330
2
100
AcDbEntity
  8
側板
 62
     7
100
AcDbLine
 10
-11608.37038759231
 20
-63702.18584243406
 30
0.0
 11
-11623.37038759231
 21
-63702.18584243406
 31
0.0
  0
ARC
  5
240B
330
2
100
AcDbEntity
  8
側板
 62
     7
100
AcDbCircle
 10
-11623.37038759231
 20
-63707.18584243403
 30
0.0
 40
5.0
100
AcDbArc
 50
90.0
 51
180.0
  0
LINE
  5
240C
330
2
100
AcDbEntity
  8
側板
 62
     7
100
AcDbLine
 10
-11608.37038759231
 20
-63687.18584243405
 30
0.0
 11
-11608.37038759231
 21
-63702.18584243406
 31
0.0
  0
CIRCLE
  5
240D
330
2
100
AcDbEntity
  8
側板
 62
     7
100
AcDbCircle
 10
-11618.37038759228
 20
-63717.98584243402
 30
0.0
 40
1.6
  0
CIRCLE
  5
240E
330
2
100
AcDbEntity
  8
側板
 62
     7
100
AcDbCircle
 10
-11618.37038759231
 20
-63757.98584243402
 30
0.0
 40
1.6
  0
LINE
  5
240F
330
2
100
AcDbEntity
  8
側板
 62
     7
100
AcDbLine
 10
-11598.37038759231
 20
-63767.98584243402
 30
0.0
 11
-11627.37038759231
 21
-63767.98584243402
 31
0.0
  0
LINE
  5
2410
330
2
100
AcDbEntity
  8
側板
 62
     7
100
AcDbLine
 10
-11598.37038759231
 20
-63765.98584243402
 30
0.0
 11
-11627.37038759231
 21
-63765.98584243402
 31
0.0
  0
LINE
  5
2411
330
2
100
AcDbEntity
  8
側板
 62
     7
100
AcDbLine
 10
-11598.37038759231
 20
-63765.98584243402
 30
0.0
 11
-11598.37038759231
 21
-63767.98584243402
 31
0.0
  0
LINE
  5
2412
330
2
100
AcDbEntity
  8
側板
 62
     7
100
AcDbLine
 10
-11598.37038759231
 20
-63767.98584243402
 30
0.0
 11
-11598.37038759231
 21
-63765.98584243402
 31
0.0
  0
LINE
  5
2413
330
2
100
AcDbEntity
  8
側板
 62
     7
100
AcDbLine
 10
-11597.37038759231
 20
-63767.98584243402
 30
0.0
 11
-11597.37038759231
 21
-63765.98584243402
 31
0.0
  0
LINE
  5
2414
330
2
100
AcDbEntity
  8
側板
 62
     7
100
AcDbLine
 10
-11553.37038759231
 20
-63679.18584243406
 30
0.0
 11
-11553.37038759228
 21
-63679.18584243406
 31
0.0
  0
LINE
  5
2415
330
2
100
AcDbEntity
  8
側板
 62
     7
100
AcDbLine
 10
-11553.37038759231
 20
-64349.18584243405
 30
0.0
 11
-11703.37038759231
 21
-64349.18584243405
 31
0.0
  0
LINE
  5
2416
330
2
100
AcDbEntity
  8
側板
 62
     7
100
AcDbLine
 10
-11559.78460115471
 20
-63740.18584243406
 30
0.0
 11
-11559.78460115471
 21
-63765.98584243402
 31
0.0
  0
LINE
  5
2417
330
2
100
AcDbEntity
  8
側板
 62
     7
100
AcDbLine
 10
-11558.37038759234
 20
-63740.18584243406
 30
0.0
 11
-11558.37038759234
 21
-63767.98584243402
 31
0.0
  0
LINE
  5
2418
330
2
100
AcDbEntity
  8
側板
 62
     7
100
AcDbLine
 10
-11558.37038759234
 20
-63739.18584243403
 30
0.0
 11
-11559.78460115471
 21
-63739.18584243403
 31
0.0
  0
LINE
  5
2419
330
2
100
AcDbEntity
  8
側板
 62
     7
100
AcDbLine
 10
-11558.37038759234
 20
-63740.18584243406
 30
0.0
 11
-11559.78460115471
 21
-63740.18584243406
 31
0.0
  0
LINE
  5
241A
330
2
100
AcDbEntity
  8
側板
 62
     7
100
AcDbLine
 10
-11628.37038759231
 20
-63767.98584243402
 30
0.0
 11
-11703.37038759231
 21
-63767.98584243402
 31
0.0
  0
LINE
  5
241B
330
2
100
AcDbEntity
  8
側板
 62
     7
100
AcDbLine
 10
-11627.37038759231
 20
-63767.98584243402
 30
0.0
 11
-11627.37038759231
 21
-63765.98584243402
 31
0.0
  0
LINE
  5
241C
330
2
100
AcDbEntity
  8
側板
 62
     7
100
AcDbLine
 10
-11628.37038759231
 20
-63767.98584243402
 30
0.0
 11
-11628.37038759231
 21
-63765.98584243402
 31
0.0
  0
LINE
  5
241D
330
2
100
AcDbEntity
  8
側板
 62
     7
100
AcDbLine
 10
-11559.78460115471
 20
-63765.98584243402
 30
0.0
 11
-11597.37038759231
 21
-63765.98584243402
 31
0.0
  0
LINE
  5
241E
330
2
100
AcDbEntity
  8
側板
 62
     7
100
AcDbLine
 10
-11558.37038759234
 20
-63767.98584243402
 30
0.0
 11
-11597.37038759231
 21
-63767.98584243402
 31
0.0
  0
LINE
  5
241F
330
2
100
AcDbEntity
  8
側板
 62
     7
100
AcDbLine
 10
-11558.37038759234
 20
-63683.18584243406
 30
0.0
 11
-11558.37038759234
 21
-63739.18584243403
 31
0.0
  0
LINE
  5
2420
330
2
100
AcDbEntity
  8
側板
 62
     7
100
AcDbLine
 10
-11628.37038759231
 20
-63707.18584243403
 30
0.0
 11
-11628.37038759231
 21
-63767.98584243402
 31
0.0
  0
LINE
  5
2421
330
2
100
AcDbEntity
  8
側板
 62
     7
100
AcDbLine
 10
-11524.37038759231
 20
-64347.98584243401
 30
0.0
 11
-11524.37038759231
 21
-64349.18584243405
 31
0.0
  0
LINE
  5
2422
330
2
100
AcDbEntity
  8
側板
 62
     7
100
AcDbLine
 10
-11524.37038759231
 20
-64347.98584243401
 30
0.0
 11
-11553.37038759231
 21
-64347.98584243401
 31
0.0
  0
LINE
  5
2423
330
2
100
AcDbEntity
  8
側板
 62
     7
100
AcDbLine
 10
-11524.37038759231
 20
-64349.18584243405
 30
0.0
 11
-11553.37038759231
 21
-64349.18584243405
 31
0.0
  0
LINE
  5
2424
330
2
100
AcDbEntity
  8
側板
 62
     7
100
AcDbLine
 10
-11524.37038759231
 20
-63680.38584243405
 30
0.0
 11
-11553.37038759231
 21
-63680.38584243402
 31
0.0
  0
LINE
  5
2425
330
2
100
AcDbEntity
  8
側板
 62
     7
100
AcDbLine
 10
-11524.37038759231
 20
-63679.18584243406
 30
0.0
 11
-11553.37038759231
 21
-63679.18584243406
 31
0.0
  0
LINE
  5
2426
330
2
100
AcDbEntity
  8
側板
 62
     7
100
AcDbLine
 10
-11524.37038759231
 20
-63679.18584243406
 30
0.0
 11
-11524.37038759231
 21
-63680.38584243402
 31
0.0
  0
LINE
  5
2427
330
2
100
AcDbEntity
  8
側板
 62
     7
100
AcDbLine
 10
-11553.37038759231
 20
-63680.38584243402
 30
0.0
 11
-11553.37038759231
 21
-64349.18584243405
 31
0.0
  0
ARC
  5
2428
330
2
100
AcDbEntity
  8
側板
 62
     7
100
AcDbCircle
 10
-11603.37038759231
 20
-63687.18584243405
 30
0.0
 40
5.0
100
AcDbArc
 50
90.0
 51
180.0
  0
LINE
  5
2429
330
2
100
AcDbEntity
  8
側板
 62
     7
100
AcDbLine
 10
-11553.37038759231
 20
-63682.18584243405
 30
0.0
 11
-11603.37038759231
 21
-63682.18584243405
 31
0.0
  0
LINE
  5
242A
330
2
100
AcDbEntity
  8
側板
 62
     7
100
AcDbLine
 10
-11558.37038759234
 20
-63683.18584243406
 30
0.0
 11
-11559.78460115471
 21
-63683.18584243406
 31
0.0
  0
LINE
  5
242B
330
2
100
AcDbEntity
  8
側板
 62
     7
100
AcDbLine
 10
-11559.78460115471
 20
-63683.18584243406
 30
0.0
 11
-11559.78460115471
 21
-63739.18584243403
 31
0.0
  0
LINE
  5
242C
330
2
100
AcDbEntity
  8
側板
 62
     7
100
AcDbLine
 10
-11554.57038759229
 20
-63680.38584243405
 30
0.0
 11
-11554.57038759229
 21
-63682.18584243405
 31
0.0
  0
ARC
  5
242D
330
2
100
AcDbEntity
  8
側板
 62
     7
100
AcDbCircle
 10
-11553.37038759228
 20
-63680.38584243405
 30
0.0
 40
1.199999999999999
100
AcDbArc
 50
90.0
 51
180.0
  0
LINE
  5
242E
330
2
100
AcDbEntity
  8
側板
 62
     7
100
AcDbLine
 10
-11563.37038759234
 20
-63767.98584243402
 30
0.0
 11
-11563.37038759234
 21
-64349.18584243405
 31
0.0
  0
LINE
  5
242F
330
2
100
AcDbEntity
  8
側板
 62
     7
100
AcDbLine
 10
-11559.21891572977
 20
-63683.18584243406
 30
0.0
 11
-11559.21891572977
 21
-63739.18584243403
 31
0.0
  0
LINE
  5
2430
330
2
100
AcDbEntity
  8
側板
 62
     7
100
AcDbLine
 10
-11559.21891572977
 20
-63740.18584243406
 30
0.0
 11
-11559.21891572977
 21
-63767.98584243402
 31
0.0
  0
LINE
  5
2431
330
2
100
AcDbEntity
  8
側板
 62
     7
100
AcDbLine
 10
-11847.52185945485
 20
-63740.18584243406
 30
0.0
 11
-11847.52185945485
 21
-63767.98584243402
 31
0.0
  0
LINE
  5
2432
330
2
100
AcDbEntity
  8
側板
 62
     7
100
AcDbLine
 10
-11847.52185945485
 20
-63683.18584243406
 30
0.0
 11
-11847.52185945485
 21
-63739.18584243403
 31
0.0
  0
LINE
  5
2433
330
2
100
AcDbEntity
  8
側板
 62
     7
100
AcDbLine
 10
-11843.37038759228
 20
-63767.98584243402
 30
0.0
 11
-11843.37038759228
 21
-64349.18584243405
 31
0.0
  0
ARC
  5
2434
330
2
100
AcDbEntity
  8
側板
 62
     7
100
AcDbCircle
 10
-11853.37038759234
 20
-63680.38584243405
 30
0.0
 40
1.199999999999999
100
AcDbArc
 50
0.0
 51
90.0
  0
LINE
  5
2435
330
2
100
AcDbEntity
  8
側板
 62
     7
100
AcDbLine
 10
-11852.17038759233
 20
-63680.38584243405
 30
0.0
 11
-11852.17038759233
 21
-63682.18584243405
 31
0.0
  0
LINE
  5
2436
330
2
100
AcDbEntity
  8
側板
 62
     7
100
AcDbLine
 10
-11846.95617402991
 20
-63683.18584243406
 30
0.0
 11
-11846.95617402991
 21
-63739.18584243403
 31
0.0
  0
LINE
  5
2437
330
2
100
AcDbEntity
  8
側板
 62
     7
100
AcDbLine
 10
-11848.37038759228
 20
-63683.18584243406
 30
0.0
 11
-11846.95617402991
 21
-63683.18584243406
 31
0.0
  0
LINE
  5
2438
330
2
100
AcDbEntity
  8
側板
 62
     7
100
AcDbLine
 10
-11853.37038759231
 20
-63682.18584243405
 30
0.0
 11
-11803.37038759231
 21
-63682.18584243405
 31
0.0
  0
ARC
  5
2439
330
2
100
AcDbEntity
  8
側板
 62
     7
100
AcDbCircle
 10
-11803.37038759231
 20
-63687.18584243405
 30
0.0
 40
5.0
100
AcDbArc
 50
0.0
 51
90.0
  0
LINE
  5
243A
330
2
100
AcDbEntity
  8
側板
 62
     7
100
AcDbLine
 10
-11853.37038759231
 20
-63680.38584243402
 30
0.0
 11
-11853.37038759231
 21
-64349.18584243405
 31
0.0
  0
LINE
  5
243B
330
2
100
AcDbEntity
  8
側板
 62
     7
100
AcDbLine
 10
-11882.37038759231
 20
-63679.18584243406
 30
0.0
 11
-11882.37038759231
 21
-63680.38584243402
 31
0.0
  0
LINE
  5
243C
330
2
100
AcDbEntity
  8
側板
 62
     7
100
AcDbLine
 10
-11882.37038759231
 20
-63679.18584243406
 30
0.0
 11
-11853.37038759231
 21
-63679.18584243406
 31
0.0
  0
LINE
  5
243D
330
2
100
AcDbEntity
  8
側板
 62
     7
100
AcDbLine
 10
-11882.37038759231
 20
-63680.38584243405
 30
0.0
 11
-11853.37038759231
 21
-63680.38584243402
 31
0.0
  0
LINE
  5
243E
330
2
100
AcDbEntity
  8
側板
 62
     7
100
AcDbLine
 10
-11882.37038759231
 20
-64349.18584243405
 30
0.0
 11
-11853.37038759231
 21
-64349.18584243405
 31
0.0
  0
LINE
  5
243F
330
2
100
AcDbEntity
  8
側板
 62
     7
100
AcDbLine
 10
-11882.37038759231
 20
-64347.98584243401
 30
0.0
 11
-11853.37038759231
 21
-64347.98584243401
 31
0.0
  0
LINE
  5
2440
330
2
100
AcDbEntity
  8
側板
 62
     7
100
AcDbLine
 10
-11882.37038759231
 20
-64347.98584243401
 30
0.0
 11
-11882.37038759231
 21
-64349.18584243405
 31
0.0
  0
LINE
  5
2441
330
2
100
AcDbEntity
  8
側板
 62
     7
100
AcDbLine
 10
-11778.37038759231
 20
-63707.18584243403
 30
0.0
 11
-11778.37038759231
 21
-63767.98584243402
 31
0.0
  0
LINE
  5
2442
330
2
100
AcDbEntity
  8
側板
 62
     7
100
AcDbLine
 10
-11848.37038759228
 20
-63683.18584243406
 30
0.0
 11
-11848.37038759228
 21
-63739.18584243403
 31
0.0
  0
LINE
  5
2443
330
2
100
AcDbEntity
  8
側板
 62
     7
100
AcDbLine
 10
-11848.37038759228
 20
-63767.98584243402
 30
0.0
 11
-11809.37038759231
 21
-63767.98584243402
 31
0.0
  0
LINE
  5
2444
330
2
100
AcDbEntity
  8
側板
 62
     7
100
AcDbLine
 10
-11846.95617402991
 20
-63765.98584243402
 30
0.0
 11
-11809.37038759231
 21
-63765.98584243402
 31
0.0
  0
LINE
  5
2445
330
2
100
AcDbEntity
  8
側板
 62
     7
100
AcDbLine
 10
-11778.37038759231
 20
-63767.98584243402
 30
0.0
 11
-11778.37038759231
 21
-63765.98584243402
 31
0.0
  0
LINE
  5
2446
330
2
100
AcDbEntity
  8
側板
 62
     7
100
AcDbLine
 10
-11779.37038759231
 20
-63767.98584243402
 30
0.0
 11
-11779.37038759231
 21
-63765.98584243402
 31
0.0
  0
LINE
  5
2447
330
2
100
AcDbEntity
  8
側板
 62
     7
100
AcDbLine
 10
-11778.37038759231
 20
-63767.98584243402
 30
0.0
 11
-11703.37038759231
 21
-63767.98584243402
 31
0.0
  0
LINE
  5
2448
330
2
100
AcDbEntity
  8
側板
 62
     7
100
AcDbLine
 10
-11848.37038759228
 20
-63740.18584243406
 30
0.0
 11
-11846.95617402991
 21
-63740.18584243406
 31
0.0
  0
LINE
  5
2449
330
2
100
AcDbEntity
  8
側板
 62
     7
100
AcDbLine
 10
-11848.37038759228
 20
-63739.18584243403
 30
0.0
 11
-11846.95617402991
 21
-63739.18584243403
 31
0.0
  0
LINE
  5
244A
330
2
100
AcDbEntity
  8
側板
 62
     7
100
AcDbLine
 10
-11848.37038759228
 20
-63740.18584243406
 30
0.0
 11
-11848.37038759228
 21
-63767.98584243402
 31
0.0
  0
LINE
  5
244B
330
2
100
AcDbEntity
  8
側板
 62
     7
100
AcDbLine
 10
-11846.95617402991
 20
-63740.18584243406
 30
0.0
 11
-11846.95617402991
 21
-63765.98584243402
 31
0.0
  0
LINE
  5
244C
330
2
100
AcDbEntity
  8
側板
 62
     7
100
AcDbLine
 10
-11853.37038759231
 20
-64349.18584243405
 30
0.0
 11
-11703.37038759231
 21
-64349.18584243405
 31
0.0
  0
LINE
  5
244D
330
2
100
AcDbEntity
  8
側板
 62
     7
100
AcDbLine
 10
-11853.37038759231
 20
-63679.18584243406
 30
0.0
 11
-11853.37038759234
 21
-63679.18584243406
 31
0.0
  0
LINE
  5
244E
330
2
100
AcDbEntity
  8
側板
 62
     7
100
AcDbLine
 10
-11809.37038759231
 20
-63767.98584243402
 30
0.0
 11
-11809.37038759231
 21
-63765.98584243402
 31
0.0
  0
LINE
  5
244F
330
2
100
AcDbEntity
  8
側板
 62
     7
100
AcDbLine
 10
-11808.37038759231
 20
-63767.98584243402
 30
0.0
 11
-11808.37038759231
 21
-63765.98584243402
 31
0.0
  0
LINE
  5
2450
330
2
100
AcDbEntity
  8
側板
 62
     7
100
AcDbLine
 10
-11808.37038759231
 20
-63765.98584243402
 30
0.0
 11
-11808.37038759231
 21
-63767.98584243402
 31
0.0
  0
LINE
  5
2451
330
2
100
AcDbEntity
  8
側板
 62
     7
100
AcDbLine
 10
-11808.37038759231
 20
-63765.98584243402
 30
0.0
 11
-11779.37038759231
 21
-63765.98584243402
 31
0.0
  0
LINE
  5
2452
330
2
100
AcDbEntity
  8
側板
 62
     7
100
AcDbLine
 10
-11808.37038759231
 20
-63767.98584243402
 30
0.0
 11
-11779.37038759231
 21
-63767.98584243402
 31
0.0
  0
CIRCLE
  5
2453
330
2
100
AcDbEntity
  8
側板
 62
     7
100
AcDbCircle
 10
-11788.37038759231
 20
-63757.98584243402
 30
0.0
 40
1.6
  0
CIRCLE
  5
2454
330
2
100
AcDbEntity
  8
側板
 62
     7
100
AcDbCircle
 10
-11788.37038759234
 20
-63717.98584243402
 30
0.0
 40
1.6
  0
LINE
  5
2455
330
2
100
AcDbEntity
  8
側板
 62
     7
100
AcDbLine
 10
-11798.37038759231
 20
-63687.18584243405
 30
0.0
 11
-11798.37038759231
 21
-63702.18584243406
 31
0.0
  0
ARC
  5
2456
330
2
100
AcDbEntity
  8
側板
 62
     7
100
AcDbCircle
 10
-11783.37038759231
 20
-63707.18584243403
 30
0.0
 40
5.0
100
AcDbArc
 50
0.0
 51
90.0
  0
LINE
  5
2457
330
2
100
AcDbEntity
  8
側板
 62
     7
100
AcDbLine
 10
-11798.37038759231
 20
-63702.18584243406
 30
0.0
 11
-11783.37038759231
 21
-63702.18584243406
 31
0.0
  0
LINE
  5
2458
330
2
100
AcDbEntity
  8
側板
 62
     7
100
AcDbLine
 10
-11843.37038759228
 20
-63682.18584243405
 30
0.0
 11
-11843.37038759228
 21
-63765.98584243402
 31
0.0
  0
LINE
  5
2459
330
2
100
AcDbEntity
  8
キャビネット
 62
     7
100
AcDbLine
 10
-11892.17038759235
 20
-63680.385842434
 30
0.0
 11
-11862.17038759233
 21
-63680.385842434
 31
0.0
  0
ARC
  5
245A
330
2
100
AcDbEntity
  8
キャビネット
 62
     7
100
AcDbCircle
 10
-11893.37038759235
 20
-63680.385842434
 30
0.0
 40
1.199999999999999
100
AcDbArc
 50
0.0
 51
90.0
  0
LINE
  5
245B
330
2
100
AcDbEntity
  8
キャビネット
 62
     7
100
AcDbLine
 10
-11892.17038759235
 20
-63680.385842434
 30
0.0
 11
-11922.17038759235
 21
-63680.385842434
 31
0.0
  0
LINE
  5
245C
330
2
100
AcDbEntity
  8
キャビネット
 62
     7
100
AcDbLine
 10
-11893.37038759235
 20
-63679.18584243401
 30
0.0
 11
-11922.17038759235
 21
-63679.18584243401
 31
0.0
  0
LINE
  5
245D
330
2
100
AcDbEntity
  8
キャビネット
 62
     7
100
AcDbLine
 10
-11893.37038759235
 20
-63680.385842434
 30
0.0
 11
-11893.37038759235
 21
-63819.18584243401
 31
0.0
  0
LINE
  5
245E
330
2
100
AcDbEntity
  8
キャビネット
 62
     7
100
AcDbLine
 10
-11922.17038759235
 20
-63679.18584243401
 30
0.0
 11
-11922.17038759235
 21
-63680.385842434
 31
0.0
  0
LINE
  5
245F
330
2
100
AcDbEntity
  8
キャビネット
 62
     7
100
AcDbLine
 10
-11893.37038759234
 20
-63819.18584243401
 30
0.0
 11
-11863.69812640829
 21
-63880.50851554774
 31
0.0
  0
LINE
  5
2460
330
2
100
AcDbEntity
  8
キャビネット
 62
     7
100
AcDbLine
 10
-11853.37038759231
 20
-63881.185842434
 30
0.0
 11
-11862.61793530659
 21
-63881.18584243401
 31
0.0
  0
LINE
  5
2461
330
2
100
AcDbEntity
  8
キャビネット
 62
     7
100
AcDbLine
 10
-11863.46458674405
 20
-63880.99116418715
 30
0.0
 11
-11863.37038759235
 21
-63881.185842434
 31
0.0
  0
LINE
  5
2462
330
2
100
AcDbEntity
  8
キャビネット
 62
     7
100
AcDbLine
 10
-11863.37038759235
 20
-63881.185842434
 30
0.0
 11
-11863.13976280718
 21
-63881.185842434
 31
0.0
  0
ARC
  5
2463
330
2
100
AcDbEntity
  8
キャビネット
 62
     7
100
AcDbCircle
 10
-11862.61793530659
 20
-63879.985842434
 30
0.0
 40
1.199999999999999
100
AcDbArc
 50
205.8209919741983
 51
270.0
  0
LINE
  5
2468
330
2
100
AcDbEntity
  8
WAKU
 62
     3
100
AcDbLine
 10
-14192.67403875763
 20
-64900.6194159669
 30
0.0
 11
-14228.67403875763
 21
-64852.61941596688
 31
0.0
  0
LINE
  5
2469
330
2
100
AcDbEntity
  8
WAKU
 62
     3
100
AcDbLine
 10
-14228.67403875763
 20
-64852.61941596688
 30
0.0
 11
-14264.67403875763
 21
-64900.6194159669
 31
0.0
  0
LINE
  5
246B
330
2
100
AcDbEntity
  8
WAKU
 62
     3
100
AcDbLine
 10
-13440.67403875763
 20
-64900.6194159669
 30
0.0
 11
-14264.67403875763
 21
-64900.6194159669
 31
0.0
  0
TEXT
  5
2474
330
2
100
AcDbEntity
  8
TEXT
100
AcDbText
 10
-11898.39891934488
 20
-64971.46101241648
 30
0.0
 40
40.0
  1
C
100
AcDbText
  0
TEXT
  5
2475
330
2
100
AcDbEntity
  8
TEXT
100
AcDbText
 10
-11921.49075029738
 20
-64891.00973340747
 30
0.0
 40
40.0
  1
397
100
AcDbText
  0
TEXT
  5
2476
330
2
100
AcDbEntity
  8
TEXT
100
AcDbText
 10
-11921.49075029738
 20
-64810.55845439843
 30
0.0
 40
40.0
  1
412
100
AcDbText
  0
LINE
  5
2477
330
2
100
AcDbEntity
  8
SUNPOU
100
AcDbLine
 10
-11778.99175806222
 20
-64991.68935500817
 30
0.0
 11
-11778.99175806222
 21
-64750.33551798108
 31
0.0
  0
LINE
  5
2478
330
2
100
AcDbEntity
  8
SUNPOU
100
AcDbLine
 10
-12329.1454517927
 20
-64991.68935500817
 30
0.0
 11
-12329.1454517927
 21
-64750.33551798108
 31
0.0
  0
LINE
  5
2479
330
2
100
AcDbEntity
  8
SUNPOU
100
AcDbLine
 10
-12133.52467957704
 20
-64991.68935500817
 30
0.0
 11
-12133.52467957704
 21
-64750.33551798108
 31
0.0
  0
LINE
  5
247A
330
2
100
AcDbEntity
  8
SUNPOU
100
AcDbLine
 10
-11959.48521664058
 20
-64991.68935500817
 30
0.0
 11
-11959.48521664058
 21
-64750.33551798108
 31
0.0
  0
LINE
  5
247B
330
2
100
AcDbEntity
  8
SUNPOU
100
AcDbLine
 10
-11639.83310749516
 20
-64991.68935500817
 30
0.0
 11
-11639.83310749516
 21
-64750.33551798108
 31
0.0
  0
LINE
  5
247C
330
2
100
AcDbEntity
  8
SUNPOU
100
AcDbLine
 10
-11474.00519392558
 20
-64750.33551798108
 30
0.0
 11
-11474.00519392558
 21
-64991.68935500817
 31
0.0
  0
LINE
  5
247D
330
2
100
AcDbEntity
  8
SUNPOU
100
AcDbLine
 10
-12329.1454517927
 20
-64916.27851987205
 30
0.0
 11
-11474.00519392558
 21
-64916.27851987205
 31
0.0
  0
LINE
  5
247E
330
2
100
AcDbEntity
  8
SUNPOU
100
AcDbLine
 10
-12329.1454517927
 20
-64750.33551798108
 30
0.0
 11
-11474.00519392558
 21
-64750.33551798108
 31
0.0
  0
TEXT
  5
247F
330
2
100
AcDbEntity
  8
TEXT
100
AcDbText
 10
-11610.44425196817
 20
-64810.55845439843
 30
0.0
 40
40.0
  1
715
100
AcDbText
  0
TEXT
  5
2480
330
2
100
AcDbEntity
  8
TEXT
100
AcDbText
 10
-11757.31557180692
 20
-64810.55845439843
 30
0.0
 40
40.0
  1
45
100
AcDbText
  0
LINE
  5
2481
330
2
100
AcDbEntity
  8
SUNPOU
100
AcDbLine
 10
-12329.1454517927
 20
-64830.78679699012
 30
0.0
 11
-11474.00519392558
 21
-64830.78679699012
 31
0.0
  0
TEXT
  5
2482
330
2
100
AcDbEntity
  8
TEXT
100
AcDbText
 10
-12101.98420887574
 20
-64810.55845439843
 30
0.0
 40
40.0
  1
257
100
AcDbText
  0
TEXT
  5
2483
330
2
100
AcDbEntity
  8
TEXT
100
AcDbText
 10
-12275.92480233288
 20
-64810.55845439843
 30
0.0
 40
40.0
  1
275
100
AcDbText
  0
TEXT
  5
2484
330
2
100
AcDbEntity
  8
TEXT
100
AcDbText
 10
-12275.92480233288
 20
-64891.00973340747
 30
0.0
 40
40.0
  1
260
100
AcDbText
  0
TEXT
  5
2485
330
2
100
AcDbEntity
  8
TEXT
100
AcDbText
 10
-12101.98420887574
 20
-64891.00973340747
 30
0.0
 40
40.0
  1
242
100
AcDbText
  0
LINE
  5
2486
330
2
100
AcDbEntity
  8
SUNPOU
100
AcDbLine
 10
-12329.1454517927
 20
-64911.23807599914
 30
0.0
 11
-11474.00519392558
 21
-64911.23807599914
 31
0.0
  0
TEXT
  5
2487
330
2
100
AcDbEntity
  8
TEXT
100
AcDbText
 10
-11757.31557180692
 20
-64891.00973340747
 30
0.0
 40
40.0
  1
30
100
AcDbText
  0
TEXT
  5
2488
330
2
100
AcDbEntity
  8
TEXT
100
AcDbText
 10
-11610.44425196817
 20
-64891.00973340747
 30
0.0
 40
40.0
  1
700
100
AcDbText
  0
TEXT
  5
2489
330
2
100
AcDbEntity
  8
TEXT
100
AcDbText
 10
-11569.0088747156
 20
-64971.46101241648
 30
0.0
 40
40.0
  1
E
100
AcDbText
  0
TEXT
  5
248A
330
2
100
AcDbEntity
  8
TEXT
100
AcDbText
 10
-11734.22374085441
 20
-64971.46101241648
 30
0.0
 40
40.0
  1
D
100
AcDbText
  0
LINE
  5
248B
330
2
100
AcDbEntity
  8
SUNPOU
100
AcDbLine
 10
-12329.1454517927
 20
-64991.68935500817
 30
0.0
 11
-11474.00519392558
 21
-64991.68935500817
 31
0.0
  0
TEXT
  5
248C
330
2
100
AcDbEntity
  8
TEXT
100
AcDbText
 10
-12078.89237792324
 20
-64971.46101241648
 30
0.0
 40
40.0
  1
B
100
AcDbText
  0
TEXT
  5
248D
330
2
100
AcDbEntity
  8
TEXT
100
AcDbText
 10
-12234.4894250803
 20
-64971.46101241648
 30
0.0
 40
40.0
  1
A
100
AcDbText
  0
TEXT
  5
248E
330
2
100
AcDbEntity
  8
TEXT
100
AcDbText
 10
-10690.9136331511
 20
-64001.26426230261
 30
0.0
 40
23.1
  1
漏電遮断器
100
AcDbText
  0
TEXT
  5
248F
330
2
100
AcDbEntity
  8
TEXT
100
AcDbText
 10
-10394.30785244405
 20
-63101.58194309942
 30
0.0
 40
23.1
  1
漏電遮断器
100
AcDbText
  0
TEXT
  5
2490
330
2
100
AcDbEntity
  8
TEXT
100
AcDbText
 10
-10691.91501945651
 20
-64097.68251843414
 30
0.0
 40
23.1
  1
ダクト遮断装置
100
AcDbText
  0
TEXT
  5
2491
330
2
100
AcDbEntity
  8
TEXT
100
AcDbText
 10
-10691.91501945651
 20
-63856.63687810533
 30
0.0
 40
23.1
  1
4.12 kW
100
AcDbText
  0
TEXT
  5
2492
330
2
100
AcDbEntity
  8
TEXT
100
AcDbText
 10
-10691.91501945651
 20
-63904.84600617108
 30
0.0
 40
23.1
  1
180 Pa
100
AcDbText
  0
LINE
  5
2493
330
2
100
AcDbEntity
  8
SUNPOU
100
AcDbLine
 10
-10731.93991484643
 20
-63532.87274245246
 30
0.0
 11
-10731.93991484643
 21
-64120.77593939568
 31
0.0
  0
LINE
  5
2494
330
2
100
AcDbEntity
  8
SUNPOU
100
AcDbLine
 10
-10935.66843581311
 20
-63430.66159894722
 30
0.0
 11
-9945.928405717149
 21
-63430.66159894722
 31
0.0
  0
TEXT
  5
2495
330
2
100
AcDbEntity
  8
TEXT
100
AcDbText
 10
-10895.15007410454
 20
-63405.96874147157
 30
0.0
 40
30.0
  1
JX-CV　（本炭式）
100
AcDbText
  0
LINE
  5
2496
330
2
100
AcDbEntity
  8
SUNPOU
100
AcDbLine
 10
-10935.66843581311
 20
-63345.82911756315
 30
0.0
 11
-9945.928405717149
 21
-63345.82911756315
 31
0.0
  0
LINE
  5
2497
330
2
100
AcDbEntity
  8
SUNPOU
100
AcDbLine
 10
-9945.928405717149
 20
-63345.82911756315
 30
0.0
 11
-9945.928405717149
 21
-64120.77593939568
 31
0.0
  0
LINE
  5
2498
330
2
100
AcDbEntity
  8
SUNPOU
100
AcDbLine
 10
-10935.66843581311
 20
-63345.82911756315
 30
0.0
 11
-10935.66843581311
 21
-64120.77593939568
 31
0.0
  0
LINE
  5
2499
330
2
100
AcDbEntity
  8
SUNPOU
100
AcDbLine
 10
-10935.66843581311
 20
-64120.77593939568
 30
0.0
 11
-9945.928405717149
 21
-64120.77593939568
 31
0.0
  0
LINE
  5
249A
330
2
100
AcDbEntity
  8
SUNPOU
100
AcDbLine
 10
-10935.66843581311
 20
-63918.54576697853
 30
0.0
 11
-9945.928405717149
 21
-63918.54576697853
 31
0.0
  0
TEXT
  5
249B
330
2
100
AcDbEntity
  8
TEXT
100
AcDbText
 10
-10905.78718187241
 20
-63904.84600617108
 30
0.0
 40
23.1
  1
器具静圧
100
AcDbText
  0
LINE
  5
249C
330
2
100
AcDbEntity
  8
SUNPOU
100
AcDbLine
 10
-10935.66843581311
 20
-63870.33663891277
 30
0.0
 11
-9945.928405717149
 21
-63870.33663891277
 31
0.0
  0
TEXT
  5
249D
330
2
100
AcDbEntity
  8
TEXT
100
AcDbText
 10
-10905.78718187241
 20
-63856.63687810533
 30
0.0
 40
23.1
  1
冷房負荷
100
AcDbText
  0
LINE
  5
249E
330
2
100
AcDbEntity
  8
SUNPOU
100
AcDbLine
 10
-10935.66843581311
 20
-63725.70925471553
 30
0.0
 11
-9945.928405717149
 21
-63725.70925471553
 31
0.0
  0
TEXT
  5
249F
330
2
100
AcDbEntity
  8
TEXT
100
AcDbText
 10
-10576.20832684284
 20
-63698.38367891057
 30
0.0
 40
11.55
  1
3
100
AcDbText
  0
TEXT
  5
24A0
330
2
100
AcDbEntity
  8
TEXT
100
AcDbText
 10
-10905.78718187241
 20
-63712.00949390807
 30
0.0
 40
23.1
  1
必要給気量
100
AcDbText
  0
LINE
  5
24A1
330
2
100
AcDbEntity
  8
SUNPOU
100
AcDbLine
 10
-10935.66843581311
 20
-63677.50012664974
 30
0.0
 11
-9945.928405717149
 21
-63677.50012664974
 31
0.0
  0
TEXT
  5
24A2
330
2
100
AcDbEntity
  8
TEXT
100
AcDbText
 10
-10691.91501945651
 20
-63712.00949390807
 30
0.0
 40
23.1
  1
300 m /h
100
AcDbText
  0
TEXT
  5
24A3
330
2
100
AcDbEntity
  8
TEXT
100
AcDbText
 10
-10576.20832684284
 20
-63650.17455084482
 30
0.0
 40
11.55
  1
3
100
AcDbText
  0
TEXT
  5
24A4
330
2
100
AcDbEntity
  8
TEXT
100
AcDbText
 10
-10905.78718187241
 20
-63663.80036584231
 30
0.0
 40
23.1
  1
必要排気量
100
AcDbText
  0
TEXT
  5
24A5
330
2
100
AcDbEntity
  8
TEXT
100
AcDbText
 10
-10691.91501945651
 20
-63663.80036584231
 30
0.0
 40
23.1
  1
300 m /h
100
AcDbText
  0
TEXT
  5
24A6
330
2
100
AcDbEntity
  8
TEXT
100
AcDbText
 10
-10691.91501945651
 20
-64049.47339036838
 30
0.0
 40
23.1
  1
逆火防止装置
100
AcDbText
  0
LINE
  5
24A7
330
2
100
AcDbEntity
  8
SUNPOU
100
AcDbLine
 10
-10935.66843581311
 20
-63966.75489504429
 30
0.0
 11
-9945.928405717149
 21
-63966.75489504429
 31
0.0
  0
TEXT
  5
24A8
330
2
100
AcDbEntity
  8
TEXT
100
AcDbText
 10
-10905.78718187241
 20
-64001.26426230261
 30
0.0
 40
23.1
  1
安全装置
100
AcDbText
  0
TEXT
  5
24A9
330
2
100
AcDbEntity
  8
TEXT
100
AcDbText
 10
-10905.78718187241
 20
-63953.05513423686
 30
0.0
 40
23.1
  1
消費電力
100
AcDbText
  0
LINE
  5
24AA
330
2
100
AcDbEntity
  8
SUNPOU
100
AcDbLine
 10
-10935.66843581311
 20
-63822.12751084704
 30
0.0
 11
-9945.928405717149
 21
-63822.12751084704
 31
0.0
  0
TEXT
  5
24AB
330
2
100
AcDbEntity
  8
TEXT
100
AcDbText
 10
-10691.91501945651
 20
-63953.05513423686
 30
0.0
 40
23.1
  1
16W  （AC100V）
100
AcDbText
  0
TEXT
  5
24AC
330
2
100
AcDbEntity
  8
TEXT
100
AcDbText
 10
-10691.91501945651
 20
-63808.4277500396
 30
0.0
 40
23.1
  1
LPガス：3.84 kW  （0.27kg/h）
100
AcDbText
  0
TEXT
  5
24AD
330
2
100
AcDbEntity
  8
TEXT
100
AcDbText
 10
-10905.78718187241
 20
-63760.21862197384
 30
0.0
 40
23.1
  1
ガス消費量
100
AcDbText
  0
LINE
  5
24AE
330
2
100
AcDbEntity
  8
SUNPOU
100
AcDbLine
 10
-10935.66843581311
 20
-63629.290998584
 30
0.0
 11
-9945.928405717149
 21
-63629.290998584
 31
0.0
  0
TEXT
  5
24AF
330
2
100
AcDbEntity
  8
TEXT
100
AcDbText
 10
-10691.91501945651
 20
-63760.21862197384
 30
0.0
 40
23.1
  1
都市ガス：3.84 kW （3,300 kcal/h）
100
AcDbText
  0
TEXT
  5
24B0
330
2
100
AcDbEntity
  8
TEXT
100
AcDbText
 10
-10691.91501945651
 20
-63615.59123777656
 30
0.0
 40
23.1
  1
1500cc （最大 1900cc）
100
AcDbText
  0
TEXT
  5
24B1
330
2
100
AcDbEntity
  8
TEXT
100
AcDbText
 10
-10905.78718187241
 20
-63615.59123777656
 30
0.0
 40
23.1
  1
水槽水量
100
AcDbText
  0
LINE
  5
24B2
330
2
100
AcDbEntity
  8
SUNPOU
100
AcDbLine
 10
-10935.66843581311
 20
-63581.08187051822
 30
0.0
 11
-9945.928405717149
 21
-63581.08187051822
 31
0.0
  0
TEXT
  5
24B3
330
2
100
AcDbEntity
  8
TEXT
100
AcDbText
 10
-10691.91501945651
 20
-63567.38210971077
 30
0.0
 40
23.1
  1
φ280
100
AcDbText
  0
LINE
  5
24B4
330
2
100
AcDbEntity
  8
SUNPOU
100
AcDbLine
 10
-10935.66843581311
 20
-63532.87274245246
 30
0.0
 11
-9945.928405717149
 21
-63532.87274245246
 31
0.0
  0
TEXT
  5
24B5
330
2
100
AcDbEntity
  8
TEXT
100
AcDbText
 10
-10905.78718187241
 20
-63567.38210971077
 30
0.0
 40
23.1
  1
焼き網寸法
100
AcDbText
  0
TEXT
  5
24B6
330
2
100
AcDbEntity
  8
TEXT
100
AcDbText
 10
-10905.78718187241
 20
-63519.17298164503
 30
0.0
 40
23.1
  1
火力三段切替（強・中・弱）
100
AcDbText
  0
LINE
  5
24B7
330
2
100
AcDbEntity
  8
SUNPOU
100
AcDbLine
 10
-10935.66843581311
 20
-63484.66361438671
 30
0.0
 11
-9945.928405717149
 21
-63484.66361438671
 31
0.0
  0
LINE
  5
24B8
330
2
100
AcDbEntity
  8
SUNPOU
100
AcDbLine
 10
-10935.66843581311
 20
-63436.45448632098
 30
0.0
 11
-9945.928405717149
 21
-63436.45448632098
 31
0.0
  0
TEXT
  5
24B9
330
2
100
AcDbEntity
  8
TEXT
100
AcDbText
 10
-10905.78718187241
 20
-63470.96385357925
 30
0.0
 40
23.1
  1
連続スパーク方式
100
AcDbText
  0
TEXT
  5
24BA
330
2
100
AcDbEntity
  8
TEXT
100
AcDbText
 10
-10891.60321646811
 20
-62450.99061146611
 30
0.0
 40
30.0
  1
JX-S　（セラミック炭式）
100
AcDbText
  0
LINE
  5
24BB
330
2
100
AcDbEntity
  8
SUNPOU
100
AcDbLine
 10
-10731.93991484643
 20
-62633.19042324927
 30
0.0
 11
-10731.93991484643
 21
-63221.09362019251
 31
0.0
  0
LINE
  5
24BC
330
2
100
AcDbEntity
  8
SUNPOU
100
AcDbLine
 10
-10935.66843581311
 20
-62530.97927974405
 30
0.0
 11
-9945.928405717149
 21
-62530.97927974405
 31
0.0
  0
TEXT
  5
24BD
330
2
100
AcDbEntity
  8
TEXT
100
AcDbText
 10
-10895.15007410454
 20
-62394.17892469483
 30
0.0
 40
30.0
  1
JX-M　（熱板式）
100
AcDbText
  0
LINE
  5
24BE
330
2
100
AcDbEntity
  8
SUNPOU
100
AcDbLine
 10
-10935.66843581311
 20
-62334.03930078642
 30
0.0
 11
-9945.928405717149
 21
-62334.03930078642
 31
0.0
  0
LINE
  5
24BF
330
2
100
AcDbEntity
  8
SUNPOU
100
AcDbLine
 10
-9945.928405717149
 20
-62334.03930078642
 30
0.0
 11
-9945.928405717149
 21
-63221.09362019251
 31
0.0
  0
LINE
  5
24C0
330
2
100
AcDbEntity
  8
SUNPOU
100
AcDbLine
 10
-10935.66843581311
 20
-62334.03930078642
 30
0.0
 11
-10935.66843581311
 21
-63221.09362019251
 31
0.0
  0
LINE
  5
24C1
330
2
100
AcDbEntity
  8
SUNPOU
100
AcDbLine
 10
-10935.66843581311
 20
-63221.09362019251
 30
0.0
 11
-9945.928405717149
 21
-63221.09362019251
 31
0.0
  0
LINE
  5
24C2
330
2
100
AcDbEntity
  8
SUNPOU
100
AcDbLine
 10
-10935.66843581311
 20
-63018.86344777535
 30
0.0
 11
-9945.928405717149
 21
-63018.86344777535
 31
0.0
  0
TEXT
  5
24C3
330
2
100
AcDbEntity
  8
TEXT
100
AcDbText
 10
-10905.78718187241
 20
-63005.16368696791
 30
0.0
 40
23.1
  1
器具静圧
100
AcDbText
  0
TEXT
  5
24C4
330
2
100
AcDbEntity
  8
TEXT
100
AcDbText
 10
-10691.91501945651
 20
-63005.16368696791
 30
0.0
 40
23.1
  1
160 Pa
100
AcDbText
  0
LINE
  5
24C5
330
2
100
AcDbEntity
  8
SUNPOU
100
AcDbLine
 10
-10935.66843581311
 20
-62970.65431970959
 30
0.0
 11
-9945.928405717149
 21
-62970.65431970959
 31
0.0
  0
TEXT
  5
24C6
330
2
100
AcDbEntity
  8
TEXT
100
AcDbText
 10
-10905.78718187241
 20
-62956.95455890213
 30
0.0
 40
23.1
  1
冷房負荷
100
AcDbText
  0
TEXT
  5
24C7
330
2
100
AcDbEntity
  8
TEXT
100
AcDbText
 10
-10691.91501945651
 20
-62956.95455890213
 30
0.0
 40
23.1
  1
3.81 kW
100
AcDbText
  0
LINE
  5
24C8
330
2
100
AcDbEntity
  8
SUNPOU
100
AcDbLine
 10
-10935.66843581311
 20
-62826.02693551232
 30
0.0
 11
-9945.928405717149
 21
-62826.02693551232
 31
0.0
  0
TEXT
  5
24C9
330
2
100
AcDbEntity
  8
TEXT
100
AcDbText
 10
-10576.20832684284
 20
-62798.70135970737
 30
0.0
 40
11.55
  1
3
100
AcDbText
  0
TEXT
  5
24CA
330
2
100
AcDbEntity
  8
TEXT
100
AcDbText
 10
-10905.78718187241
 20
-62812.32717470487
 30
0.0
 40
23.1
  1
必要給気量
100
AcDbText
  0
LINE
  5
24CB
330
2
100
AcDbEntity
  8
SUNPOU
100
AcDbLine
 10
-10935.66843581311
 20
-62777.81780744658
 30
0.0
 11
-9945.928405717149
 21
-62777.81780744658
 31
0.0
  0
TEXT
  5
24CC
330
2
100
AcDbEntity
  8
TEXT
100
AcDbText
 10
-10691.91501945651
 20
-62812.32717470487
 30
0.0
 40
23.1
  1
280 m /h
100
AcDbText
  0
TEXT
  5
24CD
330
2
100
AcDbEntity
  8
TEXT
100
AcDbText
 10
-10576.20832684284
 20
-62750.49223164165
 30
0.0
 40
11.55
  1
3
100
AcDbText
  0
TEXT
  5
24CE
330
2
100
AcDbEntity
  8
TEXT
100
AcDbText
 10
-10905.78718187241
 20
-62764.11804663912
 30
0.0
 40
23.1
  1
必要排気量
100
AcDbText
  0
TEXT
  5
24CF
330
2
100
AcDbEntity
  8
TEXT
100
AcDbText
 10
-10691.91501945651
 20
-62764.11804663912
 30
0.0
 40
23.1
  1
280 m /h
100
AcDbText
  0
TEXT
  5
24D0
330
2
100
AcDbEntity
  8
TEXT
100
AcDbText
 10
-10691.91501945651
 20
-63198.00019923095
 30
0.0
 40
23.1
  1
ダクト遮断装置
100
AcDbText
  0
TEXT
  5
24D1
330
2
100
AcDbEntity
  8
TEXT
100
AcDbText
 10
-10691.91501945651
 20
-63149.79107116518
 30
0.0
 40
23.1
  1
逆火防止装置
100
AcDbText
  0
LINE
  5
24D2
330
2
100
AcDbEntity
  8
SUNPOU
100
AcDbLine
 10
-10935.66843581311
 20
-63067.07257584111
 30
0.0
 11
-9945.928405717149
 21
-63067.07257584111
 31
0.0
  0
TEXT
  5
24D3
330
2
100
AcDbEntity
  8
TEXT
100
AcDbText
 10
-10691.91501945651
 20
-63101.58194309942
 30
0.0
 40
23.1
  1
立消え安全装置
100
AcDbText
  0
TEXT
  5
24D4
330
2
100
AcDbEntity
  8
TEXT
100
AcDbText
 10
-10905.78718187241
 20
-63101.58194309942
 30
0.0
 40
23.1
  1
安全装置
100
AcDbText
  0
TEXT
  5
24D5
330
2
100
AcDbEntity
  8
TEXT
100
AcDbText
 10
-10905.78718187241
 20
-63053.37281503367
 30
0.0
 40
23.1
  1
消費電力
100
AcDbText
  0
LINE
  5
24D6
330
2
100
AcDbEntity
  8
SUNPOU
100
AcDbLine
 10
-10935.66843581311
 20
-62922.44519164385
 30
0.0
 11
-9945.928405717149
 21
-62922.44519164385
 31
0.0
  0
TEXT
  5
24D7
330
2
100
AcDbEntity
  8
TEXT
100
AcDbText
 10
-10691.91501945651
 20
-63053.37281503367
 30
0.0
 40
23.1
  1
4W  （AC100V）
100
AcDbText
  0
TEXT
  5
24D8
330
2
100
AcDbEntity
  8
TEXT
100
AcDbText
 10
-10691.91501945651
 20
-62908.74543083641
 30
0.0
 40
23.1
  1
LPガス：3.49 kW  （0.25kg/h）
100
AcDbText
  0
TEXT
  5
24D9
330
2
100
AcDbEntity
  8
TEXT
100
AcDbText
 10
-10905.78718187241
 20
-62860.53630277065
 30
0.0
 40
23.1
  1
ガス消費量
100
AcDbText
  0
LINE
  5
24DA
330
2
100
AcDbEntity
  8
SUNPOU
100
AcDbLine
 10
-10935.66843581311
 20
-62729.60867938079
 30
0.0
 11
-9945.928405717149
 21
-62729.60867938079
 31
0.0
  0
TEXT
  5
24DB
330
2
100
AcDbEntity
  8
TEXT
100
AcDbText
 10
-10691.91501945651
 20
-62860.53630277065
 30
0.0
 40
23.1
  1
都市ガス：3.49 kW （3,000 kcal/h）
100
AcDbText
  0
TEXT
  5
24DC
330
2
100
AcDbEntity
  8
TEXT
100
AcDbText
 10
-10691.91501945651
 20
-62715.90891857336
 30
0.0
 40
23.1
  1
1500cc （最大 1900cc）
100
AcDbText
  0
TEXT
  5
24DD
330
2
100
AcDbEntity
  8
TEXT
100
AcDbText
 10
-10905.78718187241
 20
-62715.90891857336
 30
0.0
 40
23.1
  1
水槽水量
100
AcDbText
  0
LINE
  5
24DE
330
2
100
AcDbEntity
  8
SUNPOU
100
AcDbLine
 10
-10935.66843581311
 20
-62681.39955131505
 30
0.0
 11
-9945.928405717149
 21
-62681.39955131505
 31
0.0
  0
TEXT
  5
24DF
330
2
100
AcDbEntity
  8
TEXT
100
AcDbText
 10
-10691.91501945651
 20
-62667.6997905076
 30
0.0
 40
23.1
  1
φ280
100
AcDbText
  0
LINE
  5
24E0
330
2
100
AcDbEntity
  8
SUNPOU
100
AcDbLine
 10
-10935.66843581311
 20
-62633.19042324927
 30
0.0
 11
-9945.928405717149
 21
-62633.19042324927
 31
0.0
  0
TEXT
  5
24E1
330
2
100
AcDbEntity
  8
TEXT
100
AcDbText
 10
-10905.78718187241
 20
-62667.6997905076
 30
0.0
 40
23.1
  1
焼き網寸法
100
AcDbText
  0
TEXT
  5
24E2
330
2
100
AcDbEntity
  8
TEXT
100
AcDbText
 10
-10905.78718187241
 20
-62619.49066244183
 30
0.0
 40
23.1
  1
火力三段切替（強・中・弱）
100
AcDbText
  0
LINE
  5
24E3
330
2
100
AcDbEntity
  8
SUNPOU
100
AcDbLine
 10
-10935.66843581311
 20
-62584.98129518351
 30
0.0
 11
-9945.928405717149
 21
-62584.98129518351
 31
0.0
  0
LINE
  5
24E4
330
2
100
AcDbEntity
  8
SUNPOU
100
AcDbLine
 10
-10935.66843581311
 20
-62536.77216711777
 30
0.0
 11
-9945.928405717149
 21
-62536.77216711777
 31
0.0
  0
TEXT
  5
24E5
330
2
100
AcDbEntity
  8
TEXT
100
AcDbText
 10
-10905.78718187241
 20
-62571.28153437607
 30
0.0
 40
23.1
  1
連続スパーク方式
100
AcDbText
  0
TEXT
  5
24E6
330
2
100
AcDbEntity
  8
TEXT
100
AcDbText
 10
-10891.60321646811
 20
-62511.95069210179
 30
0.0
 40
30.0
  1
JX-B　（溶岩式）
100
AcDbText
  0
TEXT
  5
24E7
330
2
100
AcDbEntity
  8
SUNPOU
100
AcDbText
 10
-11150.15022971562
 20
-64544.20879725407
 30
0.0
 40
35.0
  1
機器本体には取付けないでください。
100
AcDbText
  0
TEXT
  5
24E8
330
2
100
AcDbEntity
  8
SUNPOU
100
AcDbText
 10
-11153.6715594445
 20
-64597.18800391518
 30
0.0
 40
35.0
  1
また、ZDC（亜鉛ﾀﾞｲｷｬｽﾄ）製は、使用しないでください。
100
AcDbText
  0
TEXT
  5
24E9
330
2
100
AcDbEntity
  8
SUNPOU
100
AcDbText
 10
-11195.56229971214
 20
-64484.97292789201
 30
0.0
 40
35.0
  1
【ガス中間コックについて】
100
AcDbText
  0
LINE
  5
24EA
330
2
100
AcDbEntity
  8
WAKU
 62
     3
100
AcDbLine
 10
-13440.67403875763
 20
-64804.61941596688
 30
0.0
 11
-14264.67403875763
 21
-64804.61941596688
 31
0.0
  0
LINE
  5
24EB
330
2
100
AcDbEntity
  8
WAKU
 62
     3
 48
0.05
100
AcDbLine
 10
-13512.67403875763
 20
-64852.61941596688
 30
0.0
 11
-13512.67403875763
 21
-64804.61941596688
 31
0.0
  0
LINE
  5
24EC
330
2
100
AcDbEntity
  8
WAKU
 62
     3
 48
0.05
100
AcDbLine
 10
-13584.67403875763
 20
-64852.61941596688
 30
0.0
 11
-13584.67403875763
 21
-64804.61941596688
 31
0.0
  0
LINE
  5
24ED
330
2
100
AcDbEntity
  8
WAKU
 62
     3
 48
0.05
100
AcDbLine
 10
-13704.67403875763
 20
-64852.61941596688
 30
0.0
 11
-13704.67403875763
 21
-64804.61941596688
 31
0.0
  0
LINE
  5
24EE
330
2
100
AcDbEntity
  8
WAKU
 62
     3
 48
0.05
100
AcDbLine
 10
-13864.67403875763
 20
-64852.61941596688
 30
0.0
 11
-13864.67403875763
 21
-64804.61941596688
 31
0.0
  0
LINE
  5
24EF
330
2
100
AcDbEntity
  8
WAKU
 62
     3
 48
0.05
100
AcDbLine
 10
-14192.67403875763
 20
-64852.61941596688
 30
0.0
 11
-14192.67403875763
 21
-64804.61941596688
 31
0.0
  0
LINE
  5
24F0
330
2
100
AcDbEntity
  8
WAKU
 62
     3
 48
0.05
100
AcDbLine
 10
-14184.67403875763
 20
-64852.61941596688
 30
0.0
 11
-14184.67403875763
 21
-64804.61941596688
 31
0.0
  0
LINE
  5
24F1
330
2
100
AcDbEntity
  8
WAKU
 62
     3
100
AcDbLine
 10
-14192.67403875763
 20
-64852.61941596688
 30
0.0
 11
-14228.67403875763
 21
-64804.61941596688
 31
0.0
  0
LINE
  5
24F2
330
2
100
AcDbEntity
  8
WAKU
 62
     3
100
AcDbLine
 10
-14228.67403875763
 20
-64804.61941596688
 30
0.0
 11
-14264.67403875763
 21
-64852.61941596688
 31
0.0
  0
ENDSEC
  0
SECTION
  2
OBJECTS
  0
DICTIONARY
  5
7
330
0
100
AcDbDictionary
281
     1
  3
ACAD_COLOR
350
2D
  3
ACAD_GROUP
350
29
  3
ACAD_LAYOUT
350
B
  3
ACAD_MATERIAL
350
2C
  3
ACAD_MLEADERSTYLE
350
5A1
  3
ACAD_MLINESTYLE
350
2A
  3
ACAD_PLOTSETTINGS
350
2B
  3
ACAD_PLOTSTYLENAME
350
6
  3
ACAD_SCALELIST
350
57D
  3
ACAD_TABLESTYLE
350
59F
  3
ACDBHEADERROUNDTRIPXREC
350
26AF
  3
AcDbVariableDictionary
350
1061
  3
DWGPROPS
350
26AE
  0
DICTIONARY
  5
11
330
10
100
AcDbDictionary
280
     1
281
     1
  3
ACAD_LAYERFILTERS
360
12
  3
ACAD_LAYERSTATES
360
13
  0
DICTIONARY
  5
2D
102
{ACAD_REACTORS
330
7
102
}
330
7
100
AcDbDictionary
281
     1
  0
DICTIONARY
  5
29
102
{ACAD_REACTORS
330
7
102
}
330
7
100
AcDbDictionary
281
     1
  0
DICTIONARY
  5
B
102
{ACAD_REACTORS
330
7
102
}
330
7
100
AcDbDictionary
281
     1
  3
Model
350
A
  3
レイアウト1
350
F
  0
DICTIONARY
  5
2C
102
{ACAD_REACTORS
330
7
102
}
330
7
100
AcDbDictionary
281
     1
  3
Global
350
66F
  0
DICTIONARY
  5
5A1
102
{ACAD_REACTORS
330
7
102
}
330
7
100
AcDbDictionary
281
     1
  3
Standard
350
5A2
  0
DICTIONARY
  5
2A
102
{ACAD_REACTORS
330
7
102
}
330
7
100
AcDbDictionary
281
     1
  3
STANDARD
350
36
  0
DICTIONARY
  5
2B
102
{ACAD_REACTORS
330
7
102
}
330
7
100
AcDbDictionary
281
     1
  0
ACDBDICTIONARYWDFLT
  5
6
102
{ACAD_REACTORS
330
7
102
}
330
7
100
AcDbDictionary
281
     1
  3
Normal
350
5
100
AcDbDictionaryWithDefault
340
5
  0
DICTIONARY
  5
57D
102
{ACAD_REACTORS
330
7
102
}
330
7
100
AcDbDictionary
281
     1
  3
A0
350
57E
  3
A1
350
57F
  3
A2
350
580
  3
A3
350
581
  3
A4
350
582
  3
A5
350
583
  3
A6
350
584
  3
A7
350
585
  3
A8
350
586
  3
A9
350
587
  3
B0
350
588
  3
B1
350
589
  3
B2
350
58A
  3
B3
350
58B
  3
B4
350
58C
  3
B5
350
58D
  3
B6
350
58E
  3
B7
350
58F
  3
B8
350
590
  3
B9
350
591
  3
C0
350
592
  3
C1
350
593
  3
C2
350
594
  3
C3
350
595
  3
C4
350
596
  3
C5
350
597
  3
C6
350
598
  3
C7
350
599
  3
C8
350
59A
  3
C9
350
59B
  3
D0
350
59C
  3
D1
350
59D
  3
D2
350
59E
  0
DICTIONARY
  5
59F
102
{ACAD_REACTORS
330
7
102
}
330
7
100
AcDbDictionary
281
     1
  3
Standard
350
5A0
  0
DICTIONARY
  5
26AF
102
{ACAD_REACTORS
330
7
102
}
330
7
100
AcDbDictionary
281
     1
  0
DICTIONARY
  5
1061
102
{ACAD_REACTORS
330
7
102
}
330
7
100
AcDbDictionary
281
     1
  3
CMLEADERSTYLE
350
1063
  3
CTABLESTYLE
350
1062
  3
DIMASSOC
350
26AC
  3
HIDETEXT
350
26AB
  3
PROJECTNAME
350
26AD
  0
XRECORD
  5
26AE
102
{ACAD_REACTORS
330
7
102
}
330
7
100
AcDbXrecord
280
     1
  1
DWGPROPS COOKIE
  2

  3

  4

  6

  7

  8
1547nh
  9

300
=
301
=
302
=
303
=
304
=
305
=
306
=
307
=
308
=
309
=
 40
883.3568346296296
 41
2451890.975018276
 42
2460734.441712072
  1

 90
        0
  0
DICTIONARY
  5
12
102
{ACAD_REACTORS
330
11
102
}
330
11
100
AcDbDictionary
281
     1
  0
DICTIONARY
  5
13
102
{ACAD_REACTORS
330
11
102
}
330
11
100
AcDbDictionary
281
     1
  0
LAYOUT
  5
A
102
{ACAD_XDICTIONARY
360
26B0
102
}
102
{ACAD_REACTORS
330
B
102
}
330
B
100
AcDbPlotSettings
  1

  2
クセロPDF2
  4
A4
  6

 40
3.174999952316283
 41
3.174999952316283
 42
3.175003051757812
 43
3.17498779296875
 44
209.9733276367186
 45
296.9259948730469
 46
0.0
 47
0.0
 48
-15662.66033507441
 49
-70343.41408547677
140
-15066.33989911154
141
-69939.64285442082
142
1.0
143
2.052201218735445
 70
 11952
 72
     1
 73
     1
 74
     4
  7
monochrome.ctb
 75
     0
147
0.4872816519503842
148
15662.66033507441
149
70343.41408547677
100
AcDbLayout
  1
Model
 70
     1
 71
     0
 10
0.0
 20
0.0
 11
12.0
 21
9.0
 12
0.0
 22
0.0
 32
0.0
 14
0.0
 24
0.0
 34
0.0
 15
0.0
 25
0.0
 35
0.0
146
0.0
 13
0.0
 23
0.0
 33
0.0
 16
1.0
 26
0.0
 36
0.0
 17
0.0
 27
1.0
 37
0.0
 76
     0
330
2
  0
LAYOUT
  5
F
102
{ACAD_XDICTIONARY
360
26B2
102
}
102
{ACAD_REACTORS
330
B
102
}
330
B
100
AcDbPlotSettings
  1

  2
NEC MultiWriter2350/2350N
  4
A4
  6

 40
5.873749732971191
 41
5.873747825622557
 42
6.000747680664062
 43
5.873748779296875
 44
210.1003265380859
 45
297.0953369140625
 46
0.0
 47
0.0
 48
0.0
 49
0.0
140
0.0
141
0.0
142
1.0
143
1.0
 70
   688
 72
     0
 73
     1
 74
     5
  7
monochrome.ctb
 75
    16
147
1.0
148
0.0
149
0.0
100
AcDbLayout
  1
レイアウト1
 70
     1
 71
     1
 10
-0.2312499519408218
 20
-0.2312499894870548
 11
11.46541685569943
 21
8.040416409650188
 12
0.0
 22
0.0
 32
0.0
 14
1.000000000000000E+20
 24
1.000000000000000E+20
 34
1.000000000000000E+20
 15
-1.000000000000000E+20
 25
-1.000000000000000E+20
 35
-1.000000000000000E+20
146
0.0
 13
0.0
 23
0.0
 33
0.0
 16
1.0
 26
0.0
 36
0.0
 17
0.0
 27
1.0
 37
0.0
 76
     0
330
C
  0
MATERIAL
  5
66F
102
{ACAD_REACTORS
330
2C
102
}
330
2C
100
AcDbMaterial
  1
Global
  2

  0
MLEADERSTYLE
  5
5A2
102
{ACAD_REACTORS
330
5A1
102
}
330
5A1
100
AcDbMLeaderStyle
170
     2
171
     1
172
     0
 90
        2
 40
0.0
 41
0.0
173
     1
 91
-1056964608
340
18
 92
       -2
290
     1
 42
0.09
291
     1
 43
0.36
  3
Standard
341
0
 44
0.18
300

342
15
174
     1
178
     1
175
     1
176
     0
 93
-1056964608
 45
0.18
292
     0
297
     0
 46
0.18
343
0
 94
-1056964608
 47
1.0
 49
1.0
140
1.0
293
     1
141
0.0
294
     1
177
     0
142
1.0
295
     0
296
     0
143
0.125
1001
ACAD_MLEADERVER
1070
     2
  0
MLINESTYLE
  5
36
102
{ACAD_REACTORS
330
2A
102
}
330
2A
100
AcDbMlineStyle
  2
STANDARD
 70
     0
  3

 62
   256
 51
90.0
 52
90.0
 71
     2
 49
0.5
 62
   256
  6
BYLAYER
 49
-0.5
 62
   256
  6
BYLAYER
  0
ACDBPLACEHOLDER
  5
5
102
{ACAD_REACTORS
330
6
102
}
330
6
  0
SCALE
  5
57E
102
{ACAD_REACTORS
330
57D
102
}
330
57D
100
AcDbScale
 70
     0
300
1:1
140
1.0
141
1.0
290
     1
  0
SCALE
  5
57F
102
{ACAD_REACTORS
330
57D
102
}
330
57D
100
AcDbScale
 70
     0
300
1:2
140
1.0
141
2.0
290
     0
  0
SCALE
  5
580
102
{ACAD_REACTORS
330
57D
102
}
330
57D
100
AcDbScale
 70
     0
300
1:4
140
1.0
141
4.0
290
     0
  0
SCALE
  5
581
102
{ACAD_REACTORS
330
57D
102
}
330
57D
100
AcDbScale
 70
     0
300
1:5
140
1.0
141
5.0
290
     0
  0
SCALE
  5
582
102
{ACAD_REACTORS
330
57D
102
}
330
57D
100
AcDbScale
 70
     0
300
1:8
140
1.0
141
8.0
290
     0
  0
SCALE
  5
583
102
{ACAD_REACTORS
330
57D
102
}
330
57D
100
AcDbScale
 70
     0
300
1:10
140
1.0
141
10.0
290
     0
  0
SCALE
  5
584
102
{ACAD_REACTORS
330
57D
102
}
330
57D
100
AcDbScale
 70
     0
300
1:16
140
1.0
141
16.0
290
     0
  0
SCALE
  5
585
102
{ACAD_REACTORS
330
57D
102
}
330
57D
100
AcDbScale
 70
     0
300
1:20
140
1.0
141
20.0
290
     0
  0
SCALE
  5
586
102
{ACAD_REACTORS
330
57D
102
}
330
57D
100
AcDbScale
 70
     0
300
1:30
140
1.0
141
30.0
290
     0
  0
SCALE
  5
587
102
{ACAD_REACTORS
330
57D
102
}
330
57D
100
AcDbScale
 70
     0
300
1:40
140
1.0
141
40.0
290
     0
  0
SCALE
  5
588
102
{ACAD_REACTORS
330
57D
102
}
330
57D
100
AcDbScale
 70
     0
300
1:50
140
1.0
141
50.0
290
     0
  0
SCALE
  5
589
102
{ACAD_REACTORS
330
57D
102
}
330
57D
100
AcDbScale
 70
     0
300
1:100
140
1.0
141
100.0
290
     0
  0
SCALE
  5
58A
102
{ACAD_REACTORS
330
57D
102
}
330
57D
100
AcDbScale
 70
     0
300
2:1
140
2.0
141
1.0
290
     0
  0
SCALE
  5
58B
102
{ACAD_REACTORS
330
57D
102
}
330
57D
100
AcDbScale
 70
     0
300
4:1
140
4.0
141
1.0
290
     0
  0
SCALE
  5
58C
102
{ACAD_REACTORS
330
57D
102
}
330
57D
100
AcDbScale
 70
     0
300
8:1
140
8.0
141
1.0
290
     0
  0
SCALE
  5
58D
102
{ACAD_REACTORS
330
57D
102
}
330
57D
100
AcDbScale
 70
     0
300
10:1
140
10.0
141
1.0
290
     0
  0
SCALE
  5
58E
102
{ACAD_REACTORS
330
57D
102
}
330
57D
100
AcDbScale
 70
     0
300
100:1
140
100.0
141
1.0
290
     0
  0
SCALE
  5
58F
102
{ACAD_REACTORS
330
57D
102
}
330
57D
100
AcDbScale
 70
     0
300
1/128" = 1'-0"
140
0.0078125
141
12.0
290
     0
  0
SCALE
  5
590
102
{ACAD_REACTORS
330
57D
102
}
330
57D
100
AcDbScale
 70
     0
300
1/64" = 1'-0"
140
0.015625
141
12.0
290
     0
  0
SCALE
  5
591
102
{ACAD_REACTORS
330
57D
102
}
330
57D
100
AcDbScale
 70
     0
300
1/32" = 1'-0"
140
0.03125
141
12.0
290
     0
  0
SCALE
  5
592
102
{ACAD_REACTORS
330
57D
102
}
330
57D
100
AcDbScale
 70
     0
300
1/16" = 1'-0"
140
0.0625
141
12.0
290
     0
  0
SCALE
  5
593
102
{ACAD_REACTORS
330
57D
102
}
330
57D
100
AcDbScale
 70
     0
300
3/32" = 1'-0"
140
0.09375
141
12.0
290
     0
  0
SCALE
  5
594
102
{ACAD_REACTORS
330
57D
102
}
330
57D
100
AcDbScale
 70
     0
300
1/8" = 1'-0"
140
0.125
141
12.0
290
     0
  0
SCALE
  5
595
102
{ACAD_REACTORS
330
57D
102
}
330
57D
100
AcDbScale
 70
     0
300
3/16" = 1'-0"
140
0.1875
141
12.0
290
     0
  0
SCALE
  5
596
102
{ACAD_REACTORS
330
57D
102
}
330
57D
100
AcDbScale
 70
     0
300
1/4" = 1'-0"
140
0.25
141
12.0
290
     0
  0
SCALE
  5
597
102
{ACAD_REACTORS
330
57D
102
}
330
57D
100
AcDbScale
 70
     0
300
3/8" = 1'-0"
140
0.375
141
12.0
290
     0
  0
SCALE
  5
598
102
{ACAD_REACTORS
330
57D
102
}
330
57D
100
AcDbScale
 70
     0
300
1/2" = 1'-0"
140
0.5
141
12.0
290
     0
  0
SCALE
  5
599
102
{ACAD_REACTORS
330
57D
102
}
330
57D
100
AcDbScale
 70
     0
300
3/4" = 1'-0"
140
0.75
141
12.0
290
     0
  0
SCALE
  5
59A
102
{ACAD_REACTORS
330
57D
102
}
330
57D
100
AcDbScale
 70
     0
300
1" = 1'-0"
140
1.0
141
12.0
290
     0
  0
SCALE
  5
59B
102
{ACAD_REACTORS
330
57D
102
}
330
57D
100
AcDbScale
 70
     0
300
1-1/2" = 1'-0"
140
1.5
141
12.0
290
     0
  0
SCALE
  5
59C
102
{ACAD_REACTORS
330
57D
102
}
330
57D
100
AcDbScale
 70
     0
300
3" = 1'-0"
140
3.0
141
12.0
290
     0
  0
SCALE
  5
59D
102
{ACAD_REACTORS
330
57D
102
}
330
57D
100
AcDbScale
 70
     0
300
6" = 1'-0"
140
6.0
141
12.0
290
     0
  0
SCALE
  5
59E
102
{ACAD_REACTORS
330
57D
102
}
330
57D
100
AcDbScale
 70
     0
300
1'-0" = 1'-0"
140
12.0
141
12.0
290
     0
  0
TABLESTYLE
  5
5A0
102
{ACAD_XDICTIONARY
360
268B
102
}
102
{ACAD_REACTORS
330
59F
102
}
330
59F
100
AcDbTableStyle
  3
Standard
 70
     0
 71
     0
 40
0.06
 41
0.06
280
     0
281
     0
  7
STANDARD
140
0.18
170
     2
 62
     0
 63
   257
283
     0
274
    -2
284
     1
 64
     0
275
    -2
285
     1
 65
     0
276
    -2
286
     1
 66
     0
277
    -2
287
     1
 67
     0
278
    -2
288
     1
 68
     0
279
    -2
289
     1
 69
     0
  7
STANDARD
140
0.25
170
     5
 62
     0
 63
   257
283
     0
274
    -2
284
     1
 64
     0
275
    -2
285
     1
 65
     0
276
    -2
286
     1
 66
     0
277
    -2
287
     1
 67
     0
278
    -2
288
     1
 68
     0
279
    -2
289
     1
 69
     0
  7
STANDARD
140
0.18
170
     5
 62
     0
 63
   257
283
     0
274
    -2
284
     1
 64
     0
275
    -2
285
     1
 65
     0
276
    -2
286
     1
 66
     0
277
    -2
287
     1
 67
     0
278
    -2
288
     1
 68
     0
279
    -2
289
     1
 69
     0
  0
DICTIONARYVAR
  5
1063
102
{ACAD_REACTORS
330
1061
102
}
330
1061
100
DictionaryVariables
280
     0
  1
STANDARD
  0
DICTIONARYVAR
  5
1062
102
{ACAD_REACTORS
330
1061
102
}
330
1061
100
DictionaryVariables
280
     0
  1
STANDARD
  0
DICTIONARYVAR
  5
26AC
102
{ACAD_REACTORS
330
1061
102
}
330
1061
100
DictionaryVariables
280
     0
  1
1
  0
DICTIONARYVAR
  5
26AB
102
{ACAD_REACTORS
330
1061
102
}
330
1061
100
DictionaryVariables
280
     0
  1
1
  0
DICTIONARYVAR
  5
26AD
102
{ACAD_REACTORS
330
1061
102
}
330
1061
100
DictionaryVariables
280
     0
  1

  0
DICTIONARY
  5
26B0
330
A
100
AcDbDictionary
280
     1
281
     1
  3
ACAD_XREC_ROUNDTRIP
360
26B1
  0
DICTIONARY
  5
26B2
330
F
100
AcDbDictionary
280
     1
281
     1
  3
ACAD_XREC_ROUNDTRIP
360
26B3
  0
DICTIONARY
  5
268B
330
5A0
100
AcDbDictionary
280
     1
281
     1
  0
XRECORD
  5
26B1
102
{ACAD_REACTORS
330
26B0
102
}
330
26B0
100
AcDbXrecord
280
     1
102
SHADEPLOT
 70
     0
102
SHADEPLOTRESLEVEL
 70
     2
102
SHADEPLOTCUSTOMDPI
 70
   150
  0
XRECORD
  5
26B3
102
{ACAD_REACTORS
330
26B2
102
}
330
26B2
100
AcDbXrecord
280
     1
102
SHADEPLOT
 70
     0
102
SHADEPLOTRESLEVEL
 70
     2
102
SHADEPLOTCUSTOMDPI
 70
   300
  0
ENDSEC
  0
EOF
