  0
SECTION
  2
HEADER
  9
$ACADVER
  1
AC1014
  9
$ACADMAINTVER
 70
     9
  9
$DWGCODEPAGE
  3
ANSI_932
  9
$INSBASE
 10
0.0
 20
0.0
 30
0.0
  9
$EXTMIN
 10
-25.0
 20
-29.00000000000005
 30
-0.00000001
  9
$EXTMAX
 10
1930.403837920792
 20
1375.0
 30
0.00000001
  9
$LIMMIN
 10
0.0
 20
0.0
  9
$LIMMAX
 10
2100.0
 20
1485.0
  9
$ORTHOMODE
 70
     0
  9
$REGENMODE
 70
     1
  9
$FILLMODE
 70
     1
  9
$QTEXTMODE
 70
     0
  9
$MIRRTEXT
 70
     0
  9
$DRAGMODE
 70
     2
  9
$LTSCALE
 40
25.0
  9
$OSMODE
 70
    37
  9
$ATTMODE
 70
     1
  9
$TEXTSIZE
 40
15.0
  9
$TRACEWID
 40
0.05
  9
$TEXTSTYLE
  7
K
  9
$CLAYER
  8
SUNPOU
  9
$CELTYPE
  6
BYLAYER
  9
$CECOLOR
 62
   256
  9
$CELTSCALE
 40
1.0
  9
$DELOBJ
 70
     1
  9
$DISPSILH
 70
     0
  9
$DIMSCALE
 40
5.0
  9
$DIMASZ
 40
1.5
  9
$DIMEXO
 40
1.0
  9
$DIMDLI
 40
6.0
  9
$DIMRND
 40
0.0
  9
$DIMDLE
 40
0.0
  9
$DIMEXE
 40
1.0
  9
$DIMTP
 40
495.0
  9
$DIMTM
 40
0.0
  9
$DIMTXT
 40
3.0
  9
$DIMCEN
 40
0.0
  9
$DIMTSZ
 40
0.0
  9
$DIMTOL
 70
     0
  9
$DIMLIM
 70
     0
  9
$DIMTIH
 70
     0
  9
$DIMTOH
 70
     0
  9
$DIMSE1
 70
     0
  9
$DIMSE2
 70
     0
  9
$DIMTAD
 70
     1
  9
$DIMZIN
 70
     8
  9
$DIMBLK
  1
ARROW
  9
$DIMASO
 70
     1
  9
$DIMSHO
 70
     0
  9
$DIMPOST
  1

  9
$DIMAPOST
  1

  9
$DIMALT
 70
     0
  9
$DIMALTD
 70
     2
  9
$DIMALTF
 40
25.4
  9
$DIMLFAC
 40
1.0
  9
$DIMTOFL
 70
     1
  9
$DIMTVP
 40
0.0
  9
$DIMTIX
 70
     1
  9
$DIMSOXD
 70
     0
  9
$DIMSAH
 70
     0
  9
$DIMBLK1
  1
ARROW
  9
$DIMBLK2
  1
ARROW
  9
$DIMSTYLE
  2
IMAO
  9
$DIMCLRD
 70
     0
  9
$DIMCLRE
 70
     0
  9
$DIMCLRT
 70
     0
  9
$DIMTFAC
 40
1.0
  9
$DIMGAP
 40
0.09
  9
$DIMJUST
 70
     0
  9
$DIMSD1
 70
     0
  9
$DIMSD2
 70
     0
  9
$DIMTOLJ
 70
     1
  9
$DIMTZIN
 70
     0
  9
$DIMALTZ
 70
     0
  9
$DIMALTTZ
 70
     0
  9
$DIMFIT
 70
     3
  9
$DIMUPT
 70
     0
  9
$DIMUNIT
 70
     2
  9
$DIMDEC
 70
     4
  9
$DIMTDEC
 70
     4
  9
$DIMALTU
 70
     2
  9
$DIMALTTD
 70
     2
  9
$DIMTXSTY
  7
STANDARD
  9
$DIMAUNIT
 70
     0
  9
$LUNITS
 70
     2
  9
$LUPREC
 70
     2
  9
$SKETCHINC
 40
0.1
  9
$FILLETRAD
 40
12.5
  9
$AUNITS
 70
     0
  9
$AUPREC
 70
     2
  9
$MENU
  1
STDR12J
  9
$ELEVATION
 40
0.0
  9
$PELEVATION
 40
0.0
  9
$THICKNESS
 40
0.0
  9
$LIMCHECK
 70
     0
  9
$BLIPMODE
 70
     0
  9
$CHAMFERA
 40
0.0
  9
$CHAMFERB
 40
0.0
  9
$CHAMFERC
 40
0.0
  9
$CHAMFERD
 40
0.0
  9
$SKPOLY
 70
     0
  9
$TDCREATE
 40
2452335.394430752
  9
$TDUPDATE
 40
2453908.615345775
  9
$TDINDWG
 40
0.3454623727
  9
$TDUSRTIMER
 40
0.3454623727
  9
$USRTIMER
 70
     1
  9
$ANGBASE
 50
0.0
  9
$ANGDIR
 70
     0
  9
$PDMODE
 70
     3
  9
$PDSIZE
 40
0.0
  9
$PLINEWID
 40
0.0
  9
$COORDS
 70
     1
  9
$SPLFRAME
 70
     0
  9
$SPLINETYPE
 70
     6
  9
$SPLINESEGS
 70
     8
  9
$ATTDIA
 70
     0
  9
$ATTREQ
 70
     1
  9
$HANDLING
 70
 10241
  9
$HANDSEED
  5
C9C
  9
$SURFTAB1
 70
     6
  9
$SURFTAB2
 70
     6
  9
$SURFTYPE
 70
     6
  9
$SURFU
 70
     6
  9
$SURFV
 70
     6
  9
$UCSNAME
  2

  9
$UCSORG
 10
0.0
 20
0.0
 30
0.0
  9
$UCSXDIR
 10
1.0
 20
0.0
 30
0.0
  9
$UCSYDIR
 10
0.0
 20
1.0
 30
0.0
  9
$PUCSNAME
  2

  9
$PUCSORG
 10
0.0
 20
0.0
 30
0.0
  9
$PUCSXDIR
 10
1.0
 20
0.0
 30
0.0
  9
$PUCSYDIR
 10
0.0
 20
1.0
 30
0.0
  9
$USERI1
 70
     3
  9
$USERI2
 70
     1
  9
$USERI3
 70
     5
  9
$USERI4
 70
     1
  9
$USERI5
 70
     1
  9
$USERR1
 40
5.0
  9
$USERR2
 40
3.0
  9
$USERR3
 40
3.0
  9
$USERR4
 40
1.5
  9
$USERR5
 40
10.0
  9
$WORLDVIEW
 70
     1
  9
$SHADEDGE
 70
     3
  9
$SHADEDIF
 70
    70
  9
$TILEMODE
 70
     1
  9
$MAXACTVP
 70
    16
  9
$PINSBASE
 10
0.0
 20
0.0
 30
0.0
  9
$PLIMCHECK
 70
     0
  9
$PEXTMIN
 10
1.000000000000000E+20
 20
1.000000000000000E+20
 30
1.000000000000000E+20
  9
$PEXTMAX
 10
-1.000000000000000E+20
 20
-1.000000000000000E+20
 30
-1.000000000000000E+20
  9
$PLIMMIN
 10
0.0
 20
0.0
  9
$PLIMMAX
 10
12.0
 20
9.0
  9
$UNITMODE
 70
     0
  9
$VISRETAIN
 70
     0
  9
$PLINEGEN
 70
     0
  9
$PSLTSCALE
 70
     0
  9
$TREEDEPTH
 70
     0
  9
$PICKSTYLE
 70
     1
  9
$CMLSTYLE
  2
STANDARD
  9
$CMLJUST
 70
     0
  9
$CMLSCALE
 40
1.0
  9
$PROXYGRAPHICS
 70
     1
  9
$MEASUREMENT
 70
     1
  0
ENDSEC
  0
SECTION
  2
CLASSES
  0
CLASS
  1
LWPOLYLINE
  2
AcDbPolyline
  3
AutoCAD 2000
 90
        0
280
     0
281
     1
  0
CLASS
  1
ACDBDICTIONARYWDFLT
  2
AcDbDictionaryWithDefault
  3
AutoCAD 2000
 90
        0
280
     0
281
     0
  0
CLASS
  1
ACDBPLACEHOLDER
  2
AcDbPlaceHolder
  3
AutoCAD 2000
 90
        0
280
     0
281
     0
  0
CLASS
  1
LAYOUT
  2
AcDbLayout
  3
AutoCAD 2000
 90
        0
280
     0
281
     0
  0
CLASS
  1
LONG_TRANSACTION
  2
AcDbLongTransaction
  3
AutoCAD 2000
 90
        0
280
     0
281
     0
  0
CLASS
  1
LWPOLYLINE
  2
AcDbPolyline
  3
AutoCAD 2000
 90
        0
280
     0
281
     1
  0
CLASS
  1
HATCH
  2
AcDbHatch
  3
AutoCAD 2000
 90
        0
280
     0
281
     1
  0
CLASS
  1
XRECORD
  2
AcDbXrecord
  3
AutoCAD 2000
 90
        0
280
     0
281
     0
  0
ENDSEC
  0
SECTION
  2
TABLES
  0
TABLE
  2
VPORT
  5
CF
330
0
100
AcDbSymbolTable
 70
    12
  0
VPORT
  5
F5
330
CF
100
AcDbSymbolTableRecord
100
AcDbViewportTableRecord
  2
2
 70
     0
 10
0.5
 20
0.0
 11
1.0
 21
1.0
 12
0.9240312421264802
 22
1.052650975462766
 13
0.0
 23
0.0
 14
1.0
 24
1.0
 15
10.0
 25
10.0
 16
0.0
 26
0.0
 36
1.0
 17
0.0
 27
0.0
 37
0.0
 40
2.105301950925533
 41
0.8778135048231511
 42
50.0
 43
0.0
 44
0.0
 50
0.0
 51
0.0
 71
     0
 72
   500
 73
     1
 74
     1
 75
     0
 76
     0
 77
     0
 78
     0
  0
VPORT
  5
F6
330
CF
100
AcDbSymbolTableRecord
100
AcDbViewportTableRecord
  2
2
 70
     0
 10
0.0
 20
0.0
 11
0.5
 21
1.0
 12
0.9240312421264802
 22
1.052650975462766
 13
0.0
 23
0.0
 14
1.0
 24
1.0
 15
10.0
 25
10.0
 16
0.0
 26
0.0
 36
1.0
 17
0.0
 27
0.0
 37
0.0
 40
2.105301950925533
 41
0.8778135048231511
 42
50.0
 43
0.0
 44
0.0
 50
0.0
 51
0.0
 71
     0
 72
   500
 73
     1
 74
     1
 75
     0
 76
     0
 77
     0
 78
     0
  0
VPORT
  5
F7
330
CF
100
AcDbSymbolTableRecord
100
AcDbViewportTableRecord
  2
3
 70
     0
 10
0.0
 20
0.5
 11
1.0
 21
1.0
 12
2.832169994473273
 22
1.052650975462766
 13
0.0
 23
0.0
 14
1.0
 24
1.0
 15
10.0
 25
10.0
 16
0.0
 26
0.0
 36
1.0
 17
0.0
 27
0.0
 37
0.0
 40
2.105301950925533
 41
3.571428571428571
 42
50.0
 43
0.0
 44
0.0
 50
0.0
 51
0.0
 71
     0
 72
   500
 73
     1
 74
     1
 75
     0
 76
     0
 77
     0
 78
     0
  0
VPORT
  5
F8
330
CF
100
AcDbSymbolTableRecord
100
AcDbViewportTableRecord
  2
3
 70
     0
 10
0.0
 20
0.0
 11
1.0
 21
0.5
 12
2.856741679241311
 22
1.052650975462766
 13
0.0
 23
0.0
 14
1.0
 24
1.0
 15
10.0
 25
10.0
 16
0.0
 26
0.0
 36
1.0
 17
0.0
 27
0.0
 37
0.0
 40
2.105301950925533
 41
3.594771241830065
 42
50.0
 43
0.0
 44
0.0
 50
0.0
 51
0.0
 71
     0
 72
   500
 73
     1
 74
     1
 75
     0
 76
     0
 77
     0
 78
     0
  0
VPORT
  5
F9
330
CF
100
AcDbSymbolTableRecord
100
AcDbViewportTableRecord
  2
4
 70
     0
 10
0.5
 20
0.0
 11
1.0
 21
0.5
 12
2.886857516709719
 22
1.052650975462766
 13
0.0
 23
0.0
 14
1.0
 24
1.0
 15
10.0
 25
10.0
 16
0.0
 26
0.0
 36
1.0
 17
0.0
 27
0.0
 37
0.0
 40
4.27520703030907
 41
1.784313725490195
 42
50.0
 43
0.0
 44
0.0
 50
0.0
 51
0.0
 71
     0
 72
   500
 73
     1
 74
     1
 75
     0
 76
     0
 77
     0
 78
     0
  0
VPORT
  5
FA
330
CF
100
AcDbSymbolTableRecord
100
AcDbViewportTableRecord
  2
4
 70
     0
 10
0.5
 20
0.5
 11
1.0
 21
1.0
 12
2.862090274555523
 22
1.052650975462766
 13
0.0
 23
0.0
 14
1.0
 24
1.0
 15
10.0
 25
10.0
 16
0.0
 26
0.0
 36
1.0
 17
0.0
 27
0.0
 37
0.0
 40
4.27520703030907
 41
1.772727272727272
 42
50.0
 43
0.0
 44
0.0
 50
0.0
 51
0.0
 71
     0
 72
   500
 73
     1
 74
     1
 75
     0
 76
     0
 77
     0
 78
     0
  0
VPORT
  5
FB
330
CF
100
AcDbSymbolTableRecord
100
AcDbViewportTableRecord
  2
4
 70
     0
 10
0.0
 20
0.5
 11
0.5
 21
1.0
 12
2.862090274555523
 22
1.052650975462766
 13
0.0
 23
0.0
 14
1.0
 24
1.0
 15
10.0
 25
10.0
 16
0.0
 26
0.0
 36
1.0
 17
0.0
 27
0.0
 37
0.0
 40
4.27520703030907
 41
1.772727272727272
 42
50.0
 43
0.0
 44
0.0
 50
0.0
 51
0.0
 71
     0
 72
   500
 73
     1
 74
     1
 75
     0
 76
     0
 77
     0
 78
     0
  0
VPORT
  5
FC
330
CF
100
AcDbSymbolTableRecord
100
AcDbViewportTableRecord
  2
4
 70
     0
 10
0.0
 20
0.0
 11
0.5
 21
0.5
 12
2.886857516709719
 22
1.052650975462766
 13
0.0
 23
0.0
 14
1.0
 24
1.0
 15
10.0
 25
10.0
 16
0.0
 26
0.0
 36
1.0
 17
0.0
 27
0.0
 37
0.0
 40
4.27520703030907
 41
1.784313725490195
 42
50.0
 43
0.0
 44
0.0
 50
0.0
 51
0.0
 71
     0
 72
   500
 73
     1
 74
     1
 75
     0
 76
     0
 77
     0
 78
     0
  0
VPORT
  5
C49
330
CF
100
AcDbSymbolTableRecord
100
AcDbViewportTableRecord
  2
*ACTIVE
 70
     0
 10
0.0
 20
0.0
 11
1.0
 21
1.0
 12
1037.464026600599
 22
898.0035662824947
 13
0.0
 23
0.0
 14
1.0
 24
1.0
 15
10.0
 25
10.0
 16
0.0
 26
0.0
 36
1.0
 17
0.0
 27
0.0
 37
0.0
 40
1871.784294201044
 41
1.513819095477386
 42
50.0
 43
0.0
 44
0.0
 50
0.0
 51
0.0
 71
     0
 72
   500
 73
     1
 74
     0
 75
     0
 76
     0
 77
     0
 78
     0
  0
ENDTAB
  0
TABLE
  2
LTYPE
  5
CC
330
0
100
AcDbSymbolTable
 70
     5
  0
LTYPE
  5
D9
330
CC
100
AcDbSymbolTableRecord
100
AcDbLinetypeTableRecord
  2
BYBLOCK
 70
     0
  3

 72
    65
 73
     0
 40
0.0
  0
LTYPE
  5
DA
330
CC
100
AcDbSymbolTableRecord
100
AcDbLinetypeTableRecord
  2
BYLAYER
 70
     0
  3

 72
    65
 73
     0
 40
0.0
  0
LTYPE
  5
DB
330
CC
100
AcDbSymbolTableRecord
100
AcDbLinetypeTableRecord
  2
CONTINUOUS
 70
     0
  3
実線
 72
    65
 73
     0
 40
0.0
  0
LTYPE
  5
F1
330
CC
100
AcDbSymbolTableRecord
100
AcDbLinetypeTableRecord
  2
DASHED
 70
     0
  3
__ __ __ __ __ __ __ __ __ __ __ __ __ __ __
 72
    65
 73
     2
 40
0.75
 49
0.5
 74
     0
 49
-0.25
 74
     0
  0
LTYPE
  5
F2
330
CC
100
AcDbSymbolTableRecord
100
AcDbLinetypeTableRecord
  2
CENTER
 70
     0
  3
____ _ ____ _ ____ _ ____ _ ____ _ ____ _ ____
 72
    65
 73
     4
 40
2.0
 49
1.25
 74
     0
 49
-0.25
 74
     0
 49
0.25
 74
     0
 49
-0.25
 74
     0
  0
LTYPE
  5
F3
330
CC
100
AcDbSymbolTableRecord
100
AcDbLinetypeTableRecord
  2
PHANTOM
 70
     0
  3
_____ _ _ _____ _ _ _____ _ _ _____ _ _ ____
 72
    65
 73
     6
 40
2.5
 49
1.25
 74
     0
 49
-0.25
 74
     0
 49
0.25
 74
     0
 49
-0.25
 74
     0
 49
0.25
 74
     0
 49
-0.25
 74
     0
  0
LTYPE
  5
F4
330
CC
100
AcDbSymbolTableRecord
100
AcDbLinetypeTableRecord
  2
HIDDEN
 70
     0
  3
_ _ _ _ _ _ _ _ _ _ _ _ _ _ _ _ _ _ _ _ _ _ _
 72
    65
 73
     2
 40
0.375
 49
0.25
 74
     0
 49
-0.125
 74
     0
  0
ENDTAB
  0
TABLE
  2
LAYER
  5
C9
330
0
100
AcDbSymbolTable
 70
    15
  0
LAYER
  5
D6
330
C9
100
AcDbSymbolTableRecord
100
AcDbLayerTableRecord
  2
0
 70
     0
 62
     7
  6
CONTINUOUS
  0
LAYER
  5
100
330
C9
100
AcDbSymbolTableRecord
100
AcDbLayerTableRecord
  2
HASEN
 70
     0
 62
     2
  6
DASHED
  0
LAYER
  5
101
330
C9
100
AcDbSymbolTableRecord
100
AcDbLayerTableRecord
  2
ITTEN
 70
     0
 62
     1
  6
CENTER
  0
LAYER
  5
102
330
C9
100
AcDbSymbolTableRecord
100
AcDbLayerTableRecord
  2
NITEN
 70
     0
 62
     2
  6
PHANTOM
  0
LAYER
  5
103
330
C9
100
AcDbSymbolTableRecord
100
AcDbLayerTableRecord
  2
HATCH
 70
     0
 62
     4
  6
CONTINUOUS
  0
LAYER
  5
104
330
C9
100
AcDbSymbolTableRecord
100
AcDbLayerTableRecord
  2
SUNPOU
 70
     0
 62
     3
  6
CONTINUOUS
  0
LAYER
  5
105
330
C9
100
AcDbSymbolTableRecord
100
AcDbLayerTableRecord
  2
TEXT
 70
     0
 62
     3
  6
CONTINUOUS
  0
LAYER
  5
106
330
C9
100
AcDbSymbolTableRecord
100
AcDbLayerTableRecord
  2
SAISEN
 70
     0
 62
     4
  6
CONTINUOUS
  0
LAYER
  5
107
330
C9
100
AcDbSymbolTableRecord
100
AcDbLayerTableRecord
  2
JISSEN
 70
     0
 62
     7
  6
CONTINUOUS
  0
LAYER
  5
108
330
C9
100
AcDbSymbolTableRecord
100
AcDbLayerTableRecord
  2
HOJO
 70
     0
 62
     6
  6
CONTINUOUS
  0
LAYER
  5
109
330
C9
100
AcDbSymbolTableRecord
100
AcDbLayerTableRecord
  2
TENSEN
 70
     0
 62
     2
  6
HIDDEN
  0
LAYER
  5
10A
330
C9
100
AcDbSymbolTableRecord
100
AcDbLayerTableRecord
  2
HOJOORG
 70
     0
 62
     1
  6
CONTINUOUS
  0
LAYER
  5
10B
330
C9
100
AcDbSymbolTableRecord
100
AcDbLayerTableRecord
  2
WAKU
 70
     0
 62
     5
  6
CONTINUOUS
  0
LAYER
  5
10C
330
C9
100
AcDbSymbolTableRecord
100
AcDbLayerTableRecord
  2
POINT
 70
     0
 62
     7
  6
CONTINUOUS
  0
LAYER
  5
424
330
C9
100
AcDbSymbolTableRecord
100
AcDbLayerTableRecord
  2
DEFPOINTS
 70
     0
 62
     7
  6
CONTINUOUS
  0
ENDTAB
  0
TABLE
  2
STYLE
  5
CA
330
0
100
AcDbSymbolTable
 70
     2
  0
STYLE
  5
D7
330
CA
100
AcDbSymbolTableRecord
100
AcDbTextStyleTableRecord
  2
STANDARD
 70
     0
 40
0.0
 41
1.0
 50
0.0
 71
     0
 42
0.2
  3
ROMANS
  4
EXTFONT
  0
STYLE
  5
F0
330
CA
100
AcDbSymbolTableRecord
100
AcDbTextStyleTableRecord
  2
K
 70
     0
 40
0.0
 41
1.0
 50
0.0
 71
     0
 42
15.0
  3
ROMANS
  4
EXTFONT
  0
ENDTAB
  0
TABLE
  2
VIEW
  5
CD
330
0
100
AcDbSymbolTable
 70
     0
  0
ENDTAB
  0
TABLE
  2
UCS
  5
CE
330
0
100
AcDbSymbolTable
 70
     0
  0
ENDTAB
  0
TABLE
  2
APPID
  5
D0
330
0
100
AcDbSymbolTable
 70
     1
  0
APPID
  5
D8
330
D0
100
AcDbSymbolTableRecord
100
AcDbRegAppTableRecord
  2
ACAD
 70
     0
  0
ENDTAB
  0
TABLE
  2
DIMSTYLE
  5
D1
330
0
100
AcDbSymbolTable
 70
     2
  0
DIMSTYLE
105
FF
102
{ACAD_REACTORS
330
B15
330
B22
330
B2F
330
B3C
330
C04
102
}
330
D1
100
AcDbSymbolTableRecord
100
AcDbDimStyleTableRecord
  2
IMAO
 70
     0
  3

  4

  5
ARROW
  6
ARROWANG
  7
ARROWANG
 40
1.0
 41
1.5
 42
1.0
 43
6.0
 44
1.0
 45
0.0
 46
0.0
 47
495.0
 48
0.0
140
3.0
141
0.0
142
0.0
143
25.4
144
1.0
145
0.0
146
1.0
147
0.09
 71
     0
 72
     0
 73
     0
 74
     0
 75
     0
 76
     0
 77
     1
 78
     8
170
     0
171
     2
172
     1
173
     0
174
     1
175
     0
176
     0
177
     0
178
     0
270
     2
271
     2
272
     2
273
     2
274
     2
340
F0
275
     0
280
     0
281
     0
282
     0
283
     1
284
     8
285
     8
286
     8
287
     5
288
     0
  0
DIMSTYLE
105
1FF
330
D1
100
AcDbSymbolTableRecord
100
AcDbDimStyleTableRecord
  2
ITM
 70
     0
  3

  4

  5
ARROWANG
  6
ARROWANG
  7
ARROWANG
 40
1.0
 41
1.5
 42
1.0
 43
6.0
 44
1.0
 45
0.0
 46
0.0
 47
495.0
 48
0.0
140
3.0
141
0.0
142
0.0
143
25.4
144
1.0
145
0.0
146
1.0
147
0.5
 71
     0
 72
     0
 73
     0
 74
     0
 75
     0
 76
     0
 77
     3
 78
     8
170
     0
171
     2
172
     1
173
     1
174
     1
175
     0
176
     0
177
     0
178
     0
270
     2
271
     4
272
     4
273
     2
274
     2
340
F0
275
     0
280
     0
281
     0
282
     0
283
     1
284
     0
285
     0
286
     0
287
     3
288
     0
  0
ENDTAB
  0
TABLE
  2
BLOCK_RECORD
  5
C8
330
0
100
AcDbSymbolTable
 70
    28
  0
BLOCK_RECORD
  5
DF
102
{ACAD_XDICTIONARY
360
C6D
102
}
330
C8
100
AcDbSymbolTableRecord
100
AcDbBlockTableRecord
  2
*MODEL_SPACE
  0
BLOCK_RECORD
  5
DC
102
{ACAD_XDICTIONARY
360
C6B
102
}
330
C8
100
AcDbSymbolTableRecord
100
AcDbBlockTableRecord
  2
*PAPER_SPACE
  0
BLOCK_RECORD
  5
E3
330
C8
100
AcDbSymbolTableRecord
100
AcDbBlockTableRecord
  2
ARROW
  0
BLOCK_RECORD
  5
E4
330
C8
100
AcDbSymbolTableRecord
100
AcDbBlockTableRecord
  2
HOJO
  0
BLOCK_RECORD
  5
E5
330
C8
100
AcDbSymbolTableRecord
100
AcDbBlockTableRecord
  2
HOJOANG
  0
BLOCK_RECORD
  5
E6
330
C8
100
AcDbSymbolTableRecord
100
AcDbBlockTableRecord
  2
HOJOORG
  0
BLOCK_RECORD
  5
E7
330
C8
100
AcDbSymbolTableRecord
100
AcDbBlockTableRecord
  2
WAKU
  0
BLOCK_RECORD
  5
E8
330
C8
100
AcDbSymbolTableRecord
100
AcDbBlockTableRecord
  2
DOT
  0
BLOCK_RECORD
  5
E9
330
C8
100
AcDbSymbolTableRecord
100
AcDbBlockTableRecord
  2
ARROWANG
  0
BLOCK_RECORD
  5
EA
330
C8
100
AcDbSymbolTableRecord
100
AcDbBlockTableRecord
  2
HOJOC
  0
BLOCK_RECORD
  5
EB
330
C8
100
AcDbSymbolTableRecord
100
AcDbBlockTableRecord
  2
HOJOORGC
  0
BLOCK_RECORD
  5
EC
330
C8
100
AcDbSymbolTableRecord
100
AcDbBlockTableRecord
  2
HOJOCR
  0
BLOCK_RECORD
  5
ED
330
C8
100
AcDbSymbolTableRecord
100
AcDbBlockTableRecord
  2
HOJOORGCR
  0
BLOCK_RECORD
  5
EE
330
C8
100
AcDbSymbolTableRecord
100
AcDbBlockTableRecord
  2
CENLINE
  0
BLOCK_RECORD
  5
EF
330
C8
100
AcDbSymbolTableRecord
100
AcDbBlockTableRecord
  2
CENCRS
  0
BLOCK_RECORD
  5
192
330
C8
100
AcDbSymbolTableRecord
100
AcDbBlockTableRecord
  2
A$C177A3D75
  0
BLOCK_RECORD
  5
1A3
330
C8
100
AcDbSymbolTableRecord
100
AcDbBlockTableRecord
  2
A$C7F7C75AF
  0
BLOCK_RECORD
  5
200
330
C8
100
AcDbSymbolTableRecord
100
AcDbBlockTableRecord
  2
A$C39A14254
  0
BLOCK_RECORD
  5
6FC
330
C8
100
AcDbSymbolTableRecord
100
AcDbBlockTableRecord
  2
A$C76DB6D64
  0
BLOCK_RECORD
  5
A16
330
C8
100
AcDbSymbolTableRecord
100
AcDbBlockTableRecord
  2
A$C53553078
  0
BLOCK_RECORD
  5
A3F
330
C8
100
AcDbSymbolTableRecord
100
AcDbBlockTableRecord
  2
A$C5E267045
  0
BLOCK_RECORD
  5
B09
330
C8
100
AcDbSymbolTableRecord
100
AcDbBlockTableRecord
  2
*D19
  0
BLOCK_RECORD
  5
B16
330
C8
100
AcDbSymbolTableRecord
100
AcDbBlockTableRecord
  2
*D20
  0
BLOCK_RECORD
  5
B23
330
C8
100
AcDbSymbolTableRecord
100
AcDbBlockTableRecord
  2
*D21
  0
BLOCK_RECORD
  5
B30
330
C8
100
AcDbSymbolTableRecord
100
AcDbBlockTableRecord
  2
*D22
  0
BLOCK_RECORD
  5
BA5
330
C8
100
AcDbSymbolTableRecord
100
AcDbBlockTableRecord
  2
A$C06C6236D
  0
BLOCK_RECORD
  5
BCF
330
C8
100
AcDbSymbolTableRecord
100
AcDbBlockTableRecord
  2
A$C23052AEC
  0
BLOCK_RECORD
  5
BF8
330
C8
100
AcDbSymbolTableRecord
100
AcDbBlockTableRecord
  2
*D25
  0
BLOCK_RECORD
  5
C05
330
C8
100
AcDbSymbolTableRecord
100
AcDbBlockTableRecord
  2
A$C29C57B06
  0
BLOCK_RECORD
  5
C30
330
C8
100
AcDbSymbolTableRecord
100
AcDbBlockTableRecord
  2
A$C2ED45F67
  0
ENDTAB
  0
ENDSEC
  0
SECTION
  2
BLOCKS
  0
BLOCK
  5
10F
330
DF
100
AcDbEntity
  8
0
100
AcDbBlockBegin
  2
*MODEL_SPACE
 70
     0
 10
0.0
 20
0.0
 30
0.0
  3
*MODEL_SPACE
  1

  0
ENDBLK
  5
110
330
DF
100
AcDbEntity
  8
0
100
AcDbBlockEnd
  0
BLOCK
  5
10D
330
DC
100
AcDbEntity
 67
     1
  8
0
100
AcDbBlockBegin
  2
*PAPER_SPACE
 70
     0
 10
0.0
 20
0.0
 30
0.0
  3
*PAPER_SPACE
  1

  0
ENDBLK
  5
10E
330
DC
100
AcDbEntity
 67
     1
  8
0
100
AcDbBlockEnd
  0
BLOCK
  5
1
330
E3
100
AcDbEntity
  8
0
100
AcDbBlockBegin
  2
ARROW
 70
     0
 10
1.0
 20
0.5
 30
0.0
  3
ARROW
  1

  0
LINE
  5
2
330
E3
100
AcDbEntity
  8
0
100
AcDbLine
 10
1.0
 20
0.5
 30
0.0
 11
-0.5000000000000214
 21
0.0980762113533018
 31
0.0
  0
LINE
  5
3
330
E3
100
AcDbEntity
  8
0
100
AcDbLine
 10
0.0
 20
0.5
 30
0.0
 11
1.0
 21
0.5
 31
0.0
  0
LINE
  5
4
330
E3
100
AcDbEntity
  8
0
100
AcDbLine
 10
1.0
 20
0.5
 30
0.0
 11
-0.4999999999999574
 21
0.9019237886467408
 31
0.0
  0
ENDBLK
  5
5
330
E3
100
AcDbEntity
  8
0
100
AcDbBlockEnd
  0
BLOCK
  5
6
330
E4
100
AcDbEntity
  8
0
100
AcDbBlockBegin
  2
HOJO
 70
     0
 10
0.0
 20
0.0
 30
0.0
  3
HOJO
  1

  0
LINE
  5
7
330
E4
100
AcDbEntity
  8
HOJO
100
AcDbLine
 10
0.0
 20
0.0
 30
0.0
 11
2.0
 21
0.0
 31
0.0
  0
ENDBLK
  5
8
330
E4
100
AcDbEntity
  8
0
100
AcDbBlockEnd
  0
BLOCK
  5
9
330
E5
100
AcDbEntity
  8
0
100
AcDbBlockBegin
  2
HOJOANG
 70
     0
 10
1.0
 20
0.0
 30
0.0
  3
HOJOANG
  1

  0
LINE
  5
A
330
E5
100
AcDbEntity
  8
HOJO
100
AcDbLine
 10
0.0
 20
0.0
 30
0.0
 11
2.0
 21
0.0
 31
0.0
  0
ENDBLK
  5
B
330
E5
100
AcDbEntity
  8
0
100
AcDbBlockEnd
  0
BLOCK
  5
C
330
E6
100
AcDbEntity
  8
0
100
AcDbBlockBegin
  2
HOJOORG
 70
     0
 10
0.0
 20
0.0
 30
0.0
  3
HOJOORG
  1

  0
LINE
  5
D
330
E6
100
AcDbEntity
  8
HOJOORG
100
AcDbLine
 10
-1.0
 20
0.0
 30
0.0
 11
1.0
 21
0.0
 31
0.0
  0
ENDBLK
  5
E
330
E6
100
AcDbEntity
  8
0
100
AcDbBlockEnd
  0
BLOCK
  5
F
330
E7
100
AcDbEntity
  8
0
100
AcDbBlockBegin
  2
WAKU
 70
     0
 10
0.0
 20
0.0
 30
0.0
  3
WAKU
  1

  0
LINE
  5
10
330
E7
100
AcDbEntity
  8
WAKU
100
AcDbLine
 10
0.999999996
 20
0.0
 30
0.0
 11
0.999999996
 21
0.9999999999999998
 31
0.0
  0
LINE
  5
11
330
E7
100
AcDbEntity
  8
WAKU
100
AcDbLine
 10
0.0
 20
0.9999999999999998
 30
0.0
 11
0.999999996
 21
0.9999999999999998
 31
0.0
  0
LINE
  5
12
330
E7
100
AcDbEntity
  8
WAKU
100
AcDbLine
 10
0.999999996
 20
0.0
 30
0.0
 11
0.0
 21
0.0
 31
0.0
  0
LINE
  5
13
330
E7
100
AcDbEntity
  8
WAKU
100
AcDbLine
 10
0.0
 20
0.0
 30
0.0
 11
0.0
 21
0.9999999999999998
 31
0.0
  0
ENDBLK
  5
14
330
E7
100
AcDbEntity
  8
0
100
AcDbBlockEnd
  0
BLOCK
  5
15
330
E8
100
AcDbEntity
  8
0
100
AcDbBlockBegin
  2
DOT
 70
     0
 10
0.0
 20
0.0
 30
0.0
  3
DOT
  1

  0
LWPOLYLINE
  5
16
330
E8
100
AcDbEntity
  8
JISSEN
  6
BYBLOCK
 62
     0
100
AcDbPolyline
 90
        2
 70
     1
 43
0.5
 10
-0.25
 20
0.0
 42
1.0
 10
0.25
 20
0.0
 42
1.0
  0
LINE
  5
1A
330
E8
100
AcDbEntity
  8
JISSEN
  6
BYBLOCK
 62
     0
100
AcDbLine
 10
-0.5
 20
0.0
 30
0.0
 11
-1.0
 21
0.0
 31
0.0
  0
ENDBLK
  5
1B
330
E8
100
AcDbEntity
  8
0
100
AcDbBlockEnd
  0
BLOCK
  5
1D
330
E9
100
AcDbEntity
  8
0
100
AcDbBlockBegin
  2
ARROWANG
 70
     0
 10
0.0
 20
0.0
 30
0.0
  3
ARROWANG
  1

  0
LINE
  5
1E
330
E9
100
AcDbEntity
  8
SUNPOU
100
AcDbLine
 10
0.0
 20
0.0
 30
0.0
 11
-1.499999999999957
 21
0.4019237886467409
 31
0.0
  0
LINE
  5
1F
330
E9
100
AcDbEntity
  8
SUNPOU
100
AcDbLine
 10
0.0
 20
0.0
 30
0.0
 11
-1.500000000000028
 21
-0.4019237886467124
 31
0.0
  0
ENDBLK
  5
20
330
E9
100
AcDbEntity
  8
0
100
AcDbBlockEnd
  0
BLOCK
  5
27
330
EA
100
AcDbEntity
  8
0
100
AcDbBlockBegin
  2
HOJOC
 70
     0
 10
0.0
 20
0.0
 30
0.0
  3
HOJOC
  1

  0
CIRCLE
  5
7D
330
EA
100
AcDbEntity
  8
HOJO
100
AcDbCircle
 10
0.0
 20
0.0
 30
0.0
 40
1.0
  0
ENDBLK
  5
7F
330
EA
100
AcDbEntity
  8
0
100
AcDbBlockEnd
  0
BLOCK
  5
81
330
EB
100
AcDbEntity
  8
0
100
AcDbBlockBegin
  2
HOJOORGC
 70
     0
 10
0.0
 20
0.0
 30
0.0
  3
HOJOORGC
  1

  0
CIRCLE
  5
AA
330
EB
100
AcDbEntity
  8
HOJOORG
100
AcDbCircle
 10
0.0
 20
0.0
 30
0.0
 40
1.0
  0
ENDBLK
  5
AC
330
EB
100
AcDbEntity
  8
0
100
AcDbBlockEnd
  0
BLOCK
  5
B2
330
EC
100
AcDbEntity
  8
0
100
AcDbBlockBegin
  2
HOJOCR
 70
     0
 10
0.0
 20
0.0
 30
0.0
  3
HOJOCR
  1

  0
LINE
  5
B3
330
EC
100
AcDbEntity
  8
HOJO
100
AcDbLine
 10
-1.0
 20
0.0
 30
0.0
 11
1.0
 21
0.0
 31
0.0
  0
LINE
  5
B4
330
EC
100
AcDbEntity
  8
HOJO
100
AcDbLine
 10
0.0
 20
-1.0
 30
0.0
 11
0.0
 21
1.0
 31
0.0
  0
ENDBLK
  5
B5
330
EC
100
AcDbEntity
  8
0
100
AcDbBlockEnd
  0
BLOCK
  5
B8
330
ED
100
AcDbEntity
  8
0
100
AcDbBlockBegin
  2
HOJOORGCR
 70
     0
 10
0.0
 20
0.0
 30
0.0
  3
HOJOORGCR
  1

  0
INSERT
  5
B9
330
ED
100
AcDbEntity
  8
JISSEN
100
AcDbBlockReference
  2
HOJOORG
 10
0.0
 20
0.0
 30
0.0
 50
90.0
  0
INSERT
  5
BA
330
ED
100
AcDbEntity
  8
JISSEN
100
AcDbBlockReference
  2
HOJOORG
 10
0.0
 20
0.0
 30
0.0
  0
ENDBLK
  5
BB
330
ED
100
AcDbEntity
  8
0
100
AcDbBlockEnd
  0
BLOCK
  5
BD
330
EE
100
AcDbEntity
  8
0
100
AcDbBlockBegin
  2
CENLINE
 70
     0
 10
0.0
 20
0.0
 30
0.0
  3
CENLINE
  1

  0
LINE
  5
BE
330
EE
100
AcDbEntity
  8
ITTEN
100
AcDbLine
 10
0.0
 20
0.0
 30
0.0
 11
1.0
 21
0.0
 31
0.0
  0
ENDBLK
  5
BF
330
EE
100
AcDbEntity
  8
0
100
AcDbBlockEnd
  0
BLOCK
  5
C4
330
EF
100
AcDbEntity
  8
0
100
AcDbBlockBegin
  2
CENCRS
 70
     0
 10
0.0
 20
0.0
 30
0.0
  3
CENCRS
  1

  0
LINE
  5
C5
330
EF
100
AcDbEntity
  8
ITTEN
100
AcDbLine
 10
0.0
 20
0.5
 30
0.0
 11
0.0
 21
-0.5
 31
0.0
  0
LINE
  5
C6
330
EF
100
AcDbEntity
  8
ITTEN
100
AcDbLine
 10
-0.5
 20
0.0
 30
0.0
 11
0.5
 21
0.0
 31
0.0
  0
ENDBLK
  5
C7
330
EF
100
AcDbEntity
  8
0
100
AcDbBlockEnd
  0
BLOCK
  5
196
330
192
100
AcDbEntity
  8
0
100
AcDbBlockBegin
  2
A$C177A3D75
 70
     0
 10
0.0
 20
0.0
 30
0.0
  3
A$C177A3D75
  1

  0
ELLIPSE
  5
193
330
192
100
AcDbEntity
  8
JISSEN
100
AcDbEllipse
 10
139.9999985998383
 20
176.9999998089024
 30
0.0
 11
-333.9886521455913
 21
0.0000000000050412
 31
0.0
210
0.0
220
0.0
230
1.0
 40
0.5299581254121253
 41
1.165544440671902
 42
1.976048212917049
  0
ARC
  5
194
330
192
100
AcDbEntity
  8
JISSEN
100
AcDbCircle
 10
259.9999985998408
 20
30.57503618288023
 30
0.0
 40
20.0
100
AcDbArc
 50
305.7151272310024
 51
0.0
  0
ARC
  5
195
330
192
100
AcDbEntity
  8
JISSEN
100
AcDbCircle
 10
19.99999859980846
 20
30.57503618277337
 30
0.0
 40
20.0
100
AcDbArc
 50
180.0000000000509
 51
234.2848727681652
  0
ENDBLK
  5
197
330
192
100
AcDbEntity
  8
0
100
AcDbBlockEnd
  0
BLOCK
  5
1C4
330
1A3
100
AcDbEntity
  8
0
100
AcDbBlockBegin
  2
A$C7F7C75AF
 70
     0
 10
0.0
 20
0.0
 30
0.0
  3
A$C7F7C75AF
  1

  0
ARC
  5
1A4
330
1A3
100
AcDbEntity
  8
0
100
AcDbCircle
 10
134.999998599841
 20
5.000000334143919
 30
0.0
 40
5.0
100
AcDbArc
 50
180.0
 51
269.9999999999997
  0
ARC
  5
1A5
330
1A3
100
AcDbEntity
  8
0
100
AcDbCircle
 10
184.9999985998409
 20
5.000000334143578
 30
0.0
 40
5.0
100
AcDbArc
 50
269.9999999999998
 51
359.9999999999998
  0
ARC
  5
1A6
330
1A3
100
AcDbEntity
  8
JISSEN
100
AcDbCircle
 10
259.9999985997257
 20
354.4249639602728
 30
0.0
 40
20.0
100
AcDbArc
 50
0.0000000000509992
 51
54.28487276816525
  0
ARC
  5
1A7
330
1A3
100
AcDbEntity
  8
JISSEN
100
AcDbCircle
 10
19.99999859969335
 20
354.4249639601659
 30
0.0
 40
20.0
100
AcDbArc
 50
125.7151272310024
 51
180.0
  0
ELLIPSE
  5
1A8
330
1A3
100
AcDbEntity
  8
JISSEN
100
AcDbEllipse
 10
139.9999985996958
 20
208.0000003341438
 30
0.0
 11
333.9886521455913
 21
-0.0000000000050821
 31
0.0
210
0.0
220
0.0
230
1.0
 40
0.5299581254121253
 41
1.165544440671902
 42
1.976048212917049
  0
LINE
  5
1A9
330
1A3
100
AcDbEntity
  8
0
100
AcDbLine
 10
32.65190089376943
 20
40.39174193440146
 30
0.0
 11
29.99999859984098
 21
40.6237533218964
 31
0.0
  0
ELLIPSE
  5
1AA
330
1A3
100
AcDbEntity
  8
JISSEN
100
AcDbEllipse
 10
139.9999985998383
 20
208.0000003341438
 30
0.0
 11
-333.9886521455913
 21
0.0000000000050412
 31
0.0
210
0.0
220
0.0
230
1.0
 40
0.5299581254121253
 41
1.165544440671902
 42
1.976048212917049
  0
ARC
  5
1AB
330
1A3
100
AcDbEntity
  8
JISSEN
100
AcDbCircle
 10
19.99999859984098
 20
354.4249639601659
 30
0.0
 40
20.0
100
AcDbArc
 50
125.7151272309597
 51
180.0
  0
ARC
  5
1AC
330
1A3
100
AcDbEntity
  8
0
100
AcDbCircle
 10
112.9999985998409
 20
30.00000033414357
 30
0.0
 40
5.0
100
AcDbArc
 50
179.9999999999996
 51
270.0000000000001
  0
ARC
  5
1AD
330
1A3
100
AcDbEntity
  8
JISSEN
100
AcDbCircle
 10
19.99999859980846
 20
61.57503670801474
 30
0.0
 40
20.0
100
AcDbArc
 50
180.0000000000509
 51
234.2848727681652
  0
ARC
  5
1AE
330
1A3
100
AcDbEntity
  8
0
100
AcDbCircle
 10
259.9999985998408
 20
45.0000003341438
 30
0.0
 40
20.0
100
AcDbArc
 50
270.0000000000001
 51
359.9999999999999
  0
ARC
  5
1AF
330
1A3
100
AcDbEntity
  8
JISSEN
100
AcDbCircle
 10
259.9999985998408
 20
61.57503670812161
 30
0.0
 40
20.0
100
AcDbArc
 50
305.7151272310024
 51
0.0
  0
LINE
  5
1B0
330
1A3
100
AcDbEntity
  8
0
100
AcDbLine
 10
112.9999985998409
 20
25.00000033414357
 30
0.0
 11
259.9999985998408
 21
25.0000003341438
 31
0.0
  0
LINE
  5
1B1
330
1A3
100
AcDbEntity
  8
ITTEN
100
AcDbLine
 10
207.999998599841
 20
265.000000334144
 30
0.0
 11
207.9999985998409
 21
315.0000003341435
 31
0.0
  0
LINE
  5
1B2
330
1A3
100
AcDbEntity
  8
ITTEN
100
AcDbLine
 10
71.99999859984109
 20
265.0000003341438
 30
0.0
 11
71.99999859984103
 21
315.0000003341435
 31
0.0
  0
LINE
  5
1B3
330
1A3
100
AcDbEntity
  8
0
100
AcDbLine
 10
184.9999985998409
 20
285.0000003341438
 30
0.0
 11
184.9999985998409
 21
290.0000003341438
 31
0.0
  0
LINE
  5
1B4
330
1A3
100
AcDbEntity
  8
0
100
AcDbLine
 10
234.9999985998408
 20
285.0000003341438
 30
0.0
 11
234.9999985998408
 21
290.0000003341438
 31
0.0
  0
LINE
  5
1B5
330
1A3
100
AcDbEntity
  8
0
100
AcDbLine
 10
184.9999985998409
 20
290.0000003341438
 30
0.0
 11
234.9999985998408
 21
290.0000003341438
 31
0.0
  0
LINE
  5
1B6
330
1A3
100
AcDbEntity
  8
0
100
AcDbLine
 10
184.999998599841
 20
290.0000003341435
 30
0.0
 11
234.9999985998409
 21
290.0000003341438
 31
0.0
  0
LINE
  5
1B7
330
1A3
100
AcDbEntity
  8
0
100
AcDbLine
 10
29.99999859984098
 20
285.0000003341435
 30
0.0
 11
279.9999985998409
 21
285.0000003341438
 31
0.0
  0
LINE
  5
1B8
330
1A3
100
AcDbEntity
  8
0
100
AcDbLine
 10
46.99999859984103
 20
290.0000003341438
 30
0.0
 11
96.99999859984092
 21
290.0000003341438
 31
0.0
  0
LINE
  5
1B9
330
1A3
100
AcDbEntity
  8
0
100
AcDbLine
 10
96.99999859984092
 20
285.0000003341438
 30
0.0
 11
96.99999859984092
 21
290.0000003341438
 31
0.0
  0
LINE
  5
1BA
330
1A3
100
AcDbEntity
  8
0
100
AcDbLine
 10
46.99999859984103
 20
285.0000003341438
 30
0.0
 11
46.99999859984103
 21
290.0000003341438
 31
0.0
  0
LINE
  5
1BB
330
1A3
100
AcDbEntity
  8
0
100
AcDbLine
 10
-0.0000014001589648
 20
285.0000003341438
 30
0.0
 11
29.99999859984098
 21
285.0000003341438
 31
0.0
  0
LINE
  5
1BC
330
1A3
100
AcDbEntity
  8
0
100
AcDbLine
 10
29.99999859984098
 20
40.6237533218964
 30
0.0
 11
29.99999859984098
 21
375.1246456209844
 31
0.0
  0
LINE
  5
1BD
330
1A3
100
AcDbEntity
  8
0
100
AcDbLine
 10
249.9999985998408
 20
40.87535504731852
 30
0.0
 11
249.9999985998408
 21
375.1246456209526
 31
0.0
  0
LINE
  5
1BE
330
1A3
100
AcDbEntity
  8
0
100
AcDbLine
 10
107.9999985998409
 20
30.00000033414357
 30
0.0
 11
107.9999985998409
 21
31.8142919166986
 31
0.0
  0
LINE
  5
1BF
330
1A3
100
AcDbEntity
  8
0
100
AcDbLine
 10
-0.0000014001589648
 20
61.57503670801474
 30
0.0
 11
-0.0000014001590216
 21
354.4249639601659
 31
0.0
  0
LINE
  5
1C0
330
1A3
100
AcDbEntity
  8
0
100
AcDbLine
 10
279.9999985998408
 20
45.0000003341438
 30
0.0
 11
279.9999985998408
 21
354.4249639602728
 31
0.0
  0
LINE
  5
1C1
330
1A3
100
AcDbEntity
  8
0
100
AcDbLine
 10
129.999998599841
 20
5.000000334143919
 30
0.0
 11
129.9999985998409
 21
25.00000033414369
 31
0.0
  0
LINE
  5
1C2
330
1A3
100
AcDbEntity
  8
0
100
AcDbLine
 10
189.9999985998409
 20
5.000000334143578
 30
0.0
 11
189.999998599841
 21
25.0000003341438
 31
0.0
  0
LINE
  5
1C3
330
1A3
100
AcDbEntity
  8
0
100
AcDbLine
 10
134.999998599841
 20
0.0000003341439196
 30
0.0
 11
184.9999985998409
 21
0.0000003341435786
 31
0.0
  0
ENDBLK
  5
1C5
330
1A3
100
AcDbEntity
  8
0
100
AcDbBlockEnd
  0
BLOCK
  5
30D
330
200
100
AcDbEntity
  8
0
100
AcDbBlockBegin
  2
A$C39A14254
 70
     0
 10
0.0
 20
0.0
 30
0.0
  3
A$C39A14254
  1

  0
LINE
  5
201
330
200
100
AcDbEntity
  8
WAKU
100
AcDbLine
 10
1930.000001896394
 20
28.9999976748586
 30
0.0
 11
25.00000189639468
 21
28.9999976748586
 31
0.0
  0
LINE
  5
202
330
200
100
AcDbEntity
  8
WAKU
100
AcDbLine
 10
25.00000189639468
 20
1353.999997674858
 30
0.0
 11
1930.000001896394
 21
1353.999997674858
 31
0.0
  0
LINE
  5
203
330
200
100
AcDbEntity
  8
WAKU
100
AcDbLine
 10
25.00000189639468
 20
28.9999976748586
 30
0.0
 11
25.00000189639468
 21
1353.999997674858
 31
0.0
  0
LINE
  5
204
330
200
100
AcDbEntity
  8
SUNPOU
100
AcDbLine
 10
540.0000018963947
 20
58.9999976748586
 30
0.0
 11
75.00000189639468
 21
58.9999976748586
 31
0.0
  0
LINE
  5
205
330
200
100
AcDbEntity
  8
SUNPOU
100
AcDbLine
 10
75.00000189639468
 20
88.9999976748586
 30
0.0
 11
540.0000018963947
 21
88.9999976748586
 31
0.0
  0
LINE
  5
206
330
200
100
AcDbEntity
  8
SUNPOU
100
AcDbLine
 10
540.0000018963947
 20
118.9999976748586
 30
0.0
 11
75.00000189639468
 21
118.9999976748586
 31
0.0
  0
LINE
  5
207
330
200
100
AcDbEntity
  8
SUNPOU
100
AcDbLine
 10
75.00000189639468
 20
58.9999976748586
 30
0.0
 11
540.0000018963947
 21
58.9999976748586
 31
0.0
  0
LINE
  5
208
330
200
100
AcDbEntity
  8
SUNPOU
100
AcDbLine
 10
540.0000018963947
 20
88.9999976748586
 30
0.0
 11
75.00000189639468
 21
88.9999976748586
 31
0.0
  0
LINE
  5
209
330
200
100
AcDbEntity
  8
SUNPOU
100
AcDbLine
 10
75.00000189639468
 20
118.9999976748586
 30
0.0
 11
540.0000018963947
 21
118.9999976748586
 31
0.0
  0
LINE
  5
20A
330
200
100
AcDbEntity
  8
SUNPOU
100
AcDbLine
 10
540.0000018963947
 20
148.9999976748586
 30
0.0
 11
25.00000189639468
 21
148.9999976748586
 31
0.0
  0
LINE
  5
20B
330
200
100
AcDbEntity
  8
SUNPOU
100
AcDbLine
 10
47.50000189639467
 20
148.9999976748586
 30
0.0
 11
25.00000189639468
 21
118.9999976748586
 31
0.0
  0
LINE
  5
20C
330
200
100
AcDbEntity
  8
SUNPOU
100
AcDbLine
 10
47.50000189639467
 20
88.9999976748586
 30
0.0
 11
25.00000189639468
 21
58.9999976748586
 31
0.0
  0
LINE
  5
20D
330
200
100
AcDbEntity
  8
SUNPOU
100
AcDbLine
 10
47.50000189639467
 20
118.9999976748586
 30
0.0
 11
25.00000189639468
 21
88.9999976748586
 31
0.0
  0
LINE
  5
20E
330
200
100
AcDbEntity
  8
SUNPOU
100
AcDbLine
 10
70.00000189639468
 20
118.9999976748586
 30
0.0
 11
25.00000189639468
 21
118.9999976748586
 31
0.0
  0
LINE
  5
20F
330
200
100
AcDbEntity
  8
SUNPOU
100
AcDbLine
 10
25.00000189639468
 20
88.9999976748586
 30
0.0
 11
70.00000189639468
 21
88.9999976748586
 31
0.0
  0
LINE
  5
210
330
200
100
AcDbEntity
  8
SUNPOU
100
AcDbLine
 10
70.00000189639468
 20
58.9999976748586
 30
0.0
 11
25.00000189639468
 21
58.9999976748586
 31
0.0
  0
LINE
  5
211
330
200
100
AcDbEntity
  8
SUNPOU
100
AcDbLine
 10
70.00000189639468
 20
58.9999976748586
 30
0.0
 11
25.00000189639468
 21
58.9999976748586
 31
0.0
  0
LINE
  5
212
330
200
100
AcDbEntity
  8
SUNPOU
100
AcDbLine
 10
70.00000189639468
 20
88.9999976748586
 30
0.0
 11
25.00000189639468
 21
88.9999976748586
 31
0.0
  0
LINE
  5
213
330
200
100
AcDbEntity
  8
SUNPOU
100
AcDbLine
 10
70.00000189639468
 20
118.9999976748586
 30
0.0
 11
25.00000189639468
 21
118.9999976748586
 31
0.0
  0
TEXT
  5
214
330
200
100
AcDbEntity
  8
TEXT
100
AcDbText
 10
31.50000189639468
 20
36.4999976748586
 30
0.0
 40
15.0
  1
記号
  7
K
 72
     4
 11
47.50000189639467
 21
43.9999976748586
 31
0.0
100
AcDbText
  0
LINE
  5
215
330
200
100
AcDbEntity
  8
SUNPOU
100
AcDbLine
 10
75.00000189639468
 20
28.9999976748586
 30
0.0
 11
75.00000189639468
 21
148.9999976748586
 31
0.0
  0
LINE
  5
216
330
200
100
AcDbEntity
  8
SUNPOU
100
AcDbLine
 10
70.00000189639468
 20
148.9999976748586
 30
0.0
 11
70.00000189639468
 21
28.9999976748586
 31
0.0
  0
LINE
  5
217
330
200
100
AcDbEntity
  8
SUNPOU
100
AcDbLine
 10
70.00000189639468
 20
28.9999976748586
 30
0.0
 11
70.00000189639468
 21
148.9999976748586
 31
0.0
  0
LINE
  5
218
330
200
100
AcDbEntity
  8
SUNPOU
100
AcDbLine
 10
75.00000189639468
 20
148.9999976748586
 30
0.0
 11
75.00000189639468
 21
28.9999976748586
 31
0.0
  0
LINE
  5
219
330
200
100
AcDbEntity
  8
SUNPOU
100
AcDbLine
 10
275.0000018963946
 20
148.9999976748586
 30
0.0
 11
275.0000018963946
 21
28.9999976748586
 31
0.0
  0
TEXT
  5
21A
330
200
100
AcDbEntity
  8
TEXT
100
AcDbText
 10
114.5000018963946
 20
36.4999976748586
 30
0.0
 40
15.0
  1
変更内容・理由
  7
K
 72
     4
 11
175.0000018963946
 21
43.9999976748586
 31
0.0
100
AcDbText
  0
TEXT
  5
21B
330
200
100
AcDbEntity
  8
TEXT
100
AcDbText
 10
291.0000018963946
 20
36.4999976748586
 30
0.0
 40
15.0
  1
設変番号
  7
K
 72
     4
 11
325.0000018963946
 21
43.9999976748586
 31
0.0
100
AcDbText
  0
LINE
  5
21C
330
200
100
AcDbEntity
  8
SUNPOU
100
AcDbLine
 10
47.50000189639467
 20
118.9999976748586
 30
0.0
 11
70.00000189639468
 21
88.9999976748586
 31
0.0
  0
LINE
  5
21D
330
200
100
AcDbEntity
  8
SUNPOU
100
AcDbLine
 10
47.50000189639467
 20
88.9999976748586
 30
0.0
 11
70.00000189639468
 21
58.9999976748586
 31
0.0
  0
LINE
  5
21E
330
200
100
AcDbEntity
  8
SUNPOU
100
AcDbLine
 10
70.00000189639468
 20
118.9999976748586
 30
0.0
 11
47.50000189639467
 21
148.9999976748586
 31
0.0
  0
LINE
  5
21F
330
200
100
AcDbEntity
  8
WAKU
100
AcDbLine
 10
25.00000189639468
 20
713.9999976748586
 30
0.0
 11
0.0000018963946786
 21
713.9999976748586
 31
0.0
  0
LINE
  5
220
330
200
100
AcDbEntity
  8
WAKU
100
AcDbLine
 10
540.0000018963947
 20
148.9999976748586
 30
0.0
 11
540.0000018963947
 21
28.9999976748586
 31
0.0
  0
LINE
  5
221
330
200
100
AcDbEntity
  8
SUNPOU
100
AcDbLine
 10
495.0000018963947
 20
28.9999976748586
 30
0.0
 11
495.0000018963947
 21
148.9999976748586
 31
0.0
  0
LINE
  5
222
330
200
100
AcDbEntity
  8
SUNPOU
100
AcDbLine
 10
450.0000018963946
 20
148.9999976748586
 30
0.0
 11
450.0000018963946
 21
28.9999976748586
 31
0.0
  0
LINE
  5
223
330
200
100
AcDbEntity
  8
SUNPOU
100
AcDbLine
 10
375.0000018963946
 20
28.9999976748586
 30
0.0
 11
375.0000018963946
 21
148.9999976748586
 31
0.0
  0
TEXT
  5
224
330
200
100
AcDbEntity
  8
TEXT
100
AcDbText
 10
456.8214304678232
 20
36.4999976748586
 30
0.0
 40
15.0
  1
担当
  7
K
 72
     4
 11
472.5000018963946
 21
43.9999976748586
 31
0.0
100
AcDbText
  0
TEXT
  5
225
330
200
100
AcDbEntity
  8
TEXT
100
AcDbText
 10
370.5000018963946
 20
36.4999976748586
 30
0.0
 40
15.0
  1
 年 月 日
  7
K
 72
     4
 11
412.5000018963946
 21
43.9999976748586
 31
0.0
100
AcDbText
  0
TEXT
  5
226
330
200
100
AcDbEntity
  8
TEXT
100
AcDbText
 10
502.0000018963947
 20
36.4999976748586
 30
0.0
 40
15.0
  1
検図
  7
K
 72
     4
 11
517.5000018963946
 21
43.9999976748586
 31
0.0
100
AcDbText
  0
TEXT
  5
227
330
200
100
AcDbEntity
  8
TEXT
100
AcDbText
 10
45.16172300405654
 20
1386.221367643795
 30
0.0
 40
15.0
  1
5
 50
180.0
  7
K
100
AcDbText
  0
LINE
  5
228
330
200
100
AcDbEntity
  8
WAKU
100
AcDbLine
 10
325.0000018963946
 20
1403.999997674858
 30
0.0
 11
25.00000189639468
 21
1403.999997674858
 31
0.0
  0
LINE
  5
229
330
200
100
AcDbEntity
  8
WAKU
100
AcDbLine
 10
25.00000189639468
 20
1353.999997674858
 30
0.0
 11
25.00000189639468
 21
1403.999997674858
 31
0.0
  0
TEXT
  5
22A
330
200
100
AcDbEntity
  8
TEXT
100
AcDbText
 10
69.16172300405654
 20
1386.221367643795
 30
0.0
 40
15.0
  1
0
 50
180.0
  7
K
100
AcDbText
  0
TEXT
  5
22B
330
200
100
AcDbEntity
  8
TEXT
100
AcDbText
 10
117.1617230040565
 20
1386.221367643795
 30
0.0
 40
15.0
  1
3
 50
180.0
  7
K
100
AcDbText
  0
TEXT
  5
22C
330
200
100
AcDbEntity
  8
TEXT
100
AcDbText
 10
93.16172300405654
 20
1386.221367643795
 30
0.0
 40
15.0
  1
0
 50
180.0
  7
K
100
AcDbText
  0
LINE
  5
22D
330
200
100
AcDbEntity
  8
TENSEN
100
AcDbLine
 10
97.00000189639457
 20
1353.999997674858
 30
0.0
 11
97.00000189639457
 21
1403.999997674858
 31
0.0
  0
LINE
  5
22E
330
200
100
AcDbEntity
  8
TENSEN
100
AcDbLine
 10
73.00000189639479
 20
1403.999997674858
 30
0.0
 11
73.00000189639479
 21
1353.999997674858
 31
0.0
  0
LINE
  5
22F
330
200
100
AcDbEntity
  8
TENSEN
100
AcDbLine
 10
49.00000189639474
 20
1353.999997674858
 30
0.0
 11
49.00000189639474
 21
1403.999997674858
 31
0.0
  0
TEXT
  5
230
330
200
100
AcDbEntity
  8
TEXT
100
AcDbText
 10
141.1617230040565
 20
1386.221367643795
 30
0.0
 40
15.0
  1
0
 50
180.0
  7
K
100
AcDbText
  0
TEXT
  5
231
330
200
100
AcDbEntity
  8
TEXT
100
AcDbText
 10
189.1617230040565
 20
1386.221367643795
 30
0.0
 40
15.0
  1
S
 50
180.0
  7
K
100
AcDbText
  0
TEXT
  5
232
330
200
100
AcDbEntity
  8
TEXT
100
AcDbText
 10
165.1617230040565
 20
1386.221367643795
 30
0.0
 40
15.0
  1
0
 50
180.0
  7
K
100
AcDbText
  0
LINE
  5
233
330
200
100
AcDbEntity
  8
TENSEN
100
AcDbLine
 10
193.0000018963947
 20
1353.999997674858
 30
0.0
 11
193.0000018963947
 21
1403.999997674858
 31
0.0
  0
LINE
  5
234
330
200
100
AcDbEntity
  8
TENSEN
100
AcDbLine
 10
169.0000018963947
 20
1403.999997674858
 30
0.0
 11
169.0000018963947
 21
1353.999997674858
 31
0.0
  0
LINE
  5
235
330
200
100
AcDbEntity
  8
TENSEN
100
AcDbLine
 10
145.0000018963946
 20
1353.999997674858
 30
0.0
 11
145.0000018963946
 21
1403.999997674858
 31
0.0
  0
LINE
  5
236
330
200
100
AcDbEntity
  8
TENSEN
100
AcDbLine
 10
121.0000018963946
 20
1403.999997674858
 30
0.0
 11
121.0000018963946
 21
1353.999997674858
 31
0.0
  0
TEXT
  5
237
330
200
100
AcDbEntity
  8
TEXT
100
AcDbText
 10
310.9214807503282
 20
1386.48252282928
 30
0.0
 40
15.0
  1
図番
 50
180.0
  7
K
 72
     4
 11
294.4214807503282
 21
1378.98252282928
 31
0.0
100
AcDbText
  0
TEXT
  5
238
330
200
100
AcDbEntity
  8
TEXT
100
AcDbText
 10
237.1617230040565
 20
1386.221367643795
 30
0.0
 40
15.0
  1
C
 50
180.0
  7
K
100
AcDbText
  0
TEXT
  5
239
330
200
100
AcDbEntity
  8
TEXT
100
AcDbText
 10
213.1617230040565
 20
1386.221367643795
 30
0.0
 40
15.0
  1
6
 50
180.0
  7
K
100
AcDbText
  0
TEXT
  5
23A
330
200
100
AcDbEntity
  8
TEXT
100
AcDbText
 10
261.1617230040565
 20
1386.221367643795
 30
0.0
 40
15.0
  1
H
 50
180.0
  7
K
100
AcDbText
  0
LINE
  5
23B
330
200
100
AcDbEntity
  8
SUNPOU
100
AcDbLine
 10
265.0000018963946
 20
1353.999997674858
 30
0.0
 11
265.0000018963946
 21
1403.999997674858
 31
0.0
  0
LINE
  5
23C
330
200
100
AcDbEntity
  8
TENSEN
100
AcDbLine
 10
241.0000018963946
 20
1353.999997674858
 30
0.0
 11
241.0000018963946
 21
1403.999997674858
 31
0.0
  0
LINE
  5
23D
330
200
100
AcDbEntity
  8
TENSEN
100
AcDbLine
 10
217.0000018963945
 20
1403.999997674858
 30
0.0
 11
217.0000018963945
 21
1353.999997674858
 31
0.0
  0
LINE
  5
23E
330
200
100
AcDbEntity
  8
WAKU
100
AcDbLine
 10
325.0000018963946
 20
1403.999997674858
 30
0.0
 11
325.0000018963946
 21
1353.999997674858
 31
0.0
  0
TEXT
  5
23F
330
200
100
AcDbEntity
  8
TEXT
100
AcDbText
 10
1352.895797274477
 20
727.1278839891242
 30
0.0
 40
20.0
  1
定格時間：連続
  7
K
100
AcDbText
  0
LINE
  5
240
330
200
100
AcDbEntity
  8
WAKU
100
AcDbLine
 10
1930.000001896394
 20
1353.999997674858
 30
0.0
 11
1930.000001896394
 21
28.9999976748586
 31
0.0
  0
TEXT
  5
241
330
200
100
AcDbEntity
  8
TEXT
100
AcDbText
 10
1352.895797274477
 20
625.1278839891242
 30
0.0
 40
20.0
  1
          1.8Kg/min-60Hz
  7
K
100
AcDbText
  0
LINE
  5
242
330
200
100
AcDbEntity
  8
TEXT
100
AcDbLine
 10
1349.767736460098
 20
618.4844099386441
 30
0.0
 11
1901.449781928805
 21
618.4844099386441
 31
0.0
  0
LINE
  5
243
330
200
100
AcDbEntity
  8
TEXT
100
AcDbLine
 10
1349.767736460098
 20
652.4844099386442
 30
0.0
 11
1901.449781928805
 21
652.4844099386442
 31
0.0
  0
TEXT
  5
244
330
200
100
AcDbEntity
  8
TEXT
100
AcDbText
 10
1352.895797274477
 20
659.1278839891242
 30
0.0
 40
20.0
  1
氷削能力：1.5Kg/min-50Hz  
  7
K
100
AcDbText
  0
LINE
  5
245
330
200
100
AcDbEntity
  8
TEXT
100
AcDbLine
 10
1349.767736460098
 20
686.4844099386441
 30
0.0
 11
1901.449781928805
 21
686.4844099386441
 31
0.0
  0
TEXT
  5
246
330
200
100
AcDbEntity
  8
TEXT
100
AcDbText
 10
1352.895797274477
 20
693.1278839891242
 30
0.0
 40
20.0
  1
氷魂収容能力：約35個（30mm角)
  7
K
100
AcDbText
  0
LINE
  5
247
330
200
100
AcDbEntity
  8
TEXT
100
AcDbLine
 10
1349.767736460098
 20
720.4844099386441
 30
0.0
 11
1901.449781928805
 21
720.4844099386441
 31
0.0
  0
LINE
  5
248
330
200
100
AcDbEntity
  8
TEXT
100
AcDbLine
 10
1508.21252403602
 20
230.4899224868399
 30
0.0
 11
1726.991110920296
 21
230.4899224868399
 31
0.0
  0
TEXT
  5
249
330
200
100
AcDbEntity
  8
TEXT
100
AcDbText
 10
1655.53637926893
 20
168.9999976748586
 30
0.0
 40
15.0
  1
三 角 法
  7
K
100
AcDbText
  0
TEXT
  5
24A
330
200
100
AcDbEntity
  8
TEXT
100
AcDbText
 10
1652.425838013915
 20
48.9999976748586
 30
0.0
 40
10.0
  1
株式会社
  7
K
100
AcDbText
  0
LINE
  5
24B
330
200
100
AcDbEntity
  8
WAKU
100
AcDbLine
 10
1630.000001896394
 20
193.9999976748586
 30
0.0
 11
1930.000001896394
 21
193.9999976748586
 31
0.0
  0
LINE
  5
24C
330
200
100
AcDbEntity
  8
WAKU
100
AcDbLine
 10
1930.000001896394
 20
158.9999976748586
 30
0.0
 11
1630.000001896394
 21
158.9999976748586
 31
0.0
  0
LINE
  5
24D
330
200
100
AcDbEntity
  8
WAKU
100
AcDbLine
 10
1630.000001896394
 20
93.9999976748586
 30
0.0
 11
1930.000001896394
 21
93.9999976748586
 31
0.0
  0
LINE
  5
24E
330
200
100
AcDbEntity
  8
WAKU
100
AcDbLine
 10
1435.000001896394
 20
273.9999976748586
 30
0.0
 11
1755.000001896394
 21
273.9999976748586
 31
0.0
  0
TEXT
  5
24F
330
200
100
AcDbEntity
  8
TEXT
100
AcDbText
 10
1114.383556015447
 20
13.9999976748586
 30
0.0
 40
13.0
  1
複写図面配布先： 購買  →発注先 フード生産技術 フード品質保証 鋳造生産技術 ジョイテック （              ）
  7
K
100
AcDbText
  0
LINE
  5
250
330
200
100
AcDbEntity
  8
SUNPOU
100
AcDbLine
 10
1480.000001896394
 20
273.9999976748586
 30
0.0
 11
1480.000001896394
 21
193.9999976748586
 31
0.0
  0
LINE
  5
251
330
200
100
AcDbEntity
  8
WAKU
100
AcDbLine
 10
1435.000001896394
 20
193.9999976748586
 30
0.0
 11
1435.000001896394
 21
273.9999976748586
 31
0.0
  0
LINE
  5
252
330
200
100
AcDbEntity
  8
SUNPOU
100
AcDbLine
 10
1190.000001896394
 20
273.9999976748586
 30
0.0
 11
1190.000001896394
 21
152.7499976748586
 31
0.0
  0
LINE
  5
253
330
200
100
AcDbEntity
  8
WAKU
100
AcDbLine
 10
1055.000001896394
 20
273.9999976748586
 30
0.0
 11
1055.000001896394
 21
28.9999976748586
 31
0.0
  0
LINE
  5
254
330
200
100
AcDbEntity
  8
SUNPOU
100
AcDbLine
 10
1435.000001896394
 20
182.0277639444165
 30
0.0
 11
1330.000001896394
 21
28.9999976748586
 31
0.0
  0
TEXT
  5
255
330
200
100
AcDbEntity
  8
TEXT
100
AcDbText
 10
1343.000001896394
 20
166.5277639444165
 30
0.0
 40
13.5
  1
J
  7
K
 72
     1
 11
1347.500001896394
 21
173.2777639444165
 31
0.0
100
AcDbText
 73
     2
  0
TEXT
  5
256
330
200
100
AcDbEntity
  8
TEXT
100
AcDbText
 10
1337.500001896394
 20
111.1249902767172
 30
0.0
 40
10.0
  1
0.1
 41
0.8
  7
K
 11
1337.500001896394
 21
116.1249902767172
 31
0.0
100
AcDbText
 73
     2
  0
TEXT
  5
257
330
200
100
AcDbEntity
  8
TEXT
100
AcDbText
 10
1337.500001896394
 20
130.4860997437969
 30
0.0
 40
10.0
  1
0.05
 41
0.8
  7
K
 11
1337.500001896394
 21
135.4860997437969
 31
0.0
100
AcDbText
 73
     2
  0
TEXT
  5
258
330
200
100
AcDbEntity
  8
TEXT
100
AcDbText
 10
1337.500001896394
 20
149.8472092108766
 30
0.0
 40
10.0
  1
0.05
 41
0.8
  7
K
 11
1337.500001896394
 21
154.8472092108766
 31
0.0
100
AcDbText
 73
     2
  0
TEXT
  5
259
330
200
100
AcDbEntity
  8
TEXT
100
AcDbText
 10
1337.500001896394
 20
53.04166187547815
 30
0.0
 40
10.0
  1
0.3
 41
0.8
  7
K
 11
1337.500001896394
 21
58.04166187547815
 31
0.0
100
AcDbText
 73
     2
  0
TEXT
  5
25A
330
200
100
AcDbEntity
  8
TEXT
100
AcDbText
 10
1337.500001896394
 20
72.40277134255785
 30
0.0
 40
10.0
  1
0.2
 41
0.8
  7
K
 11
1337.500001896394
 21
77.40277134255785
 31
0.0
100
AcDbText
 73
     2
  0
TEXT
  5
25B
330
200
100
AcDbEntity
  8
TEXT
100
AcDbText
 10
1337.500001896394
 20
91.76388080963755
 30
0.0
 40
10.0
  1
0.15
 41
0.8
  7
K
 11
1337.500001896394
 21
96.76388080963755
 31
0.0
100
AcDbText
 73
     2
  0
TEXT
  5
25C
330
200
100
AcDbEntity
  8
TEXT
100
AcDbText
 10
1337.500001896394
 20
33.68055240839845
 30
0.0
 40
10.0
  1
0.5
 41
0.8
  7
K
 11
1337.500001896394
 21
38.68055240839845
 31
0.0
100
AcDbText
 73
     2
  0
LINE
  5
25D
330
200
100
AcDbEntity
  8
TEXT
100
AcDbLine
 10
1435.000001896394
 20
48.3611071419383
 30
0.0
 11
1225.000001896394
 21
48.3611071419383
 31
0.0
  0
LINE
  5
25E
330
200
100
AcDbEntity
  8
TEXT
100
AcDbLine
 10
1225.000001896394
 20
67.722216609018
 30
0.0
 11
1435.000001896394
 21
67.722216609018
 31
0.0
  0
LINE
  5
25F
330
200
100
AcDbEntity
  8
TEXT
100
AcDbLine
 10
1435.000001896394
 20
87.0833260760977
 30
0.0
 11
1225.000001896394
 21
87.0833260760977
 31
0.0
  0
LINE
  5
260
330
200
100
AcDbEntity
  8
TEXT
100
AcDbLine
 10
1225.000001896394
 20
106.4444355431774
 30
0.0
 11
1435.000001896394
 21
106.4444355431774
 31
0.0
  0
LINE
  5
261
330
200
100
AcDbEntity
  8
TEXT
100
AcDbLine
 10
1435.000001896394
 20
125.8055450102571
 30
0.0
 11
1225.000001896394
 21
125.8055450102571
 31
0.0
  0
LINE
  5
262
330
200
100
AcDbEntity
  8
TEXT
100
AcDbLine
 10
1225.000001896394
 20
145.1666544773368
 30
0.0
 11
1435.000001896394
 21
145.1666544773368
 31
0.0
  0
LINE
  5
263
330
200
100
AcDbEntity
  8
TEXT
100
AcDbLine
 10
1435.000001896394
 20
212.6851751878971
 30
0.0
 11
1055.000001896394
 21
212.6851751878971
 31
0.0
  0
LINE
  5
264
330
200
100
AcDbEntity
  8
TEXT
100
AcDbLine
 10
1055.000001896394
 20
243.3425864313779
 30
0.0
 11
1435.000001896394
 21
243.3425864313779
 31
0.0
  0
LINE
  5
265
330
200
100
AcDbEntity
  8
TEXT
100
AcDbLine
 10
1225.000001896394
 20
164.5277639444165
 30
0.0
 11
1435.000001896394
 21
164.5277639444165
 31
0.0
  0
LINE
  5
266
330
200
100
AcDbEntity
  8
WAKU
100
AcDbLine
 10
1435.000001896394
 20
182.0277639444165
 30
0.0
 11
1055.000001896394
 21
182.0277639444165
 31
0.0
  0
LINE
  5
267
330
200
100
AcDbEntity
  8
TEXT
100
AcDbLine
 10
1330.000001896394
 20
182.0277639444165
 30
0.0
 11
1330.000001896394
 21
28.9999976748586
 31
0.0
  0
TEXT
  5
268
330
200
100
AcDbEntity
  8
TEXT
100
AcDbText
 10
1228.880324618021
 20
33.68055240839845
 30
0.0
 40
10.0
  1
1000ｦｺｴ
 41
0.8
  7
K
 72
     2
 11
1272.156515094212
 21
38.68055240839845
 31
0.0
100
AcDbText
 73
     2
  0
LINE
  5
269
330
200
100
AcDbEntity
  8
TEXT
100
AcDbLine
 10
1225.000001896394
 20
182.0277639444165
 30
0.0
 11
1225.000001896394
 21
28.9999976748586
 31
0.0
  0
LINE
  5
26A
330
200
100
AcDbEntity
  8
SUNPOU
100
AcDbLine
 10
1190.000001896394
 20
152.7499976748586
 30
0.0
 11
1190.000001896394
 21
28.9999976748586
 31
0.0
  0
TEXT
  5
26B
330
200
100
AcDbEntity
  8
TEXT
100
AcDbText
 10
1277.79362024922
 20
33.68055240839845
 30
0.0
 40
10.0
  1
2000以下
 41
0.8
  7
K
 72
     2
 11
1325.336477392077
 21
38.68055240839845
 31
0.0
100
AcDbText
 73
     2
  0
TEXT
  5
26C
330
200
100
AcDbEntity
  8
TEXT
100
AcDbText
 10
1114.383556015447
 20
-0.0000023251414518
 30
0.0
 40
12.0
  1
（必要に応じて追加・抹消）
  7
K
100
AcDbText
  0
TEXT
  5
26D
330
200
100
AcDbEntity
  8
TEXT
100
AcDbText
 10
1062.500001896394
 20
33.43701394855537
 30
0.0
 40
10.0
  1
～
  7
K
 11
1062.500001896394
 21
38.43701394855537
 31
0.0
100
AcDbText
 73
     2
  0
LINE
  5
26E
330
200
100
AcDbEntity
  8
TEXT
100
AcDbLine
 10
1055.000001896394
 20
123.3701604118257
 30
0.0
 11
1190.000001896394
 21
123.3701604118257
 31
0.0
  0
LINE
  5
26F
330
200
100
AcDbEntity
  8
TEXT
100
AcDbLine
 10
1055.000001896394
 20
152.4148197256132
 30
0.0
 11
1190.000001896394
 21
152.4148197256132
 31
0.0
  0
TEXT
  5
270
330
200
100
AcDbEntity
  8
TEXT
100
AcDbText
 10
1062.500001896394
 20
108.9331441381289
 30
0.0
 40
10.0
  1
▽▽▽▽
  7
K
 11
1062.500001896394
 21
113.9331441381289
 31
0.0
100
AcDbText
 73
     2
  0
TEXT
  5
271
330
200
100
AcDbEntity
  8
TEXT
100
AcDbText
 10
1064.100001896394
 20
131.6315076147707
 30
0.0
 40
15.0
  1
(標準外ﾊ指定ﾉｺﾄ)
 41
0.8
  7
K
 72
     4
 11
1122.500001896394
 21
138.0600790433421
 31
0.0
100
AcDbText
  0
TEXT
  5
272
330
200
100
AcDbEntity
  8
TEXT
100
AcDbText
 10
1062.500001896394
 20
90.05911159073557
 30
0.0
 40
10.0
  1
▽▽▽
  7
K
 11
1062.500001896394
 21
95.05911159073557
 31
0.0
100
AcDbText
 73
     2
  0
TEXT
  5
273
330
200
100
AcDbEntity
  8
TEXT
100
AcDbText
 10
1062.500001896394
 20
52.31104649594877
 30
0.0
 40
10.0
  1
▽
  7
K
 11
1062.500001896394
 21
57.31104649594877
 31
0.0
100
AcDbText
 73
     2
  0
TEXT
  5
274
330
200
100
AcDbEntity
  8
TEXT
100
AcDbText
 10
1062.500001896394
 20
71.18507904334217
 30
0.0
 40
10.0
  1
▽▽
  7
K
 11
1062.500001896394
 21
76.18507904334217
 31
0.0
100
AcDbText
 73
     2
  0
TEXT
  5
275
330
200
100
AcDbEntity
  8
TEXT
100
AcDbText
 10
1164.880954277347
 20
90.05911159073557
 30
0.0
 40
10.0
  1
6Z
  7
K
 72
     2
 11
1182.500001896394
 21
95.05911159073557
 31
0.0
100
AcDbText
 73
     2
  0
TEXT
  5
276
330
200
100
AcDbEntity
  8
TEXT
100
AcDbText
 10
1155.357144753537
 20
52.31104649594877
 30
0.0
 40
10.0
  1
50Z
  7
K
 72
     2
 11
1182.500001896394
 21
57.31104649594877
 31
0.0
100
AcDbText
 73
     2
  0
TEXT
  5
277
330
200
100
AcDbEntity
  8
TEXT
100
AcDbText
 10
1155.357144753537
 20
71.18507904334217
 30
0.0
 40
10.0
  1
18Z
  7
K
 72
     2
 11
1182.500001896394
 21
76.18507904334217
 31
0.0
100
AcDbText
 73
     2
  0
TEXT
  5
278
330
200
100
AcDbEntity
  8
TEXT
100
AcDbText
 10
1150.595239991632
 20
108.9331441381289
 30
0.0
 40
10.0
  1
0.8Z
  7
K
 72
     2
 11
1182.500001896394
 21
113.9331441381289
 31
0.0
100
AcDbText
 73
     2
  0
TEXT
  5
279
330
200
100
AcDbEntity
  8
TEXT
100
AcDbText
 10
1070.32893419954
 20
220.5138808096375
 30
0.0
 40
15.0
  1
色調
  7
K
 11
1070.32893419954
 21
228.0138808096375
 31
0.0
100
AcDbText
 73
     2
  0
TEXT
  5
27A
330
200
100
AcDbEntity
  8
TEXT
100
AcDbText
 10
1062.500001896394
 20
159.7212918350148
 30
0.0
 40
15.0
  1
標準加工アラサ
  7
K
 72
     4
 11
1122.500001896394
 21
167.2212918350148
 31
0.0
100
AcDbText
  0
TEXT
  5
27B
330
200
100
AcDbEntity
  8
TEXT
100
AcDbText
 10
1070.32893419954
 20
189.8564695661567
 30
0.0
 40
15.0
  1
適用規格など
  7
K
 11
1070.32893419954
 21
197.3564695661567
 31
0.0
100
AcDbText
 73
     2
  0
TEXT
  5
27C
330
200
100
AcDbEntity
  8
TEXT
100
AcDbText
 10
1070.32893419954
 20
251.1712920531183
 30
0.0
 40
15.0
  1
表面処理
  7
K
 11
1070.32893419954
 21
258.6712920531183
 31
0.0
100
AcDbText
 73
     2
  0
TEXT
  5
27D
330
200
100
AcDbEntity
  8
TEXT
100
AcDbText
 10
1300.650763106363
 20
149.8472092108766
 30
0.0
 40
10.0
  1
3以下
 41
0.8
  7
K
 72
     2
 11
1325.336477392077
 21
154.8472092108766
 31
0.0
100
AcDbText
 73
     2
  0
TEXT
  5
27E
330
200
100
AcDbEntity
  8
TEXT
100
AcDbText
 10
1236.042229379926
 20
149.8472092108766
 30
0.0
 40
10.0
  1
0.5以上
 41
0.8
  7
K
 72
     2
 11
1272.156515094212
 21
154.8472092108766
 31
0.0
100
AcDbText
 73
     2
  0
TEXT
  5
27F
330
200
100
AcDbEntity
  8
TEXT
100
AcDbText
 10
1251.737467475164
 20
130.4860997437969
 30
0.0
 40
10.0
  1
3ｦｺｴ
 41
0.8
  7
K
 72
     2
 11
1272.156515094212
 21
135.4860997437969
 31
0.0
100
AcDbText
 73
     2
  0
TEXT
  5
280
330
200
100
AcDbEntity
  8
TEXT
100
AcDbText
 10
1251.737467475164
 20
111.1249902767172
 30
0.0
 40
10.0
  1
6ｦｺｴ
 41
0.8
  7
K
 72
     2
 11
1272.156515094212
 21
116.1249902767172
 31
0.0
100
AcDbText
 73
     2
  0
TEXT
  5
281
330
200
100
AcDbEntity
  8
TEXT
100
AcDbText
 10
1236.499372237069
 20
53.04166187547815
 30
0.0
 40
10.0
  1
315ｦｺｴ
 41
0.8
  7
K
 72
     2
 11
1272.156515094212
 21
58.04166187547815
 31
0.0
100
AcDbText
 73
     2
  0
TEXT
  5
282
330
200
100
AcDbEntity
  8
TEXT
100
AcDbText
 10
1244.118419856117
 20
91.76388080963755
 30
0.0
 40
10.0
  1
30ｦｺｴ
 41
0.8
  7
K
 72
     2
 11
1272.156515094212
 21
96.76388080963755
 31
0.0
100
AcDbText
 73
     2
  0
TEXT
  5
283
330
200
100
AcDbEntity
  8
TEXT
100
AcDbText
 10
1236.499372237069
 20
72.40277134255785
 30
0.0
 40
10.0
  1
120ｦｺｴ
 41
0.8
  7
K
 72
     2
 11
1272.156515094212
 21
77.40277134255785
 31
0.0
100
AcDbText
 73
     2
  0
TEXT
  5
284
330
200
100
AcDbEntity
  8
TEXT
100
AcDbText
 10
1201.200001896394
 20
93.54368271510233
 30
0.0
 40
13.5
  1
法
  7
K
 72
     1
 11
1207.500001896394
 21
93.54368271510233
 31
0.0
100
AcDbText
  0
TEXT
  5
285
330
200
100
AcDbEntity
  8
TEXT
100
AcDbText
 10
1196.785716182108
 20
50.21729338591137
 30
0.0
 40
7.5
  1
mm
  7
K
 72
     1
 11
1207.500001896394
 21
50.21729338591137
 31
0.0
100
AcDbText
  0
TEXT
  5
286
330
200
100
AcDbEntity
  8
TEXT
100
AcDbText
 10
1189.761906658299
 20
54.80951800470558
 30
0.0
 40
10.0
  1
(
  7
K
 72
     2
 11
1195.000001896394
 21
59.80951800470558
 31
0.0
100
AcDbText
 73
     2
  0
TEXT
  5
287
330
200
100
AcDbEntity
  8
TEXT
100
AcDbText
 10
1218.117645153882
 20
54.80951800470558
 30
0.0
 40
10.0
  1
)
  7
K
 11
1218.117645153882
 21
59.80951800470558
 31
0.0
100
AcDbText
 73
     2
  0
TEXT
  5
288
330
200
100
AcDbEntity
  8
TEXT
100
AcDbText
 10
1202.833335229728
 20
59.80951800470558
 30
0.0
 40
10.0
  1
±
  7
K
 72
     1
 11
1207.500001896394
 21
59.80951800470558
 31
0.0
100
AcDbText
  0
TEXT
  5
289
330
200
100
AcDbEntity
  8
TEXT
100
AcDbText
 10
1201.200001896394
 20
78.04368271510236
 30
0.0
 40
13.5
  1
差
  7
K
 72
     1
 11
1207.500001896394
 21
78.04368271510236
 31
0.0
100
AcDbText
  0
TEXT
  5
28A
330
200
100
AcDbEntity
  8
TEXT
100
AcDbText
 10
1201.200001896394
 20
124.5436827151024
 30
0.0
 40
13.5
  1
通
  7
K
 72
     1
 11
1207.500001896394
 21
124.5436827151024
 31
0.0
100
AcDbText
  0
TEXT
  5
28B
330
200
100
AcDbEntity
  8
TEXT
100
AcDbText
 10
1201.200001896394
 20
109.0436827151023
 30
0.0
 40
13.5
  1
寸
  7
K
 72
     1
 11
1207.500001896394
 21
109.0436827151023
 31
0.0
100
AcDbText
  0
TEXT
  5
28C
330
200
100
AcDbEntity
  8
TEXT
100
AcDbText
 10
1201.200001896394
 20
140.0436827151023
 30
0.0
 40
13.5
  1
普
  7
K
 72
     1
 11
1207.500001896394
 21
140.0436827151023
 31
0.0
100
AcDbText
  0
TEXT
  5
28D
330
200
100
AcDbEntity
  8
TEXT
100
AcDbText
 10
1285.412667868268
 20
91.76388080963755
 30
0.0
 40
10.0
  1
120以下
 41
0.8
  7
K
 72
     2
 11
1325.336477392077
 21
96.76388080963755
 31
0.0
100
AcDbText
 73
     2
  0
TEXT
  5
28E
330
200
100
AcDbEntity
  8
TEXT
100
AcDbText
 10
1285.412667868268
 20
72.40277134255785
 30
0.0
 40
10.0
  1
315以下
 41
0.8
  7
K
 72
     2
 11
1325.336477392077
 21
77.40277134255785
 31
0.0
100
AcDbText
 73
     2
  0
TEXT
  5
28F
330
200
100
AcDbEntity
  8
TEXT
100
AcDbText
 10
1277.79362024922
 20
53.04166187547815
 30
0.0
 40
10.0
  1
1000以下
 41
0.8
  7
K
 72
     2
 11
1325.336477392077
 21
58.04166187547815
 31
0.0
100
AcDbText
 73
     2
  0
TEXT
  5
290
330
200
100
AcDbEntity
  8
TEXT
100
AcDbText
 10
1300.650763106363
 20
130.4860997437969
 30
0.0
 40
10.0
  1
6以下
 41
0.8
  7
K
 72
     2
 11
1325.336477392077
 21
135.4860997437969
 31
0.0
100
AcDbText
 73
     2
  0
TEXT
  5
291
330
200
100
AcDbEntity
  8
TEXT
100
AcDbText
 10
1293.031715487315
 20
111.1249902767172
 30
0.0
 40
10.0
  1
30以下
 41
0.8
  7
K
 72
     2
 11
1325.336477392077
 21
116.1249902767172
 31
0.0
100
AcDbText
 73
     2
  0
TEXT
  5
292
330
200
100
AcDbEntity
  8
TEXT
100
AcDbText
 10
1234.750001896394
 20
166.5277639444165
 30
0.0
 40
13.5
  1
呼 ビ 寸 法
  7
K
 72
     1
 11
1277.500001896394
 21
173.2777639444165
 31
0.0
100
AcDbText
 73
     2
  0
LINE
  5
293
330
200
100
AcDbEntity
  8
TEXT
100
AcDbLine
 10
1291.160945725173
 20
196.2958737189815
 30
0.0
 11
1337.762805283942
 21
196.2958737189815
 31
0.0
  0
LINE
  5
294
330
200
100
AcDbEntity
  8
TEXT
100
AcDbLine
 10
1292.158464926283
 20
259.0509608699458
 30
0.0
 11
1338.760324485052
 21
259.0509608699458
 31
0.0
  0
LINE
  5
295
330
200
100
AcDbEntity
  8
TEXT
100
AcDbLine
 10
1291.437604786429
 20
226.6840326982373
 30
0.0
 11
1338.039464345199
 21
226.6840326982373
 31
0.0
  0
LINE
  5
296
330
200
100
AcDbEntity
  8
WAKU
100
AcDbLine
 10
1630.000001896394
 20
28.9999976748586
 30
0.0
 11
1630.000001896394
 21
93.9999976748586
 31
0.0
  0
TEXT
  5
297
330
200
100
AcDbEntity
  8
TEXT
100
AcDbText
 10
1407.500001896394
 20
33.68055240839845
 30
0.0
 40
10.0
  1
3
 41
0.8
  7
K
 11
1407.500001896394
 21
38.68055240839845
 31
0.0
100
AcDbText
 73
     2
  0
TEXT
  5
298
330
200
100
AcDbEntity
  8
TEXT
100
AcDbText
 10
1372.500001896394
 20
33.68055240839845
 30
0.0
 40
10.0
  1
1.2
 41
0.8
  7
K
 11
1372.500001896394
 21
38.68055240839845
 31
0.0
100
AcDbText
 73
     2
  0
TEXT
  5
299
330
200
100
AcDbEntity
  8
TEXT
100
AcDbText
 10
1440.000001896394
 20
38.9999976748586
 30
0.0
 40
15.0
  1
承認
  7
K
100
AcDbText
  0
LINE
  5
29A
330
200
100
AcDbEntity
  8
TEXT
100
AcDbLine
 10
1400.000001896394
 20
182.0277639444165
 30
0.0
 11
1400.000001896394
 21
28.9999976748586
 31
0.0
  0
LINE
  5
29B
330
200
100
AcDbEntity
  8
TEXT
100
AcDbLine
 10
1365.000001896394
 20
28.9999976748586
 30
0.0
 11
1365.000001896394
 21
182.0277639444165
 31
0.0
  0
LINE
  5
29C
330
200
100
AcDbEntity
  8
WAKU
100
AcDbLine
 10
1435.000001896394
 20
28.9999976748586
 30
0.0
 11
1435.000001896394
 21
193.9999976748586
 31
0.0
  0
LINE
  5
29D
330
200
100
AcDbEntity
  8
SUNPOU
100
AcDbLine
 10
1550.000001896394
 20
193.9999976748586
 30
0.0
 11
1550.000001896394
 21
28.9999976748586
 31
0.0
  0
LINE
  5
29E
330
200
100
AcDbEntity
  8
SUNPOU
100
AcDbLine
 10
1480.000001896394
 20
193.9999976748586
 30
0.0
 11
1480.000001896394
 21
28.9999976748586
 31
0.0
  0
CIRCLE
  5
29F
330
200
100
AcDbEntity
  8
JISSEN
100
AcDbCircle
 10
1576.666668563061
 20
33.9999976748586
 30
0.0
 40
1.0
  0
CIRCLE
  5
2A0
330
200
100
AcDbEntity
  8
JISSEN
100
AcDbCircle
 10
1603.333335229728
 20
33.9999976748586
 30
0.0
 40
1.0
  0
TEXT
  5
2A1
330
200
100
AcDbEntity
  8
TEXT
100
AcDbText
 10
1508.268950778827
 20
235.4135826712586
 30
0.0
 40
15.0
  1
キューブｱｲｽ ｽﾗｲｻｰ
  7
K
 72
     4
 11
1584.268950778827
 21
243.4135826712586
 31
0.0
100
AcDbText
  0
LINE
  5
2A2
330
200
100
AcDbEntity
  8
SUNPOU
100
AcDbLine
 10
1630.000001896394
 20
152.7499976748586
 30
0.0
 11
1435.000001896394
 21
152.7499976748586
 31
0.0
  0
LINE
  5
2A3
330
200
100
AcDbEntity
  8
SUNPOU
100
AcDbLine
 10
1630.000001896394
 20
70.2499976748586
 30
0.0
 11
1435.000001896394
 21
70.2499976748586
 31
0.0
  0
LINE
  5
2A4
330
200
100
AcDbEntity
  8
SUNPOU
100
AcDbLine
 10
1435.000001896394
 20
111.4999976748586
 30
0.0
 11
1630.000001896394
 21
111.4999976748586
 31
0.0
  0
LINE
  5
2A5
330
200
100
AcDbEntity
  8
WAKU
100
AcDbLine
 10
1435.000001896394
 20
193.9999976748586
 30
0.0
 11
1630.000001896394
 21
193.9999976748586
 31
0.0
  0
TEXT
  5
2A6
330
200
100
AcDbEntity
  8
TEXT
100
AcDbText
 10
1372.500001896394
 20
149.8472092108766
 30
0.0
 40
10.0
  1
0.1
 41
0.8
  7
K
 11
1372.500001896394
 21
154.8472092108766
 31
0.0
100
AcDbText
 73
     2
  0
TEXT
  5
2A7
330
200
100
AcDbEntity
  8
TEXT
100
AcDbText
 10
1407.500001896394
 20
91.76388080963755
 30
0.0
 40
10.0
  1
0.8
 41
0.8
  7
K
 11
1407.500001896394
 21
96.76388080963755
 31
0.0
100
AcDbText
 73
     2
  0
TEXT
  5
2A8
330
200
100
AcDbEntity
  8
TEXT
100
AcDbText
 10
1372.500001896394
 20
91.76388080963755
 30
0.0
 40
10.0
  1
0.3
 41
0.8
  7
K
 11
1372.500001896394
 21
96.76388080963755
 31
0.0
100
AcDbText
 73
     2
  0
TEXT
  5
2A9
330
200
100
AcDbEntity
  8
TEXT
100
AcDbText
 10
1372.500001896394
 20
53.04166187547815
 30
0.0
 40
10.0
  1
0.8
 41
0.8
  7
K
 11
1372.500001896394
 21
58.04166187547815
 31
0.0
100
AcDbText
 73
     2
  0
TEXT
  5
2AA
330
200
100
AcDbEntity
  8
TEXT
100
AcDbText
 10
1372.500001896394
 20
72.40277134255785
 30
0.0
 40
10.0
  1
0.5
 41
0.8
  7
K
 11
1372.500001896394
 21
77.40277134255785
 31
0.0
100
AcDbText
 73
     2
  0
TEXT
  5
2AB
330
200
100
AcDbEntity
  8
TEXT
100
AcDbText
 10
1407.500001896394
 20
53.04166187547815
 30
0.0
 40
10.0
  1
2
 41
0.8
  7
K
 11
1407.500001896394
 21
58.04166187547815
 31
0.0
100
AcDbText
 73
     2
  0
TEXT
  5
2AC
330
200
100
AcDbEntity
  8
TEXT
100
AcDbText
 10
1407.500001896394
 20
72.40277134255785
 30
0.0
 40
10.0
  1
1.2
 41
0.8
  7
K
 11
1407.500001896394
 21
77.40277134255785
 31
0.0
100
AcDbText
 73
     2
  0
TEXT
  5
2AD
330
200
100
AcDbEntity
  8
TEXT
100
AcDbText
 10
1372.500001896394
 20
111.1249902767172
 30
0.0
 40
10.0
  1
0.2
 41
0.8
  7
K
 11
1372.500001896394
 21
116.1249902767172
 31
0.0
100
AcDbText
 73
     2
  0
TEXT
  5
2AE
330
200
100
AcDbEntity
  8
TEXT
100
AcDbText
 10
1372.500001896394
 20
130.4860997437969
 30
0.0
 40
10.0
  1
0.1
 41
0.8
  7
K
 11
1372.500001896394
 21
135.4860997437969
 31
0.0
100
AcDbText
 73
     2
  0
TEXT
  5
2AF
330
200
100
AcDbEntity
  8
TEXT
100
AcDbText
 10
1407.500001896394
 20
111.1249902767172
 30
0.0
 40
10.0
  1
0.5
 41
0.8
  7
K
 11
1407.500001896394
 21
116.1249902767172
 31
0.0
100
AcDbText
 73
     2
  0
TEXT
  5
2B0
330
200
100
AcDbEntity
  8
TEXT
100
AcDbText
 10
1407.500001896394
 20
130.4860997437969
 30
0.0
 40
10.0
  1
0.2
 41
0.8
  7
K
 11
1407.500001896394
 21
135.4860997437969
 31
0.0
100
AcDbText
 73
     2
  0
LINE
  5
2B1
330
200
100
AcDbEntity
  8
TEXT
100
AcDbLine
 10
1407.500001896394
 20
154.8472092108766
 30
0.0
 11
1425.530168193199
 21
154.8472092108766
 31
0.0
  0
TEXT
  5
2B2
330
200
100
AcDbEntity
  8
TEXT
100
AcDbText
 10
1440.000001896394
 20
80.2499976748586
 30
0.0
 40
15.0
  1
検図
  7
K
100
AcDbText
  0
TEXT
  5
2B3
330
200
100
AcDbEntity
  8
TEXT
100
AcDbText
 10
1440.000001896394
 20
121.4999976748586
 30
0.0
 40
15.0
  1
製図
  7
K
100
AcDbText
  0
TEXT
  5
2B4
330
200
100
AcDbEntity
  8
TEXT
100
AcDbText
 10
1375.428573324966
 20
166.5277639444165
 30
0.0
 40
13.5
  1
K
  7
K
 72
     1
 11
1382.500001896394
 21
173.2777639444165
 31
0.0
100
AcDbText
 73
     2
  0
TEXT
  5
2B5
330
200
100
AcDbEntity
  8
TEXT
100
AcDbText
 10
1411.071430467823
 20
166.5277639444165
 30
0.0
 40
13.5
  1
L
  7
K
 72
     1
 11
1417.500001896394
 21
173.2777639444165
 31
0.0
100
AcDbText
 73
     2
  0
TEXT
  5
2B6
330
200
100
AcDbEntity
  8
TEXT
100
AcDbText
 10
1440.000001896394
 20
162.7499976748586
 30
0.0
 40
15.0
  1
設計
  7
K
100
AcDbText
  0
TEXT
  5
2B7
330
200
100
AcDbEntity
  8
TEXT
100
AcDbText
 10
1440.000001896394
 20
223.9999976748586
 30
0.0
 40
15.0
  1
品名
  7
K
100
AcDbText
  0
LINE
  5
2B8
330
200
100
AcDbEntity
  8
WAKU
100
AcDbLine
 10
1630.000001896394
 20
93.9999976748586
 30
0.0
 11
1630.000001896394
 21
158.9999976748586
 31
0.0
  0
CIRCLE
  5
2B9
330
200
100
AcDbEntity
  8
JISSEN
100
AcDbCircle
 10
1576.666668563061
 20
75.2499976748586
 30
0.0
 40
1.0
  0
CIRCLE
  5
2BA
330
200
100
AcDbEntity
  8
JISSEN
100
AcDbCircle
 10
1576.666668563061
 20
116.4999976748586
 30
0.0
 40
1.0
  0
CIRCLE
  5
2BB
330
200
100
AcDbEntity
  8
JISSEN
100
AcDbCircle
 10
1603.333335229728
 20
75.2499976748586
 30
0.0
 40
1.0
  0
CIRCLE
  5
2BC
330
200
100
AcDbEntity
  8
JISSEN
100
AcDbCircle
 10
1603.333335229728
 20
116.4999976748586
 30
0.0
 40
1.0
  0
TEXT
  5
2BD
330
200
100
AcDbEntity
  8
TEXT
100
AcDbText
 10
1643.500001896394
 20
118.9999976748586
 30
0.0
 40
15.0
  1
図番
  7
K
 72
     4
 11
1660.000001896394
 21
126.4999976748585
 31
0.0
100
AcDbText
  0
TEXT
  5
2BE
330
200
100
AcDbEntity
  8
TEXT
100
AcDbText
 10
1532.67985341947
 20
206.5464139305472
 30
0.0
 40
15.0
  1
ＨＣ－６Ｓ外観図
  7
K
 72
     4
 11
1603.17985341947
 21
214.0464139305472
 31
0.0
100
AcDbText
  0
CIRCLE
  5
2BF
330
200
100
AcDbEntity
  8
JISSEN
100
AcDbCircle
 10
1576.666668563061
 20
157.7499976748585
 30
0.0
 40
1.0
  0
LINE
  5
2C0
330
200
100
AcDbEntity
  8
WAKU
100
AcDbLine
 10
1630.000001896394
 20
158.9999976748586
 30
0.0
 11
1630.000001896394
 21
193.9999976748586
 31
0.0
  0
CIRCLE
  5
2C1
330
200
100
AcDbEntity
  8
JISSEN
100
AcDbCircle
 10
1603.333335229728
 20
157.7499976748585
 30
0.0
 40
1.0
  0
LINE
  5
2C2
330
200
100
AcDbEntity
  8
SUNPOU
100
AcDbLine
 10
1810.000001896394
 20
273.9999976748586
 30
0.0
 11
1810.000001896394
 21
193.9999976748586
 31
0.0
  0
LINE
  5
2C3
330
200
100
AcDbEntity
  8
WAKU
100
AcDbLine
 10
1755.000001896394
 20
273.9999976748586
 30
0.0
 11
1755.000001896394
 21
193.9999976748586
 31
0.0
  0
LINE
  5
2C4
330
200
100
AcDbEntity
  8
SUNPOU
100
AcDbLine
 10
1755.000001896394
 20
233.9999976748586
 30
0.0
 11
1930.000001896394
 21
233.9999976748586
 31
0.0
  0
TEXT
  5
2C5
330
200
100
AcDbEntity
  8
TEXT
100
AcDbText
 10
1702.305593398506
 20
48.9999976748586
 30
0.0
 40
17.5
  1
中部コーポレーション
  7
K
100
AcDbText
  0
LINE
  5
2C6
330
200
100
AcDbEntity
  8
TENSEN
100
AcDbLine
 10
1834.000001896394
 20
93.9999976748586
 30
0.0
 11
1834.000001896394
 21
158.9999976748586
 31
0.0
  0
LINE
  5
2C7
330
200
100
AcDbEntity
  8
TENSEN
100
AcDbLine
 10
1810.000001896394
 20
158.9999976748586
 30
0.0
 11
1810.000001896394
 21
93.9999976748586
 31
0.0
  0
LINE
  5
2C8
330
200
100
AcDbEntity
  8
TENSEN
100
AcDbLine
 10
1786.000001896394
 20
93.9999976748586
 30
0.0
 11
1786.000001896394
 21
158.9999976748586
 31
0.0
  0
LINE
  5
2C9
330
200
100
AcDbEntity
  8
TENSEN
100
AcDbLine
 10
1762.000001896394
 20
158.9999976748586
 30
0.0
 11
1762.000001896394
 21
93.9999976748586
 31
0.0
  0
LINE
  5
2CA
330
200
100
AcDbEntity
  8
TENSEN
100
AcDbLine
 10
1738.000001896394
 20
93.9999976748586
 30
0.0
 11
1738.000001896394
 21
158.9999976748586
 31
0.0
  0
LINE
  5
2CB
330
200
100
AcDbEntity
  8
TENSEN
100
AcDbLine
 10
1714.000001896394
 20
158.9999976748586
 30
0.0
 11
1714.000001896394
 21
93.9999976748586
 31
0.0
  0
LINE
  5
2CC
330
200
100
AcDbEntity
  8
SUNPOU
100
AcDbLine
 10
1690.000001896394
 20
158.9999976748586
 30
0.0
 11
1690.000001896394
 21
93.9999976748586
 31
0.0
  0
TEXT
  5
2CD
330
200
100
AcDbEntity
  8
TEXT
100
AcDbText
 10
1695.608976641064
 20
113.1670354097745
 30
0.0
 40
15.0
  1
H
  7
K
100
AcDbText
  0
TEXT
  5
2CE
330
200
100
AcDbEntity
  8
TEXT
100
AcDbText
 10
1743.608976641064
 20
113.1670354097745
 30
0.0
 40
15.0
  1
6
  7
K
100
AcDbText
  0
TEXT
  5
2CF
330
200
100
AcDbEntity
  8
TEXT
100
AcDbText
 10
1719.608976641065
 20
113.1670354097745
 30
0.0
 40
15.0
  1
C
  7
K
100
AcDbText
  0
TEXT
  5
2D0
330
200
100
AcDbEntity
  8
TEXT
100
AcDbText
 10
1791.608976641064
 20
113.1670354097745
 30
0.0
 40
15.0
  1
0
  7
K
100
AcDbText
  0
TEXT
  5
2D1
330
200
100
AcDbEntity
  8
TEXT
100
AcDbText
 10
1767.608976641065
 20
113.1670354097745
 30
0.0
 40
15.0
  1
S
  7
K
100
AcDbText
  0
TEXT
  5
2D2
330
200
100
AcDbEntity
  8
TEXT
100
AcDbText
 10
1815.608976641065
 20
113.1670354097745
 30
0.0
 40
15.0
  1
0
  7
K
100
AcDbText
  0
TEXT
  5
2D3
330
200
100
AcDbEntity
  8
TEXT
100
AcDbText
 10
1750.000001896395
 20
168.9999976748586
 30
0.0
 40
15.0
  1
尺度
  7
K
100
AcDbText
  0
LINE
  5
2D4
330
200
100
AcDbEntity
  8
SUNPOU
100
AcDbLine
 10
1745.000001896394
 20
193.9999976748586
 30
0.0
 11
1745.000001896394
 21
158.9999976748586
 31
0.0
  0
TEXT
  5
2D5
330
200
100
AcDbEntity
  8
TEXT
100
AcDbText
 10
1760.000001896394
 20
203.9999976748585
 30
0.0
 40
15.0
  1
板 厚
  7
K
100
AcDbText
  0
LINE
  5
2D6
330
200
100
AcDbEntity
  8
SUNPOU
100
AcDbLine
 10
1790.000001896394
 20
158.9999976748586
 30
0.0
 11
1790.000001896394
 21
193.9999976748586
 31
0.0
  0
TEXT
  5
2D7
330
200
100
AcDbEntity
  8
TEXT
100
AcDbText
 10
1804.766401483389
 20
169.0976889450066
 30
0.0
 40
10.0
  1
1/5
  7
K
100
AcDbText
  0
TEXT
  5
2D8
330
200
100
AcDbEntity
  8
TEXT
100
AcDbText
 10
1760.000001896394
 20
243.9999976748586
 30
0.0
 40
15.0
  1
材 質
  7
K
100
AcDbText
  0
LINE
  5
2D9
330
200
100
AcDbEntity
  8
TENSEN
100
AcDbLine
 10
1906.000001896394
 20
158.9999976748586
 30
0.0
 11
1906.000001896394
 21
93.9999976748586
 31
0.0
  0
LINE
  5
2DA
330
200
100
AcDbEntity
  8
TENSEN
100
AcDbLine
 10
1882.000001896394
 20
93.9999976748586
 30
0.0
 11
1882.000001896394
 21
158.9999976748586
 31
0.0
  0
LINE
  5
2DB
330
200
100
AcDbEntity
  8
TENSEN
100
AcDbLine
 10
1858.000001896394
 20
158.9999976748586
 30
0.0
 11
1858.000001896394
 21
93.9999976748586
 31
0.0
  0
TEXT
  5
2DC
330
200
100
AcDbEntity
  8
TEXT
100
AcDbText
 10
1911.608976641065
 20
113.1670354097745
 30
0.0
 40
15.0
  1
5
  7
K
100
AcDbText
  0
TEXT
  5
2DD
330
200
100
AcDbEntity
  8
TEXT
100
AcDbText
 10
1839.608976641065
 20
113.1670354097745
 30
0.0
 40
15.0
  1
3
  7
K
100
AcDbText
  0
TEXT
  5
2DE
330
200
100
AcDbEntity
  8
TEXT
100
AcDbText
 10
1863.608976641065
 20
113.1670354097745
 30
0.0
 40
15.0
  1
0
  7
K
100
AcDbText
  0
TEXT
  5
2DF
330
200
100
AcDbEntity
  8
TEXT
100
AcDbText
 10
1887.608976641065
 20
113.1670354097745
 30
0.0
 40
15.0
  1
0
  7
K
100
AcDbText
  0
TEXT
  5
2E0
330
200
100
AcDbEntity
  8
TEXT
100
AcDbText
 10
1845.31655968575
 20
166.0863007374424
 30
0.0
 40
12.5
  1
(単位mm)
  7
K
100
AcDbText
  0
LINE
  5
2E1
330
200
100
AcDbEntity
  8
TEXT
100
AcDbLine
 10
1843.618615654755
 20
211.6374532489908
 30
0.0
 11
1890.220475213524
 21
211.6374532489908
 31
0.0
  0
LINE
  5
2E2
330
200
100
AcDbEntity
  8
TEXT
100
AcDbLine
 10
1843.618615654755
 20
249.4434623896068
 30
0.0
 11
1890.220475213524
 21
249.4434623896068
 31
0.0
  0
TEXT
  5
2E3
330
200
100
AcDbEntity
  8
TEXT
100
AcDbText
 10
1936.73717315052
 20
497.0067084949757
 30
0.0
 40
20.0
  1
ず
  7
K
 72
     1
 11
1946.070506483853
 21
507.0067084949758
 31
0.0
100
AcDbText
 73
     2
  0
TEXT
  5
2E4
330
200
100
AcDbEntity
  8
TEXT
100
AcDbText
 10
1935.666668563061
 20
497.0067084949757
 30
0.0
 40
20.0
  1
ず
  7
K
 72
     1
 11
1945.000001896394
 21
507.0067084949758
 31
0.0
100
AcDbText
 73
     2
  0
LINE
  5
2E5
330
200
100
AcDbEntity
  8
WAKU
100
AcDbLine
 10
1930.000001896394
 20
273.9999976748586
 30
0.0
 11
1755.000001896394
 21
273.9999976748586
 31
0.0
  0
TEXT
  5
2E6
330
200
100
AcDbEntity
  8
TEXT
100
AcDbText
 10
1935.666668563061
 20
372.0067084949757
 30
0.0
 40
20.0
  1
返
  7
K
 72
     1
 11
1945.000001896394
 21
382.0067084949757
 31
0.0
100
AcDbText
 73
     2
  0
TEXT
  5
2E7
330
200
100
AcDbEntity
  8
TEXT
100
AcDbText
 10
1935.173126646932
 20
323.3039445559628
 30
0.0
 40
20.0
  1
の
  7
K
 72
     4
 11
1944.506459980265
 21
333.3039445559628
 31
0.0
100
AcDbText
  0
TEXT
  5
2E8
330
200
100
AcDbEntity
  8
TEXT
100
AcDbText
 10
1935.666668563061
 20
277.0067084949757
 30
0.0
 40
20.0
  1
と
  7
K
 72
     1
 11
1945.000001896394
 21
287.0067084949758
 31
0.0
100
AcDbText
 73
     2
  0
TEXT
  5
2E9
330
200
100
AcDbEntity
  8
TEXT
100
AcDbText
 10
1935.666668563061
 20
302.0067084949757
 30
0.0
 40
20.0
  1
こ
  7
K
 72
     1
 11
1945.000001896394
 21
312.0067084949758
 31
0.0
100
AcDbText
 73
     2
  0
TEXT
  5
2EA
330
200
100
AcDbEntity
  8
TEXT
100
AcDbText
 10
1935.666668563061
 20
347.0067084949757
 30
0.0
 40
20.0
  1
却
  7
K
 72
     1
 11
1945.000001896394
 21
357.0067084949757
 31
0.0
100
AcDbText
 73
     2
  0
TEXT
  5
2EB
330
200
100
AcDbEntity
  8
TEXT
100
AcDbText
 10
1936.333335229727
 20
397.0067084949758
 30
0.0
 40
20.0
  1
へ
  7
K
 72
     1
 11
1945.000001896394
 21
407.0067084949758
 31
0.0
100
AcDbText
 73
     2
  0
TEXT
  5
2EC
330
200
100
AcDbEntity
  8
TEXT
100
AcDbText
 10
1935.666668563061
 20
422.0067084949757
 30
0.0
 40
20.0
  1
元
  7
K
 72
     1
 11
1945.000001896394
 21
432.0067084949758
 31
0.0
100
AcDbText
 73
     2
  0
TEXT
  5
2ED
330
200
100
AcDbEntity
  8
TEXT
100
AcDbText
 10
1935.666668563061
 20
472.0067084949757
 30
0.0
 40
20.0
  1
発
  7
K
 72
     1
 11
1945.000001896394
 21
482.0067084949758
 31
0.0
100
AcDbText
 73
     2
  0
TEXT
  5
2EE
330
200
100
AcDbEntity
  8
TEXT
100
AcDbText
 10
1935.666668563061
 20
447.0067084949757
 30
0.0
 40
20.0
  1
行
  7
K
 72
     1
 11
1945.000001896394
 21
457.0067084949758
 31
0.0
100
AcDbText
 73
     2
  0
TEXT
  5
2EF
330
200
100
AcDbEntity
  8
TEXT
100
AcDbText
 10
1935.666668563061
 20
522.0067084949757
 30
0.0
 40
20.0
  1
必
  7
K
 72
     1
 11
1945.000001896394
 21
532.0067084949758
 31
0.0
100
AcDbText
 73
     2
  0
TEXT
  5
2F0
330
200
100
AcDbEntity
  8
TEXT
100
AcDbText
 10
1949.628479357421
 20
555.0248490686683
 30
0.0
 40
20.0
  1
、
  7
K
 72
     1
 11
1952.295146024087
 21
565.0248490686683
 31
0.0
100
AcDbText
 73
     2
  0
TEXT
  5
2F1
330
200
100
AcDbEntity
  8
TEXT
100
AcDbText
 10
1935.666668563061
 20
572.0067084949757
 30
0.0
 40
20.0
  1
後
  7
K
 72
     1
 11
1945.000001896394
 21
582.0067084949758
 31
0.0
100
AcDbText
 73
     2
  0
TEXT
  5
2F2
330
200
100
AcDbEntity
  8
TEXT
100
AcDbText
 10
1936.333335229727
 20
597.0067084949757
 30
0.0
 40
20.0
  1
み
  7
K
 72
     1
 11
1945.000001896394
 21
607.0067084949758
 31
0.0
100
AcDbText
 73
     2
  0
TEXT
  5
2F3
330
200
100
AcDbEntity
  8
TEXT
100
AcDbText
 10
1935.666668563061
 20
672.0067084949757
 30
0.0
 40
20.0
  1
は
  7
K
 72
     1
 11
1945.000001896394
 21
682.0067084949758
 31
0.0
100
AcDbText
 73
     2
  0
TEXT
  5
2F4
330
200
100
AcDbEntity
  8
TEXT
100
AcDbText
 10
1936.333335229727
 20
647.0067084949757
 30
0.0
 40
20.0
  1
用
  7
K
 72
     1
 11
1945.000001896394
 21
657.0067084949758
 31
0.0
100
AcDbText
 73
     2
  0
TEXT
  5
2F5
330
200
100
AcDbEntity
  8
TEXT
100
AcDbText
 10
1935.666668563061
 20
622.0067084949757
 30
0.0
 40
20.0
  1
済
  7
K
 72
     1
 11
1945.000001896394
 21
632.0067084949758
 31
0.0
100
AcDbText
 73
     2
  0
TEXT
  5
2F6
330
200
100
AcDbEntity
  8
TEXT
100
AcDbText
 10
1935.666668563061
 20
697.0067084949757
 30
0.0
 40
20.0
  1
図
  7
K
 72
     1
 11
1945.000001896394
 21
707.0067084949758
 31
0.0
100
AcDbText
 73
     2
  0
LINE
  5
2F7
330
200
100
AcDbEntity
  8
TEXT
100
AcDbLine
 10
1349.767736460098
 20
754.4844099386441
 30
0.0
 11
1901.449781928805
 21
754.4844099386441
 31
0.0
  0
LINE
  5
2F8
330
200
100
AcDbEntity
  8
TEXT
100
AcDbLine
 10
1349.767736460098
 20
788.4844099386441
 30
0.0
 11
1901.449781928805
 21
788.4844099386441
 31
0.0
  0
LINE
  5
2F9
330
200
100
AcDbEntity
  8
TEXT
100
AcDbLine
 10
1349.767736460098
 20
822.4844099386441
 30
0.0
 11
1901.449781928805
 21
822.4844099386441
 31
0.0
  0
TEXT
  5
2FA
330
200
100
AcDbEntity
  8
TEXT
100
AcDbText
 10
1352.895797274477
 20
829.1278839891242
 30
0.0
 40
20.0
  1
モーター：分相始動形単相誘導電動機 200W 4P
  7
K
100
AcDbText
  0
LINE
  5
2FB
330
200
100
AcDbEntity
  8
TEXT
100
AcDbLine
 10
1349.767736460098
 20
856.4844099386441
 30
0.0
 11
1901.449781928805
 21
856.4844099386441
 31
0.0
  0
TEXT
  5
2FC
330
200
100
AcDbEntity
  8
TEXT
100
AcDbText
 10
1352.895797274477
 20
863.1278839891242
 30
0.0
 40
20.0
  1
定格消費電力：240/200W
  7
K
100
AcDbText
  0
LINE
  5
2FD
330
200
100
AcDbEntity
  8
TEXT
100
AcDbLine
 10
1349.767736460098
 20
890.4844099386441
 30
0.0
 11
1901.449781928805
 21
890.4844099386441
 31
0.0
  0
TEXT
  5
2FE
330
200
100
AcDbEntity
  8
TEXT
100
AcDbText
 10
1352.895797274477
 20
897.1278839891242
 30
0.0
 40
20.0
  1
電  源  ：単相100V  50/60 Hz
  7
K
100
AcDbText
  0
TEXT
  5
2FF
330
200
100
AcDbEntity
  8
TEXT
100
AcDbText
 10
1352.895797274477
 20
999.1278839891242
 30
0.0
 40
20.0
  1
外形寸法：巾290  ×奥行362  ×高さ412
  7
K
100
AcDbText
  0
LINE
  5
300
330
200
100
AcDbEntity
  8
TEXT
100
AcDbLine
 10
1349.767736460098
 20
992.4844099386442
 30
0.0
 11
1901.449781928805
 21
992.4844099386442
 31
0.0
  0
LINE
  5
301
330
200
100
AcDbEntity
  8
TEXT
100
AcDbLine
 10
1349.767736460098
 20
958.4844099386442
 30
0.0
 11
1901.449781928805
 21
958.4844099386442
 31
0.0
  0
LINE
  5
302
330
200
100
AcDbEntity
  8
TEXT
100
AcDbLine
 10
1349.767736460098
 20
924.484409938644
 30
0.0
 11
1901.449781928805
 21
924.484409938644
 31
0.0
  0
TEXT
  5
303
330
200
100
AcDbEntity
  8
TEXT
100
AcDbText
 10
1352.895797274477
 20
965.1278839891242
 30
0.0
 40
20.0
  1
重  量  ：18K
  7
K
100
AcDbText
  0
TEXT
  5
304
330
200
100
AcDbEntity
  8
TEXT
100
AcDbText
 10
1527.824710245386
 20
967.2102397806261
 30
0.0
 40
20.0
  1
g
  7
K
100
AcDbText
  0
TEXT
  5
305
330
200
100
AcDbEntity
  8
TEXT
100
AcDbText
 10
1352.895797274477
 20
761.1278839891242
 30
0.0
 40
20.0
  1
プロテクター：手動復帰式
  7
K
100
AcDbText
  0
TEXT
  5
306
330
200
100
AcDbEntity
  8
TEXT
100
AcDbText
 10
1352.895797274477
 20
795.1278839891243
 30
0.0
 40
20.0
  1
電源スイッチ：トグル式
  7
K
100
AcDbText
  0
TEXT
  5
307
330
200
100
AcDbEntity
  8
TEXT
100
AcDbText
 10
1352.895797274477
 20
931.1278839891242
 30
0.0
 40
20.0
  1
回 転 数：350/420 rpm
  7
K
100
AcDbText
  0
LINE
  5
308
330
200
100
AcDbEntity
  8
TEXT
100
AcDbLine
 10
1349.767736460098
 20
1026.484409938644
 30
0.0
 11
1418.467978139628
 21
1026.484409938644
 31
0.0
  0
TEXT
  5
309
330
200
100
AcDbEntity
  8
TEXT
100
AcDbText
 10
1352.895797274477
 20
1033.127883989124
 30
0.0
 40
20.0
  1
仕 様
  7
K
100
AcDbText
  0
TEXT
  5
30A
330
200
100
AcDbEntity
  8
TEXT
100
AcDbText
 10
1552.615616806542
 20
996.8795914372613
 30
0.0
 40
10.0
  1
mm
  7
K
100
AcDbText
  0
TEXT
  5
30B
330
200
100
AcDbEntity
  8
TEXT
100
AcDbText
 10
1705.282232234479
 20
998.4786572427474
 30
0.0
 40
10.0
  1
mm
  7
K
100
AcDbText
  0
TEXT
  5
30C
330
200
100
AcDbEntity
  8
TEXT
100
AcDbText
 10
1859.389778072674
 20
996.8795914372613
 30
0.0
 40
10.0
  1
mm
  7
K
100
AcDbText
  0
ENDBLK
  5
30E
330
200
100
AcDbEntity
  8
0
100
AcDbBlockEnd
  0
BLOCK
  5
6FE
330
6FC
100
AcDbEntity
  8
0
100
AcDbBlockBegin
  2
A$C76DB6D64
 70
     0
 10
0.0
 20
0.0
 30
0.0
  3
A$C76DB6D64
  1

  0
ELLIPSE
  5
6FD
330
6FC
100
AcDbEntity
  8
SUNPOU
100
AcDbEllipse
 10
140.0000032777986
 20
284.6530036303681
 30
0.0
 11
-430.646511795
 21
0.0
 31
0.0
210
0.0
220
0.0
230
1.0
 40
0.661204382727119
 41
1.239686667381419
 42
1.901905986208373
  0
ENDBLK
  5
6FF
330
6FC
100
AcDbEntity
  8
0
100
AcDbBlockEnd
  0
BLOCK
  5
A1C
330
A16
100
AcDbEntity
  8
0
100
AcDbBlockBegin
  2
A$C53553078
 70
     0
 10
0.0
 20
0.0
 30
0.0
  3
A$C53553078
  1

  0
ARC
  5
A17
330
A16
100
AcDbEntity
  8
0
100
AcDbCircle
 10
110.0000004698517
 20
9.999997701675852
 30
0.0
 40
10.0
100
AcDbArc
 50
270.0
 51
0.0
  0
ARC
  5
A18
330
A16
100
AcDbEntity
  8
0
100
AcDbCircle
 10
10.00000046985155
 20
9.999997701675738
 30
0.0
 40
10.0
100
AcDbArc
 50
180.0
 51
270.0
  0
LINE
  5
A19
330
A16
100
AcDbEntity
  8
0
100
AcDbLine
 10
120.0000004698517
 20
9.999997701675852
 30
0.0
 11
120.0000004698516
 21
19.99999770167562
 31
0.0
  0
LINE
  5
A1A
330
A16
100
AcDbEntity
  8
0
100
AcDbLine
 10
0.0000004698515568
 20
9.999997701675738
 30
0.0
 11
0.0000004698515568
 21
19.99999770167562
 31
0.0
  0
LINE
  5
A1B
330
A16
100
AcDbEntity
  8
0
100
AcDbLine
 10
10.00000046985155
 20
-0.0000022983242616
 30
0.0
 11
110.0000004698517
 21
-0.0000022983241479
 31
0.0
  0
ENDBLK
  5
A1D
330
A16
100
AcDbEntity
  8
0
100
AcDbBlockEnd
  0
BLOCK
  5
A44
330
A3F
100
AcDbEntity
  8
0
100
AcDbBlockBegin
  2
A$C5E267045
 70
     0
 10
0.0
 20
0.0
 30
0.0
  3
A$C5E267045
  1

  0
ELLIPSE
  5
A40
330
A3F
100
AcDbEntity
  8
0
100
AcDbEllipse
 10
15.00000074239551
 20
12.99926800444564
 30
0.0
 11
-15.0
 21
0.0
 31
0.0
210
0.0
220
0.0
230
1.0
 40
0.7333333333333333
 41
0.0
 42
6.283185307179586
  0
SPLINE
  5
A41
330
A3F
100
AcDbEntity
  8
0
100
AcDbSpline
210
0.0
220
0.0
230
1.0
 70
     8
 71
     3
 72
    18
 73
    14
 74
     0
 42
0.0000000001
 43
0.0000000001
 40
6.755352898440496
 40
6.755352898440496
 40
6.755352898440496
 40
6.755352898440496
 40
7.029450609078767
 40
7.029450609078767
 40
7.310180095569728
 40
7.310180095569728
 40
7.712652521378497
 40
7.712652521378497
 40
8.115124947187267
 40
8.115124947187267
 40
8.517597372996037
 40
8.517597372996037
 40
8.871823228425228
 40
8.871823228425228
 40
8.871823228425228
 40
8.871823228425228
 10
0.0000007423967645
 20
6.853315150291109
 30
0.0
 10
0.7442297376490501
 20
5.78470475356039
 30
0.0
 10
1.673512351130227
 20
4.81317548452364
 30
0.0
 10
3.839932511309825
 20
3.094993184171698
 30
0.0
 10
5.084105025541532
 20
2.353753769475474
 30
0.0
 10
8.35580735852136
 20
0.9031467463350963
 30
0.0
 10
10.48975544696116
 20
0.3482181904112167
 30
0.0
 10
14.86937854170571
 20
-0.1087383192095785
 30
0.0
 10
17.11406012469143
 20
-0.0105028827973683
 30
0.0
 10
21.40078712344478
 20
0.8296120207292005
 30
0.0
 10
23.44212552171183
 20
1.571090097576416
 30
0.0
 10
26.81182514594974
 20
3.503290170350737
 30
0.0
 10
28.19702657150338
 20
4.630538494177926
 30
0.0
 10
29.29484532886181
 20
5.934350258224299
 30
0.0
  0
ARC
  5
A42
330
A3F
100
AcDbEntity
  8
0
100
AcDbCircle
 10
27.00000074231155
 20
7.866625684642713
 30
0.0
 40
3.0
100
AcDbArc
 50
319.9023834794244
 51
359.9999999999608
  0
LINE
  5
A43
330
A3F
100
AcDbEntity
  8
0
100
AcDbLine
 10
30.00000074231673
 20
7.866625684640325
 30
0.0
 11
30.00000074231673
 21
12.99926800444564
 31
0.0
  0
ENDBLK
  5
A45
330
A3F
100
AcDbEntity
  8
0
100
AcDbBlockEnd
  0
BLOCK
  5
B0A
330
B09
100
AcDbEntity
  8
0
100
AcDbBlockBegin
  2
*D19
 70
     1
 10
0.0
 20
0.0
 30
0.0
  3
*D19
  1

  0
LINE
  5
C6F
330
B09
100
AcDbEntity
  8
SUNPOU
 62
     0
100
AcDbLine
 10
672.4223741991299
 20
840.10376233
 30
0.0
 11
637.0545793786097
 21
840.10376233
 31
0.0
  0
LINE
  5
C70
330
B09
100
AcDbEntity
  8
SUNPOU
 62
     0
100
AcDbLine
 10
706.0757589800001
 20
290.1037623305055
 30
0.0
 11
637.0545793786095
 21
290.1037623305056
 31
0.0
  0
LINE
  5
C71
330
B09
100
AcDbEntity
  8
SUNPOU
 62
     0
100
AcDbLine
 10
642.0545793786097
 20
832.6037623299999
 30
0.0
 11
642.0545793786096
 21
297.6037623305055
 31
0.0
  0
INSERT
  5
C72
330
B09
100
AcDbEntity
  8
SUNPOU
 62
     0
100
AcDbBlockReference
  2
ARROW
 10
642.0545793786097
 20
840.10376233
 30
0.0
 41
7.5
 42
7.5
 43
7.5
 50
90.0
  0
INSERT
  5
C73
330
B09
100
AcDbEntity
  8
SUNPOU
 62
     0
100
AcDbBlockReference
  2
ARROW
 10
642.0545793786096
 20
290.1037623305055
 30
0.0
 41
7.5
 42
7.5
 43
7.5
 50
270.0
  0
MTEXT
  5
C74
330
B09
100
AcDbEntity
  8
SUNPOU
 62
     0
100
AcDbMText
 10
634.1045793786094
 20
565.1037623302529
 30
0.0
 40
15.0
 41
0.0
 71
     5
 72
     1
  1
\A1;550
 11
0.0000000000000001
 21
1.0
 31
0.0
  0
POINT
  5
C75
330
B09
100
AcDbEntity
  8
DEFPOINTS
 62
     0
100
AcDbPoint
 10
677.4223741991299
 20
840.10376233
 30
0.0
  0
POINT
  5
C76
330
B09
100
AcDbEntity
  8
DEFPOINTS
 62
     0
100
AcDbPoint
 10
711.0757589800002
 20
290.1037623305055
 30
0.0
  0
POINT
  5
C77
330
B09
100
AcDbEntity
  8
DEFPOINTS
 62
     0
100
AcDbPoint
 10
642.0545793786096
 20
290.1037623305055
 30
0.0
  0
ENDBLK
  5
B14
330
B09
100
AcDbEntity
  8
0
100
AcDbBlockEnd
  0
BLOCK
  5
B17
330
B16
100
AcDbEntity
  8
0
100
AcDbBlockBegin
  2
*D20
 70
     1
 10
0.0
 20
0.0
 30
0.0
  3
*D20
  1

  0
LINE
  5
C78
330
B16
100
AcDbEntity
  8
SUNPOU
 62
     0
100
AcDbLine
 10
1045.915718817244
 20
510.1037623305056
 30
0.0
 11
1170.277447973925
 21
510.1037623305055
 31
0.0
  0
LINE
  5
C79
330
B16
100
AcDbEntity
  8
SUNPOU
 62
     0
100
AcDbLine
 10
966.0757589800001
 20
290.1037623305055
 30
0.0
 11
1170.277447973925
 21
290.1037623305054
 31
0.0
  0
LINE
  5
C7A
330
B16
100
AcDbEntity
  8
SUNPOU
 62
     0
100
AcDbLine
 10
1165.277447973925
 20
502.6037623305056
 30
0.0
 11
1165.277447973925
 21
297.6037623305054
 31
0.0
  0
INSERT
  5
C7B
330
B16
100
AcDbEntity
  8
SUNPOU
 62
     0
100
AcDbBlockReference
  2
ARROW
 10
1165.277447973925
 20
510.1037623305055
 30
0.0
 41
7.5
 42
7.5
 43
7.5
 50
90.0
  0
INSERT
  5
C7C
330
B16
100
AcDbEntity
  8
SUNPOU
 62
     0
100
AcDbBlockReference
  2
ARROW
 10
1165.277447973925
 20
290.1037623305054
 30
0.0
 41
7.5
 42
7.5
 43
7.5
 50
270.0
  0
MTEXT
  5
C7D
330
B16
100
AcDbEntity
  8
SUNPOU
 62
     0
100
AcDbMText
 10
1157.327447973925
 20
400.1037623305057
 30
0.0
 40
15.0
 41
0.0
 71
     5
 72
     1
  1
\A1;220
 11
0.0000000000000001
 21
1.0
 31
0.0
  0
POINT
  5
C7E
330
B16
100
AcDbEntity
  8
DEFPOINTS
 62
     0
100
AcDbPoint
 10
1040.915718817244
 20
510.1037623305056
 30
0.0
  0
POINT
  5
C7F
330
B16
100
AcDbEntity
  8
DEFPOINTS
 62
     0
100
AcDbPoint
 10
961.0757589800002
 20
290.1037623305055
 30
0.0
  0
POINT
  5
C80
330
B16
100
AcDbEntity
  8
DEFPOINTS
 62
     0
100
AcDbPoint
 10
1165.277447973925
 20
290.1037623305054
 30
0.0
  0
ENDBLK
  5
B21
330
B16
100
AcDbEntity
  8
0
100
AcDbBlockEnd
  0
BLOCK
  5
B3D
330
B23
100
AcDbEntity
  8
0
100
AcDbBlockBegin
  2
*D21
 70
     1
 10
0.0
 20
0.0
 30
0.0
  3
*D21
  1

  0
LINE
  5
C81
330
B23
100
AcDbEntity
  8
SUNPOU
 62
     0
100
AcDbLine
 10
698.5757589799999
 20
742.8575387886257
 30
0.0
 11
698.5757589799999
 21
873.6354508759003
 31
0.0
  0
LINE
  5
C82
330
B23
100
AcDbEntity
  8
SUNPOU
 62
     0
100
AcDbLine
 10
1058.57575898
 20
623.1037623305056
 30
0.0
 11
1058.57575898
 21
873.6354508759003
 31
0.0
  0
LINE
  5
C83
330
B23
100
AcDbEntity
  8
SUNPOU
 62
     0
100
AcDbLine
 10
706.0757589799999
 20
868.6354508759002
 30
0.0
 11
1051.07575898
 21
868.6354508759002
 31
0.0
  0
INSERT
  5
C84
330
B23
100
AcDbEntity
  8
SUNPOU
 62
     0
100
AcDbBlockReference
  2
ARROW
 10
698.5757589799999
 20
868.6354508759002
 30
0.0
 41
7.5
 42
7.5
 43
7.5
 50
180.0
  0
INSERT
  5
C85
330
B23
100
AcDbEntity
  8
SUNPOU
 62
     0
100
AcDbBlockReference
  2
ARROW
 10
1058.57575898
 20
868.6354508759002
 30
0.0
 41
7.5
 42
7.5
 43
7.5
  0
MTEXT
  5
C86
330
B23
100
AcDbEntity
  8
SUNPOU
 62
     0
100
AcDbMText
 10
877.321195285336
 20
876.5854508759003
 30
0.0
 40
15.0
 41
0.0
 71
     5
 72
     1
  1
\A1;360
  0
POINT
  5
C87
330
B23
100
AcDbEntity
  8
DEFPOINTS
 62
     0
100
AcDbPoint
 10
698.5757589799999
 20
737.8575387886257
 30
0.0
  0
POINT
  5
C88
330
B23
100
AcDbEntity
  8
DEFPOINTS
 62
     0
100
AcDbPoint
 10
1058.57575898
 20
618.1037623305055
 30
0.0
  0
POINT
  5
C89
330
B23
100
AcDbEntity
  8
DEFPOINTS
 62
     0
100
AcDbPoint
 10
1058.57575898
 20
868.6354508759002
 30
0.0
  0
ENDBLK
  5
B47
330
B23
100
AcDbEntity
  8
0
100
AcDbBlockEnd
  0
BLOCK
  5
B31
330
B30
100
AcDbEntity
  8
0
100
AcDbBlockBegin
  2
*D22
 70
     1
 10
0.0
 20
0.0
 30
0.0
  3
*D22
  1

  0
LINE
  5
C8A
330
B30
100
AcDbEntity
  8
SUNPOU
 62
     0
100
AcDbLine
 10
580.3429763200001
 20
648.1037623305053
 30
0.0
 11
580.3429763200001
 21
875.1426650833254
 31
0.0
  0
LINE
  5
C8B
330
B30
100
AcDbEntity
  8
SUNPOU
 62
     0
100
AcDbLine
 10
200.34297632
 20
648.1037623305056
 30
0.0
 11
200.34297632
 21
875.1426650833254
 31
0.0
  0
LINE
  5
C8C
330
B30
100
AcDbEntity
  8
SUNPOU
 62
     0
100
AcDbLine
 10
572.8429763200002
 20
870.1426650833255
 30
0.0
 11
207.84297632
 21
870.1426650833255
 31
0.0
  0
INSERT
  5
C8D
330
B30
100
AcDbEntity
  8
SUNPOU
 62
     0
100
AcDbBlockReference
  2
ARROW
 10
580.3429763200001
 20
870.1426650833255
 30
0.0
 41
7.5
 42
7.5
 43
7.5
  0
INSERT
  5
C8E
330
B30
100
AcDbEntity
  8
SUNPOU
 62
     0
100
AcDbBlockReference
  2
ARROW
 10
200.34297632
 20
870.1426650833255
 30
0.0
 41
7.5
 42
7.5
 43
7.5
 50
180.0
  0
MTEXT
  5
C8F
330
B30
100
AcDbEntity
  8
SUNPOU
 62
     0
100
AcDbMText
 10
390.3429763200001
 20
878.0926650833254
 30
0.0
 40
15.0
 41
0.0
 71
     5
 72
     1
  1
\A1;380
  0
POINT
  5
C90
330
B30
100
AcDbEntity
  8
DEFPOINTS
 62
     0
100
AcDbPoint
 10
580.3429763200001
 20
643.1037623305053
 30
0.0
  0
POINT
  5
C91
330
B30
100
AcDbEntity
  8
DEFPOINTS
 62
     0
100
AcDbPoint
 10
200.34297632
 20
643.1037623305055
 30
0.0
  0
POINT
  5
C92
330
B30
100
AcDbEntity
  8
DEFPOINTS
 62
     0
100
AcDbPoint
 10
200.34297632
 20
870.1426650833255
 30
0.0
  0
ENDBLK
  5
B3B
330
B30
100
AcDbEntity
  8
0
100
AcDbBlockEnd
  0
BLOCK
  5
BA8
330
BA5
100
AcDbEntity
  8
0
100
AcDbBlockBegin
  2
A$C06C6236D
 70
     0
 10
0.0
 20
0.0
 30
0.0
  3
A$C06C6236D
  1

  0
ARC
  5
BA6
330
BA5
100
AcDbEntity
  8
HOJO
100
AcDbCircle
 10
12.49999630975355
 20
-0.0000028062615911
 30
0.0
 40
12.5
100
AcDbArc
 50
0.0
 51
90.0
  0
ARC
  5
BA7
330
BA5
100
AcDbEntity
  8
HOJO
100
AcDbCircle
 10
12.49999630975355
 20
-0.0000028062615911
 30
0.0
 40
12.5
100
AcDbArc
 50
90.0
 51
180.0
  0
ENDBLK
  5
BA9
330
BA5
100
AcDbEntity
  8
0
100
AcDbBlockEnd
  0
BLOCK
  5
BDD
330
BCF
100
AcDbEntity
  8
0
100
AcDbBlockBegin
  2
A$C23052AEC
 70
     0
 10
0.0
 20
0.0
 30
0.0
  3
A$C23052AEC
  1

  0
LINE
  5
BD0
330
BCF
100
AcDbEntity
  8
0
100
AcDbLine
 10
0.0000020939951355
 20
12.63059064282652
 30
0.0
 11
54.84657498141405
 21
12.63059064282629
 31
0.0
  0
LINE
  5
BD1
330
BCF
100
AcDbEntity
  8
0
100
AcDbLine
 10
0.0000020939951355
 20
5.630590642826518
 30
0.0
 11
54.84657498141405
 21
5.630590642826518
 31
0.0
  0
LINE
  5
BD2
330
BCF
100
AcDbEntity
  8
0
100
AcDbLine
 10
54.84657498141405
 20
-0.0000019102868691
 30
0.0
 11
54.84657498141405
 21
18.47961691971318
 31
0.0
  0
LINE
  5
BD3
330
BCF
100
AcDbEntity
  8
0
100
AcDbLine
 10
54.84657498141382
 20
-0.0000019102867554
 30
0.0
 11
72.78757435141392
 21
-0.0000019102867554
 31
0.0
  0
LINE
  5
BD4
330
BCF
100
AcDbEntity
  8
0
100
AcDbLine
 10
54.84657498141382
 20
18.47961691971318
 30
0.0
 11
72.78757435141392
 21
18.47961691971318
 31
0.0
  0
LINE
  5
BD5
330
BCF
100
AcDbEntity
  8
0
100
AcDbLine
 10
72.78757435141369
 20
6.92850373971305
 30
0.0
 11
72.78757435141347
 21
13.92850373971305
 31
0.0
  0
LINE
  5
BD6
330
BCF
100
AcDbEntity
  8
0
100
AcDbLine
 10
72.78757435141392
 20
-0.0000019102867554
 30
0.0
 11
72.78757435141392
 21
18.47961691971318
 31
0.0
  0
LINE
  5
BD7
330
BCF
100
AcDbEntity
  8
0
100
AcDbLine
 10
82.18398207141399
 20
2.530417579713002
 30
0.0
 11
82.18398207141399
 21
5.665159789713129
 31
0.0
  0
LINE
  5
BD8
330
BCF
100
AcDbEntity
  8
0
100
AcDbLine
 10
82.18398207141399
 20
10.54142266971302
 30
0.0
 11
82.18398207141399
 21
13.92850373971305
 31
0.0
  0
LINE
  5
BD9
330
BCF
100
AcDbEntity
  8
0
100
AcDbLine
 10
72.78757435141415
 20
2.530417579713116
 30
0.0
 11
82.18398207141445
 21
2.530417579713116
 31
0.0
  0
LINE
  5
BDA
330
BCF
100
AcDbEntity
  8
0
100
AcDbLine
 10
72.78757435141415
 20
5.665159789713243
 30
0.0
 11
82.18398207141445
 21
5.665159789713243
 31
0.0
  0
LINE
  5
BDB
330
BCF
100
AcDbEntity
  8
0
100
AcDbLine
 10
72.78757435141392
 20
10.54142266971302
 30
0.0
 11
82.18398207141399
 21
10.54142266971302
 31
0.0
  0
LINE
  5
BDC
330
BCF
100
AcDbEntity
  8
0
100
AcDbLine
 10
72.78757435141369
 20
13.92850373971305
 30
0.0
 11
82.18398207141399
 21
13.92850373971305
 31
0.0
  0
ENDBLK
  5
BDE
330
BCF
100
AcDbEntity
  8
0
100
AcDbBlockEnd
  0
BLOCK
  5
BF9
330
BF8
100
AcDbEntity
  8
0
100
AcDbBlockBegin
  2
*D25
 70
     1
 10
0.0
 20
0.0
 30
0.0
  3
*D25
  1

  0
LINE
  5
C93
330
BF8
100
AcDbEntity
  8
SUNPOU
 62
     0
100
AcDbLine
 10
450.3429763200002
 20
438.1040552246019
 30
0.0
 11
450.3429763200002
 21
287.0731635226438
 31
0.0
  0
LINE
  5
C94
330
BF8
100
AcDbEntity
  8
SUNPOU
 62
     0
100
AcDbLine
 10
390.3429763200002
 20
371.1043481192037
 30
0.0
 11
390.3429763200002
 21
287.0731635226438
 31
0.0
  0
LINE
  5
C95
330
BF8
100
AcDbEntity
  8
SUNPOU
 62
     0
100
AcDbLine
 10
442.8429763200002
 20
292.0731635226438
 30
0.0
 11
397.8429763200002
 21
292.0731635226438
 31
0.0
  0
INSERT
  5
C96
330
BF8
100
AcDbEntity
  8
SUNPOU
 62
     0
100
AcDbBlockReference
  2
ARROW
 10
450.3429763200002
 20
292.0731635226438
 30
0.0
 41
7.5
 42
7.5
 43
7.5
  0
INSERT
  5
C97
330
BF8
100
AcDbEntity
  8
SUNPOU
 62
     0
100
AcDbBlockReference
  2
ARROW
 10
390.3429763200002
 20
292.0731635226438
 30
0.0
 41
7.5
 42
7.5
 43
7.5
 50
180.0
  0
MTEXT
  5
C98
330
BF8
100
AcDbEntity
  8
SUNPOU
 62
     0
100
AcDbMText
 10
420.3429763200002
 20
300.0231635226438
 30
0.0
 40
15.0
 41
0.0
 71
     5
 72
     1
  1
\A1;60
  0
POINT
  5
C99
330
BF8
100
AcDbEntity
  8
DEFPOINTS
 62
     0
100
AcDbPoint
 10
450.3429763200002
 20
443.1040552246019
 30
0.0
  0
POINT
  5
C9A
330
BF8
100
AcDbEntity
  8
DEFPOINTS
 62
     0
100
AcDbPoint
 10
390.3429763200002
 20
376.1043481192038
 30
0.0
  0
POINT
  5
C9B
330
BF8
100
AcDbEntity
  8
DEFPOINTS
 62
     0
100
AcDbPoint
 10
390.3429763200002
 20
292.0731635226438
 30
0.0
  0
ENDBLK
  5
C03
330
BF8
100
AcDbEntity
  8
0
100
AcDbBlockEnd
  0
BLOCK
  5
C13
330
C05
100
AcDbEntity
  8
0
100
AcDbBlockBegin
  2
A$C29C57B06
 70
     0
 10
0.0
 20
0.0
 30
0.0
  3
A$C29C57B06
  1

  0
LINE
  5
C06
330
C05
100
AcDbEntity
  8
0
100
AcDbLine
 10
0.0000020939951355
 20
12.63059064282652
 30
0.0
 11
54.84657498141405
 21
12.63059064282629
 31
0.0
  0
LINE
  5
C07
330
C05
100
AcDbEntity
  8
0
100
AcDbLine
 10
0.0000020939951355
 20
5.630590642826518
 30
0.0
 11
54.84657498141405
 21
5.630590642826518
 31
0.0
  0
LINE
  5
C08
330
C05
100
AcDbEntity
  8
0
100
AcDbLine
 10
54.84657498141405
 20
-0.0000019102868691
 30
0.0
 11
54.84657498141405
 21
18.47961691971318
 31
0.0
  0
LINE
  5
C09
330
C05
100
AcDbEntity
  8
0
100
AcDbLine
 10
54.84657498141382
 20
-0.0000019102867554
 30
0.0
 11
72.78757435141392
 21
-0.0000019102867554
 31
0.0
  0
LINE
  5
C0A
330
C05
100
AcDbEntity
  8
0
100
AcDbLine
 10
54.84657498141382
 20
18.47961691971318
 30
0.0
 11
72.78757435141392
 21
18.47961691971318
 31
0.0
  0
LINE
  5
C0B
330
C05
100
AcDbEntity
  8
0
100
AcDbLine
 10
72.78757435141369
 20
6.92850373971305
 30
0.0
 11
72.78757435141347
 21
13.92850373971305
 31
0.0
  0
LINE
  5
C0C
330
C05
100
AcDbEntity
  8
0
100
AcDbLine
 10
72.78757435141392
 20
-0.0000019102867554
 30
0.0
 11
72.78757435141392
 21
18.47961691971318
 31
0.0
  0
LINE
  5
C0D
330
C05
100
AcDbEntity
  8
0
100
AcDbLine
 10
82.18398207141399
 20
2.530417579713002
 30
0.0
 11
82.18398207141399
 21
5.665159789713129
 31
0.0
  0
LINE
  5
C0E
330
C05
100
AcDbEntity
  8
0
100
AcDbLine
 10
82.18398207141399
 20
10.54142266971302
 30
0.0
 11
82.18398207141399
 21
13.92850373971305
 31
0.0
  0
LINE
  5
C0F
330
C05
100
AcDbEntity
  8
0
100
AcDbLine
 10
72.78757435141415
 20
2.530417579713116
 30
0.0
 11
82.18398207141445
 21
2.530417579713116
 31
0.0
  0
LINE
  5
C10
330
C05
100
AcDbEntity
  8
0
100
AcDbLine
 10
72.78757435141415
 20
5.665159789713243
 30
0.0
 11
82.18398207141445
 21
5.665159789713243
 31
0.0
  0
LINE
  5
C11
330
C05
100
AcDbEntity
  8
0
100
AcDbLine
 10
72.78757435141392
 20
10.54142266971302
 30
0.0
 11
82.18398207141399
 21
10.54142266971302
 31
0.0
  0
LINE
  5
C12
330
C05
100
AcDbEntity
  8
0
100
AcDbLine
 10
72.78757435141369
 20
13.92850373971305
 30
0.0
 11
82.18398207141399
 21
13.92850373971305
 31
0.0
  0
ENDBLK
  5
C14
330
C05
100
AcDbEntity
  8
0
100
AcDbBlockEnd
  0
BLOCK
  5
C32
330
C30
100
AcDbEntity
  8
0
100
AcDbBlockBegin
  2
A$C2ED45F67
 70
     0
 10
0.0
 20
0.0
 30
0.0
  3
A$C2ED45F67
  1

  0
TEXT
  5
C31
330
C30
100
AcDbEntity
  8
TEXT
100
AcDbText
 10
-2.666668226458568
 20
0.0000023802685973
 30
0.0
 40
20.0
  1
モーター：コンデンサー始動形自動復帰形ｻｰﾏﾙプロテクタ内蔵 85W 
  7
K
100
AcDbText
  0
ENDBLK
  5
C33
330
C30
100
AcDbEntity
  8
0
100
AcDbBlockEnd
  0
ENDSEC
  0
SECTION
  2
ENTITIES
  0
LINE
  5
310
330
DF
100
AcDbEntity
  8
WAKU
100
AcDbLine
 10
1905.0
 20
0.0
 30
0.0
 11
0.0
 21
0.0
 31
0.0
  0
LINE
  5
311
330
DF
100
AcDbEntity
  8
WAKU
100
AcDbLine
 10
0.0
 20
1325.0
 30
0.0
 11
1905.0
 21
1325.0
 31
0.0
  0
LINE
  5
312
330
DF
100
AcDbEntity
  8
WAKU
100
AcDbLine
 10
0.0
 20
0.0
 30
0.0
 11
0.0
 21
1325.0
 31
0.0
  0
LINE
  5
313
330
DF
100
AcDbEntity
  8
SUNPOU
100
AcDbLine
 10
515.0
 20
30.0
 30
0.0
 11
50.0
 21
30.0
 31
0.0
  0
LINE
  5
314
330
DF
100
AcDbEntity
  8
SUNPOU
100
AcDbLine
 10
50.0
 20
60.0
 30
0.0
 11
515.0
 21
60.0
 31
0.0
  0
LINE
  5
315
330
DF
100
AcDbEntity
  8
SUNPOU
100
AcDbLine
 10
515.0
 20
90.0
 30
0.0
 11
50.0
 21
90.0
 31
0.0
  0
LINE
  5
316
330
DF
100
AcDbEntity
  8
SUNPOU
100
AcDbLine
 10
50.0
 20
30.0
 30
0.0
 11
515.0
 21
30.0
 31
0.0
  0
LINE
  5
317
330
DF
100
AcDbEntity
  8
SUNPOU
100
AcDbLine
 10
515.0
 20
60.0
 30
0.0
 11
50.0
 21
60.0
 31
0.0
  0
LINE
  5
318
330
DF
100
AcDbEntity
  8
SUNPOU
100
AcDbLine
 10
50.0
 20
90.0
 30
0.0
 11
515.0
 21
90.0
 31
0.0
  0
LINE
  5
319
330
DF
100
AcDbEntity
  8
SUNPOU
100
AcDbLine
 10
515.0
 20
120.0
 30
0.0
 11
0.0
 21
120.0
 31
0.0
  0
LINE
  5
31A
330
DF
100
AcDbEntity
  8
SUNPOU
100
AcDbLine
 10
22.5
 20
120.0
 30
0.0
 11
0.0
 21
90.0
 31
0.0
  0
LINE
  5
31B
330
DF
100
AcDbEntity
  8
SUNPOU
100
AcDbLine
 10
22.5
 20
60.0
 30
0.0
 11
0.0
 21
30.0
 31
0.0
  0
LINE
  5
31C
330
DF
100
AcDbEntity
  8
SUNPOU
100
AcDbLine
 10
22.5
 20
90.0
 30
0.0
 11
0.0
 21
60.0
 31
0.0
  0
LINE
  5
31D
330
DF
100
AcDbEntity
  8
SUNPOU
100
AcDbLine
 10
45.0
 20
90.0
 30
0.0
 11
0.0
 21
90.0
 31
0.0
  0
LINE
  5
31E
330
DF
100
AcDbEntity
  8
SUNPOU
100
AcDbLine
 10
0.0
 20
60.0
 30
0.0
 11
45.0
 21
60.0
 31
0.0
  0
LINE
  5
31F
330
DF
100
AcDbEntity
  8
SUNPOU
100
AcDbLine
 10
45.0
 20
30.0
 30
0.0
 11
0.0
 21
30.0
 31
0.0
  0
LINE
  5
320
330
DF
100
AcDbEntity
  8
SUNPOU
100
AcDbLine
 10
45.0
 20
30.0
 30
0.0
 11
0.0
 21
30.0
 31
0.0
  0
LINE
  5
321
330
DF
100
AcDbEntity
  8
SUNPOU
100
AcDbLine
 10
45.0
 20
60.0
 30
0.0
 11
0.0
 21
60.0
 31
0.0
  0
LINE
  5
322
330
DF
100
AcDbEntity
  8
SUNPOU
100
AcDbLine
 10
45.0
 20
90.0
 30
0.0
 11
0.0
 21
90.0
 31
0.0
  0
TEXT
  5
323
330
DF
100
AcDbEntity
  8
TEXT
100
AcDbText
 10
6.5
 20
7.5
 30
0.0
 40
15.0
  1
記号
  7
K
 72
     4
 11
22.5
 21
15.0
 31
0.0
100
AcDbText
  0
LINE
  5
324
330
DF
100
AcDbEntity
  8
SUNPOU
100
AcDbLine
 10
50.0
 20
0.0
 30
0.0
 11
50.0
 21
120.0
 31
0.0
  0
LINE
  5
325
330
DF
100
AcDbEntity
  8
SUNPOU
100
AcDbLine
 10
45.0
 20
120.0
 30
0.0
 11
45.0
 21
0.0
 31
0.0
  0
LINE
  5
326
330
DF
100
AcDbEntity
  8
SUNPOU
100
AcDbLine
 10
45.0
 20
0.0
 30
0.0
 11
45.0
 21
120.0
 31
0.0
  0
LINE
  5
327
330
DF
100
AcDbEntity
  8
SUNPOU
100
AcDbLine
 10
50.0
 20
120.0
 30
0.0
 11
50.0
 21
0.0
 31
0.0
  0
LINE
  5
328
330
DF
100
AcDbEntity
  8
SUNPOU
100
AcDbLine
 10
250.0
 20
120.0
 30
0.0
 11
250.0
 21
0.0
 31
0.0
  0
TEXT
  5
329
330
DF
100
AcDbEntity
  8
TEXT
100
AcDbText
 10
89.50000000000001
 20
7.499999999999998
 30
0.0
 40
15.0
  1
変更内容・理由
  7
K
 72
     4
 11
150.0
 21
15.0
 31
0.0
100
AcDbText
  0
TEXT
  5
32A
330
DF
100
AcDbEntity
  8
TEXT
100
AcDbText
 10
266.0
 20
7.5
 30
0.0
 40
15.0
  1
設変番号
  7
K
 72
     4
 11
300.0
 21
15.0
 31
0.0
100
AcDbText
  0
LINE
  5
32B
330
DF
100
AcDbEntity
  8
SUNPOU
100
AcDbLine
 10
22.5
 20
90.0
 30
0.0
 11
45.0
 21
60.0
 31
0.0
  0
LINE
  5
32C
330
DF
100
AcDbEntity
  8
SUNPOU
100
AcDbLine
 10
22.5
 20
60.0
 30
0.0
 11
45.0
 21
30.0
 31
0.0
  0
LINE
  5
32D
330
DF
100
AcDbEntity
  8
SUNPOU
100
AcDbLine
 10
45.0
 20
90.0
 30
0.0
 11
22.5
 21
120.0
 31
0.0
  0
LINE
  5
32E
330
DF
100
AcDbEntity
  8
WAKU
100
AcDbLine
 10
0.0
 20
685.0
 30
0.0
 11
-25.0
 21
685.0
 31
0.0
  0
LINE
  5
32F
330
DF
100
AcDbEntity
  8
WAKU
100
AcDbLine
 10
515.0
 20
120.0
 30
0.0
 11
515.0
 21
0.0
 31
0.0
  0
LINE
  5
330
330
DF
100
AcDbEntity
  8
SUNPOU
100
AcDbLine
 10
470.0
 20
0.0
 30
0.0
 11
470.0
 21
120.0
 31
0.0
  0
LINE
  5
331
330
DF
100
AcDbEntity
  8
SUNPOU
100
AcDbLine
 10
425.0
 20
120.0
 30
0.0
 11
425.0
 21
0.0
 31
0.0
  0
LINE
  5
332
330
DF
100
AcDbEntity
  8
SUNPOU
100
AcDbLine
 10
350.0
 20
0.0
 30
0.0
 11
350.0
 21
120.0
 31
0.0
  0
TEXT
  5
333
330
DF
100
AcDbEntity
  8
TEXT
100
AcDbText
 10
431.8214285714285
 20
7.5
 30
0.0
 40
15.0
  1
担当
  7
K
 72
     4
 11
447.5
 21
15.0
 31
0.0
100
AcDbText
  0
TEXT
  5
334
330
DF
100
AcDbEntity
  8
TEXT
100
AcDbText
 10
345.5
 20
7.5
 30
0.0
 40
15.0
  1
 年 月 日
  7
K
 72
     4
 11
387.5
 21
15.0
 31
0.0
100
AcDbText
  0
TEXT
  5
335
330
DF
100
AcDbEntity
  8
TEXT
100
AcDbText
 10
477.0
 20
7.5
 30
0.0
 40
15.0
  1
検図
  7
K
 72
     4
 11
492.4999999999999
 21
15.0
 31
0.0
100
AcDbText
  0
TEXT
  5
34E
330
DF
100
AcDbEntity
  8
TEXT
100
AcDbText
 10
1125.455087996626
 20
852.1877678794053
 30
0.0
 40
20.0
  1
定格時間：連続
  7
K
100
AcDbText
  0
LINE
  5
34F
330
DF
100
AcDbEntity
  8
WAKU
100
AcDbLine
 10
1905.0
 20
1325.0
 30
0.0
 11
1905.0
 21
0.0
 31
0.0
  0
LINE
  5
352
330
DF
100
AcDbEntity
  8
TEXT
100
AcDbLine
 10
1122.327027182247
 20
777.5442938289252
 30
0.0
 11
1674.009072650954
 21
777.5442938289252
 31
0.0
  0
TEXT
  5
353
330
DF
100
AcDbEntity
  8
TEXT
100
AcDbText
 10
1125.455087996626
 20
784.1877678794053
 30
0.0
 40
20.0
  1
切削能力：約3kg/分(1.2mm厚)
  7
K
100
AcDbText
  0
LINE
  5
354
330
DF
100
AcDbEntity
  8
TEXT
100
AcDbLine
 10
1122.327027182247
 20
811.5442938289252
 30
0.0
 11
1674.009072650954
 21
811.5442938289252
 31
0.0
  0
LINE
  5
356
330
DF
100
AcDbEntity
  8
TEXT
100
AcDbLine
 10
1122.327027182247
 20
845.5442938289252
 30
0.0
 11
1674.009072650954
 21
845.5442938289252
 31
0.0
  0
LINE
  5
357
330
DF
100
AcDbEntity
  8
TEXT
100
AcDbLine
 10
1483.212522139625
 20
201.4899248119813
 30
0.0
 11
1701.991109023901
 21
201.4899248119813
 31
0.0
  0
TEXT
  5
358
330
DF
100
AcDbEntity
  8
TEXT
100
AcDbText
 10
1630.536377372535
 20
140.0
 30
0.0
 40
15.0
  1
三 角 法
  7
K
100
AcDbText
  0
TEXT
  5
359
330
DF
100
AcDbEntity
  8
TEXT
100
AcDbText
 10
1627.42583611752
 20
20.0
 30
0.0
 40
10.0
  1
株式会社
  7
K
100
AcDbText
  0
LINE
  5
35A
330
DF
100
AcDbEntity
  8
WAKU
100
AcDbLine
 10
1605.0
 20
165.0
 30
0.0
 11
1905.0
 21
165.0
 31
0.0
  0
LINE
  5
35B
330
DF
100
AcDbEntity
  8
WAKU
100
AcDbLine
 10
1905.0
 20
130.0
 30
0.0
 11
1605.0
 21
130.0
 31
0.0
  0
LINE
  5
35C
330
DF
100
AcDbEntity
  8
WAKU
100
AcDbLine
 10
1605.0
 20
65.0
 30
0.0
 11
1905.0
 21
65.0
 31
0.0
  0
LINE
  5
35D
330
DF
100
AcDbEntity
  8
WAKU
100
AcDbLine
 10
1030.0
 20
245.0
 30
0.0
 11
1730.0
 21
245.0
 31
0.0
  0
TEXT
  5
35E
330
DF
100
AcDbEntity
  8
TEXT
100
AcDbText
 10
1089.383554119052
 20
-15.0
 30
0.0
 40
13.0
  1
複写図面配布先： 購買  →発注先 フード生産技術 フード品質保証 鋳造生産技術 ジョイテック （              ）
  7
K
100
AcDbText
  0
LINE
  5
35F
330
DF
100
AcDbEntity
  8
SUNPOU
100
AcDbLine
 10
1455.0
 20
245.0
 30
0.0
 11
1455.0
 21
165.0
 31
0.0
  0
LINE
  5
360
330
DF
100
AcDbEntity
  8
WAKU
100
AcDbLine
 10
1410.0
 20
165.0
 30
0.0
 11
1410.0
 21
245.0
 31
0.0
  0
LINE
  5
361
330
DF
100
AcDbEntity
  8
SUNPOU
100
AcDbLine
 10
1165.0
 20
245.0
 30
0.0
 11
1165.0
 21
123.75
 31
0.0
  0
LINE
  5
362
330
DF
100
AcDbEntity
  8
WAKU
100
AcDbLine
 10
1030.0
 20
245.0
 30
0.0
 11
1030.0
 21
0.0
 31
0.0
  0
LINE
  5
363
330
DF
100
AcDbEntity
  8
SUNPOU
100
AcDbLine
 10
1410.0
 20
153.0277662695579
 30
0.0
 11
1305.0
 21
0.0
 31
0.0
  0
TEXT
  5
364
330
DF
100
AcDbEntity
  8
TEXT
100
AcDbText
 10
1318.0
 20
137.5277662695578
 30
0.0
 40
13.5
  1
J
  7
K
 72
     1
 11
1322.5
 21
144.2777662695579
 31
0.0
100
AcDbText
 73
     2
  0
TEXT
  5
365
330
DF
100
AcDbEntity
  8
TEXT
100
AcDbText
 10
1312.5
 20
82.12499260185865
 30
0.0
 40
10.0
  1
0.1
 41
0.8
  7
K
 11
1312.5
 21
87.12499260185865
 31
0.0
100
AcDbText
 73
     2
  0
TEXT
  5
366
330
DF
100
AcDbEntity
  8
TEXT
100
AcDbText
 10
1312.5
 20
101.4861020689383
 30
0.0
 40
10.0
  1
0.05
 41
0.8
  7
K
 11
1312.5
 21
106.4861020689383
 31
0.0
100
AcDbText
 73
     2
  0
TEXT
  5
367
330
DF
100
AcDbEntity
  8
TEXT
100
AcDbText
 10
1312.5
 20
120.847211536018
 30
0.0
 40
10.0
  1
0.05
 41
0.8
  7
K
 11
1312.5
 21
125.847211536018
 31
0.0
100
AcDbText
 73
     2
  0
TEXT
  5
368
330
DF
100
AcDbEntity
  8
TEXT
100
AcDbText
 10
1312.5
 20
24.04166420061955
 30
0.0
 40
10.0
  1
0.3
 41
0.8
  7
K
 11
1312.5
 21
29.04166420061955
 31
0.0
100
AcDbText
 73
     2
  0
TEXT
  5
369
330
DF
100
AcDbEntity
  8
TEXT
100
AcDbText
 10
1312.5
 20
43.40277366769925
 30
0.0
 40
10.0
  1
0.2
 41
0.8
  7
K
 11
1312.5
 21
48.40277366769925
 31
0.0
100
AcDbText
 73
     2
  0
TEXT
  5
36A
330
DF
100
AcDbEntity
  8
TEXT
100
AcDbText
 10
1312.5
 20
62.76388313477895
 30
0.0
 40
10.0
  1
0.15
 41
0.8
  7
K
 11
1312.5
 21
67.76388313477895
 31
0.0
100
AcDbText
 73
     2
  0
TEXT
  5
36B
330
DF
100
AcDbEntity
  8
TEXT
100
AcDbText
 10
1312.5
 20
4.68055473353985
 30
0.0
 40
10.0
  1
0.5
 41
0.8
  7
K
 11
1312.5
 21
9.68055473353985
 31
0.0
100
AcDbText
 73
     2
  0
LINE
  5
36C
330
DF
100
AcDbEntity
  8
TEXT
100
AcDbLine
 10
1410.0
 20
19.3611094670797
 30
0.0
 11
1200.0
 21
19.3611094670797
 31
0.0
  0
LINE
  5
36D
330
DF
100
AcDbEntity
  8
TEXT
100
AcDbLine
 10
1200.0
 20
38.7222189341594
 30
0.0
 11
1410.0
 21
38.7222189341594
 31
0.0
  0
LINE
  5
36E
330
DF
100
AcDbEntity
  8
TEXT
100
AcDbLine
 10
1410.0
 20
58.0833284012391
 30
0.0
 11
1200.0
 21
58.0833284012391
 31
0.0
  0
LINE
  5
36F
330
DF
100
AcDbEntity
  8
TEXT
100
AcDbLine
 10
1200.0
 20
77.4444378683188
 30
0.0
 11
1410.0
 21
77.4444378683188
 31
0.0
  0
LINE
  5
370
330
DF
100
AcDbEntity
  8
TEXT
100
AcDbLine
 10
1410.0
 20
96.8055473353985
 30
0.0
 11
1200.0
 21
96.8055473353985
 31
0.0
  0
LINE
  5
371
330
DF
100
AcDbEntity
  8
TEXT
100
AcDbLine
 10
1200.0
 20
116.1666568024781
 30
0.0
 11
1410.0
 21
116.1666568024781
 31
0.0
  0
LINE
  5
372
330
DF
100
AcDbEntity
  8
TEXT
100
AcDbLine
 10
1410.0
 20
183.6851775130385
 30
0.0
 11
1030.0
 21
183.6851775130385
 31
0.0
  0
LINE
  5
373
330
DF
100
AcDbEntity
  8
TEXT
100
AcDbLine
 10
1030.0
 20
214.3425887565193
 30
0.0
 11
1410.0
 21
214.3425887565193
 31
0.0
  0
LINE
  5
374
330
DF
100
AcDbEntity
  8
TEXT
100
AcDbLine
 10
1200.0
 20
135.5277662695579
 30
0.0
 11
1410.0
 21
135.5277662695579
 31
0.0
  0
LINE
  5
375
330
DF
100
AcDbEntity
  8
WAKU
100
AcDbLine
 10
1410.0
 20
153.0277662695579
 30
0.0
 11
1030.0
 21
153.0277662695579
 31
0.0
  0
LINE
  5
376
330
DF
100
AcDbEntity
  8
TEXT
100
AcDbLine
 10
1305.0
 20
153.0277662695579
 30
0.0
 11
1305.0
 21
0.0
 31
0.0
  0
TEXT
  5
377
330
DF
100
AcDbEntity
  8
TEXT
100
AcDbText
 10
1203.880322721626
 20
4.68055473353985
 30
0.0
 40
10.0
  1
1000ｦｺｴ
 41
0.8
  7
K
 72
     2
 11
1247.156513197817
 21
9.68055473353985
 31
0.0
100
AcDbText
 73
     2
  0
LINE
  5
378
330
DF
100
AcDbEntity
  8
TEXT
100
AcDbLine
 10
1200.0
 20
153.0277662695579
 30
0.0
 11
1200.0
 21
0.0
 31
0.0
  0
LINE
  5
379
330
DF
100
AcDbEntity
  8
SUNPOU
100
AcDbLine
 10
1165.0
 20
123.75
 30
0.0
 11
1165.0
 21
0.0
 31
0.0
  0
TEXT
  5
37A
330
DF
100
AcDbEntity
  8
TEXT
100
AcDbText
 10
1252.793618352825
 20
4.68055473353985
 30
0.0
 40
10.0
  1
2000以下
 41
0.8
  7
K
 72
     2
 11
1300.336475495682
 21
9.68055473353985
 31
0.0
100
AcDbText
 73
     2
  0
TEXT
  5
37B
330
DF
100
AcDbEntity
  8
TEXT
100
AcDbText
 10
1089.383554119052
 20
-29.00000000000005
 30
0.0
 40
12.0
  1
（必要に応じて追加・抹消）
  7
K
100
AcDbText
  0
TEXT
  5
37C
330
DF
100
AcDbEntity
  8
TEXT
100
AcDbText
 10
1037.5
 20
4.437016273696769
 30
0.0
 40
10.0
  1
～
  7
K
 11
1037.5
 21
9.437016273696769
 31
0.0
100
AcDbText
 73
     2
  0
LINE
  5
37D
330
DF
100
AcDbEntity
  8
TEXT
100
AcDbLine
 10
1030.0
 20
94.37016273696713
 30
0.0
 11
1165.0
 21
94.37016273696713
 31
0.0
  0
LINE
  5
37E
330
DF
100
AcDbEntity
  8
TEXT
100
AcDbLine
 10
1030.0
 20
123.4148220507546
 30
0.0
 11
1165.0
 21
123.4148220507546
 31
0.0
  0
TEXT
  5
37F
330
DF
100
AcDbEntity
  8
TEXT
100
AcDbText
 10
1037.5
 20
79.93314646327036
 30
0.0
 40
10.0
  1
▽▽▽▽
  7
K
 11
1037.5
 21
84.93314646327036
 31
0.0
100
AcDbText
 73
     2
  0
TEXT
  5
380
330
DF
100
AcDbEntity
  8
TEXT
100
AcDbText
 10
1039.1
 20
102.6315099399121
 30
0.0
 40
15.0
  1
(標準外ﾊ指定ﾉｺﾄ)
 41
0.8
  7
K
 72
     4
 11
1097.499999999999
 21
109.0600813684835
 31
0.0
100
AcDbText
  0
TEXT
  5
381
330
DF
100
AcDbEntity
  8
TEXT
100
AcDbText
 10
1037.5
 20
61.05911391587696
 30
0.0
 40
10.0
  1
▽▽▽
  7
K
 11
1037.5
 21
66.05911391587696
 31
0.0
100
AcDbText
 73
     2
  0
TEXT
  5
382
330
DF
100
AcDbEntity
  8
TEXT
100
AcDbText
 10
1037.5
 20
23.31104882109016
 30
0.0
 40
10.0
  1
▽
  7
K
 11
1037.5
 21
28.31104882109016
 31
0.0
100
AcDbText
 73
     2
  0
TEXT
  5
383
330
DF
100
AcDbEntity
  8
TEXT
100
AcDbText
 10
1037.5
 20
42.18508136848356
 30
0.0
 40
10.0
  1
▽▽
  7
K
 11
1037.5
 21
47.18508136848356
 31
0.0
100
AcDbText
 73
     2
  0
TEXT
  5
384
330
DF
100
AcDbEntity
  8
TEXT
100
AcDbText
 10
1139.880952380952
 20
61.05911391587696
 30
0.0
 40
10.0
  1
6Z
  7
K
 72
     2
 11
1157.5
 21
66.05911391587696
 31
0.0
100
AcDbText
 73
     2
  0
TEXT
  5
385
330
DF
100
AcDbEntity
  8
TEXT
100
AcDbText
 10
1130.357142857142
 20
23.31104882109016
 30
0.0
 40
10.0
  1
50Z
  7
K
 72
     2
 11
1157.5
 21
28.31104882109016
 31
0.0
100
AcDbText
 73
     2
  0
TEXT
  5
386
330
DF
100
AcDbEntity
  8
TEXT
100
AcDbText
 10
1130.357142857142
 20
42.18508136848356
 30
0.0
 40
10.0
  1
18Z
  7
K
 72
     2
 11
1157.5
 21
47.18508136848356
 31
0.0
100
AcDbText
 73
     2
  0
TEXT
  5
387
330
DF
100
AcDbEntity
  8
TEXT
100
AcDbText
 10
1125.595238095238
 20
79.93314646327036
 30
0.0
 40
10.0
  1
0.8Z
  7
K
 72
     2
 11
1157.5
 21
84.93314646327036
 31
0.0
100
AcDbText
 73
     2
  0
TEXT
  5
388
330
DF
100
AcDbEntity
  8
TEXT
100
AcDbText
 10
1045.328932303146
 20
191.5138831347789
 30
0.0
 40
15.0
  1
色調
  7
K
 11
1045.328932303146
 21
199.0138831347789
 31
0.0
100
AcDbText
 73
     2
  0
TEXT
  5
389
330
DF
100
AcDbEntity
  8
TEXT
100
AcDbText
 10
1037.5
 20
130.7212941601562
 30
0.0
 40
15.0
  1
標準加工アラサ
  7
K
 72
     4
 11
1097.499999999999
 21
138.2212941601562
 31
0.0
100
AcDbText
  0
TEXT
  5
38A
330
DF
100
AcDbEntity
  8
TEXT
100
AcDbText
 10
1045.328932303146
 20
160.8564718912981
 30
0.0
 40
15.0
  1
適用規格など
  7
K
 11
1045.328932303146
 21
168.3564718912981
 31
0.0
100
AcDbText
 73
     2
  0
TEXT
  5
38B
330
DF
100
AcDbEntity
  8
TEXT
100
AcDbText
 10
1045.328932303146
 20
222.1712943782597
 30
0.0
 40
15.0
  1
表面処理
  7
K
 11
1045.328932303146
 21
229.6712943782597
 31
0.0
100
AcDbText
 73
     2
  0
TEXT
  5
38C
330
DF
100
AcDbEntity
  8
TEXT
100
AcDbText
 10
1275.650761209968
 20
120.847211536018
 30
0.0
 40
10.0
  1
3以下
 41
0.8
  7
K
 72
     2
 11
1300.336475495682
 21
125.847211536018
 31
0.0
100
AcDbText
 73
     2
  0
TEXT
  5
38D
330
DF
100
AcDbEntity
  8
TEXT
100
AcDbText
 10
1211.042227483531
 20
120.847211536018
 30
0.0
 40
10.0
  1
0.5以上
 41
0.8
  7
K
 72
     2
 11
1247.156513197817
 21
125.847211536018
 31
0.0
100
AcDbText
 73
     2
  0
TEXT
  5
38E
330
DF
100
AcDbEntity
  8
TEXT
100
AcDbText
 10
1226.737465578769
 20
101.4861020689383
 30
0.0
 40
10.0
  1
3ｦｺｴ
 41
0.8
  7
K
 72
     2
 11
1247.156513197817
 21
106.4861020689383
 31
0.0
100
AcDbText
 73
     2
  0
TEXT
  5
38F
330
DF
100
AcDbEntity
  8
TEXT
100
AcDbText
 10
1226.737465578769
 20
82.12499260185865
 30
0.0
 40
10.0
  1
6ｦｺｴ
 41
0.8
  7
K
 72
     2
 11
1247.156513197817
 21
87.12499260185865
 31
0.0
100
AcDbText
 73
     2
  0
TEXT
  5
390
330
DF
100
AcDbEntity
  8
TEXT
100
AcDbText
 10
1211.499370340674
 20
24.04166420061955
 30
0.0
 40
10.0
  1
315ｦｺｴ
 41
0.8
  7
K
 72
     2
 11
1247.156513197817
 21
29.04166420061955
 31
0.0
100
AcDbText
 73
     2
  0
TEXT
  5
391
330
DF
100
AcDbEntity
  8
TEXT
100
AcDbText
 10
1219.118417959722
 20
62.76388313477895
 30
0.0
 40
10.0
  1
30ｦｺｴ
 41
0.8
  7
K
 72
     2
 11
1247.156513197817
 21
67.76388313477895
 31
0.0
100
AcDbText
 73
     2
  0
TEXT
  5
392
330
DF
100
AcDbEntity
  8
TEXT
100
AcDbText
 10
1211.499370340674
 20
43.40277366769925
 30
0.0
 40
10.0
  1
120ｦｺｴ
 41
0.8
  7
K
 72
     2
 11
1247.156513197817
 21
48.40277366769925
 31
0.0
100
AcDbText
 73
     2
  0
TEXT
  5
393
330
DF
100
AcDbEntity
  8
TEXT
100
AcDbText
 10
1176.2
 20
64.54368504024373
 30
0.0
 40
13.5
  1
法
  7
K
 72
     1
 11
1182.5
 21
64.54368504024373
 31
0.0
100
AcDbText
  0
TEXT
  5
394
330
DF
100
AcDbEntity
  8
TEXT
100
AcDbText
 10
1171.785714285714
 20
21.21729571105277
 30
0.0
 40
7.5
  1
mm
  7
K
 72
     1
 11
1182.5
 21
21.21729571105277
 31
0.0
100
AcDbText
  0
TEXT
  5
395
330
DF
100
AcDbEntity
  8
TEXT
100
AcDbText
 10
1164.761904761904
 20
25.80952032984697
 30
0.0
 40
10.0
  1
(
  7
K
 72
     2
 11
1170.0
 21
30.80952032984697
 31
0.0
100
AcDbText
 73
     2
  0
TEXT
  5
396
330
DF
100
AcDbEntity
  8
TEXT
100
AcDbText
 10
1193.117643257487
 20
25.80952032984697
 30
0.0
 40
10.0
  1
)
  7
K
 11
1193.117643257487
 21
30.80952032984697
 31
0.0
100
AcDbText
 73
     2
  0
TEXT
  5
397
330
DF
100
AcDbEntity
  8
TEXT
100
AcDbText
 10
1177.833333333333
 20
30.80952032984697
 30
0.0
 40
10.0
  1
±
  7
K
 72
     1
 11
1182.5
 21
30.80952032984697
 31
0.0
100
AcDbText
  0
TEXT
  5
398
330
DF
100
AcDbEntity
  8
TEXT
100
AcDbText
 10
1176.2
 20
49.04368504024375
 30
0.0
 40
13.5
  1
差
  7
K
 72
     1
 11
1182.5
 21
49.04368504024375
 31
0.0
100
AcDbText
  0
TEXT
  5
399
330
DF
100
AcDbEntity
  8
TEXT
100
AcDbText
 10
1176.2
 20
95.54368504024381
 30
0.0
 40
13.5
  1
通
  7
K
 72
     1
 11
1182.5
 21
95.54368504024381
 31
0.0
100
AcDbText
  0
TEXT
  5
39A
330
DF
100
AcDbEntity
  8
TEXT
100
AcDbText
 10
1176.2
 20
80.0436850402437
 30
0.0
 40
13.5
  1
寸
  7
K
 72
     1
 11
1182.5
 21
80.0436850402437
 31
0.0
100
AcDbText
  0
TEXT
  5
39B
330
DF
100
AcDbEntity
  8
TEXT
100
AcDbText
 10
1176.2
 20
111.0436850402438
 30
0.0
 40
13.5
  1
普
  7
K
 72
     1
 11
1182.5
 21
111.0436850402438
 31
0.0
100
AcDbText
  0
TEXT
  5
39C
330
DF
100
AcDbEntity
  8
TEXT
100
AcDbText
 10
1260.412665971873
 20
62.76388313477895
 30
0.0
 40
10.0
  1
120以下
 41
0.8
  7
K
 72
     2
 11
1300.336475495682
 21
67.76388313477895
 31
0.0
100
AcDbText
 73
     2
  0
TEXT
  5
39D
330
DF
100
AcDbEntity
  8
TEXT
100
AcDbText
 10
1260.412665971873
 20
43.40277366769925
 30
0.0
 40
10.0
  1
315以下
 41
0.8
  7
K
 72
     2
 11
1300.336475495682
 21
48.40277366769925
 31
0.0
100
AcDbText
 73
     2
  0
TEXT
  5
39E
330
DF
100
AcDbEntity
  8
TEXT
100
AcDbText
 10
1252.793618352825
 20
24.04166420061955
 30
0.0
 40
10.0
  1
1000以下
 41
0.8
  7
K
 72
     2
 11
1300.336475495682
 21
29.04166420061955
 31
0.0
100
AcDbText
 73
     2
  0
TEXT
  5
39F
330
DF
100
AcDbEntity
  8
TEXT
100
AcDbText
 10
1275.650761209968
 20
101.4861020689383
 30
0.0
 40
10.0
  1
6以下
 41
0.8
  7
K
 72
     2
 11
1300.336475495682
 21
106.4861020689383
 31
0.0
100
AcDbText
 73
     2
  0
TEXT
  5
3A0
330
DF
100
AcDbEntity
  8
TEXT
100
AcDbText
 10
1268.03171359092
 20
82.12499260185865
 30
0.0
 40
10.0
  1
30以下
 41
0.8
  7
K
 72
     2
 11
1300.336475495682
 21
87.12499260185865
 31
0.0
100
AcDbText
 73
     2
  0
TEXT
  5
3A1
330
DF
100
AcDbEntity
  8
TEXT
100
AcDbText
 10
1209.75
 20
137.5277662695578
 30
0.0
 40
13.5
  1
呼 ビ 寸 法
  7
K
 72
     1
 11
1252.5
 21
144.2777662695579
 31
0.0
100
AcDbText
 73
     2
  0
LINE
  5
3A2
330
DF
100
AcDbEntity
  8
TEXT
100
AcDbLine
 10
1266.160943828778
 20
167.2958760441229
 30
0.0
 11
1312.762803387548
 21
167.2958760441229
 31
0.0
  0
LINE
  5
3A3
330
DF
100
AcDbEntity
  8
TEXT
100
AcDbLine
 10
1267.158463029889
 20
230.0509631950871
 30
0.0
 11
1313.760322588658
 21
230.0509631950871
 31
0.0
  0
LINE
  5
3A4
330
DF
100
AcDbEntity
  8
TEXT
100
AcDbLine
 10
1266.437602890035
 20
197.6840350233787
 30
0.0
 11
1313.039462448804
 21
197.6840350233787
 31
0.0
  0
LINE
  5
3A5
330
DF
100
AcDbEntity
  8
WAKU
100
AcDbLine
 10
1605.0
 20
0.0
 30
0.0
 11
1605.0
 21
65.0
 31
0.0
  0
TEXT
  5
3A6
330
DF
100
AcDbEntity
  8
TEXT
100
AcDbText
 10
1382.5
 20
4.68055473353985
 30
0.0
 40
10.0
  1
3
 41
0.8
  7
K
 11
1382.5
 21
9.68055473353985
 31
0.0
100
AcDbText
 73
     2
  0
TEXT
  5
3A7
330
DF
100
AcDbEntity
  8
TEXT
100
AcDbText
 10
1347.5
 20
4.68055473353985
 30
0.0
 40
10.0
  1
1.2
 41
0.8
  7
K
 11
1347.5
 21
9.68055473353985
 31
0.0
100
AcDbText
 73
     2
  0
TEXT
  5
3A8
330
DF
100
AcDbEntity
  8
TEXT
100
AcDbText
 10
1415.0
 20
10.0
 30
0.0
 40
15.0
  1
承認
  7
K
100
AcDbText
  0
LINE
  5
3A9
330
DF
100
AcDbEntity
  8
TEXT
100
AcDbLine
 10
1375.0
 20
153.0277662695579
 30
0.0
 11
1375.0
 21
0.0
 31
0.0
  0
LINE
  5
3AA
330
DF
100
AcDbEntity
  8
TEXT
100
AcDbLine
 10
1340.0
 20
0.0
 30
0.0
 11
1340.0
 21
153.0277662695579
 31
0.0
  0
LINE
  5
3AB
330
DF
100
AcDbEntity
  8
WAKU
100
AcDbLine
 10
1410.0
 20
0.0
 30
0.0
 11
1410.0
 21
165.0
 31
0.0
  0
LINE
  5
3AC
330
DF
100
AcDbEntity
  8
SUNPOU
100
AcDbLine
 10
1525.0
 20
165.0
 30
0.0
 11
1525.0
 21
0.0
 31
0.0
  0
LINE
  5
3AD
330
DF
100
AcDbEntity
  8
SUNPOU
100
AcDbLine
 10
1455.0
 20
165.0
 30
0.0
 11
1455.0
 21
0.0
 31
0.0
  0
CIRCLE
  5
3AE
330
DF
100
AcDbEntity
  8
JISSEN
100
AcDbCircle
 10
1551.666666666666
 20
5.0
 30
0.0
 40
1.0
  0
CIRCLE
  5
3AF
330
DF
100
AcDbEntity
  8
JISSEN
100
AcDbCircle
 10
1578.333333333333
 20
5.0
 30
0.0
 40
1.0
  0
TEXT
  5
3B0
330
DF
100
AcDbEntity
  8
TEXT
100
AcDbText
 10
1518.842051704615
 20
208.4938695990999
 30
0.0
 40
15.0
  1
ミニスライサー
  7
K
 72
     4
 11
1580.842051704615
 21
215.9938695990999
 31
0.0
100
AcDbText
  0
LINE
  5
3B1
330
DF
100
AcDbEntity
  8
SUNPOU
100
AcDbLine
 10
1605.0
 20
123.75
 30
0.0
 11
1410.0
 21
123.75
 31
0.0
  0
LINE
  5
3B2
330
DF
100
AcDbEntity
  8
SUNPOU
100
AcDbLine
 10
1605.0
 20
41.25
 30
0.0
 11
1410.0
 21
41.25
 31
0.0
  0
LINE
  5
3B3
330
DF
100
AcDbEntity
  8
SUNPOU
100
AcDbLine
 10
1410.0
 20
82.5
 30
0.0
 11
1605.0
 21
82.5
 31
0.0
  0
LINE
  5
3B4
330
DF
100
AcDbEntity
  8
WAKU
100
AcDbLine
 10
1410.0
 20
165.0
 30
0.0
 11
1605.0
 21
165.0
 31
0.0
  0
TEXT
  5
3B5
330
DF
100
AcDbEntity
  8
TEXT
100
AcDbText
 10
1347.5
 20
120.847211536018
 30
0.0
 40
10.0
  1
0.1
 41
0.8
  7
K
 11
1347.5
 21
125.847211536018
 31
0.0
100
AcDbText
 73
     2
  0
TEXT
  5
3B6
330
DF
100
AcDbEntity
  8
TEXT
100
AcDbText
 10
1382.5
 20
62.76388313477895
 30
0.0
 40
10.0
  1
0.8
 41
0.8
  7
K
 11
1382.5
 21
67.76388313477895
 31
0.0
100
AcDbText
 73
     2
  0
TEXT
  5
3B7
330
DF
100
AcDbEntity
  8
TEXT
100
AcDbText
 10
1347.5
 20
62.76388313477895
 30
0.0
 40
10.0
  1
0.3
 41
0.8
  7
K
 11
1347.5
 21
67.76388313477895
 31
0.0
100
AcDbText
 73
     2
  0
TEXT
  5
3B8
330
DF
100
AcDbEntity
  8
TEXT
100
AcDbText
 10
1347.5
 20
24.04166420061955
 30
0.0
 40
10.0
  1
0.8
 41
0.8
  7
K
 11
1347.5
 21
29.04166420061955
 31
0.0
100
AcDbText
 73
     2
  0
TEXT
  5
3B9
330
DF
100
AcDbEntity
  8
TEXT
100
AcDbText
 10
1347.5
 20
43.40277366769925
 30
0.0
 40
10.0
  1
0.5
 41
0.8
  7
K
 11
1347.5
 21
48.40277366769925
 31
0.0
100
AcDbText
 73
     2
  0
TEXT
  5
3BA
330
DF
100
AcDbEntity
  8
TEXT
100
AcDbText
 10
1382.5
 20
24.04166420061955
 30
0.0
 40
10.0
  1
2
 41
0.8
  7
K
 11
1382.5
 21
29.04166420061955
 31
0.0
100
AcDbText
 73
     2
  0
TEXT
  5
3BB
330
DF
100
AcDbEntity
  8
TEXT
100
AcDbText
 10
1382.5
 20
43.40277366769925
 30
0.0
 40
10.0
  1
1.2
 41
0.8
  7
K
 11
1382.5
 21
48.40277366769925
 31
0.0
100
AcDbText
 73
     2
  0
TEXT
  5
3BC
330
DF
100
AcDbEntity
  8
TEXT
100
AcDbText
 10
1347.5
 20
82.12499260185865
 30
0.0
 40
10.0
  1
0.2
 41
0.8
  7
K
 11
1347.5
 21
87.12499260185865
 31
0.0
100
AcDbText
 73
     2
  0
TEXT
  5
3BD
330
DF
100
AcDbEntity
  8
TEXT
100
AcDbText
 10
1347.5
 20
101.4861020689383
 30
0.0
 40
10.0
  1
0.1
 41
0.8
  7
K
 11
1347.5
 21
106.4861020689383
 31
0.0
100
AcDbText
 73
     2
  0
TEXT
  5
3BE
330
DF
100
AcDbEntity
  8
TEXT
100
AcDbText
 10
1382.5
 20
82.12499260185865
 30
0.0
 40
10.0
  1
0.5
 41
0.8
  7
K
 11
1382.5
 21
87.12499260185865
 31
0.0
100
AcDbText
 73
     2
  0
TEXT
  5
3BF
330
DF
100
AcDbEntity
  8
TEXT
100
AcDbText
 10
1382.5
 20
101.4861020689383
 30
0.0
 40
10.0
  1
0.2
 41
0.8
  7
K
 11
1382.5
 21
106.4861020689383
 31
0.0
100
AcDbText
 73
     2
  0
LINE
  5
3C0
330
DF
100
AcDbEntity
  8
TEXT
100
AcDbLine
 10
1382.5
 20
125.847211536018
 30
0.0
 11
1400.530166296804
 21
125.847211536018
 31
0.0
  0
TEXT
  5
3C1
330
DF
100
AcDbEntity
  8
TEXT
100
AcDbText
 10
1415.0
 20
51.25
 30
0.0
 40
15.0
  1
検図
  7
K
100
AcDbText
  0
TEXT
  5
3C2
330
DF
100
AcDbEntity
  8
TEXT
100
AcDbText
 10
1415.0
 20
92.5
 30
0.0
 40
15.0
  1
製図
  7
K
100
AcDbText
  0
TEXT
  5
3C3
330
DF
100
AcDbEntity
  8
TEXT
100
AcDbText
 10
1350.428571428571
 20
137.5277662695578
 30
0.0
 40
13.5
  1
K
  7
K
 72
     1
 11
1357.5
 21
144.2777662695579
 31
0.0
100
AcDbText
 73
     2
  0
TEXT
  5
3C4
330
DF
100
AcDbEntity
  8
TEXT
100
AcDbText
 10
1386.071428571428
 20
137.5277662695578
 30
0.0
 40
13.5
  1
L
  7
K
 72
     1
 11
1392.5
 21
144.2777662695579
 31
0.0
100
AcDbText
 73
     2
  0
TEXT
  5
3C5
330
DF
100
AcDbEntity
  8
TEXT
100
AcDbText
 10
1415.0
 20
133.75
 30
0.0
 40
15.0
  1
設計
  7
K
100
AcDbText
  0
TEXT
  5
3C6
330
DF
100
AcDbEntity
  8
TEXT
100
AcDbText
 10
1415.0
 20
195.0
 30
0.0
 40
15.0
  1
品名
  7
K
100
AcDbText
  0
LINE
  5
3C7
330
DF
100
AcDbEntity
  8
WAKU
100
AcDbLine
 10
1605.0
 20
65.0
 30
0.0
 11
1605.0
 21
130.0
 31
0.0
  0
CIRCLE
  5
3C8
330
DF
100
AcDbEntity
  8
JISSEN
100
AcDbCircle
 10
1551.666666666666
 20
46.25
 30
0.0
 40
1.0
  0
CIRCLE
  5
3C9
330
DF
100
AcDbEntity
  8
JISSEN
100
AcDbCircle
 10
1551.666666666666
 20
87.5
 30
0.0
 40
1.0
  0
CIRCLE
  5
3CA
330
DF
100
AcDbEntity
  8
JISSEN
100
AcDbCircle
 10
1578.333333333333
 20
46.25
 30
0.0
 40
1.0
  0
CIRCLE
  5
3CB
330
DF
100
AcDbEntity
  8
JISSEN
100
AcDbCircle
 10
1578.333333333333
 20
87.5
 30
0.0
 40
1.0
  0
TEXT
  5
3CC
330
DF
100
AcDbEntity
  8
TEXT
100
AcDbText
 10
1618.5
 20
90.0
 30
0.0
 40
15.0
  1
図番
  7
K
 72
     4
 11
1635.0
 21
97.5
 31
0.0
100
AcDbText
  0
TEXT
  5
3CD
330
DF
100
AcDbEntity
  8
TEXT
100
AcDbText
 10
1510.465565808789
 20
177.5464162556886
 30
0.0
 40
15.0
  1
SS350A外観図
  7
K
 72
     4
 11
1578.179851523075
 21
185.0464162556886
 31
0.0
100
AcDbText
  0
CIRCLE
  5
3CE
330
DF
100
AcDbEntity
  8
JISSEN
100
AcDbCircle
 10
1551.666666666666
 20
128.75
 30
0.0
 40
1.0
  0
LINE
  5
3CF
330
DF
100
AcDbEntity
  8
WAKU
100
AcDbLine
 10
1605.0
 20
130.0
 30
0.0
 11
1605.0
 21
165.0
 31
0.0
  0
CIRCLE
  5
3D0
330
DF
100
AcDbEntity
  8
JISSEN
100
AcDbCircle
 10
1578.333333333333
 20
128.75
 30
0.0
 40
1.0
  0
LINE
  5
3D1
330
DF
100
AcDbEntity
  8
SUNPOU
100
AcDbLine
 10
1785.0
 20
245.0
 30
0.0
 11
1785.0
 21
165.0
 31
0.0
  0
LINE
  5
3D2
330
DF
100
AcDbEntity
  8
WAKU
100
AcDbLine
 10
1730.0
 20
245.0
 30
0.0
 11
1730.0
 21
165.0
 31
0.0
  0
LINE
  5
3D3
330
DF
100
AcDbEntity
  8
SUNPOU
100
AcDbLine
 10
1730.0
 20
205.0
 30
0.0
 11
1905.0
 21
205.0
 31
0.0
  0
TEXT
  5
3D4
330
DF
100
AcDbEntity
  8
TEXT
100
AcDbText
 10
1677.305591502112
 20
20.0
 30
0.0
 40
17.5
  1
中部コーポレーション
  7
K
100
AcDbText
  0
LINE
  5
3DB
330
DF
100
AcDbEntity
  8
SUNPOU
100
AcDbLine
 10
1665.0
 20
130.0
 30
0.0
 11
1665.0
 21
65.0
 31
0.0
  0
TEXT
  5
3DF
330
DF
100
AcDbEntity
  8
TEXT
100
AcDbText
 10
1723.389633973381
 20
81.65539176238553
 30
0.0
 40
15.0
  1
SS350A-1
  7
K
100
AcDbText
  0
TEXT
  5
3E2
330
DF
100
AcDbEntity
  8
TEXT
100
AcDbText
 10
1725.0
 20
140.0
 30
0.0
 40
15.0
  1
尺度
  7
K
100
AcDbText
  0
LINE
  5
3E3
330
DF
100
AcDbEntity
  8
SUNPOU
100
AcDbLine
 10
1720.0
 20
165.0
 30
0.0
 11
1720.0
 21
130.0
 31
0.0
  0
TEXT
  5
3E4
330
DF
100
AcDbEntity
  8
TEXT
100
AcDbText
 10
1735.0
 20
175.0
 30
0.0
 40
15.0
  1
板 厚
  7
K
100
AcDbText
  0
LINE
  5
3E5
330
DF
100
AcDbEntity
  8
SUNPOU
100
AcDbLine
 10
1765.0
 20
130.0
 30
0.0
 11
1765.0
 21
165.0
 31
0.0
  0
TEXT
  5
3E6
330
DF
100
AcDbEntity
  8
TEXT
100
AcDbText
 10
1779.766399586995
 20
140.097691270148
 30
0.0
 40
10.0
  1
1/5
  7
K
100
AcDbText
  0
TEXT
  5
3E7
330
DF
100
AcDbEntity
  8
TEXT
100
AcDbText
 10
1735.0
 20
215.0
 30
0.0
 40
15.0
  1
材 質
  7
K
100
AcDbText
  0
TEXT
  5
3EF
330
DF
100
AcDbEntity
  8
TEXT
100
AcDbText
 10
1820.316557789356
 20
137.0863030625838
 30
0.0
 40
12.5
  1
(単位mm)
  7
K
100
AcDbText
  0
LINE
  5
3F0
330
DF
100
AcDbEntity
  8
TEXT
100
AcDbLine
 10
1818.61861375836
 20
182.6374555741322
 30
0.0
 11
1865.22047331713
 21
182.6374555741322
 31
0.0
  0
LINE
  5
3F1
330
DF
100
AcDbEntity
  8
TEXT
100
AcDbLine
 10
1818.61861375836
 20
220.4434647147481
 30
0.0
 11
1865.22047331713
 21
220.4434647147481
 31
0.0
  0
TEXT
  5
3F2
330
DF
100
AcDbEntity
  8
TEXT
100
AcDbText
 10
1911.737171254126
 20
468.0067108201171
 30
0.0
 40
20.0
  1
ず
  7
K
 72
     1
 11
1921.070504587459
 21
478.0067108201172
 31
0.0
100
AcDbText
 73
     2
  0
TEXT
  5
3F3
330
DF
100
AcDbEntity
  8
TEXT
100
AcDbText
 10
1910.666666666666
 20
468.0067108201171
 30
0.0
 40
20.0
  1
ず
  7
K
 72
     1
 11
1920.0
 21
478.0067108201172
 31
0.0
100
AcDbText
 73
     2
  0
LINE
  5
3F4
330
DF
100
AcDbEntity
  8
WAKU
100
AcDbLine
 10
1905.0
 20
245.0
 30
0.0
 11
1730.0
 21
245.0
 31
0.0
  0
TEXT
  5
3F5
330
DF
100
AcDbEntity
  8
TEXT
100
AcDbText
 10
1910.666666666666
 20
343.0067108201171
 30
0.0
 40
20.0
  1
返
  7
K
 72
     1
 11
1920.0
 21
353.0067108201171
 31
0.0
100
AcDbText
 73
     2
  0
TEXT
  5
3F6
330
DF
100
AcDbEntity
  8
TEXT
100
AcDbText
 10
1910.173124750537
 20
294.3039468811042
 30
0.0
 40
20.0
  1
の
  7
K
 72
     4
 11
1919.506458083871
 21
304.3039468811042
 31
0.0
100
AcDbText
  0
TEXT
  5
3F7
330
DF
100
AcDbEntity
  8
TEXT
100
AcDbText
 10
1910.666666666666
 20
248.0067108201172
 30
0.0
 40
20.0
  1
と
  7
K
 72
     1
 11
1920.0
 21
258.0067108201171
 31
0.0
100
AcDbText
 73
     2
  0
TEXT
  5
3F8
330
DF
100
AcDbEntity
  8
TEXT
100
AcDbText
 10
1910.666666666666
 20
273.0067108201172
 30
0.0
 40
20.0
  1
こ
  7
K
 72
     1
 11
1920.0
 21
283.0067108201171
 31
0.0
100
AcDbText
 73
     2
  0
TEXT
  5
3F9
330
DF
100
AcDbEntity
  8
TEXT
100
AcDbText
 10
1910.666666666666
 20
318.0067108201171
 30
0.0
 40
20.0
  1
却
  7
K
 72
     1
 11
1920.0
 21
328.0067108201171
 31
0.0
100
AcDbText
 73
     2
  0
TEXT
  5
3FA
330
DF
100
AcDbEntity
  8
TEXT
100
AcDbText
 10
1911.333333333333
 20
368.0067108201171
 30
0.0
 40
20.0
  1
へ
  7
K
 72
     1
 11
1920.0
 21
378.0067108201171
 31
0.0
100
AcDbText
 73
     2
  0
TEXT
  5
3FB
330
DF
100
AcDbEntity
  8
TEXT
100
AcDbText
 10
1910.666666666666
 20
393.0067108201171
 30
0.0
 40
20.0
  1
元
  7
K
 72
     1
 11
1920.0
 21
403.0067108201171
 31
0.0
100
AcDbText
 73
     2
  0
TEXT
  5
3FC
330
DF
100
AcDbEntity
  8
TEXT
100
AcDbText
 10
1910.666666666666
 20
443.0067108201171
 30
0.0
 40
20.0
  1
発
  7
K
 72
     1
 11
1920.0
 21
453.0067108201172
 31
0.0
100
AcDbText
 73
     2
  0
TEXT
  5
3FD
330
DF
100
AcDbEntity
  8
TEXT
100
AcDbText
 10
1910.666666666666
 20
418.0067108201171
 30
0.0
 40
20.0
  1
行
  7
K
 72
     1
 11
1920.0
 21
428.0067108201172
 31
0.0
100
AcDbText
 73
     2
  0
TEXT
  5
3FE
330
DF
100
AcDbEntity
  8
TEXT
100
AcDbText
 10
1910.666666666666
 20
493.0067108201171
 30
0.0
 40
20.0
  1
必
  7
K
 72
     1
 11
1920.0
 21
503.0067108201172
 31
0.0
100
AcDbText
 73
     2
  0
TEXT
  5
3FF
330
DF
100
AcDbEntity
  8
TEXT
100
AcDbText
 10
1924.628477461025
 20
526.0248513938097
 30
0.0
 40
20.0
  1
、
  7
K
 72
     1
 11
1927.295144127692
 21
536.0248513938097
 31
0.0
100
AcDbText
 73
     2
  0
TEXT
  5
400
330
DF
100
AcDbEntity
  8
TEXT
100
AcDbText
 10
1910.666666666666
 20
543.0067108201171
 30
0.0
 40
20.0
  1
後
  7
K
 72
     1
 11
1920.0
 21
553.0067108201172
 31
0.0
100
AcDbText
 73
     2
  0
TEXT
  5
401
330
DF
100
AcDbEntity
  8
TEXT
100
AcDbText
 10
1911.333333333333
 20
568.0067108201171
 30
0.0
 40
20.0
  1
み
  7
K
 72
     1
 11
1920.0
 21
578.0067108201172
 31
0.0
100
AcDbText
 73
     2
  0
TEXT
  5
402
330
DF
100
AcDbEntity
  8
TEXT
100
AcDbText
 10
1910.666666666666
 20
643.0067108201171
 30
0.0
 40
20.0
  1
は
  7
K
 72
     1
 11
1920.0
 21
653.0067108201172
 31
0.0
100
AcDbText
 73
     2
  0
TEXT
  5
403
330
DF
100
AcDbEntity
  8
TEXT
100
AcDbText
 10
1911.333333333333
 20
618.0067108201171
 30
0.0
 40
20.0
  1
用
  7
K
 72
     1
 11
1920.0
 21
628.0067108201172
 31
0.0
100
AcDbText
 73
     2
  0
TEXT
  5
404
330
DF
100
AcDbEntity
  8
TEXT
100
AcDbText
 10
1910.666666666666
 20
593.0067108201171
 30
0.0
 40
20.0
  1
済
  7
K
 72
     1
 11
1920.0
 21
603.0067108201172
 31
0.0
100
AcDbText
 73
     2
  0
TEXT
  5
405
330
DF
100
AcDbEntity
  8
TEXT
100
AcDbText
 10
1910.666666666666
 20
668.0067108201171
 30
0.0
 40
20.0
  1
図
  7
K
 72
     1
 11
1920.0
 21
678.0067108201172
 31
0.0
100
AcDbText
 73
     2
  0
LINE
  5
406
330
DF
100
AcDbEntity
  8
TEXT
100
AcDbLine
 10
1122.327027182247
 20
879.5442938289252
 30
0.0
 11
1674.009072650954
 21
879.5442938289252
 31
0.0
  0
LINE
  5
407
330
DF
100
AcDbEntity
  8
TEXT
100
AcDbLine
 10
1122.327027182247
 20
913.5442938289251
 30
0.0
 11
1674.009072650954
 21
913.5442938289251
 31
0.0
  0
LINE
  5
408
330
DF
100
AcDbEntity
  8
TEXT
100
AcDbLine
 10
1122.327027182247
 20
947.5442938289251
 30
0.0
 11
1674.009072650954
 21
947.5442938289251
 31
0.0
  0
TEXT
  5
409
330
DF
100
AcDbEntity
  8
TEXT
100
AcDbText
 10
1125.455087996626
 20
954.1877678794053
 30
0.0
 40
20.0
  1
定格電流：1.3/1.0A
  7
K
100
AcDbText
  0
LINE
  5
40A
330
DF
100
AcDbEntity
  8
TEXT
100
AcDbLine
 10
1122.327027182247
 20
981.5442938289251
 30
0.0
 11
1674.009072650954
 21
981.5442938289251
 31
0.0
  0
TEXT
  5
40B
330
DF
100
AcDbEntity
  8
TEXT
100
AcDbText
 10
1125.455087996626
 20
988.1877678794053
 30
0.0
 40
20.0
  1
定格消費電力：115/125W
  7
K
100
AcDbText
  0
LINE
  5
40C
330
DF
100
AcDbEntity
  8
TEXT
100
AcDbLine
 10
1122.327027182247
 20
1015.544293828925
 30
0.0
 11
1674.009072650954
 21
1015.544293828925
 31
0.0
  0
TEXT
  5
40D
330
DF
100
AcDbEntity
  8
TEXT
100
AcDbText
 10
1125.455087996626
 20
1022.187767879405
 30
0.0
 40
20.0
  1
電  源  ：単相100V  50/60 Hz
  7
K
100
AcDbText
  0
TEXT
  5
40E
330
DF
100
AcDbEntity
  8
TEXT
100
AcDbText
 10
1125.455087996626
 20
1124.187767879405
 30
0.0
 40
20.0
  1
外形寸法：巾380 ×奥行360×高さ550
  7
K
100
AcDbText
  0
LINE
  5
40F
330
DF
100
AcDbEntity
  8
TEXT
100
AcDbLine
 10
1122.327027182247
 20
1117.544293828925
 30
0.0
 11
1674.009072650954
 21
1117.544293828925
 31
0.0
  0
LINE
  5
410
330
DF
100
AcDbEntity
  8
TEXT
100
AcDbLine
 10
1122.327027182247
 20
1083.544293828925
 30
0.0
 11
1674.009072650954
 21
1083.544293828925
 31
0.0
  0
LINE
  5
411
330
DF
100
AcDbEntity
  8
TEXT
100
AcDbLine
 10
1122.327027182247
 20
1049.544293828925
 30
0.0
 11
1674.009072650954
 21
1049.544293828925
 31
0.0
  0
TEXT
  5
412
330
DF
100
AcDbEntity
  8
TEXT
100
AcDbText
 10
1125.455087996626
 20
1090.187767879405
 30
0.0
 40
20.0
  1
重  量  ：14.5K
  7
K
100
AcDbText
  0
TEXT
  5
413
330
DF
100
AcDbEntity
  8
TEXT
100
AcDbText
 10
1330.598623919077
 20
1091.846204563985
 30
0.0
 40
20.0
  1
g
  7
K
100
AcDbText
  0
TEXT
  5
414
330
DF
100
AcDbEntity
  8
TEXT
100
AcDbText
 10
1125.455087996626
 20
886.1877678794053
 30
0.0
 40
20.0
  1
安全スイッチ：マイクロスイッチ付
  7
K
100
AcDbText
  0
TEXT
  5
415
330
DF
100
AcDbEntity
  8
TEXT
100
AcDbText
 10
1125.455087996626
 20
920.1877678794053
 30
0.0
 40
20.0
  1
電源スイッチ：ロータリー式
  7
K
100
AcDbText
  0
TEXT
  5
416
330
DF
100
AcDbEntity
  8
TEXT
100
AcDbText
 10
1125.455087996626
 20
1056.187767879405
 30
0.0
 40
20.0
  1
回 転 数：230/275rpm
  7
K
100
AcDbText
  0
LINE
  5
417
330
DF
100
AcDbEntity
  8
TEXT
100
AcDbLine
 10
1122.327027182247
 20
1151.544293828925
 30
0.0
 11
1191.027268861777
 21
1151.544293828925
 31
0.0
  0
TEXT
  5
418
330
DF
100
AcDbEntity
  8
TEXT
100
AcDbText
 10
1125.455087996626
 20
1158.187767879405
 30
0.0
 40
20.0
  1
仕 様
  7
K
100
AcDbText
  0
LINE
  5
A6C
330
DF
100
AcDbEntity
  8
TEXT
100
AcDbLine
 10
1122.327027182247
 20
737.618741009166
 30
0.0
 11
1674.009072650954
 21
737.618741009166
 31
0.0
  0
LINE
  5
A73
330
DF
100
AcDbEntity
  8
ITTEN
100
AcDbLine
 10
390.3429763200002
 20
376.1043481192038
 30
0.0
 11
390.3429763200002
 21
1278.000585788698
 31
0.0
  0
ARC
  5
A75
330
DF
100
AcDbEntity
  8
0
100
AcDbCircle
 10
390.3429763200001
 20
608.1037623305055
 30
0.0
 40
150.0
100
AcDbArc
 50
330.0
 51
209.9999999999999
  0
LINE
  5
A78
330
DF
100
AcDbEntity
  8
0
100
AcDbLine
 10
200.34297632
 20
533.1037623305055
 30
0.0
 11
200.34297632
 21
643.1037623305054
 31
0.0
  0
LINE
  5
A79
330
DF
100
AcDbEntity
  8
0
100
AcDbLine
 10
200.34297632
 20
643.1037623305055
 30
0.0
 11
234.2180263600401
 21
643.1037623305055
 31
0.0
  0
LINE
  5
A7B
330
DF
100
AcDbEntity
  8
0
100
AcDbLine
 10
200.34297632
 20
533.1037623305055
 30
0.0
 11
250.34297632
 21
533.1037623305055
 31
0.0
  0
LINE
  5
A80
330
DF
100
AcDbEntity
  8
0
100
AcDbLine
 10
305.34297632
 20
423.1037623305055
 30
0.0
 11
475.3429763200001
 21
423.1037623305055
 31
0.0
  0
LINE
  5
A83
330
DF
100
AcDbEntity
  8
0
100
AcDbLine
 10
250.34297632
 20
533.1037623305055
 30
0.0
 11
305.34297632
 21
423.1037623305055
 31
0.0
  0
LINE
  5
A86
330
DF
100
AcDbEntity
  8
0
100
AcDbLine
 10
530.3429763199999
 20
533.1037623305053
 30
0.0
 11
475.3429763199999
 21
423.1037623305054
 31
0.0
  0
LINE
  5
A87
330
DF
100
AcDbEntity
  8
0
100
AcDbLine
 10
580.3429763200001
 20
533.1037623305053
 30
0.0
 11
530.3429763199999
 21
533.1037623305053
 31
0.0
  0
LINE
  5
A88
330
DF
100
AcDbEntity
  8
0
100
AcDbLine
 10
580.3429763199999
 20
533.1037623305053
 30
0.0
 11
580.3429763200001
 21
643.1037623305053
 31
0.0
  0
LINE
  5
A89
330
DF
100
AcDbEntity
  8
0
100
AcDbLine
 10
580.3429763200001
 20
643.1037623305053
 30
0.0
 11
546.46792627996
 21
643.1037623305053
 31
0.0
  0
ARC
  5
A8A
330
DF
100
AcDbEntity
  8
0
100
AcDbCircle
 10
390.3429763200001
 20
608.1037623305055
 30
0.0
 40
160.0
100
AcDbArc
 50
12.63562509302104
 51
167.3643749069789
  0
LINE
  5
A8C
330
DF
100
AcDbEntity
  8
0
100
AcDbLine
 10
260.4391657523343
 20
533.1037623305055
 30
0.0
 11
305.34297632
 21
423.1037623305055
 31
0.0
  0
LINE
  5
A8D
330
DF
100
AcDbEntity
  8
0
100
AcDbLine
 10
520.2467868876659
 20
533.1037623305055
 30
0.0
 11
475.34297632
 21
423.1037623305057
 31
0.0
  0
LINE
  5
A8E
330
DF
100
AcDbEntity
  8
0
100
AcDbLine
 10
711.0757589800003
 20
290.1037623305055
 30
0.0
 11
741.0757589800001
 21
290.1037623305055
 31
0.0
  0
CIRCLE
  5
A94
330
DF
100
AcDbEntity
  8
0
100
AcDbCircle
 10
243.20628518
 20
307.6037623305055
 30
0.0
 40
17.5
  0
LINE
  5
A95
330
DF
100
AcDbEntity
  8
0
100
AcDbLine
 10
230.70628518
 20
643.1037623305055
 30
0.0
 11
230.70628518
 21
688.1037623305055
 31
0.0
  0
LINE
  5
A97
330
DF
100
AcDbEntity
  8
0
100
AcDbLine
 10
230.70628518
 20
319.8512110444214
 30
0.0
 11
230.70628518
 21
533.1037623305055
 31
0.0
  0
LINE
  5
A98
330
DF
100
AcDbEntity
  8
0
100
AcDbLine
 10
255.7062851799999
 20
319.8512110444216
 30
0.0
 11
255.70628518
 21
522.3771446105057
 31
0.0
  0
LINE
  5
A9B
330
DF
100
AcDbEntity
  8
0
100
AcDbLine
 10
524.9796674600002
 20
319.8512110444216
 30
0.0
 11
524.97966746
 21
522.3771446105057
 31
0.0
  0
LINE
  5
A9C
330
DF
100
AcDbEntity
  8
0
100
AcDbLine
 10
549.9796674599999
 20
319.8512110444214
 30
0.0
 11
549.9796674599999
 21
533.1037623305055
 31
0.0
  0
CIRCLE
  5
A9D
330
DF
100
AcDbEntity
  8
0
100
AcDbCircle
 10
537.4796674599999
 20
307.6037623305055
 30
0.0
 40
17.5
  0
LINE
  5
A9F
330
DF
100
AcDbEntity
  8
0
100
AcDbLine
 10
549.9796674600002
 20
643.1037623305051
 30
0.0
 11
549.9796674600002
 21
688.1037623305055
 31
0.0
  0
SPLINE
  5
AA5
330
DF
100
AcDbEntity
  8
0
100
AcDbSpline
210
0.0
220
0.0
230
1.0
 70
     8
 71
     3
 72
    38
 73
    34
 74
     0
 42
0.0000000001
 43
0.0000000001
 40
3.195230276586703
 40
3.195230276586703
 40
3.195230276586703
 40
3.195230276586703
 40
3.368607519587178
 40
3.368607519587178
 40
3.571677626456129
 40
3.571677626456129
 40
3.77474773332508
 40
3.77474773332508
 40
3.977817840194031
 40
3.977817840194031
 40
4.180887947062982
 40
4.180887947062982
 40
4.383958053931932
 40
4.383958053931932
 40
4.587028160800882
 40
4.587028160800882
 40
4.790098267669833
 40
4.790098267669833
 40
4.993168374538783
 40
4.993168374538783
 40
5.196238481407734
 40
5.196238481407734
 40
5.399308588276684
 40
5.399308588276684
 40
5.602378695145635
 40
5.602378695145635
 40
5.805448802014585
 40
5.805448802014585
 40
6.008518908883536
 40
6.008518908883536
 40
6.211589015752486
 40
6.211589015752486
 40
6.229549274929665
 40
6.229549274929665
 40
6.229549274929665
 40
6.229549274929665
 10
524.7896150681343
 20
694.8453401886971
 30
0.0
 10
524.380018710902
 20
702.1025946816462
 30
0.0
 10
523.3091014090162
 20
709.3282219249657
 30
0.0
 10
519.5733200000363
 20
724.7270060672928
 30
0.0
 10
516.6667602137505
 20
732.8502803107247
 30
0.0
 10
509.1714627739166
 20
748.4080880437398
 30
0.0
 10
504.5826186125428
 20
755.8422163117255
 30
0.0
 10
493.8897513666226
 20
769.7140444229979
 30
0.0
 10
487.7857784004659
 20
776.1511960902224
 30
0.0
 10
474.2977470318881
 20
787.7505931633475
 30
0.0
 10
466.9139647196759
 20
792.9122593726954
 30
0.0
 10
451.1647956301469
 20
801.7287941203083
 30
0.0
 10
442.7998987277752
 20
805.3831678362598
 30
0.0
 10
425.4387705699383
 20
811.0163466760337
 30
0.0
 10
416.4431830795433
 20
812.9948194691095
 30
0.0
 10
398.2054710264765
 20
815.1832182039893
 30
0.0
 10
388.964070772687
 20
815.3930128699226
 30
0.0
 10
370.6332478718162
 20
814.0339448663599
 30
0.0
 10
361.5445578843615
 20
812.4651638346705
 30
0.0
 10
343.909251583854
 20
807.6224739668903
 30
0.0
 10
335.3633045678616
 20
804.3488525383619
 30
0.0
 10
319.1738483360349
 20
796.2480686086113
 30
0.0
 10
311.5308714146326
 20
791.4213681904647
 30
0.0
 10
297.4596750727044
 20
780.4326748595857
 30
0.0
 10
291.031785447987
 20
774.2712506563118
 30
0.0
 10
279.6418730686739
 20
760.8822487535249
 30
0.0
 10
274.6799505514088
 20
753.6552377635878
 30
0.0
 10
266.4053765733072
 20
738.4376047326189
 30
0.0
 10
263.0926445909606
 20
730.4474286946952
 30
0.0
 10
258.2321332140671
 20
714.0237823647329
 30
0.0
 10
256.6842200400315
 20
705.5905774082055
 30
0.0
 10
255.9880777043947
 20
696.3483759284471
 30
0.0
 10
255.9385989150538
 20
695.5969298814541
 30
0.0
 10
255.8962114409282
 20
694.8451446895131
 30
0.0
  0
ELLIPSE
  5
AA7
330
DF
100
AcDbEntity
  8
0
100
AcDbEllipse
 10
390.3429763200001
 20
688.1037623305055
 30
0.0
 11
-159.63669114
 21
0.0
 31
0.0
210
0.0
220
0.0
230
1.0
 40
0.9521620556936829
 41
3.141592653589793
 42
6.283185307179586
  0
LINE
  5
AAF
330
DF
100
AcDbEntity
  8
0
100
AcDbLine
 10
722.2692870291796
 20
764.0271443422949
 30
0.0
 11
706.1504027296366
 21
759.9974232674091
 31
0.0
  0
LINE
  5
AB1
330
DF
100
AcDbEntity
  8
0
100
AcDbLine
 10
698.5757589799999
 20
423.1037623299999
 30
0.0
 11
698.57575898
 21
750.2959982659557
 31
0.0
  0
LINE
  5
AB2
330
DF
100
AcDbEntity
  8
0
100
AcDbLine
 10
698.57575898
 20
423.10376233
 30
0.0
 11
805.0247865695935
 21
423.10376233
 31
0.0
  0
LINE
  5
AB5
330
DF
100
AcDbEntity
  8
0
100
AcDbLine
 10
738.5757589800001
 20
423.1037623299999
 30
0.0
 11
738.5757589800001
 21
747.7206723914742
 31
0.0
  0
ARC
  5
AB8
330
DF
100
AcDbEntity
  8
0
100
AcDbCircle
 10
708.57575898
 20
750.2959982659557
 30
0.0
 40
10.0
100
AcDbArc
 50
104.0362434679266
 51
180.0
  0
CIRCLE
  5
ABB
330
DF
100
AcDbEntity
  8
0
100
AcDbCircle
 10
886.5757589800001
 20
618.1037623305055
 30
0.0
 40
25.0
  0
LINE
  5
AC1
330
DF
100
AcDbEntity
  8
0
100
AcDbLine
 10
1054.907214430187
 20
548.1037623305055
 30
0.0
 11
1058.57575898
 21
618.1037623305055
 31
0.0
  0
LINE
  5
AC3
330
DF
100
AcDbEntity
  8
0
100
AcDbLine
 10
811.5757589800001
 20
548.1037623305054
 30
0.0
 11
1054.907214430187
 21
548.1037623305057
 31
0.0
  0
LINE
  5
AC4
330
DF
100
AcDbEntity
  8
0
100
AcDbLine
 10
840.5480081002957
 20
681.1037623305054
 30
0.0
 11
1055.274068885168
 21
681.1037623305055
 31
0.0
  0
LINE
  5
AC5
330
DF
100
AcDbEntity
  8
0
100
AcDbLine
 10
1058.57575898
 20
618.1037623305055
 30
0.0
 11
1055.274068885168
 21
681.1037623305055
 31
0.0
  0
LINE
  5
AC6
330
DF
100
AcDbEntity
  8
0
100
AcDbLine
 10
805.0247865695935
 20
423.10376233
 30
0.0
 11
811.5757589800001
 21
548.1037623305054
 31
0.0
  0
LINE
  5
AC7
330
DF
100
AcDbEntity
  8
0
100
AcDbLine
 10
811.5757589800002
 20
548.1037623305054
 30
0.0
 11
811.5757589800002
 21
674.720672391474
 31
0.0
  0
ARC
  5
AD2
330
DF
100
AcDbEntity
  8
0
100
AcDbCircle
 10
676.4467855936272
 20
827.5221768380317
 30
0.0
 40
12.5
100
AcDbArc
 50
43.61849476191848
 51
226.3815052381312
  0
LINE
  5
AD4
330
DF
100
AcDbEntity
  8
0
100
AcDbLine
 10
711.0757589800002
 20
290.1037623305055
 30
0.0
 11
711.0757589800002
 21
325.1022576
 31
0.0
  0
LINE
  5
AD5
330
DF
100
AcDbEntity
  8
0
100
AcDbLine
 10
741.0757589800001
 20
290.1037623305055
 30
0.0
 11
741.0757589800001
 21
325.1022576
 31
0.0
  0
LINE
  5
AD7
330
DF
100
AcDbEntity
  8
0
100
AcDbLine
 10
711.0757589800002
 20
325.1022576
 30
0.0
 11
741.0757589800002
 21
325.1022576
 31
0.0
  0
LINE
  5
ADA
330
DF
100
AcDbEntity
  8
0
100
AcDbLine
 10
931.0757589800001
 20
290.1037623305055
 30
0.0
 11
931.0757589800001
 21
325.1022576
 31
0.0
  0
LINE
  5
ADB
330
DF
100
AcDbEntity
  8
0
100
AcDbLine
 10
961.0757589800002
 20
290.1037623305055
 30
0.0
 11
961.0757589800002
 21
325.1022576
 31
0.0
  0
LINE
  5
ADD
330
DF
100
AcDbEntity
  8
0
100
AcDbLine
 10
741.0757589800002
 20
321.1022576
 30
0.0
 11
931.0757589800003
 21
321.1022576
 31
0.0
  0
LINE
  5
ADF
330
DF
100
AcDbEntity
  8
0
100
AcDbLine
 10
931.0757589800001
 20
325.1022576
 30
0.0
 11
961.07575898
 21
325.1022576
 31
0.0
  0
LINE
  5
AE0
330
DF
100
AcDbEntity
  8
0
100
AcDbLine
 10
931.0757589800001
 20
290.1037623305055
 30
0.0
 11
961.07575898
 21
290.1037623305055
 31
0.0
  0
LINE
  5
AE1
330
DF
100
AcDbEntity
  8
0
100
AcDbLine
 10
741.0757589800001
 20
295.1037623305055
 30
0.0
 11
931.0757589800001
 21
295.1037623305055
 31
0.0
  0
LINE
  5
AE4
330
DF
100
AcDbEntity
  8
0
100
AcDbLine
 10
961.07575898
 20
295.6037623305055
 30
0.0
 11
1034.898451602419
 21
295.6037623305055
 31
0.0
  0
LINE
  5
AE5
330
DF
100
AcDbEntity
  8
0
100
AcDbLine
 10
961.0757589800002
 20
320.6022576
 30
0.0
 11
1029.631516546511
 21
320.6022576000001
 31
0.0
  0
ARC
  5
AE6
330
DF
100
AcDbEntity
  8
0
100
AcDbCircle
 10
1032.004878941958
 20
377.0211972386223
 30
0.0
 40
56.46883741504353
100
AcDbArc
 50
267.5911720135384
 51
30.37177070174748
  0
ARC
  5
AE7
330
DF
100
AcDbEntity
  8
0
100
AcDbCircle
 10
1032.004878941958
 20
377.0211972386223
 30
0.0
 40
81.46883741504353
100
AcDbArc
 50
267.9645667798353
 51
32.83150798778425
  0
LINE
  5
AE8
330
DF
100
AcDbEntity
  8
0
100
AcDbLine
 10
1100.460583372637
 20
421.1911870581641
 30
0.0
 11
910.5694845780149
 21
611.0822858527864
 31
0.0
  0
LINE
  5
AE9
330
DF
100
AcDbEntity
  8
0
100
AcDbLine
 10
1080.72409598951
 20
405.572335381964
 30
0.0
 11
892.4843961641334
 21
593.8120352073412
 31
0.0
  0
LINE
  5
AEC
330
DF
100
AcDbEntity
  8
0
100
AcDbLine
 10
879.554282502281
 20
642.0974879285205
 30
0.0
 11
685.5012892921627
 21
836.1504811386392
 31
0.0
  0
LINE
  5
AED
330
DF
100
AcDbEntity
  8
0
100
AcDbLine
 10
862.2840318568357
 20
624.0123995146387
 30
0.0
 11
667.3974203645633
 21
818.8990110069109
 31
0.0
  0
LINE
  5
AEF
330
DF
100
AcDbEntity
  8
0
100
AcDbLine
 10
811.5757589800002
 20
618.1037623299999
 30
0.0
 11
861.5757589800001
 21
618.10376233
 31
0.0
  0
LINE
  5
AF1
330
DF
100
AcDbEntity
  8
0
100
AcDbLine
 10
911.5757589800001
 20
618.10376233
 30
0.0
 11
1058.575758979973
 21
618.1037623299998
 31
0.0
  0
LINE
  5
AF2
330
DF
100
AcDbEntity
  8
0
100
AcDbLine
 10
811.5757589800001
 20
510.1037623305054
 30
0.0
 11
1040.915718817244
 21
510.1037623305056
 31
0.0
  0
LINE
  5
AF5
330
DF
100
AcDbEntity
  8
0
100
AcDbLine
 10
1040.915718817244
 20
510.1037623305055
 30
0.0
 11
1042.90721443
 21
548.1037623305057
 31
0.0
  0
CIRCLE
  5
AF9
330
DF
100
AcDbEntity
  8
0
100
AcDbCircle
 10
1001.57575898
 20
585.6037623299999
 30
0.0
 40
17.5
  0
LINE
  5
AFB
330
DF
100
AcDbEntity
  8
0
100
AcDbLine
 10
753.5480081008016
 20
768.1037623299999
 30
0.0
 11
811.5757589800002
 21
768.1037623299999
 31
0.0
  0
LINE
  5
AFC
330
DF
100
AcDbEntity
  8
0
100
AcDbLine
 10
811.5757589800002
 20
710.0760114508013
 30
0.0
 11
811.5757589800002
 21
768.1037623299999
 31
0.0
  0
LINE
  5
AFD
330
DF
100
AcDbEntity
  8
0
100
AcDbLine
 10
916.5757589800003
 20
681.1037623305054
 30
0.0
 11
916.57575898
 21
751.1037623305054
 31
0.0
  0
LINE
  5
AFE
330
DF
100
AcDbEntity
  8
0
100
AcDbLine
 10
811.5757589800001
 20
751.1037623305054
 30
0.0
 11
921.5757589799999
 21
751.1037623305058
 31
0.0
  0
LINE
  5
AFF
330
DF
100
AcDbEntity
  8
0
100
AcDbLine
 10
921.5757589800004
 20
681.1037623305054
 30
0.0
 11
921.57575898
 21
751.1037623305051
 31
0.0
  0
LINE
  5
B00
330
DF
100
AcDbEntity
  8
0
100
AcDbLine
 10
941.5757589800003
 20
681.1037623305055
 30
0.0
 11
941.57575898
 21
751.1037623305054
 31
0.0
  0
LINE
  5
B01
330
DF
100
AcDbEntity
  8
0
100
AcDbLine
 10
926.5757589800001
 20
756.1037623305052
 30
0.0
 11
936.5757589799997
 21
756.1037623305054
 31
0.0
  0
ARC
  5
B04
330
DF
100
AcDbEntity
  8
0
100
AcDbCircle
 10
936.5757589799999
 20
751.1037623305054
 30
0.0
 40
5.0
100
AcDbArc
 50
0.0000000000003562
 51
90.0000000000009
  0
ARC
  5
B05
330
DF
100
AcDbEntity
  8
0
100
AcDbCircle
 10
926.5757589800001
 20
751.1037623305051
 30
0.0
 40
5.0
100
AcDbArc
 50
90.00000000000055
 51
180.0000000000004
  0
LINE
  5
B07
330
DF
100
AcDbEntity
  8
0
100
AcDbLine
 10
951.5757589800003
 20
681.1037623305054
 30
0.0
 11
951.5757589800001
 21
706.119293065536
 31
0.0
  0
LINE
  5
B08
330
DF
100
AcDbEntity
  8
0
100
AcDbLine
 10
941.5757589800003
 20
706.1037623305054
 30
0.0
 11
951.5757589800001
 21
706.1037623305055
 31
0.0
  0
DIMENSION
  5
B15
330
DF
100
AcDbEntity
  8
SUNPOU
100
AcDbDimension
  2
*D19
 10
642.0545793786096
 20
290.1037623305055
 30
0.0
 11
634.1045793786094
 21
565.1037623302529
 31
0.0
 70
    32
  3
IMAO
100
AcDbAlignedDimension
 13
677.4223741991299
 23
840.10376233
 33
0.0
 14
711.0757589800002
 24
290.1037623305055
 34
0.0
 50
90.0
100
AcDbRotatedDimension
1001
ACAD
1000
DSTYLE
1002
{
1070
   287
1070
     3
1070
    40
1040
5.0
1070
   271
1070
     4
1070
   272
1070
     4
1070
   279
1070
     0
1070
   284
1070
     0
1070
   285
1070
     0
1070
   286
1070
     0
1070
   340
1005
D7
1070
     6
1000
ARROW
1070
     7
1000
ARROW
1002
}
  0
DIMENSION
  5
B22
330
DF
100
AcDbEntity
  8
SUNPOU
100
AcDbDimension
  2
*D20
 10
1165.277447973925
 20
290.1037623305054
 30
0.0
 11
1157.327447973925
 21
400.1037623305057
 31
0.0
 70
    32
  3
IMAO
100
AcDbAlignedDimension
 13
1040.915718817244
 23
510.1037623305056
 33
0.0
 14
961.0757589800002
 24
290.1037623305055
 34
0.0
 50
90.0
100
AcDbRotatedDimension
1001
ACAD
1000
DSTYLE
1002
{
1070
   287
1070
     3
1070
    40
1040
5.0
1070
   271
1070
     4
1070
   272
1070
     4
1070
   279
1070
     0
1070
   284
1070
     0
1070
   285
1070
     0
1070
   286
1070
     0
1070
   340
1005
D7
1070
     6
1000
ARROW
1070
     7
1000
ARROW
1002
}
  0
DIMENSION
  5
B2F
330
DF
100
AcDbEntity
  8
SUNPOU
100
AcDbDimension
  2
*D21
 10
1058.57575898
 20
868.6354508759002
 30
0.0
 11
877.321195285336
 21
868.6354508759002
 31
0.0
 70
   160
  3
IMAO
100
AcDbAlignedDimension
 13
698.5757589799999
 23
737.8575387886257
 33
0.0
 14
1058.57575898
 24
618.1037623305055
 34
0.0
100
AcDbRotatedDimension
1001
ACAD
1000
DSTYLE
1002
{
1070
   287
1070
     3
1070
    40
1040
5.0
1070
   271
1070
     4
1070
   272
1070
     4
1070
   279
1070
     0
1070
   284
1070
     0
1070
   285
1070
     0
1070
   286
1070
     0
1070
   340
1005
D7
1070
     6
1000
ARROW
1070
     7
1000
ARROW
1002
}
  0
DIMENSION
  5
B3C
330
DF
100
AcDbEntity
  8
SUNPOU
100
AcDbDimension
  2
*D22
 10
200.34297632
 20
870.1426650833255
 30
0.0
 11
390.3429763200001
 21
878.0926650833254
 31
0.0
 70
    32
  3
IMAO
100
AcDbAlignedDimension
 13
580.3429763200001
 23
643.1037623305053
 33
0.0
 14
200.34297632
 24
643.1037623305055
 34
0.0
100
AcDbRotatedDimension
1001
ACAD
1000
DSTYLE
1002
{
1070
   287
1070
     3
1070
    40
1040
5.0
1070
   271
1070
     4
1070
   272
1070
     4
1070
   279
1070
     0
1070
   284
1070
     0
1070
   285
1070
     0
1070
   286
1070
     0
1070
   340
1005
D7
1070
     6
1000
ARROW
1070
     7
1000
ARROW
1002
}
  0
LINE
  5
B4B
330
DF
100
AcDbEntity
  8
0
100
AcDbLine
 10
249.0740809039955
 20
909.0529578299999
 30
0.0
 11
532.257735208585
 21
909.0529578299999
 31
0.0
  0
LINE
  5
B4D
330
DF
100
AcDbEntity
  8
0
100
AcDbLine
 10
201.3911319056608
 20
954.0529578300001
 30
0.0
 11
279.9284887173254
 21
954.0529578299999
 31
0.0
  0
LINE
  5
B50
330
DF
100
AcDbEntity
  8
0
100
AcDbLine
 10
542.0360337702377
 20
916.9589479830365
 30
0.0
 11
549.97966746
 21
954.0529578299999
 31
0.0
  0
LINE
  5
B51
330
DF
100
AcDbEntity
  8
0
100
AcDbLine
 10
239.165443078058
 20
917.7042931443192
 30
0.0
 11
234.21802636
 21
954.0529578299999
 31
0.0
  0
ARC
  5
B55
330
DF
100
AcDbEntity
  8
0
100
AcDbCircle
 10
249.0740809039955
 20
919.0529578299999
 30
0.0
 40
10.0
100
AcDbArc
 50
187.7508984865045
 51
270.0
  0
ARC
  5
B56
330
DF
100
AcDbEntity
  8
0
100
AcDbCircle
 10
532.257735208585
 20
919.0529578299999
 30
0.0
 40
10.0
100
AcDbArc
 50
270.0
 51
347.9127492631301
  0
LINE
  5
B57
330
DF
100
AcDbEntity
  8
0
100
AcDbLine
 10
200.34297632
 20
974.05295783
 30
0.0
 11
255.7062851800004
 21
974.0529578299998
 31
0.0
  0
LINE
  5
B58
330
DF
100
AcDbEntity
  8
0
100
AcDbLine
 10
202.7013263877369
 20
1019.05295783
 30
0.0
 11
230.7062851800004
 21
1019.05295783
 31
0.0
  0
LINE
  5
B59
330
DF
100
AcDbEntity
  8
0
100
AcDbLine
 10
579.2948207343393
 20
954.0529578299999
 30
0.0
 11
580.34297632
 21
974.05295783
 31
0.0
  0
LINE
  5
B5A
330
DF
100
AcDbEntity
  8
0
100
AcDbLine
 10
201.3911319056608
 20
954.0529578299999
 30
0.0
 11
200.34297632
 21
974.05295783
 31
0.0
  0
LINE
  5
B5E
330
DF
100
AcDbEntity
  8
0
100
AcDbLine
 10
580.3429763200001
 20
974.05295783
 30
0.0
 11
577.9846262522633
 21
1019.05295783
 31
0.0
  0
LINE
  5
B5F
330
DF
100
AcDbEntity
  8
0
100
AcDbLine
 10
200.34297632
 20
974.05295783
 30
0.0
 11
202.7013263877369
 21
1019.05295783
 31
0.0
  0
LINE
  5
B64
330
DF
100
AcDbEntity
  8
0
100
AcDbLine
 10
274.8196167575707
 20
1262.998635100016
 30
0.0
 11
390.3429763200003
 21
1269.052957829999
 31
0.0
  0
LINE
  5
B65
330
DF
100
AcDbEntity
  8
0
100
AcDbLine
 10
285.3429763200002
 20
1019.05295783
 30
0.0
 11
285.3429763199999
 21
1263.55014100528
 31
0.0
  0
LINE
  5
B66
330
DF
100
AcDbEntity
  8
0
100
AcDbLine
 10
265.3429763200002
 20
1019.05295783
 30
0.0
 11
265.3429763200002
 21
1253.01233975247
 31
0.0
  0
LINE
  5
B67
330
DF
100
AcDbEntity
  8
0
100
AcDbLine
 10
495.3429763200002
 20
1019.05295783
 30
0.0
 11
495.3429763200001
 21
1263.55014100528
 31
0.0
  0
LINE
  5
B68
330
DF
100
AcDbEntity
  8
0
100
AcDbLine
 10
515.3429763200001
 20
1019.05295783
 30
0.0
 11
515.3429763200002
 21
1253.01233975247
 31
0.0
  0
LINE
  5
B69
330
DF
100
AcDbEntity
  8
0
100
AcDbLine
 10
390.3429763200002
 20
1269.052957829999
 30
0.0
 11
505.8663358824297
 21
1262.998635100016
 31
0.0
  0
ARC
  5
B6A
330
DF
100
AcDbEntity
  8
0
100
AcDbCircle
 10
505.3429763200003
 20
1253.01233975247
 30
0.0
 40
10.0
100
AcDbArc
 50
0.0
 51
86.99999999999993
  0
ARC
  5
B6B
330
DF
100
AcDbEntity
  8
0
100
AcDbCircle
 10
275.3429763200002
 20
1253.01233975247
 30
0.0
 40
10.0
100
AcDbArc
 50
92.99999999999997
 51
180.0
  0
LINE
  5
B6C
330
DF
100
AcDbEntity
  8
0
100
AcDbLine
 10
285.3429763200001
 20
1079.052957829999
 30
0.0
 11
495.3429763200003
 21
1079.052957829999
 31
0.0
  0
LINE
  5
B6D
330
DF
100
AcDbEntity
  8
0
100
AcDbLine
 10
285.3429763200001
 20
1084.052957829999
 30
0.0
 11
495.3429763200003
 21
1084.052957829999
 31
0.0
  0
LINE
  5
B6E
330
DF
100
AcDbEntity
  8
0
100
AcDbLine
 10
295.3429763200001
 20
1104.052957829999
 30
0.0
 11
485.3429763200002
 21
1104.05295783
 31
0.0
  0
ARC
  5
B70
330
DF
100
AcDbEntity
  8
0
100
AcDbCircle
 10
295.3429763200001
 20
1094.052957829999
 30
0.0
 40
10.0
100
AcDbArc
 50
90.0
 51
180.0
  0
ARC
  5
B71
330
DF
100
AcDbEntity
  8
0
100
AcDbCircle
 10
485.3429763200002
 20
1094.052957829999
 30
0.0
 40
10.0
100
AcDbArc
 50
0.0
 51
90.0
  0
LINE
  5
B72
330
DF
100
AcDbEntity
  8
ITTEN
100
AcDbLine
 10
202.7013263877369
 20
1119.052957829999
 30
0.0
 11
285.3429763200001
 21
1119.052957829999
 31
0.0
  0
LINE
  5
B73
330
DF
100
AcDbEntity
  8
0
100
AcDbLine
 10
220.0812965387854
 20
1154.180893706046
 30
0.0
 11
265.3429763200002
 21
1156.552957829999
 31
0.0
  0
LINE
  5
B74
330
DF
100
AcDbEntity
  8
0
100
AcDbLine
 10
220.0812965387855
 20
1083.925021953953
 30
0.0
 11
265.3429763200002
 21
1081.552957829999
 31
0.0
  0
LINE
  5
B75
330
DF
100
AcDbEntity
  8
0
100
AcDbLine
 10
565.3429763200001
 20
1088.918169627726
 30
0.0
 11
565.3429763200002
 21
1149.187746032273
 31
0.0
  0
LINE
  5
B76
330
DF
100
AcDbEntity
  8
0
100
AcDbLine
 10
215.3429763200002
 20
1088.918169627726
 30
0.0
 11
215.3429763200002
 21
1149.187746032273
 31
0.0
  0
LINE
  5
B79
330
DF
100
AcDbEntity
  8
0
100
AcDbLine
 10
515.3429763200002
 20
1081.552957829999
 30
0.0
 11
524.97966746
 21
1082.057995412283
 31
0.0
  0
LINE
  5
B7A
330
DF
100
AcDbEntity
  8
0
100
AcDbLine
 10
515.3429763200001
 20
1156.552957829999
 30
0.0
 11
560.604656101215
 21
1154.180893706046
 31
0.0
  0
ARC
  5
B7B
330
DF
100
AcDbEntity
  8
0
100
AcDbCircle
 10
220.3429763200002
 20
1088.918169627726
 30
0.0
 40
5.0
100
AcDbArc
 50
180.0
 51
267.0000000000001
  0
ARC
  5
B7C
330
DF
100
AcDbEntity
  8
0
100
AcDbCircle
 10
220.3429763200002
 20
1149.187746032273
 30
0.0
 40
5.0
100
AcDbArc
 50
93.00000000000038
 51
180.0
  0
ARC
  5
B7D
330
DF
100
AcDbEntity
  8
0
100
AcDbCircle
 10
560.3429763200002
 20
1149.187746032273
 30
0.0
 40
5.0
100
AcDbArc
 50
359.9999999999998
 51
87.00000000000015
  0
ARC
  5
B7E
330
DF
100
AcDbEntity
  8
0
100
AcDbCircle
 10
560.34297632
 20
1088.918169627726
 30
0.0
 40
5.0
100
AcDbArc
 50
272.9999999999996
 51
359.9999999999997
  0
LINE
  5
B7F
330
DF
100
AcDbEntity
  8
ITTEN
100
AcDbLine
 10
495.3429763200002
 20
1119.052957829999
 30
0.0
 11
577.9846262522633
 21
1119.052957829999
 31
0.0
  0
LINE
  5
B80
330
DF
100
AcDbEntity
  8
0
100
AcDbLine
 10
370.6104747702845
 20
1119.052957829999
 30
0.0
 11
410.0754778697167
 21
1119.05295783
 31
0.0
  0
LINE
  5
B85
330
DF
100
AcDbEntity
  8
0
100
AcDbLine
 10
370.3429763200002
 20
1104.05295783
 30
0.0
 11
370.3429763200002
 21
1119.052957829999
 31
0.0
  0
LINE
  5
B86
330
DF
100
AcDbEntity
  8
0
100
AcDbLine
 10
410.3429763200001
 20
1104.05295783
 30
0.0
 11
410.3429763200002
 21
1119.052957829999
 31
0.0
  0
LINE
  5
B87
330
DF
100
AcDbEntity
  8
0
100
AcDbLine
 10
370.6104747702863
 20
1136.552957829999
 30
0.0
 11
410.0754778697165
 21
1136.552957829999
 31
0.0
  0
ELLIPSE
  5
B8C
330
DF
100
AcDbEntity
  8
0
100
AcDbEllipse
 10
390.3429763200002
 20
1127.802957829999
 30
0.0
 11
0.0000000000002551
 21
-28.0446342792346
 31
0.0
210
0.0
220
0.0
230
1.0
 40
0.8914361211160837
 41
4.552649300626063
 42
4.872128660143324
  0
ELLIPSE
  5
B8F
330
DF
100
AcDbEntity
  8
0
100
AcDbEllipse
 10
390.3429763200002
 20
1127.802957829999
 30
0.0
 11
0.0000000000002551
 21
-28.0446342792346
 31
0.0
210
0.0
220
0.0
230
1.0
 40
0.8914361211160837
 41
7.694241954215856
 42
8.013721313733109
  0
ARC
  5
B90
330
DF
100
AcDbEntity
  8
0
100
AcDbCircle
 10
410.0754778697156
 20
1131.55295783
 30
0.0
 40
5.0
100
AcDbArc
 50
8.173010018873959
 51
90.00000000000261
  0
ARC
  5
B91
330
DF
100
AcDbEntity
  8
0
100
AcDbCircle
 10
410.0754778697155
 20
1124.05295783
 30
0.0
 40
5.0
100
AcDbArc
 50
270.0000000000013
 51
351.8269899811238
  0
ARC
  5
B92
330
DF
100
AcDbEntity
  8
0
100
AcDbCircle
 10
370.6104747702852
 20
1131.552957829999
 30
0.0
 40
5.0
100
AcDbArc
 50
90.00000000000389
 51
171.8269899811216
  0
ARC
  5
B93
330
DF
100
AcDbEntity
  8
0
100
AcDbCircle
 10
370.6104747702854
 20
1124.05295783
 30
0.0
 40
5.0
100
AcDbArc
 50
188.1730100188808
 51
269.9999999999961
  0
LINE
  5
B98
330
DF
100
AcDbEntity
  8
0
100
AcDbLine
 10
537.47966746
 20
1281.552957829999
 30
0.0
 11
537.47966746
 21
1281.552957829999
 31
0.0
  0
ARC
  5
B99
330
DF
100
AcDbEntity
  8
0
100
AcDbCircle
 10
537.47966746
 20
1269.05295783
 30
0.0
 40
12.5
100
AcDbArc
 50
0.0
 51
90.0
  0
ARC
  5
B9C
330
DF
100
AcDbEntity
  8
0
100
AcDbCircle
 10
537.47966746
 20
1269.05295783
 30
0.0
 40
12.5
100
AcDbArc
 50
90.0
 51
180.0
  0
LINE
  5
B9D
330
DF
100
AcDbEntity
  8
0
100
AcDbLine
 10
549.97966746
 20
1154.737725765639
 30
0.0
 11
549.97966746
 21
1269.05295783
 31
0.0
  0
LINE
  5
B9E
330
DF
100
AcDbEntity
  8
0
100
AcDbLine
 10
524.97966746
 20
1156.047920247716
 30
0.0
 11
524.97966746
 21
1269.05295783
 31
0.0
  0
LINE
  5
B9F
330
DF
100
AcDbEntity
  8
JISSEN
100
AcDbLine
 10
495.3429763200002
 20
1109.052957829999
 30
0.0
 11
515.3429763200002
 21
1109.052957829999
 31
0.0
  0
ARC
  5
BA1
330
DF
100
AcDbEntity
  8
HOJO
100
AcDbCircle
 10
537.54495826698
 20
1096.521861646097
 30
0.0
 40
12.5
100
AcDbArc
 50
0.0
 51
90.0
  0
ARC
  5
BAB
330
DF
100
AcDbEntity
  8
0
100
AcDbCircle
 10
537.4796674599999
 20
1096.552957829999
 30
0.0
 40
12.5
100
AcDbArc
 50
0.0
 51
90.0
  0
ARC
  5
BAC
330
DF
100
AcDbEntity
  8
0
100
AcDbCircle
 10
537.4796674599999
 20
1096.552957829999
 30
0.0
 40
12.5
100
AcDbArc
 50
90.0
 51
180.0
  0
LINE
  5
BAE
330
DF
100
AcDbEntity
  8
0
100
AcDbLine
 10
549.9796674599998
 20
1083.368189894359
 30
0.0
 11
560.6046561012147
 21
1083.925021953953
 31
0.0
  0
ARC
  5
BB1
330
DF
100
AcDbEntity
  8
0
100
AcDbCircle
 10
243.2062851800004
 20
1096.552957829999
 30
0.0
 40
12.5
100
AcDbArc
 50
0.000000000000007
 51
90.0
  0
ARC
  5
BB2
330
DF
100
AcDbEntity
  8
0
100
AcDbCircle
 10
243.2062851800004
 20
1096.552957829999
 30
0.0
 40
12.5
100
AcDbArc
 50
90.0
 51
180.0
  0
ELLIPSE
  5
BB4
330
DF
100
AcDbEntity
  8
0
100
AcDbEllipse
 10
390.3429763200002
 20
1019.05295783
 30
0.0
 11
159.6366911399997
 21
0.0
 31
0.0
210
0.0
220
0.0
230
1.0
 40
0.5637801645554735
 41
3.141592653589793
 42
6.283185307179586
  0
SPLINE
  5
BB5
330
DF
100
AcDbEntity
  8
0
100
AcDbSpline
210
0.0
220
0.0
230
1.0
 70
     8
 71
     3
 72
    52
 73
    48
 74
     0
 42
0.0000000001
 43
0.0000000001
 40
3.141592653589793
 40
3.141592653589793
 40
3.141592653589793
 40
3.141592653589793
 40
3.241883761645356
 40
3.241883761645356
 40
3.342174869700919
 40
3.342174869700919
 40
3.442465977756482
 40
3.442465977756482
 40
3.542757085812045
 40
3.542757085812045
 40
3.643048193867608
 40
3.643048193867608
 40
3.743339301923171
 40
3.743339301923171
 40
3.890466754957025
 40
3.890466754957025
 40
4.037594207990879
 40
4.037594207990879
 40
4.184721661024734
 40
4.184721661024734
 40
4.331849114058588
 40
4.331849114058588
 40
4.478976567092442
 40
4.478976567092442
 40
4.626104020126296
 40
4.626104020126296
 40
4.821505169359859
 40
4.821505169359859
 40
5.016906318593422
 40
5.016906318593422
 40
5.212307467826985
 40
5.212307467826985
 40
5.407708617060547
 40
5.407708617060547
 40
5.562012739538414
 40
5.562012739538414
 40
5.716316862016281
 40
5.716316862016281
 40
5.844911569561602
 40
5.844911569561602
 40
5.973506277106924
 40
5.973506277106924
 40
6.102100984652246
 40
6.102100984652246
 40
6.210026979585886
 40
6.210026979585886
 40
6.283185307179586
 40
6.283185307179586
 40
6.283185307179586
 40
6.283185307179586
 10
255.7062851800004
 20
1019.05295783
 30
0.0
 10
255.7062851800004
 20
1017.526645018032
 30
0.0
 10
255.8401543019381
 20
1015.999682897178
 30
0.0
 10
256.3988236984073
 20
1012.869694496738
 30
0.0
 10
256.8244745214307
 20
1011.265853651365
 30
0.0
 10
258.0242040072464
 20
1007.939096955984
 30
0.0
 10
258.7992246917362
 20
1006.216253307917
 30
0.0
 10
260.759494197526
 20
1002.654588559598
 30
0.0
 10
261.9452240874719
 20
1000.816325996573
 30
0.0
 10
264.7701095007714
 20
997.061634246581
 30
0.0
 10
266.4093019965332
 20
995.1457506910829
 30
0.0
 10
270.1583746108448
 20
991.2900845924744
 30
0.0
 10
272.2680887037256
 20
989.3506391934268
 30
0.0
 10
278.0461979499491
 20
984.6068438736555
 30
0.0
 10
281.9833134136989
 20
981.82255544313
 30
0.0
 10
290.7791828752045
 20
976.4874720037482
 30
0.0
 10
295.6370582030166
 20
973.9367945852501
 30
0.0
 10
306.1459029322906
 20
969.1965289547617
 30
0.0
 10
311.7963969632606
 20
967.0068061064437
 30
0.0
 10
323.736595700605
 20
963.083684260539
 30
0.0
 10
330.0260443570802
 20
961.3501433417988
 30
0.0
 10
343.0752210895822
 20
958.4071107399426
 30
0.0
 10
349.8347902500916
 20
957.1975227799587
 30
0.0
 10
363.6460452396313
 20
955.3463127602844
 30
0.0
 10
370.6976101228923
 20
954.7046383304536
 30
0.0
 10
387.2409821122
 20
953.8978704587414
 30
0.0
 10
396.7741048857044
 20
953.9593441079352
 30
0.0
 10
415.5983818726262
 20
955.1219853114345
 30
0.0
 10
424.8890823526111
 20
956.2232475019529
 30
0.0
 10
442.8017763886756
 20
959.3972344862933
 30
0.0
 10
451.4232080877595
 20
961.4702598533204
 30
0.0
 10
467.5928390915747
 20
966.4494525887151
 30
0.0
 10
475.1400691570943
 20
969.3561717752951
 30
0.0
 10
487.363889516703
 20
975.1059200245851
 30
0.0
 10
492.3103009917888
 20
977.8330249822566
 30
0.0
 10
501.1692193933104
 20
983.5140955096116
 30
0.0
 10
505.0804948919967
 20
986.4677711618478
 30
0.0
 10
511.2305480927842
 20
991.9146764357314
 30
0.0
 10
513.6394460420741
 20
994.4016068331102
 30
0.0
 10
517.6945684217099
 20
999.2796256796788
 30
0.0
 10
519.3405905642038
 20
1001.66907456449
 30
0.0
 10
521.9467509467271
 20
1006.261020149747
 30
0.0
 10
522.9084066986757
 20
1008.461581658961
 30
0.0
 10
524.1654947858967
 20
1012.332472549852
 30
0.0
 10
524.5448006519612
 20
1014.03227140891
 30
0.0
 10
524.9079809581425
 20
1016.82605358805
 30
0.0
 10
524.9796674599999
 20
1017.939574052781
 30
0.0
 10
524.9796674599999
 20
1019.05295783
 30
0.0
  0
LINE
  5
BB6
330
DF
100
AcDbEntity
  8
0
100
AcDbLine
 10
255.7062851800003
 20
1019.052957829999
 30
0.0
 11
255.7062851800003
 21
1096.552957829999
 31
0.0
  0
LINE
  5
BB7
330
DF
100
AcDbEntity
  8
0
100
AcDbLine
 10
230.7062851800004
 20
1019.05295783
 30
0.0
 11
230.7062851800004
 21
1097.7977955335
 31
0.0
  0
LINE
  5
BB8
330
DF
100
AcDbEntity
  8
0
100
AcDbLine
 10
524.9796674599999
 20
1019.052957829999
 30
0.0
 11
524.97966746
 21
1096.552957829999
 31
0.0
  0
LINE
  5
BB9
330
DF
100
AcDbEntity
  8
0
100
AcDbLine
 10
549.9796674599999
 20
1019.05295783
 30
0.0
 11
549.9796674599999
 21
1097.7977955335
 31
0.0
  0
LINE
  5
BBA
330
DF
100
AcDbEntity
  8
0
100
AcDbLine
 10
549.9796674599999
 20
1019.05295783
 30
0.0
 11
577.9846262522633
 21
1019.05295783
 31
0.0
  0
LINE
  5
BBB
330
DF
100
AcDbEntity
  8
0
100
AcDbLine
 10
524.97966746
 20
974.05295783
 30
0.0
 11
580.3429763200001
 21
974.05295783
 31
0.0
  0
LINE
  5
BBC
330
DF
100
AcDbEntity
  8
0
100
AcDbLine
 10
500.757463922675
 20
954.0529578299999
 30
0.0
 11
579.2948207343393
 21
954.0529578299999
 31
0.0
  0
LINE
  5
BBD
330
DF
100
AcDbEntity
  8
0
100
AcDbLine
 10
295.6546635091248
 20
974.05295783
 30
0.0
 11
485.0315462459326
 21
974.05295783
 31
0.0
  0
LINE
  5
BBE
330
DF
100
AcDbEntity
  8
0
100
AcDbLine
 10
255.7062851800004
 20
1019.05295783
 30
0.0
 11
524.9796674599998
 21
1019.05295783
 31
0.0
  0
LINE
  5
BBF
330
DF
100
AcDbEntity
  8
0
100
AcDbLine
 10
255.7062851800003
 20
1156.047920247716
 30
0.0
 11
255.7062851800003
 21
1269.05295783
 31
0.0
  0
LINE
  5
BC0
330
DF
100
AcDbEntity
  8
0
100
AcDbLine
 10
230.7062851800003
 20
1154.737725765639
 30
0.0
 11
230.7062851800003
 21
1269.05295783
 31
0.0
  0
ARC
  5
BC1
330
DF
100
AcDbEntity
  8
0
100
AcDbCircle
 10
243.2062851800003
 20
1269.05295783
 30
0.0
 40
12.5
100
AcDbArc
 50
0.000000000000007
 51
90.0
  0
ARC
  5
BC2
330
DF
100
AcDbEntity
  8
0
100
AcDbCircle
 10
243.2062851800003
 20
1269.05295783
 30
0.0
 40
12.5
100
AcDbArc
 50
90.0
 51
180.0
  0
LINE
  5
BC3
330
DF
100
AcDbEntity
  8
0
100
AcDbLine
 10
243.2062851800003
 20
1281.552957829999
 30
0.0
 11
243.2062851800003
 21
1281.552957829999
 31
0.0
  0
LINE
  5
BC4
330
DF
100
AcDbEntity
  8
0
100
AcDbLine
 10
971.5757589800004
 20
681.1037623305058
 30
0.0
 11
971.5757589800002
 21
706.166674521066
 31
0.0
  0
LINE
  5
BC6
330
DF
100
AcDbEntity
  8
0
100
AcDbLine
 10
961.5684973931957
 20
711.1037623305056
 30
0.0
 11
961.6783807807399
 21
711.1037623305056
 31
0.0
  0
ELLIPSE
  5
BC7
330
DF
100
AcDbEntity
  8
0
100
AcDbEllipse
 10
961.5757589800001
 20
706.1352184257739
 30
0.0
 11
-10.00000000000011
 21
-0.0314560952683678
 31
0.0
210
0.0
220
0.0
230
0.9999999999999998
 40
0.4968519323392577
 41
3.138466851784115
 42
6.283185307179586
  0
LINE
  5
BC9
330
DF
100
AcDbEntity
  8
0
100
AcDbLine
 10
823.57575898
 20
495.1037623305054
 30
0.0
 11
823.57575898
 21
510.1037623305054
 31
0.0
  0
LINE
  5
BCA
330
DF
100
AcDbEntity
  8
0
100
AcDbLine
 10
843.5757589800001
 20
495.1037623305054
 30
0.0
 11
843.5757589800001
 21
510.1037623305054
 31
0.0
  0
LINE
  5
BCB
330
DF
100
AcDbEntity
  8
0
100
AcDbLine
 10
823.57575898
 20
495.1037623305054
 30
0.0
 11
843.5757589800001
 21
495.1037623305055
 31
0.0
  0
LINE
  5
BE0
330
DF
100
AcDbEntity
  8
0
100
AcDbLine
 10
453.9439118478985
 20
423.1037623305055
 30
0.0
 11
453.9439118478982
 21
368.2571894430866
 31
0.0
  0
LINE
  5
BE1
330
DF
100
AcDbEntity
  8
0
100
AcDbLine
 10
446.9439118478985
 20
423.1037623305055
 30
0.0
 11
446.9439118478985
 21
368.2571894430866
 31
0.0
  0
LINE
  5
BE2
330
DF
100
AcDbEntity
  8
0
100
AcDbLine
 10
441.3133192947851
 20
368.2571894430866
 30
0.0
 11
459.7929381247851
 21
368.2571894430866
 31
0.0
  0
LINE
  5
BE3
330
DF
100
AcDbEntity
  8
0
100
AcDbLine
 10
441.3133192947852
 20
368.2571894430868
 30
0.0
 11
441.3133192947852
 21
350.3161900730867
 31
0.0
  0
LINE
  5
BE4
330
DF
100
AcDbEntity
  8
0
100
AcDbLine
 10
459.7929381247851
 20
368.2571894430868
 30
0.0
 11
459.7929381247851
 21
350.3161900730867
 31
0.0
  0
LINE
  5
BE5
330
DF
100
AcDbEntity
  8
0
100
AcDbLine
 10
448.241824944785
 20
350.3161900730869
 30
0.0
 11
455.241824944785
 21
350.3161900730871
 31
0.0
  0
LINE
  5
BE6
330
DF
100
AcDbEntity
  8
0
100
AcDbLine
 10
441.3133192947852
 20
350.3161900730867
 30
0.0
 11
459.7929381247851
 21
350.3161900730867
 31
0.0
  0
LINE
  5
BE7
330
DF
100
AcDbEntity
  8
0
100
AcDbLine
 10
443.843738784785
 20
340.9197823530866
 30
0.0
 11
446.9784809947851
 21
340.9197823530866
 31
0.0
  0
LINE
  5
BE8
330
DF
100
AcDbEntity
  8
0
100
AcDbLine
 10
451.854743874785
 20
340.9197823530866
 30
0.0
 11
455.241824944785
 21
340.9197823530866
 31
0.0
  0
LINE
  5
BE9
330
DF
100
AcDbEntity
  8
0
100
AcDbLine
 10
443.8437387847851
 20
350.3161900730864
 30
0.0
 11
443.8437387847851
 21
340.9197823530861
 31
0.0
  0
LINE
  5
BEA
330
DF
100
AcDbEntity
  8
0
100
AcDbLine
 10
446.9784809947852
 20
350.3161900730864
 30
0.0
 11
446.9784809947852
 21
340.9197823530861
 31
0.0
  0
LINE
  5
BEB
330
DF
100
AcDbEntity
  8
0
100
AcDbLine
 10
451.854743874785
 20
350.3161900730867
 30
0.0
 11
451.854743874785
 21
340.9197823530866
 31
0.0
  0
LINE
  5
BEC
330
DF
100
AcDbEntity
  8
0
100
AcDbLine
 10
455.241824944785
 20
350.3161900730869
 30
0.0
 11
455.241824944785
 21
340.9197823530866
 31
0.0
  0
LINE
  5
BED
330
DF
100
AcDbEntity
  8
ITTEN
100
AcDbLine
 10
450.3429763200002
 20
376.1043481192038
 30
0.0
 11
450.3429763200002
 21
510.1037623299999
 31
0.0
  0
LINE
  5
BF0
330
DF
100
AcDbEntity
  8
HASEN
100
AcDbLine
 10
379.5829412076142
 20
510.1037623299999
 30
0.0
 11
500.0977732018342
 21
510.1037623299999
 31
0.0
  0
LINE
  5
BF1
330
DF
100
AcDbEntity
  8
HASEN
100
AcDbLine
 10
441.3604274294963
 20
495.1037623299999
 30
0.0
 11
461.3604274294963
 21
495.10376233
 31
0.0
  0
LINE
  5
BF2
330
DF
100
AcDbEntity
  8
HASEN
100
AcDbLine
 10
461.3604274294963
 20
495.1037623299999
 30
0.0
 11
461.3604274294963
 21
510.1037623299999
 31
0.0
  0
LINE
  5
BF3
330
DF
100
AcDbEntity
  8
HASEN
100
AcDbLine
 10
441.3604274294963
 20
495.1037623299999
 30
0.0
 11
441.3604274294963
 21
510.1037623299999
 31
0.0
  0
LINE
  5
BF6
330
DF
100
AcDbEntity
  8
NITEN
100
AcDbLine
 10
379.5829412076142
 20
548.1037623300001
 30
0.0
 11
517.0602120560686
 21
548.1037623299999
 31
0.0
  0
DIMENSION
  5
C04
330
DF
100
AcDbEntity
  8
SUNPOU
100
AcDbDimension
  2
*D25
 10
390.3429763200002
 20
292.0731635226438
 30
0.0
 11
420.3429763200002
 21
300.0231635226438
 31
0.0
 70
    32
  3
IMAO
100
AcDbAlignedDimension
 13
450.3429763200002
 23
443.1040552246019
 33
0.0
 14
390.3429763200002
 24
376.1043481192038
 34
0.0
100
AcDbRotatedDimension
1001
ACAD
1000
DSTYLE
1002
{
1070
   287
1070
     3
1070
    40
1040
5.0
1070
   271
1070
     4
1070
   272
1070
     4
1070
   279
1070
     0
1070
   284
1070
     0
1070
   285
1070
     0
1070
   286
1070
     0
1070
   340
1005
D7
1070
     6
1000
ARROW
1070
     7
1000
ARROW
1002
}
  0
LINE
  5
C16
330
DF
100
AcDbEntity
  8
0
100
AcDbLine
 10
837.07575898
 20
470.4332475633093
 30
0.0
 11
1015.863183808165
 21
470.4332475633085
 31
0.0
  0
LINE
  5
C17
330
DF
100
AcDbEntity
  8
0
100
AcDbLine
 10
830.0757589800001
 20
463.433247563308
 30
0.0
 11
1022.863183808166
 21
463.4332475633079
 31
0.0
  0
LINE
  5
C18
330
DF
100
AcDbEntity
  8
0
100
AcDbLine
 10
1247.06138101769
 20
457.8026550101943
 30
0.0
 11
1247.06138101769
 21
476.2822738401943
 31
0.0
  0
LINE
  5
C19
330
DF
100
AcDbEntity
  8
0
100
AcDbLine
 10
1247.06138101769
 20
457.8026550101944
 30
0.0
 11
1265.00238038769
 21
457.8026550101944
 31
0.0
  0
LINE
  5
C1A
330
DF
100
AcDbEntity
  8
0
100
AcDbLine
 10
1247.06138101769
 20
476.2822738401943
 30
0.0
 11
1265.00238038769
 21
476.2822738401943
 31
0.0
  0
LINE
  5
C1B
330
DF
100
AcDbEntity
  8
0
100
AcDbLine
 10
1265.002380387689
 20
464.7311606601943
 30
0.0
 11
1265.002380387689
 21
471.7311606601943
 31
0.0
  0
LINE
  5
C1C
330
DF
100
AcDbEntity
  8
0
100
AcDbLine
 10
1265.00238038769
 20
457.8026550101944
 30
0.0
 11
1265.00238038769
 21
476.2822738401943
 31
0.0
  0
LINE
  5
C1D
330
DF
100
AcDbEntity
  8
0
100
AcDbLine
 10
1274.39878810769
 20
460.3330745001942
 30
0.0
 11
1274.39878810769
 21
463.4678167101943
 31
0.0
  0
LINE
  5
C1E
330
DF
100
AcDbEntity
  8
0
100
AcDbLine
 10
1274.39878810769
 20
468.3440795901942
 30
0.0
 11
1274.39878810769
 21
471.7311606601943
 31
0.0
  0
LINE
  5
C1F
330
DF
100
AcDbEntity
  8
0
100
AcDbLine
 10
1265.00238038769
 20
460.3330745001943
 30
0.0
 11
1274.39878810769
 21
460.3330745001943
 31
0.0
  0
LINE
  5
C20
330
DF
100
AcDbEntity
  8
0
100
AcDbLine
 10
1265.00238038769
 20
463.4678167101944
 30
0.0
 11
1274.39878810769
 21
463.4678167101944
 31
0.0
  0
LINE
  5
C21
330
DF
100
AcDbEntity
  8
0
100
AcDbLine
 10
1265.00238038769
 20
468.3440795901942
 30
0.0
 11
1274.39878810769
 21
468.3440795901942
 31
0.0
  0
LINE
  5
C22
330
DF
100
AcDbEntity
  8
0
100
AcDbLine
 10
1265.002380387689
 20
471.7311606601943
 30
0.0
 11
1274.39878810769
 21
471.7311606601943
 31
0.0
  0
LINE
  5
C24
330
DF
100
AcDbEntity
  8
0
100
AcDbLine
 10
837.07575898
 20
470.4332475633093
 30
0.0
 11
837.07575898
 21
495.1037623305055
 31
0.0
  0
LINE
  5
C25
330
DF
100
AcDbEntity
  8
0
100
AcDbLine
 10
830.0757589800001
 20
463.433247563308
 30
0.0
 11
830.0757589800001
 21
495.1037623305055
 31
0.0
  0
LINE
  5
C28
330
DF
100
AcDbEntity
  8
0
100
AcDbLine
 10
1051.218522867492
 20
470.4332475633083
 30
0.0
 11
1247.06138101769
 21
470.4332475633075
 31
0.0
  0
LINE
  5
C29
330
DF
100
AcDbEntity
  8
0
100
AcDbLine
 10
1058.218522867493
 20
463.4332475633079
 30
0.0
 11
1247.06138101769
 21
463.4332475633077
 31
0.0
  0
INSERT
  5
C2A
330
DF
100
AcDbEntity
  8
SUNPOU
100
AcDbBlockReference
  2
ARROW
 10
1256.031880702689
 20
457.8026550101944
 30
0.0
 41
7.5
 42
7.5
 43
7.5
 50
119.0749596556723
  0
LINE
  5
C2B
330
DF
100
AcDbEntity
  8
SUNPOU
100
AcDbLine
 10
1259.676531680261
 20
451.2477698661442
 30
0.0
 11
1314.865835182561
 21
351.9901049034496
 31
0.0
  0
LINE
  5
C2C
330
DF
100
AcDbEntity
  8
SUNPOU
100
AcDbLine
 10
1314.865835182561
 20
351.9901049034496
 30
0.0
 11
1322.365835182561
 21
351.9901049034496
 31
0.0
  0
LINE
  5
C2D
330
DF
100
AcDbEntity
  8
SUNPOU
100
AcDbLine
 10
1322.365835182561
 20
351.9901049034496
 30
0.0
 11
1521.815835182561
 21
351.9901049034496
 31
0.0
  0
MTEXT
  5
C2E
330
DF
100
AcDbEntity
  8
SUNPOU
100
AcDbMText
 10
1322.815835182561
 20
359.9401049034496
 30
0.0
 40
15.0
 41
0.0
 71
     4
 72
     1
  1
\A1;電源コード長さ約2000
1001
ACAD
1000
MTEXTBEGIN
1070
    73
1070
     1
1070
    44
1040
1.0
1070
    74
1070
     0
1000
MTEXTEND
  0
TEXT
  5
C35
330
DF
100
AcDbEntity
  8
TEXT
100
AcDbText
 10
1123.470398947347
 20
818.9661901408125
 30
0.0
 40
20.0
  1
モーター：コンデンサー始動形自動復帰形ｻｰﾏﾙプロテクタ内蔵 85W 
  7
K
100
AcDbText
  0
ENDSEC
  0
SECTION
  2
OBJECTS
  0
DICTIONARY
  5
D3
330
0
100
AcDbDictionary
  3
ACAD_GROUP
350
D4
  3
ACAD_LAYOUT
350
C3B
  3
ACAD_MLINESTYLE
350
D5
  3
ACAD_PLOTSETTINGS
350
C3C
  3
ACAD_PLOTSTYLENAME
350
C39
  3
ACDBHEADERROUNDTRIPXREC
350
C4A
  0
DICTIONARY
  5
C6D
330
DF
100
AcDbDictionary
280
     1
  3
ACAD_LAYOUTSELFREF
360
C6E
  0
DICTIONARY
  5
C6B
330
DC
100
AcDbDictionary
280
     1
  3
ACAD_LAYOUTSELFREF
360
C6C
  0
DICTIONARY
  5
D4
102
{ACAD_REACTORS
330
D3
102
}
330
D3
100
AcDbDictionary
  0
DICTIONARY
  5
C3B
102
{ACAD_REACTORS
330
D3
102
}
330
D3
100
AcDbDictionary
  0
DICTIONARY
  5
D5
102
{ACAD_REACTORS
330
D3
102
}
330
D3
100
AcDbDictionary
  3
STANDARD
350
E2
  0
DICTIONARY
  5
C3C
102
{ACAD_REACTORS
330
D3
102
}
330
D3
100
AcDbDictionary
  0
ACDBDICTIONARYWDFLT
  5
C39
102
{ACAD_REACTORS
330
D3
102
}
330
D3
100
AcDbDictionary
281
     1
  3
Normal
350
C3A
100
AcDbDictionaryWithDefault
340
C3A
  0
DICTIONARY
  5
C4A
102
{ACAD_REACTORS
330
D3
102
}
330
D3
100
AcDbDictionary
  3
TSTACKALIGN
350
C4B
  3
TSTACKSIZE
350
C4C
  3
HYPERLINKBASE
350
C4D
  3
STYLESHEET
350
C4E
  3
LAYOUTDICT
350
C4F
  3
PLOTSETDICT
350
C50
  3
PLOTSTYLNAMDICT
350
C51
  3
LWETCUNION
350
C52
  3
INSUNITS
350
C53
  3
CEPSNTYPE
350
C54
  3
FINGERPRINTGUID
350
C55
  3
VERSIONGUID
350
C56
  3
PSVPSCALE
350
C57
  3
DIMSTYLEDATA
350
C58
  3
PUCSORTHOREF
350
C59
  3
PUCSORTHOVIEW
350
C5A
  3
PUCSBASE
350
C5B
  3
PUCSORGTOP
350
C5C
  3
PUCSORGBOTTOM
350
C5D
  3
PUCSORGLEFT
350
C5E
  3
PUCSORGRIGHT
350
C5F
  3
PUCSORGFRONT
350
C60
  3
PUCSORGBACK
350
C61
  3
UCSORTHOREF
350
C62
  3
UCSORTHOVIEW
350
C63
  3
UCSBASE
350
C64
  3
UCSORGTOP
350
C65
  3
UCSORGBOTTOM
350
C66
  3
UCSORGLEFT
350
C67
  3
UCSORGRIGHT
350
C68
  3
UCSORGFRONT
350
C69
  3
UCSORGBACK
350
C6A
  0
XRECORD
  5
C6E
102
{ACAD_REACTORS
330
C6D
102
}
330
C6D
100
AcDbXrecord
340
DF
  0
XRECORD
  5
C6C
102
{ACAD_REACTORS
330
C6B
102
}
330
C6B
100
AcDbXrecord
340
DC
  0
MLINESTYLE
  5
E2
102
{ACAD_REACTORS
330
D5
102
}
330
D5
100
AcDbMlineStyle
  2
STANDARD
 70
     0
  3

 62
     0
 51
90.0
 52
90.0
 71
     2
 49
0.5
 62
   256
  6
BYLAYER
 49
-0.5
 62
   256
  6
BYLAYER
  0
ACDBPLACEHOLDER
  5
C3A
102
{ACAD_REACTORS
330
C39
102
}
330
C39
100
AcDbPlaceHolder
280
     0
  0
XRECORD
  5
C4B
102
{ACAD_REACTORS
330
C4A
102
}
330
C4A
100
AcDbXrecord
 90
        1
  0
XRECORD
  5
C4C
102
{ACAD_REACTORS
330
C4A
102
}
330
C4A
100
AcDbXrecord
 90
       70
  0
XRECORD
  5
C4D
102
{ACAD_REACTORS
330
C4A
102
}
330
C4A
100
AcDbXrecord
  1

  0
XRECORD
  5
C4E
102
{ACAD_REACTORS
330
C4A
102
}
330
C4A
100
AcDbXrecord
  1

  0
XRECORD
  5
C4F
102
{ACAD_REACTORS
330
C4A
102
}
330
C4A
100
AcDbXrecord
340
C3B
  0
XRECORD
  5
C50
102
{ACAD_REACTORS
330
C4A
102
}
330
C4A
100
AcDbXrecord
340
C3C
  0
XRECORD
  5
C51
102
{ACAD_REACTORS
330
C4A
102
}
330
C4A
100
AcDbXrecord
340
C39
  0
XRECORD
  5
C52
102
{ACAD_REACTORS
330
C4A
102
}
330
C4A
100
AcDbXrecord
 90
    14877
  0
XRECORD
  5
C53
102
{ACAD_REACTORS
330
C4A
102
}
330
C4A
100
AcDbXrecord
 90
        0
  0
XRECORD
  5
C54
102
{ACAD_REACTORS
330
C4A
102
}
330
C4A
100
AcDbXrecord
 90
        0
  0
XRECORD
  5
C55
102
{ACAD_REACTORS
330
C4A
102
}
330
C4A
100
AcDbXrecord
  1
{828E3A7A-F235-4AD5-A76F-76091621C6E2}
  0
XRECORD
  5
C56
102
{ACAD_REACTORS
330
C4A
102
}
330
C4A
100
AcDbXrecord
  1
{AAF05696-8D14-44A1-9D7B-38CCB97D23D3}
  0
XRECORD
  5
C57
102
{ACAD_REACTORS
330
C4A
102
}
330
C4A
100
AcDbXrecord
 40
0.0
  0
XRECORD
  5
C58
102
{ACAD_REACTORS
330
C4A
102
}
330
C4A
100
AcDbXrecord
1000
DSTYLE
1002
{
1070
   341
340
E3
1070
   342
340
E3
1070
   343
340
E3
1070
   344
340
E3
1002
}
  0
XRECORD
  5
C59
102
{ACAD_REACTORS
330
C4A
102
}
330
C4A
100
AcDbXrecord
340
0
  0
XRECORD
  5
C5A
102
{ACAD_REACTORS
330
C4A
102
}
330
C4A
100
AcDbXrecord
 70
     0
  0
XRECORD
  5
C5B
102
{ACAD_REACTORS
330
C4A
102
}
330
C4A
100
AcDbXrecord
340
0
  0
XRECORD
  5
C5C
102
{ACAD_REACTORS
330
C4A
102
}
330
C4A
100
AcDbXrecord
 10
0.0
 20
0.0
 30
0.0
  0
XRECORD
  5
C5D
102
{ACAD_REACTORS
330
C4A
102
}
330
C4A
100
AcDbXrecord
 10
0.0
 20
0.0
 30
0.0
  0
XRECORD
  5
C5E
102
{ACAD_REACTORS
330
C4A
102
}
330
C4A
100
AcDbXrecord
 10
0.0
 20
0.0
 30
0.0
  0
XRECORD
  5
C5F
102
{ACAD_REACTORS
330
C4A
102
}
330
C4A
100
AcDbXrecord
 10
0.0
 20
0.0
 30
0.0
  0
XRECORD
  5
C60
102
{ACAD_REACTORS
330
C4A
102
}
330
C4A
100
AcDbXrecord
 10
0.0
 20
0.0
 30
0.0
  0
XRECORD
  5
C61
102
{ACAD_REACTORS
330
C4A
102
}
330
C4A
100
AcDbXrecord
 10
0.0
 20
0.0
 30
0.0
  0
XRECORD
  5
C62
102
{ACAD_REACTORS
330
C4A
102
}
330
C4A
100
AcDbXrecord
340
0
  0
XRECORD
  5
C63
102
{ACAD_REACTORS
330
C4A
102
}
330
C4A
100
AcDbXrecord
 70
     0
  0
XRECORD
  5
C64
102
{ACAD_REACTORS
330
C4A
102
}
330
C4A
100
AcDbXrecord
340
0
  0
XRECORD
  5
C65
102
{ACAD_REACTORS
330
C4A
102
}
330
C4A
100
AcDbXrecord
 10
0.0
 20
0.0
 30
0.0
  0
XRECORD
  5
C66
102
{ACAD_REACTORS
330
C4A
102
}
330
C4A
100
AcDbXrecord
 10
0.0
 20
0.0
 30
0.0
  0
XRECORD
  5
C67
102
{ACAD_REACTORS
330
C4A
102
}
330
C4A
100
AcDbXrecord
 10
0.0
 20
0.0
 30
0.0
  0
XRECORD
  5
C68
102
{ACAD_REACTORS
330
C4A
102
}
330
C4A
100
AcDbXrecord
 10
0.0
 20
0.0
 30
0.0
  0
XRECORD
  5
C69
102
{ACAD_REACTORS
330
C4A
102
}
330
C4A
100
AcDbXrecord
 10
0.0
 20
0.0
 30
0.0
  0
XRECORD
  5
C6A
102
{ACAD_REACTORS
330
C4A
102
}
330
C4A
100
AcDbXrecord
 10
0.0
 20
0.0
 30
0.0
  0
ENDSEC
  0
EOF
